osu file format v14

[General]
AudioFilename: audio.mp3
AudioLeadIn: 0
PreviewTime: 1649
Countdown: 0
SampleSet: Soft
StackLeniency: 0.7
Mode: 3
LetterboxInBreaks: 0
SpecialStyle: 0
WidescreenStoryboard: 1

[Editor]
Bookmarks: 1511,14983,28316,41650
DistanceSpacing: 0.3
BeatDivisor: 4
GridSize: 4
TimelineZoom: 1

[Metadata]
Title:Chiisana Ketsui
TitleUnicode:小さな決意
Artist:Ariabl'eyeS
ArtistUnicode:Ariabl'eyeS
Creator:Seiran-
Version:4K Collab Normal
Source:
Tags:9th Mini Album -Concept Series Ⅵ- 絶凍のラビリンス featured artist fa mappers' guild mpg Lyse Luna Rena gothic classical japanese ariableyes vocals vocalist intro symphonic mg hidden is fun
BeatmapID:4456136
BeatmapSetID:2120822

[Difficulty]
HPDrainRate:7
CircleSize:4
OverallDifficulty:7
ApproachRate:5
SliderMultiplier:1.4
SliderTickRate:1

[Events]
//Background and Video events
0,0,"bg.jpg",0,0
//Break Periods
//Storyboard Layer 0 (Background)
//Storyboard Layer 1 (Fail)
//Storyboard Layer 2 (Pass)
//Storyboard Layer 3 (Foreground)
//Storyboard Layer 4 (Overlay)
//Storyboard Sound Samples

[TimingPoints]
1650,555.555555555556,3,2,1,50,1,0

[HitObjects]
448,192,1649,5,0,0:0:0:0:
192,192,1649,128,0,2205:0:0:0:0:
320,192,2205,128,0,2761:0:0:0:0:
448,192,2761,128,0,3316:0:0:0:0:
64,192,3316,128,0,3872:0:0:0:0:
192,192,3316,1,0,0:0:0:0:
320,192,3872,1,0,0:0:0:0:
64,192,4150,128,0,4705:0:0:0:0:
192,192,4150,128,0,4705:0:0:0:0:
448,192,4427,1,0,0:0:0:0:
64,192,4983,1,0,0:0:0:0:
320,192,4983,128,0,5538:0:0:0:0:
192,192,5538,128,0,6094:0:0:0:0:
64,192,6094,128,0,6650:0:0:0:0:
448,192,6650,128,0,7205:0:0:0:0:
320,192,6650,1,0,0:0:0:0:
192,192,7205,1,0,0:0:0:0:
320,192,7483,1,0,0:0:0:0:
192,192,7761,1,0,0:0:0:0:
64,192,8316,128,0,8872:0:0:0:0:
448,192,8316,1,0,0:0:0:0:
192,192,8872,128,0,9427:0:0:0:0:
320,192,9427,128,0,9983:0:0:0:0:
64,192,9983,128,0,10538:0:0:0:0:
448,192,9983,1,0,0:0:0:0:
448,192,10538,1,0,0:0:0:0:
64,192,10816,128,0,11372:0:0:0:0:
192,192,10816,128,0,11372:0:0:0:0:
320,192,11094,1,0,0:0:0:0:
64,192,11650,1,0,0:0:0:0:
448,192,11650,128,0,12205:0:0:0:0:
320,192,12205,128,0,12761:0:0:0:0:
192,192,12761,128,0,13316:0:0:0:0:
64,192,13316,1,0,0:0:0:0:
448,192,13316,128,0,13872:0:0:0:0:
192,192,13872,1,0,0:0:0:0:
320,192,14150,1,0,0:0:0:0:
64,192,14427,128,0,14705:0:0:0:0:
448,192,14705,128,0,14983:0:0:0:0:
64,192,14983,128,0,16650:0:0:0:0:
192,192,14983,128,0,15538:0:0:0:0:
320,192,15538,128,0,16094:0:0:0:0:
192,192,16094,128,0,16650:0:0:0:0:
320,192,16650,128,0,17205:0:0:0:0:
448,192,16650,1,0,0:0:0:0:
64,192,17205,1,0,0:0:0:0:
320,192,17483,128,0,18038:0:0:0:0:
448,192,17483,128,0,18038:0:0:0:0:
192,192,17761,1,0,0:0:0:0:
448,192,18316,128,0,19983:0:0:0:0:
320,192,18316,128,0,18872:0:0:0:0:
192,192,18872,128,0,19427:0:0:0:0:
320,192,19427,128,0,19983:0:0:0:0:
64,192,19983,128,0,20538:0:0:0:0:
192,192,19983,1,0,0:0:0:0:
448,192,20538,128,0,20816:0:0:0:0:
320,192,20816,128,0,21094:0:0:0:0:
192,192,21094,128,0,21372:0:0:0:0:
448,192,21650,128,0,23316:0:0:0:0:
64,192,21650,128,0,22205:0:0:0:0:
320,192,22205,128,0,22761:0:0:0:0:
64,192,22761,128,0,23316:0:0:0:0:
192,192,23316,128,0,23872:0:0:0:0:
320,192,23316,1,0,0:0:0:0:
448,192,23872,1,0,0:0:0:0:
64,192,24150,128,0,24705:0:0:0:0:
192,192,24150,128,0,24705:0:0:0:0:
320,192,24427,1,0,0:0:0:0:
64,192,24983,128,0,26650:0:0:0:0:
448,192,24983,128,0,25538:0:0:0:0:
320,192,25538,128,0,26094:0:0:0:0:
192,192,26094,128,0,26650:0:0:0:0:
320,192,26650,128,0,27205:0:0:0:0:
448,192,26650,128,0,27761:0:0:0:0:
64,192,27205,1,0,0:0:0:0:
192,192,27483,1,0,0:0:0:0:
320,192,27761,128,0,28038:0:0:0:0:
64,192,28038,128,0,28316:0:0:0:0:
192,192,28316,1,0,0:0:0:0:
448,192,28316,1,0,0:0:0:0:
192,192,28594,1,0,0:0:0:0:
320,192,28872,1,0,0:0:0:0:
64,192,28872,128,0,30538:0:0:0:0:
448,192,29427,128,0,29983:0:0:0:0:
320,192,29983,128,0,30538:0:0:0:0:
192,192,30538,128,0,30816:0:0:0:0:
64,192,30816,128,0,31372:0:0:0:0:
448,192,30816,128,0,31372:0:0:0:0:
64,192,31650,1,0,0:0:0:0:
320,192,31650,1,0,0:0:0:0:
320,192,31927,1,0,0:0:0:0:
192,192,32205,128,0,33316:0:0:0:0:
448,192,32205,1,0,0:0:0:0:
320,192,32761,128,0,33316:0:0:0:0:
64,192,33316,128,0,34427:0:0:0:0:
448,192,33316,128,0,33872:0:0:0:0:
320,192,33872,128,0,34427:0:0:0:0:
192,192,34427,128,0,34983:0:0:0:0:
320,192,34983,1,0,0:0:0:0:
64,192,34983,1,0,0:0:0:0:
320,192,35261,1,0,0:0:0:0:
192,192,35538,1,0,0:0:0:0:
448,192,35538,128,0,37205:0:0:0:0:
64,192,36094,128,0,36650:0:0:0:0:
192,192,36650,128,0,37205:0:0:0:0:
320,192,37205,128,0,37483:0:0:0:0:
448,192,37483,128,0,38038:0:0:0:0:
64,192,37483,128,0,38038:0:0:0:0:
448,192,38316,1,0,0:0:0:0:
192,192,38316,1,0,0:0:0:0:
192,192,38594,1,0,0:0:0:0:
320,192,38872,128,0,39983:0:0:0:0:
64,192,38872,1,0,0:0:0:0:
192,192,39427,128,0,39983:0:0:0:0:
448,192,39983,128,0,41094:0:0:0:0:
64,192,39983,128,0,40538:0:0:0:0:
192,192,40538,128,0,41094:0:0:0:0:
320,192,41094,1,0,0:0:0:0:
64,192,41233,1,0,0:0:0:0:
320,192,41372,1,0,0:0:0:0:
192,192,41511,1,0,0:0:0:0:
448,192,41650,1,0,0:0:0:0:
64,192,41650,1,0,0:0:0:0:
320,192,41927,1,0,0:0:0:0:
64,192,41927,1,0,0:0:0:0:
192,192,42205,1,0,0:0:0:0:
448,192,42205,128,0,43872:0:0:0:0:
64,192,42761,128,0,43316:0:0:0:0:
192,192,43316,128,0,43872:0:0:0:0:
320,192,43872,128,0,44150:0:0:0:0:
448,192,44150,128,0,44705:0:0:0:0:
64,192,44150,128,0,44705:0:0:0:0:
448,192,44983,1,0,0:0:0:0:
192,192,44983,1,0,0:0:0:0:
64,192,45261,1,0,0:0:0:0:
448,192,45261,1,0,0:0:0:0:
320,192,45538,128,0,46650:0:0:0:0:
64,192,45538,1,0,0:0:0:0:
192,192,46094,128,0,46650:0:0:0:0:
448,192,46650,128,0,47761:0:0:0:0:
64,192,46650,128,0,47205:0:0:0:0:
192,192,47205,128,0,47761:0:0:0:0:
320,192,47761,128,0,48316:0:0:0:0:
192,192,48316,1,0,0:0:0:0:
448,192,48316,1,0,0:0:0:0:
192,192,48594,1,0,0:0:0:0:
448,192,48594,1,0,0:0:0:0:
320,192,48872,1,0,0:0:0:0:
64,192,48872,128,0,50538:0:0:0:0:
448,192,49427,128,0,49983:0:0:0:0:
320,192,49983,128,0,50538:0:0:0:0:
192,192,50538,128,0,50816:0:0:0:0:
64,192,50816,128,0,51372:0:0:0:0:
448,192,50816,128,0,51372:0:0:0:0:
64,192,51650,1,0,0:0:0:0:
320,192,51650,1,0,0:0:0:0:
448,192,51927,1,0,0:0:0:0:
320,192,51927,1,0,0:0:0:0:
192,192,52205,128,0,53316:0:0:0:0:
64,192,52205,1,0,0:0:0:0:
320,192,52761,128,0,53316:0:0:0:0:
64,192,53316,128,0,54427:0:0:0:0:
448,192,53316,128,0,53872:0:0:0:0:
320,192,53872,128,0,54427:0:0:0:0:
192,192,54427,1,0,0:0:0:0:
448,192,54566,1,0,0:0:0:0:
192,192,54705,1,0,0:0:0:0:
320,192,54844,1,0,0:0:0:0:
64,192,54983,128,0,56650:0:0:0:0:
448,192,54983,128,0,56650:0:0:0:0:
