osu file format v14

[General]
AudioFilename: audio.mp3
AudioLeadIn: 0
PreviewTime: 59307
Countdown: 0
SampleSet: Soft
StackLeniency: 0.5
Mode: 0
LetterboxInBreaks: 0
WidescreenStoryboard: 0

[Editor]
DistanceSpacing: 1.1
BeatDivisor: 4
GridSize: 8
TimelineZoom: 1.9

[Metadata]
Title:Hoshi ga Hajimaru (TV Size)
TitleUnicode:星がはじまる (TV Size)
Artist:Argonavis
ArtistUnicode:Argonavis
Creator:KaedeharaKazuha
Version:Starry Line
Source:アルゴナビス from BanG Dream!
Tags:Addy2607 Kaedehara Kazuha Lian -Lian- Lian2002 Ayyri eiri- Annabel Kyouren gokugohan12468 KittyAdventure アルゴ The Stars Begin male idols anime animation op opening intro song theme Watanabe Takuya 渡辺拓也 Nakamura Kou 中村航 Tabuchi Tomoya 田淵智也 UNISON SQUARE GARDEN Ren Nanahoshi 七星蓮 Ito Masahiro 伊藤昌弘 Yuto Goryo 五稜結人 Hyuga Daisuke 日向大輔 Wataru Matoba 的場航海 Maeda Seiji 前田誠二 Banri Shiroishi 白石万浬 Hashimoto Shōhei 橋本祥平 Rio Kikyo 桔梗凛生 Morishima Shūta 森嶋秀太 japanese pop jpop j-pop rock jrock j-rock
BeatmapID:3394086
BeatmapSetID:1662608

[Difficulty]
HPDrainRate:6
CircleSize:3.8
OverallDifficulty:9
ApproachRate:9.3
SliderMultiplier:2
SliderTickRate:1

[Events]
//Background and Video events
Video,690,"video.mp4"
0,0,"84466165_p1.jpg",0,0
//Break Periods
//Storyboard Layer 0 (Background)
//Storyboard Layer 1 (Fail)
//Storyboard Layer 2 (Pass)
//Storyboard Layer 3 (Foreground)
//Storyboard Layer 4 (Overlay)
//Storyboard Sound Samples

[TimingPoints]
1368,329.67032967033,4,2,1,60,1,0
1368,-200,4,2,1,60,0,0
2357,-142.857142857143,4,2,1,60,0,0
2686,-142.857142857143,4,2,1,70,0,0
4005,-166.666666666667,4,2,1,60,0,0
6313,-100,4,2,1,60,0,0
6642,-117.647058823529,4,2,1,60,0,0
7961,-117.647058823529,4,2,1,65,0,0
8620,-117.647058823529,4,2,1,70,0,0
8950,-71.4285714285714,4,2,1,70,0,0
9280,-100,4,2,1,80,0,0
18346,-83.3333333333333,4,2,1,70,0,0
19829,-90.9090909090909,4,2,1,80,0,0
24609,-200,4,2,1,30,0,0
25104,-125,4,2,1,50,0,0
34170,-125,4,2,1,70,0,0
35653,-111.111111111111,4,2,1,60,0,0
44884,-111.111111111111,4,2,1,70,0,0
46038,-100,4,2,1,80,0,0
53785,-76.9230769230769,4,2,1,80,0,0
54115,-111.111111111111,4,2,1,70,0,0
56752,-111.111111111111,4,2,1,80,0,0
59389,-86.9565217391304,4,2,1,90,0,1
67302,-80,4,2,1,90,0,1
69939,-86.9565217391304,4,2,1,90,0,1
75214,-100,4,2,1,70,0,0
77851,-86.9565217391304,4,2,1,80,0,1
80488,-86.9565217391304,4,2,1,95,0,1
81807,-100,4,2,1,95,0,0
83126,-100,4,2,1,70,0,0
85763,-142.857142857143,4,2,1,50,0,0
86752,-142.857142857143,4,2,1,80,0,0
87411,-142.857142857143,4,2,1,75,0,0
87741,-142.857142857143,4,2,1,70,0,0
88071,-142.857142857143,4,2,1,65,0,0
88483,-142.857142857143,4,2,1,60,0,0
89389,-142.857142857143,4,2,1,5,0,0

[Colours]
Combo1 : 0,128,192
Combo2 : 128,255,255
Combo3 : 0,128,255
Combo4 : 11,233,244

[HitObjects]
472,82,1368,6,0,B|493:33|453:3|390:4|357:55|429:180,1,250,2|2,0:0|0:0,0:0:0:0:
418,160,2357,6,0,L|308:155,1,104.999996795654,2|0,0:0|0:0,0:0:0:0:
313,155,2686,5,10,3:2:0:0:
190,341,2851,1,8,3:2:0:0:
190,341,4005,6,0,L|186:260,2,59.9999981689454,6|2|2,0:0|0:0|0:0,0:0:0:0:
113,373,4499,2,0,L|105:228,1,119.999996337891,2|2,0:0|0:0,0:0:0:0:
38,85,4994,1,2,0:0:0:0:
38,85,5159,2,0,P|13:142|61:187,1,119.999996337891,2|2,0:0|0:0,0:0:0:0:
181,188,5653,1,2,0:0:0:0:
181,188,5818,2,0,B|226:181|226:181|252:196|252:196|308:189,1,119.999996337891,2|2,0:0|0:0,0:0:0:0:
362,111,6313,6,0,B|408:145|408:145|388:252,1,150,10|0,0:0|0:0,0:0:0:0:
391,236,6642,6,0,L|404:329,1,85.0000016212464,6|2,3:2|0:0,0:0:0:0:
273,382,6972,2,0,L|286:288,1,85.0000016212464,2|2,3:2|0:0,0:0:0:0:
463,196,7302,2,0,L|476:289,1,85.0000016212464,0|2,3:2|0:0,0:0:0:0:
198,348,7631,2,0,L|211:254,1,85.0000016212464,2|2,3:2|0:0,0:0:0:0:
232,81,7961,5,0,3:0:0:0:
311,282,8126,1,2,3:2:0:0:
232,66,8291,1,2,3:2:0:0:
97,268,8455,1,10,0:0:0:0:
44,16,8620,5,8,0:0:0:0:
208,245,8785,1,10,0:0:0:0:
358,31,8950,6,0,B|503:19|503:19|463:38|461:92,1,209.999993591309,14|0,0:0|0:0,0:0:0:0:
464,67,9280,6,0,P|441:129|455:164,2,100,4|2|10,3:1|0:0|0:0,0:0:0:0:
509,281,9774,2,0,B|468:248|412:292|441:312|384:379|336:326,1,200,2|2,0:0|3:2,0:0:0:0:
205,245,10269,1,8,0:0:0:0:
313,137,10433,6,0,B|360:86|360:86|347:235,1,200,2|2,3:2|3:2,0:0:0:0:
211,377,10928,1,8,0:0:0:0:
30,291,11093,2,0,L|39:87,1,200,2|0,0:0|3:0,0:0:0:0:
121,145,11587,2,0,L|117:245,1,100,8|0,0:0|0:0,0:0:0:0:
81,22,11917,6,0,B|41:-7|41:-7|0:21,2,100,2|2|10,3:2|0:0|0:0,0:0:0:0:
214,79,12411,2,0,B|284:70|284:70|333:115|333:115|422:106,1,200,2|2,0:0|3:2,0:0:0:0:
373,1,12906,1,8,0:0:0:0:
238,181,13071,6,0,B|197:229|197:229|228:387,1,200,2|2,3:2|3:2,0:0:0:0:
385,224,13565,1,8,0:0:0:0:
512,370,13730,1,10,0:0:0:0:
512,370,13813,1,8,0:0:0:0:
512,370,13895,1,2,3:2:0:0:
304,263,14060,1,0,3:0:0:0:
480,177,14225,2,0,L|473:298,1,100,10|0,0:0|0:0,0:0:0:0:
417,97,14554,6,0,P|475:67|525:94,2,100,6|2|10,3:2|0:0|0:0,0:0:0:0:
319,8,15049,2,0,B|278:-25|222:19|251:39|194:106|146:53,1,200,2|2,0:0|3:2,0:0:0:0:
0,182,15543,1,10,0:0:0:0:
99,0,15708,6,0,L|113:229,1,200,2|2,3:2|3:2,0:0:0:0:
128,383,16203,1,8,0:0:0:0:
206,174,16368,2,0,B|214:317|214:317|175:265,1,200,2|0,0:0|3:0,0:0:0:0:
302,197,16862,2,0,L|309:311,1,100,8|0,0:0|0:0,0:0:0:0:
156,81,17192,6,0,B|224:67|224:67|275:105|275:105|352:90,1,200,2|8,3:2|0:0,0:0:0:0:
433,0,17686,1,0,0:0:0:0:
512,127,17851,2,0,L|506:248,2,100,2|0|8,3:2|3:0|0:0,0:0:0:0:
261,299,18346,6,0,P|345:354|417:307,1,179.999994506836,4|0,3:2|0:0,0:0:0:0:
434,145,18675,6,0,P|343:190|347:276,1,179.999994506836,2|0,3:2|0:0,0:0:0:0:
482,371,19005,6,0,P|487:269|411:230,1,179.999994506836,6|0,3:2|0:0,0:0:0:0:
338,259,19335,1,2,3:2:0:0:
147,127,19499,5,8,0:0:0:0:
101,107,19581,1,8,0:0:0:0:
52,118,19663,1,8,0:3:0:0:
18,155,19746,1,4,0:3:0:0:
12,204,19829,6,0,L|24:327,1,110.000003356934,6|0,3:2|0:0,0:0:0:0:
183,377,20159,2,0,L|170:253,1,110.000003356934,10|0,0:0|3:0,0:0:0:0:
155,22,20488,5,10,0:0:0:0:
97,233,20653,1,2,3:2:0:0:
4,0,20818,1,8,0:0:0:0:
222,179,20983,6,0,L|346:166,1,110.000003356934,2|8,3:2|0:0,0:0:0:0:
512,260,21313,2,0,L|388:247,1,110.000003356934,2|8,0:0|0:0,0:0:0:0:
192,94,21642,2,0,L|316:81,1,110.000003356934,2|8,3:2|0:0,0:0:0:0:
456,158,21972,1,2,3:2:0:0:
201,11,22137,2,0,L|325:-2,1,110.000003356934,10|0,0:0|3:0,0:0:0:0:
97,206,22466,5,14,0:0:0:0:
4,0,22631,1,0,3:0:0:0:
192,94,22796,1,10,0:0:0:0:
6,291,22961,1,8,0:0:0:0:
6,291,23043,1,8,0:0:0:0:
6,291,23126,2,0,L|11:226,1,55.0000016784668,2|4,3:2|0:3,0:0:0:0:
91,53,23291,2,0,L|96:118,1,55.0000016784668,10|8,0:0|0:0,0:0:0:0:
203,287,23455,1,8,0:0:0:0:
458,18,23620,6,0,B|397:12|397:12|362:38|362:38|302:32,1,165.000005035401,6|0,3:2|0:0,0:0:0:0:
481,129,23950,2,0,B|421:123|421:123|386:149|386:149|325:143,1,165.000005035401,6|0,3:2|0:0,0:0:0:0:
462,234,24280,2,0,P|495:288|468:346,1,110.000003356934,14|0,0:0|0:0,0:0:0:0:
406,299,24609,6,0,L|357:297,2,50,2|2|2,0:3|0:3|0:3,0:0:0:0:
279,334,25104,6,0,P|236:356|202:337,1,80,6|0,3:2|0:0,0:0:0:0:
191,208,25433,2,0,P|231:234|232:273,1,80,2|0,3:2|0:0,0:0:0:0:
131,352,25763,2,0,P|133:303|166:283,1,80,2|0,3:2|0:0,0:0:0:0:
314,191,26093,1,2,3:2:0:0:
314,191,26258,6,0,L|302:105,1,80,2|0,0:0|3:0,0:0:0:0:
408,28,26587,1,2,0:0:0:0:
408,28,26752,2,0,L|396:114,1,80,2|0,3:2|0:0,0:0:0:0:
507,188,27082,1,0,3:0:0:0:
507,188,27247,2,0,L|495:102,1,80,2|0,0:0|3:0,0:0:0:0:
317,23,27576,1,2,0:3:0:0:
317,23,27659,1,2,0:3:0:0:
317,23,27741,6,0,B|255:18|255:18|223:45|223:45|154:42,1,160,2|2,3:2|3:2,0:0:0:0:
93,83,28236,2,0,P|75:38|93:3,1,80,2|0,0:0|3:0,0:0:0:0:
92,166,28565,2,0,P|44:159|22:126,1,80,2|0,0:0|3:0,0:0:0:0:
171,125,28895,1,2,0:0:0:0:
171,125,29060,6,0,B|206:162|206:162|190:274,1,160,0|0,3:0|3:0,0:0:0:0:
191,270,29719,2,0,L|289:259,1,80,2|0,3:2|0:0,0:0:0:0:
447,321,30049,2,0,L|349:332,1,80,10|0,0:0|0:0,0:0:0:0:
482,191,30378,6,0,P|512:229|498:275,1,80,6|0,3:2|0:0,0:0:0:0:
450,105,30708,2,0,P|467:60|514:49,1,80,2|0,3:2|0:0,0:0:0:0:
390,174,31038,2,0,P|342:180|309:145,1,80,2|0,3:2|0:0,0:0:0:0:
257,87,31368,1,2,3:2:0:0:
356,12,31532,1,2,0:3:0:0:
356,12,31615,1,2,0:3:0:0:
356,12,31697,6,0,L|361:118,1,80,0|2,3:0|0:0,0:0:0:0:
233,170,32027,2,0,P|193:190|145:155,1,80,2|0,3:2|0:0,0:0:0:0:
34,53,32357,2,0,P|71:77|65:136,1,80,0|0,3:0|0:0,0:0:0:0:
32,283,32686,2,0,P|34:238|88:214,1,80,2|2,3:2|0:3,0:0:0:0:
118,284,32933,1,2,0:3:0:0:
118,284,33016,6,0,B|176:275|176:275|208:296|208:296|283:287,1,160,2|2,3:2|3:2,0:0:0:0:
340,236,33510,1,2,0:0:0:0:
451,337,33675,1,2,3:2:0:0:
480,170,33840,1,2,0:0:0:0:
357,370,34005,1,0,3:2:0:0:
275,119,34170,1,14,0:0:0:0:
275,119,34499,5,8,3:2:0:0:
481,257,34664,1,8,3:2:0:0:
486,9,34829,1,8,3:2:0:0:
486,9,35159,6,0,L|522:16,2,20,2|2|2,0:3|0:3|0:3,0:0:0:0:
282,31,35543,5,4,0:3:0:0:
282,31,35598,5,4,0:3:0:0:
282,31,35653,6,0,B|240:27|240:27|203:64|203:64|148:60,1,134.999995880127,6|0,3:2|0:0,0:0:0:0:
93,14,35983,2,0,P|72:60|88:99,1,89.9999972534181,10|2,0:0|0:0,0:0:0:0:
148,242,36313,2,0,L|154:134,1,89.9999972534181,2|0,3:2|3:0,0:0:0:0:
40,258,36642,1,10,0:0:0:0:
107,333,36807,6,0,B|145:357|145:357|191:327,1,89.9999972534181,2|0,0:0|3:0,0:0:0:0:
349,273,37137,1,2,0:0:0:0:
349,273,37302,2,0,B|311:249|311:249|265:279,1,89.9999972534181,10|0,0:0|0:0,0:0:0:0:
446,330,37631,1,0,3:0:0:0:
385,168,37796,1,0,3:0:0:0:
314,358,37961,1,10,0:0:0:0:
486,241,38126,1,2,0:0:0:0:
298,106,38291,6,0,L|195:123,1,89.9999972534181,2|0,3:2|3:0,0:0:0:0:
92,140,38620,1,10,0:0:0:0:
299,9,38785,5,6,3:2:0:0:
188,284,39115,5,6,3:2:0:0:
10,32,39444,6,0,B|51:69|51:69|38:217,1,179.999994506836,6|2,3:2|3:2,0:0:0:0:
2,360,39939,2,0,P|-17:317|5:275,1,89.9999972534181,10|0,0:0|0:0,0:0:0:0:
131,167,40269,1,4,0:3:0:0:
285,306,40433,1,4,0:3:0:0:
73,318,40598,5,14,0:0:0:0:
204,125,40763,1,2,0:0:0:0:
373,301,40928,6,0,L|518:292,1,134.999995880127,6|0,3:2|0:0,0:0:0:0:
512,209,41258,2,0,L|415:215,1,89.9999972534181,10|0,0:0|0:0,0:0:0:0:
206,229,41587,2,0,L|303:223,1,89.9999972534181,2|0,3:2|3:0,0:0:0:0:
464,129,41917,1,10,0:0:0:0:
216,146,42082,6,0,L|313:140,1,89.9999972534181,2|0,0:0|3:0,0:0:0:0:
374,21,42411,1,2,0:0:0:0:
295,223,42576,1,10,0:0:0:0:
117,62,42741,2,0,L|335:48,1,179.999994506836,2|0,3:2|3:0,0:0:0:0:
52,10,43236,2,0,P|26:52|47:104,1,89.9999972534181,10|2,0:0|0:0,0:0:0:0:
100,347,43565,6,0,P|134:259|82:176,1,179.999994506836,2|10,3:2|0:0,0:0:0:0:
20,272,44060,1,2,0:0:0:0:
215,329,44225,1,0,3:0:0:0:
6,274,44389,1,0,3:0:0:0:
171,59,44554,1,8,0:0:0:0:
201,56,44637,1,8,0:3:0:0:
233,54,44719,1,4,0:3:0:0:
264,52,44802,1,4,0:3:0:0:
296,50,44884,6,0,L|361:45,1,44.999998626709,6|0,3:2|0:0,0:0:0:0:
507,99,45049,2,0,L|452:95,1,44.999998626709,2|0,3:2|0:0,0:0:0:0:
257,158,45214,2,0,L|356:151,1,89.9999972534181,14|0,0:0|0:0,0:0:0:0:
496,0,45543,1,10,0:0:0:0:
488,182,45708,1,10,0:0:0:0:
484,225,45790,1,8,0:0:0:0:
480,270,45872,1,10,0:0:0:0:
477,315,45955,1,8,0:0:0:0:
474,360,46038,6,0,B|406:349|406:349|362:381|362:381|248:367,1,200,14|0,3:2|3:0,0:0:0:0:
140,177,46532,1,10,0:0:0:0:
0,371,46697,2,0,L|109:357,1,100,2|8,3:2|0:0,0:0:0:0:
341,297,47027,2,0,L|232:283,1,100,2|8,3:2|0:0,0:0:0:0:
23,171,47357,6,0,L|37:292,1,100,2|8,3:2|0:0,0:0:0:0:
321,105,47686,2,0,L|307:226,1,100,2|8,3:2|0:0,0:0:0:0:
169,0,48016,5,2,3:2:0:0:
423,99,48181,1,10,0:0:0:0:
213,160,48346,5,2,3:2:0:0:
363,16,48510,1,10,0:0:0:0:
512,171,48675,6,0,L|499:384,1,200,6|0,3:2|3:0,0:0:0:0:
290,314,49170,1,10,0:0:0:0:
423,212,49335,2,0,L|416:318,1,100,2|8,3:2|0:0,0:0:0:0:
231,379,49664,5,2,3:2:0:0:
168,166,49829,1,10,0:0:0:0:
10,350,49994,6,0,L|122:335,1,100,2|8,3:2|0:0,0:0:0:0:
290,314,50324,1,2,3:2:0:0:
87,131,50488,2,0,L|80:199,1,50,8|8,0:0|0:3,0:0:0:0:
199,305,50653,2,0,L|192:237,1,50,4|4,0:3|0:3,0:0:0:0:
167,39,50818,5,10,0:0:0:0:
37,255,50983,1,10,0:0:0:0:
165,22,51148,1,10,0:0:0:0:
326,220,51313,6,0,B|401:210|401:210|446:246|446:246|530:239,1,200,6|2,3:2|3:2,0:0:0:0:
369,322,51807,1,10,0:0:0:0:
468,57,51972,2,0,L|478:156,1,100,2|8,3:2|0:0,0:0:0:0:
503,358,52302,5,2,3:2:0:0:
390,135,52466,1,10,0:0:0:0:
197,288,52631,6,0,B|156:254|101:303|121:325|70:382|15:337,1,200,2|2,3:2|3:2,0:0:0:0:
194,140,53126,1,10,0:0:0:0:
300,384,53291,1,2,3:2:0:0:
296,169,53455,5,8,0:0:0:0:
182,366,53620,1,8,0:3:0:0:
30,213,53785,6,0,L|26:-6,1,194.999991073609,14|0,0:0|0:0,0:0:0:0:
16,12,54115,6,0,L|18:121,1,89.9999972534181,6|0,3:2|0:0,0:0:0:0:
195,229,54444,2,0,L|193:120,1,89.9999972534181,8|0,0:0|0:0,0:0:0:0:
190,0,54774,1,2,3:2:0:0:
296,169,54939,1,0,3:0:0:0:
437,40,55104,2,0,L|336:26,1,89.9999972534181,10|0,0:0|0:0,0:0:0:0:
104,151,55433,6,0,L|205:137,1,89.9999972534181,2|0,3:2|3:0,0:0:0:0:
456,121,55763,2,0,L|355:107,1,89.9999972534181,10|0,0:0|0:0,0:0:0:0:
168,268,56093,1,2,3:2:0:0:
268,75,56258,1,0,3:0:0:0:
475,202,56422,2,0,L|374:188,1,89.9999972534181,10|0,0:0|3:0,0:0:0:0:
203,12,56752,5,14,0:0:0:0:
22,191,56917,1,0,3:0:0:0:
277,294,57082,5,8,0:0:0:0:
88,86,57247,1,0,3:0:0:0:
189,364,57411,5,8,0:0:0:0:
337,119,57576,1,0,3:0:0:0:
511,343,57741,1,10,0:0:0:0:
218,190,57906,5,6,3:2:0:0:
218,190,58236,5,8,0:0:0:0:
450,52,58400,1,8,0:0:0:0:
392,273,58565,5,8,0:0:0:0:
392,273,58648,1,8,0:0:0:0:
392,273,58730,2,0,L|386:218,1,44.999998626709,8|8,0:0|0:0,0:0:0:0:
244,12,58895,2,0,L|238:67,1,44.999998626709,8|8,0:0|0:0,0:0:0:0:
198,325,59060,2,0,L|204:270,1,44.999998626709,8|8,0:0|0:0,0:0:0:0:
363,64,59225,2,0,L|369:119,1,44.999998626709,8|8,0:0|0:0,0:0:0:0:
405,370,59389,5,4,3:1:0:0:
501,138,59554,1,2,0:0:0:0:
403,355,59719,1,10,0:0:0:0:
284,152,59884,2,0,B|222:142|222:142|184:171|184:171|115:162,1,172.500003290176,2|0,0:0|0:0,0:0:0:0:
158,71,60214,1,2,3:2:0:0:
303,249,60378,1,10,0:0:0:0:
224,0,60543,1,2,0:0:0:0:
20,109,60708,6,0,P|-1:169|22:216,1,115.000002193451,2|0,3:2|3:0,0:0:0:0:
232,384,61038,2,0,L|224:253,1,115.000002193451,10|0,0:0|0:0,0:0:0:0:
8,108,61368,2,0,P|-13:168|10:215,1,115.000002193451,2|0,3:2|3:0,0:0:0:0:
146,379,61697,2,0,L|138:248,1,115.000002193451,10|0,0:0|0:0,0:0:0:0:
207,13,62027,6,0,P|127:45|149:187,1,230.000004386902,2|8,3:2|0:0,0:0:0:0:
312,310,62521,1,2,0:0:0:0:
415,76,62686,2,0,B|337:68|337:68|285:113|285:113|179:105,1,230.000004386902,2|8,3:2|0:0,0:0:0:0:
485,2,63181,1,0,0:0:0:0:
374,233,63346,5,2,3:2:0:0:
247,15,63510,1,0,3:0:0:0:
335,307,63675,5,10,0:0:0:0:
496,83,63840,1,8,0:3:0:0:
384,372,64005,5,2,3:2:0:0:
183,179,64170,1,8,0:0:0:0:
133,150,64252,1,8,0:0:0:0:
77,152,64334,1,10,0:0:0:0:
30,184,64417,1,8,0:3:0:0:
7,236,64499,1,4,0:3:0:0:
15,293,64582,1,4,0:3:0:0:
52,336,64664,6,0,L|284:314,1,230.000004386902,6|8,3:2|0:0,0:0:0:0:
247,78,65159,1,2,0:0:0:0:
106,258,65324,2,0,L|222:247,1,115.000002193451,2|0,3:2|3:0,0:0:0:0:
398,97,65653,1,10,0:0:0:0:
507,301,65818,1,2,0:0:0:0:
301,142,65983,6,0,B|282:-13|282:-13|332:40,1,230.000004386902,2|8,3:2|0:0,0:0:0:0:
482,174,66477,1,2,0:0:0:0:
203,143,66642,2,0,L|187:18,1,115.000002193451,2|0,3:2|3:0,0:0:0:0:
375,207,66972,2,0,B|408:256|408:256|378:315,1,115.000002193451,10|0,0:0|0:0,0:0:0:0:
116,276,67302,6,0,L|314:261,1,187.5,6|0,3:2|0:0,0:0:0:0:
261,351,67631,5,10,0:0:0:0:
116,135,67796,1,2,3:2:0:0:
0,384,67961,5,10,0:0:0:0:
285,168,68126,1,0,3:0:0:0:
0,3,68291,5,8,0:0:0:0:
116,276,68455,1,2,3:2:0:0:
332,35,68620,6,0,P|419:12|496:84,1,187.5,10|0,3:2|0:0,0:0:0:0:
376,112,68950,2,0,P|401:88|383:127,1,125,10|2,0:0|0:0,0:0:0:0:
212,22,69280,5,14,0:0:0:0:
172,69,69362,1,8,0:0:0:0:
114,88,69444,1,10,0:0:0:0:
54,73,69527,1,8,0:0:0:0:
12,28,69609,5,10,0:0:0:0:
78,67,69691,1,8,0:0:0:0:
117,133,69773,1,8,0:3:0:0:
119,210,69856,1,4,0:3:0:0:
83,279,69938,5,6,3:2:0:0:
251,126,70104,1,2,0:0:0:0:
0,225,70269,1,10,0:0:0:0:
244,362,70433,2,0,B|301:350|301:350|346:382|346:382|408:371,1,172.500003290176,2|0,0:0|0:0,0:0:0:0:
481,316,70763,1,2,3:2:0:0:
225,229,70928,1,10,0:0:0:0:
496,121,71093,1,2,0:0:0:0:
284,282,71258,6,0,L|269:157,1,115.000002193451,2|0,3:2|3:0,0:0:0:0:
510,7,71587,2,0,L|495:132,1,115.000002193451,10|0,0:0|0:0,0:0:0:0:
365,299,71917,2,0,L|350:174,1,115.000002193451,2|0,3:2|3:0,0:0:0:0:
428,0,72247,2,0,L|413:125,1,115.000002193451,10|0,0:0|0:0,0:0:0:0:
198,241,72576,5,2,3:2:0:0:
51,7,72741,1,8,0:0:0:0:
51,7,72824,1,8,0:0:0:0:
51,7,72906,1,8,0:0:0:0:
270,167,73071,1,10,0:0:0:0:
79,369,73236,1,8,0:0:0:0:
229,89,73400,1,8,0:3:0:0:
472,231,73565,1,4,0:3:0:0:
109,281,73730,6,0,B|78:134|78:134|147:196,1,230.000004386902,6|0,3:2|3:0,0:0:0:0:
23,301,74225,2,0,L|-6:165,1,115.000002193451,8|2,0:0|0:0,0:0:0:0:
129,7,74554,1,10,0:0:0:0:
323,105,74719,1,8,0:0:0:0:
137,187,74884,1,2,3:2:0:0:
247,31,75049,1,2,3:2:0:0:
455,130,75214,6,0,B|500:166|500:166|484:311,1,200,6|2,3:2|0:0,0:0:0:0:
403,223,75708,1,0,3:0:0:0:
403,223,75873,2,0,B|365:192|310:242|334:269|267:325|216:270,1,200,10|2,0:0|0:0,0:0:0:0:
235,27,76368,1,4,0:3:0:0:
235,27,76450,1,4,0:3:0:0:
235,27,76532,6,0,B|274:62|274:62|251:227,1,200,2|2,3:2|0:0,0:0:0:0:
9,95,77027,1,0,3:0:0:0:
9,95,77192,2,0,B|75:79|75:79|125:119|125:119|218:95,1,200,10|2,0:0|0:0,0:0:0:0:
346,3,77686,1,10,0:0:0:0:
491,134,77851,6,0,L|486:266,1,115.000002193451,6|0,3:2|3:0,0:0:0:0:
330,384,78181,2,0,L|335:252,1,115.000002193451,8|2,0:0|0:0,0:0:0:0:
342,115,78510,1,2,3:2:0:0:
506,257,78675,1,2,3:2:0:0:
245,344,78840,2,0,L|250:212,1,115.000002193451,10|0,0:0|0:0,0:0:0:0:
384,32,79170,6,0,B|306:23|306:23|261:69|261:69|152:57,1,230.000004386902,2|8,3:2|0:0,0:0:0:0:
10,33,79664,1,2,0:0:0:0:
213,161,79829,1,2,3:2:0:0:
0,380,79994,1,8,0:0:0:0:
0,380,80076,1,8,0:0:0:0:
0,380,80159,2,0,L|10:315,1,57.5000010967255,8|8,0:0|0:0,0:0:0:0:
112,115,80324,2,0,L|122:180,1,57.5000010967255,8|8,0:0|0:0,0:0:0:0:
251,377,80488,5,6,3:2:0:0:
389,139,80653,1,2,0:0:0:0:
121,263,80818,1,10,0:0:0:0:
412,355,80983,1,2,3:2:0:0:
349,60,81148,5,8,0:0:0:0:
197,311,81313,1,2,3:2:0:0:
353,43,81477,5,10,0:0:0:0:
501,327,81642,1,0,3:2:0:0:
121,172,81807,5,10,3:2:0:0:
479,14,81972,1,8,3:2:0:0:
479,14,83126,6,0,L|475:135,1,100,4|8,3:2|0:0,0:0:0:0:
471,200,83373,1,8,0:0:0:0:
471,200,83455,1,8,0:0:0:0:
382,0,83620,2,0,L|374:223,1,200,4|8,3:2|0:0,0:0:0:0:
297,150,84032,1,8,0:0:0:0:
297,150,84115,2,0,L|299:65,1,50,8|8,0:0|0:0,0:0:0:0:
156,0,84280,2,0,L|154:85,1,50,8|4,0:3|0:3,0:0:0:0:
4,166,84444,6,0,B|48:138|48:138|106:171,1,100,4|8,3:2|0:0,0:0:0:0:
51,237,84692,1,8,0:0:0:0:
51,237,84774,1,8,0:0:0:0:
155,50,84939,1,0,3:0:0:0:
224,270,85104,5,8,0:0:0:0:
235,317,85186,1,8,0:0:0:0:
271,351,85268,1,8,0:0:0:0:
320,360,85351,1,8,0:0:0:0:
365,341,85433,1,8,0:0:0:0:
393,300,85516,1,8,0:3:0:0:
395,251,85598,1,4,0:3:0:0:
369,209,85680,1,4,0:3:0:0:
324,188,85763,6,0,L|333:264,1,69.9999978637696,2|2,3:0|0:3,0:0:0:0:
258,102,86093,2,0,L|188:71,1,69.9999978637696,2|2,0:3|0:3,0:0:0:0:
365,86,86422,2,0,L|426:41,1,69.9999978637696,2|2,0:3|0:3,0:0:0:0:
224,270,86752,5,14,3:2:0:0:
66,6,86917,1,14,3:2:0:0:
256,192,86999,12,0,88483,3:0:0:0:
