osu file format v14

[General]
AudioFilename: audio.mp3
AudioLeadIn: 0
PreviewTime: 59307
Countdown: 0
SampleSet: Soft
StackLeniency: 0.5
Mode: 0
LetterboxInBreaks: 0
WidescreenStoryboard: 1

[Editor]
Bookmarks: 1368,46038,88483
DistanceSpacing: 0.8
BeatDivisor: 4
GridSize: 32
TimelineZoom: 1.9

[Metadata]
Title:Hoshi ga Hajimaru (TV Size)
TitleUnicode:星がはじまる (TV Size)
Artist:Argonavis
ArtistUnicode:Argonavis
Creator:KaedeharaKazuha
Version:Kazuha & Ayyri's Insane
Source:アルゴナビス from BanG Dream!
Tags:Addy2607 Kaedehara Kazuha Lian -Lian- Lian2002 Ayyri eiri- Annabel Kyouren gokugohan12468 KittyAdventure アルゴ The Stars Begin male idols anime animation op opening intro song theme Watanabe Takuya 渡辺拓也 Nakamura Kou 中村航 Tabuchi Tomoya 田淵智也 UNISON SQUARE GARDEN Ren Nanahoshi 七星蓮 Ito Masahiro 伊藤昌弘 Yuto Goryo 五稜結人 Hyuga Daisuke 日向大輔 Wataru Matoba 的場航海 Maeda Seiji 前田誠二 Banri Shiroishi 白石万浬 Hashimoto Shōhei 橋本祥平 Rio Kikyo 桔梗凛生 Morishima Shūta 森嶋秀太 japanese pop jpop j-pop rock jrock j-rock
BeatmapID:3530778
BeatmapSetID:1662608

[Difficulty]
HPDrainRate:5
CircleSize:3.8
OverallDifficulty:7
ApproachRate:9
SliderMultiplier:1.8
SliderTickRate:1

[Events]
//Background and Video events
Video,690,"video.mp4"
0,0,"84466165_p1.jpg",0,0
//Break Periods
//Storyboard Layer 0 (Background)
//Storyboard Layer 1 (Fail)
//Storyboard Layer 2 (Pass)
//Storyboard Layer 3 (Foreground)
//Storyboard Layer 4 (Overlay)
//Storyboard Sound Samples

[TimingPoints]
1368,329.67032967033,4,2,1,60,1,0
1368,-200,4,2,1,60,0,0
2357,-142.857142857143,4,2,1,60,0,0
2686,-142.857142857143,4,2,1,70,0,0
4005,-166.666666666667,4,2,1,60,0,0
6313,-142.857142857143,4,2,1,60,0,0
6642,-117.647058823529,4,2,1,60,0,0
7961,-117.647058823529,4,2,1,65,0,0
8620,-117.647058823529,4,2,1,70,0,0
8950,-76.9230769230769,4,2,1,70,0,0
9280,-100,4,2,1,80,0,0
18346,-83.3333333333333,4,2,1,70,0,0
19829,-90.9090909090909,4,2,1,80,0,0
24609,-200,4,2,1,30,0,0
25104,-125,4,2,1,50,0,0
34170,-125,4,2,1,70,0,0
35653,-111.111111111111,4,2,1,60,0,0
44884,-111.111111111111,4,2,1,70,0,0
46038,-100,4,2,1,80,0,0
53785,-76.9230769230769,4,2,1,80,0,0
54115,-111.111111111111,4,2,1,70,0,0
56752,-111.111111111111,4,2,1,80,0,0
59389,-86.9565217391304,4,2,1,90,0,1
67302,-80,4,2,1,90,0,1
69939,-86.9565217391304,4,2,1,90,0,1
75214,-100,4,2,1,70,0,0
77851,-86.9565217391304,4,2,1,80,0,1
80488,-86.9565217391304,4,2,1,95,0,1
81807,-100,4,2,1,95,0,0
83126,-100,4,2,1,70,0,0
85763,-142.857142857143,4,2,1,50,0,0
86752,-142.857142857143,4,2,1,80,0,0
87411,-142.857142857143,4,2,1,75,0,0
87741,-142.857142857143,4,2,1,70,0,0
88071,-142.857142857143,4,2,1,65,0,0
88483,-142.857142857143,4,2,1,60,0,0
89389,-142.857142857143,4,2,1,5,0,0

[Colours]
Combo1 : 0,128,192
Combo2 : 128,255,255
Combo3 : 0,128,255
Combo4 : 11,233,244

[HitObjects]
231,260,1368,6,0,B|184:218|122:296|154:292|99:368|42:320,1,225,2|2,0:0|0:0,0:0:0:0:
44,321,2357,2,0,P|40:280|31:221,1,94.499997116089,2|0,0:0|0:0,0:0:0:0:
32,228,2686,5,10,3:2:0:0:
190,369,2851,1,8,3:2:0:0:
472,241,4005,6,0,L|468:298,2,53.9999983520508,6|2|2,0:0|0:0|0:0,0:0:0:0:
512,151,4499,2,0,B|464:126|464:126|417:165,1,107.999996704102,2|2,0:0|0:0,0:0:0:0:
268,103,4994,1,2,0:0:0:0:
268,103,5159,2,0,B|316:78|316:78|363:117,1,107.999996704102,2|2,0:0|0:0,0:0:0:0:
512,55,5653,1,2,0:0:0:0:
512,55,5818,2,0,B|464:30|464:30|417:69,1,107.999996704102,2|2,0:0|0:0,0:0:0:0:
308,176,6313,2,0,L|317:275,1,94.499997116089,10|0,0:0|0:0,0:0:0:0:
322,277,6642,6,0,P|356:291|404:261,2,76.5000014591217,6|2|2,3:2|0:0|3:2,0:0:0:0:
239,344,7137,2,0,P|181:300|94:319,1,153.000002918243,2|2,0:0|0:0,0:0:0:0:
8,369,7631,1,2,3:2:0:0:
28,279,7796,1,2,0:0:0:0:
107,197,7961,5,0,3:0:0:0:
73,104,8126,1,2,3:2:0:0:
197,207,8291,1,2,3:2:0:0:
105,310,8455,5,10,0:0:0:0:
161,134,8620,1,8,0:0:0:0:
294,247,8785,1,10,0:0:0:0:
277,36,8950,6,0,B|219:2|219:2|251:125,1,175.499991966248,14|0,0:0|0:0,0:0:0:0:
251,115,9280,6,0,B|294:134|294:134|338:105,2,90,4|2|10,3:1|0:0|0:0,0:0:0:0:
150,45,9774,2,0,B|74:-3|74:-3|-7:61,1,180,2|2,0:0|3:2,0:0:0:0:
173,146,10269,1,8,0:0:0:0:
80,93,10433,6,0,P|91:152|108:277,1,180,2|2,3:2|3:2,0:0:0:0:
254,380,10928,1,8,0:0:0:0:
262,292,11093,2,0,B|196:309|196:309|172:350|172:350|96:371,1,180,2|0,0:0|3:0,0:0:0:0:
236,206,11587,2,0,P|283:212|338:220,1,90,8|0,0:0|0:0,0:0:0:0:
512,196,11917,6,0,P|458:170|427:197,2,90,2|2|10,3:2|0:0|0:0,0:0:0:0:
382,107,12411,2,0,P|398:189|405:293,1,180,2|2,0:0|3:2,0:0:0:0:
497,86,12906,1,8,0:0:0:0:
427,27,13071,6,0,P|355:10|286:102,1,180,2|2,3:2|3:2,0:0:0:0:
124,84,13565,1,8,0:0:0:0:
193,6,13730,2,0,P|205:59|216:201,1,180,10|0,0:0|3:0,0:0:0:0:
131,302,14225,2,0,P|95:259|25:300,1,135,10|0,0:0|0:0,0:0:0:0:
27,293,14554,6,0,P|34:345|38:385,2,90,6|2|10,3:2|0:0|0:0,0:0:0:0:
0,183,15049,2,0,P|6:101|17:-3,1,180,2|2,0:0|3:2,0:0:0:0:
156,59,15543,1,10,0:0:0:0:
86,123,15708,6,0,B|132:127|150:180|150:180|165:129|235:129,1,180,2|2,3:2|3:2,0:0:0:0:
363,52,16203,1,8,0:0:0:0:
276,7,16368,2,0,P|289:83|298:198,1,180,2|0,0:0|3:0,0:0:0:0:
448,58,16862,2,0,P|441:96|437:153,1,90,8|0,0:0|0:0,0:0:0:0:
512,299,17192,6,0,P|449:235|362:268,1,180,2|8,3:2|0:0,0:0:0:0:
244,384,17686,1,0,0:0:0:0:
174,315,17851,2,0,P|179:259|183:215,2,90,2|0|8,3:2|3:0|0:0,0:0:0:0:
21,242,18346,6,0,P|108:233|207:222,1,161.999995056153,4|0,3:2|0:0,0:0:0:0:
209,145,18675,6,0,P|122:154|23:165,1,161.999995056153,2|0,3:2|0:0,0:0:0:0:
0,89,19005,6,0,P|87:80|186:69,1,161.999995056153,6|0,3:2|0:0,0:0:0:0:
215,8,19335,1,2,3:2:0:0:
332,162,19499,1,8,0:0:0:0:
328,202,19581,1,8,0:0:0:0:
325,242,19663,1,8,0:3:0:0:
321,283,19746,1,4,0:3:0:0:
318,323,19829,6,0,P|267:317|197:307,1,99.0000030212403,6|0,3:2|0:0,0:0:0:0:
404,268,20159,2,0,P|453:261|502:255,1,99.0000030212403,10|0,0:0|3:0,0:0:0:0:
440,69,20488,1,10,0:0:0:0:
427,178,20653,1,2,3:2:0:0:
446,62,20818,1,8,0:0:0:0:
237,133,20983,6,0,P|244:181|252:259,1,99.0000030212403,2|8,3:2|0:0,0:0:0:0:
41,280,21313,2,0,P|35:329|28:378,1,99.0000030212403,2|8,0:0|0:0,0:0:0:0:
166,227,21642,2,0,P|161:177|154:129,1,99.0000030212403,2|8,3:2|0:0,0:0:0:0:
71,192,21972,1,2,3:2:0:0:
222,54,22137,2,0,P|148:43|75:32,1,148.50000453186,10|0,0:0|0:0,0:0:0:0:
66,32,22466,6,0,P|23:68|31:109,1,99.0000030212403,14|0,0:0|3:0,0:0:0:0:
59,290,22796,2,0,P|65:241|71:191,1,99.0000030212403,10|8,0:0|0:0,0:0:0:0:
78,186,23043,1,8,0:0:0:0:
78,186,23126,2,0,L|133:197,1,49.5000015106202,2|4,3:2|0:3,0:0:0:0:
235,286,23291,2,0,L|180:297,1,49.5000015106202,10|8,0:0|0:0,0:0:0:0:
49,376,23455,1,8,0:0:0:0:
248,200,23620,6,0,B|295:215|295:215|316:253|316:253|376:271,1,148.50000453186,6|0,3:2|0:0,0:0:0:0:
417,200,23950,2,0,B|370:185|370:185|349:147|349:147|289:129,1,148.50000453186,6|0,3:2|0:0,0:0:0:0:
447,118,24280,2,0,P|500:167|479:253,1,148.50000453186,14|0,0:0|0:0,0:0:0:0:
488,245,24609,6,0,L|495:297,2,45,2|2|2,0:3|0:3|0:3,0:0:0:0:
378,72,25104,6,0,L|388:-1,1,72,6|0,3:2|0:0,0:0:0:0:
296,131,25433,2,0,L|306:204,1,72,2|0,3:2|0:0,0:0:0:0:
384,76,25763,2,0,L|394:3,1,72,2|0,3:2|0:0,0:0:0:0:
244,60,26093,1,2,3:2:0:0:
244,60,26258,6,0,P|208:65|171:71,1,72,2|0,0:0|3:0,0:0:0:0:
54,127,26587,1,2,0:0:0:0:
26,41,26752,2,0,P|102:51|180:64,1,144,2|0,3:2|3:0,0:0:0:0:
61,198,27247,2,0,P|57:155|52:115,1,72,2|0,0:0|3:0,0:0:0:0:
127,257,27576,1,2,0:3:0:0:
127,257,27659,1,2,0:3:0:0:
127,257,27741,6,0,P|71:297|-6:257,1,144,2|2,3:2|3:2,0:0:0:0:
142,152,28236,2,0,P|186:160|225:166,1,72,2|0,0:0|3:0,0:0:0:0:
268,74,28565,2,0,P|312:66|351:60,1,72,2|0,0:0|3:0,0:0:0:0:
456,127,28895,6,0,P|377:141|307:152,1,144,2|0,0:0|0:0,0:0:0:0:
339,62,29389,1,0,3:0:0:0:
420,241,29719,2,0,P|415:287|411:332,1,72,2|0,3:2|0:0,0:0:0:0:
493,372,30049,2,0,P|498:326|502:281,1,72,10|0,0:0|0:0,0:0:0:0:
335,268,30378,6,0,B|281:282|281:282|263:316|263:316|208:329,1,144,6|2,3:2|3:2,0:0:0:0:
53,281,30873,1,0,0:0:0:0:
138,233,31038,2,0,P|133:320|129:395,1,144,2|2,3:2|3:2,0:0:0:0:
262,197,31532,1,2,0:3:0:0:
262,197,31615,1,2,0:3:0:0:
262,197,31697,6,0,P|253:149|246:113,1,72,0|2,3:0|0:0,0:0:0:0:
332,0,32027,2,0,P|323:48|316:84,1,72,2|0,3:2|0:0,0:0:0:0:
402,197,32357,2,0,P|393:149|386:113,1,72,0|0,3:0|0:0,0:0:0:0:
235,21,32686,2,0,P|191:44|137:27,1,108,2|2,3:2|0:3,0:0:0:0:
130,20,33016,6,0,P|140:87|148:181,1,144,2|2,3:2|3:2,0:0:0:0:
68,265,33510,1,2,0:0:0:0:
3,175,33675,1,2,3:2:0:0:
172,248,33840,1,2,0:0:0:0:
24,357,34005,1,0,3:2:0:0:
68,265,34170,5,14,0:0:0:0:
68,265,34499,5,8,3:2:0:0:
197,323,34664,1,8,3:2:0:0:
326,381,34829,1,8,3:2:0:0:
326,381,35159,6,0,L|322:352,2,18,2|2|2,0:3|0:3|0:3,0:0:0:0:
402,182,35543,5,4,0:3:0:0:
402,182,35598,5,4,0:3:0:0:
402,182,35653,6,0,B|397:238|391:313,1,121.499996292114,6|0,3:2|0:0,0:0:0:0:
397,308,35983,2,0,P|440:301|493:293,1,80.9999975280763,10|2,0:0|0:0,0:0:0:0:
322,197,36313,2,0,B|318:237|314:290,1,80.9999975280763,2|0,3:2|3:0,0:0:0:0:
487,206,36642,1,10,0:0:0:0:
325,104,36807,6,0,B|270:114|270:114|241:155|241:155|165:170,1,161.999995056153,2|2,0:0|0:0,0:0:0:0:
27,58,37302,1,10,0:0:0:0:
114,6,37466,2,0,P|107:81|100:172,1,161.999995056153,0|0,0:0|3:0,0:0:0:0:
21,284,37961,2,0,P|24:321|27:367,1,80.9999975280763,10|2,0:0|0:0,0:0:0:0:
167,263,38291,5,2,3:2:0:0:
16,185,38455,1,0,3:0:0:0:
109,339,38620,1,10,0:0:0:0:
255,229,38785,6,0,P|246:159|236:88,1,121.499996292114,6|0,3:2|0:0,0:0:0:0:
237,99,39115,1,6,3:2:0:0:
141,175,39280,1,8,0:0:0:0:
338,239,39444,6,0,P|327:155|315:71,1,161.999995056153,6|2,3:2|3:2,0:0:0:0:
487,133,39939,2,0,P|444:125|400:118,1,80.9999975280763,10|0,0:0|0:0,0:0:0:0:
338,239,40269,2,0,P|295:247|251:254,1,80.9999975280763,4|4,0:3|0:3,0:0:0:0:
447,384,40598,1,14,0:0:0:0:
512,292,40763,1,2,0:0:0:0:
352,321,40928,6,0,P|282:333|212:345,1,121.499996292114,6|0,3:2|0:0,0:0:0:0:
228,349,41258,2,0,P|190:345|141:341,1,80.9999975280763,10|0,0:0|0:0,0:0:0:0:
8,228,41587,2,0,P|42:209|90:234,1,80.9999975280763,2|0,3:2|3:0,0:0:0:0:
147,341,41917,1,10,0:0:0:0:
58,383,42082,6,0,P|53:336|49:293,1,80.9999975280763,2|0,0:0|3:0,0:0:0:0:
209,182,42411,1,2,0:0:0:0:
193,267,42576,1,10,0:0:0:0:
125,142,42741,2,0,B|182:129|182:129|221:145|221:145|290:133,1,161.999995056153,2|0,3:2|3:0,0:0:0:0:
47,55,43236,1,10,0:0:0:0:
13,161,43400,1,2,0:0:0:0:
152,40,43565,6,0,P|230:47|327:54,1,161.999995056153,2|10,3:2|0:0,0:0:0:0:
489,99,44060,2,0,P|494:52|501:-3,1,80.9999975280763,2|0,0:0|3:0,0:0:0:0:
313,53,44389,1,0,3:0:0:0:
390,215,44554,1,8,0:0:0:0:
394,185,44636,1,8,0:3:0:0:
397,155,44718,1,4,0:3:0:0:
401,125,44801,1,4,0:3:0:0:
404,95,44883,5,6,3:2:0:0:
505,198,45049,1,2,3:2:0:0:
314,274,45214,2,0,P|309:227|302:172,1,80.9999975280763,14|0,0:0|0:0,0:0:0:0:
460,286,45543,1,10,0:0:0:0:
262,358,45708,1,10,0:0:0:0:
221,355,45790,1,8,0:0:0:0:
181,352,45872,1,10,0:0:0:0:
140,350,45955,1,8,0:0:0:0:
100,347,46038,6,0,B|67:311|67:311|92:163,1,180,14|0,3:2|3:0,0:0:0:0:
289,147,46532,1,10,0:0:0:0:
237,208,46697,2,0,P|182:189|196:139,1,90,2|8,3:2|0:0,0:0:0:0:
307,23,47027,2,0,P|252:42|266:92,1,90,2|8,3:2|0:0,0:0:0:0:
390,156,47357,6,0,P|444:142|505:131,1,90,2|8,3:2|0:0,0:0:0:0:
326,104,47686,2,0,P|342:182|361:295,1,180,2|2,3:2|3:2,0:0:0:0:
489,337,48181,1,10,0:0:0:0:
301,378,48346,1,2,3:2:0:0:
454,257,48510,1,10,0:0:0:0:
261,219,48675,6,0,B|204:208|204:208|192:180|192:180|78:163,1,180,6|0,3:2|3:0,0:0:0:0:
264,134,49170,1,10,0:0:0:0:
168,312,49335,2,0,P|183:232|195:193,1,90,2|8,3:2|0:0,0:0:0:0:
85,252,49664,1,2,3:2:0:0:
254,170,49829,1,10,0:0:0:0:
120,50,49994,6,0,P|60:71|17:77,1,90,2|8,3:2|0:0,0:0:0:0:
254,170,50324,2,0,P|194:149|151:143,1,90,2|8,3:2|0:0,0:0:0:0:
388,50,50653,1,4,0:3:0:0:
388,50,50736,1,4,0:3:0:0:
388,50,50818,1,10,0:0:0:0:
317,235,50983,1,10,0:0:0:0:
261,87,51148,1,10,0:0:0:0:
482,149,51313,6,0,P|469:227|467:338,1,180,6|2,3:2|3:2,0:0:0:0:
279,362,51807,1,10,0:0:0:0:
350,305,51972,2,0,P|339:253|322:214,1,90,2|8,3:2|0:0,0:0:0:0:
459,138,52302,1,2,3:2:0:0:
341,92,52466,1,10,0:0:0:0:
408,17,52631,6,0,P|395:70|351:73,1,90,2|8,3:2|0:0,0:0:0:0:
225,158,52961,2,0,P|176:129|188:87,1,90,2|10,3:2|0:0,0:0:0:0:
399,188,53291,1,2,3:2:0:0:
284,238,53455,1,8,0:0:0:0:
284,238,53620,1,8,0:3:0:0:
374,288,53785,6,0,L|386:72,1,175.499991966248,14|0,0:0|0:0,0:0:0:0:
397,102,54115,6,0,B|301:87|362:1|244:-1,2,161.999995056153,6|8|2,3:2|0:0|3:2,0:0:0:0:
490,78,54939,1,0,3:0:0:0:
490,78,55104,2,0,L|472:179,1,80.9999975280763,10|0,0:0|0:0,0:0:0:0:
349,184,55433,5,2,3:2:0:0:
441,149,55598,1,0,3:0:0:0:
338,290,55763,2,0,L|352:210,1,80.9999975280763,10|0,0:0|0:0,0:0:0:0:
284,101,56093,1,2,3:2:0:0:
352,210,56258,1,0,3:0:0:0:
162,227,56422,2,0,B|140:246|125:253|125:253|158:344,1,121.499996292114,10|0,0:0|0:0,0:0:0:0:
140,371,56752,5,14,0:0:0:0:
169,270,56917,1,0,3:0:0:0:
313,238,57082,5,8,0:0:0:0:
284,137,57247,1,0,3:0:0:0:
140,105,57411,5,8,0:0:0:0:
169,4,57576,1,0,3:0:0:0:
354,71,57741,5,10,0:0:0:0:
109,133,57906,6,0,L|36:120,1,40.4999987640381,6|0,3:2|0:0,0:0:0:0:
354,313,58236,6,0,L|427:300,1,40.4999987640381,8|0,0:0|0:0,0:0:0:0:
373,326,58400,2,0,L|446:313,1,40.4999987640381,8|0,0:0|0:0,0:0:0:0:
207,257,58565,1,8,0:0:0:0:
207,257,58648,1,8,0:0:0:0:
207,257,58730,6,0,L|198:333,3,40.4999987640381,8|8|8|8,0:0|0:0|0:0|0:0,0:0:0:0:
303,207,59060,2,0,L|294:131,1,40.4999987640381,8|8,0:0|0:0,0:0:0:0:
147,105,59225,2,0,L|156:29,1,40.4999987640381,8|8,0:0|0:0,0:0:0:0:
375,23,59389,5,4,3:1:0:0:
269,136,59554,1,2,0:0:0:0:
438,174,59719,1,10,0:0:0:0:
283,48,59884,2,0,L|168:62,1,103.500001974106,2|0,0:0|3:0,0:0:0:0:
40,154,60214,1,2,3:2:0:0:
177,195,60378,1,10,0:0:0:0:
35,63,60543,1,2,0:0:0:0:
122,269,60708,6,0,P|196:287|231:303,1,103.500001974106,2|0,3:2|3:0,0:0:0:0:
326,166,61038,2,0,P|281:191|233:210,1,103.500001974106,10|0,0:0|0:0,0:0:0:0:
336,285,61368,1,2,3:2:0:0:
199,176,61532,1,0,3:0:0:0:
315,114,61697,2,0,B|398:134|398:134|442:63,1,155.250002961159,10|0,0:0|0:0,0:0:0:0:
428,61,62027,6,0,B|405:41|396:15|396:15|240:45,1,207.000003948212,2|8,3:2|0:0,0:0:0:0:
58,16,62521,1,2,0:0:0:0:
120,168,62686,2,0,B|249:164|125:24|308:59,1,207.000003948212,2|8,3:2|0:0,0:0:0:0:
352,112,63181,1,0,0:0:0:0:
219,305,63346,6,0,P|158:297|97:283,1,103.500001974106,2|0,3:2|3:0,0:0:0:0:
334,359,63675,2,0,P|394:351|455:337,1,103.500001974106,10|8,0:0|0:3,0:0:0:0:
214,316,64005,2,0,P|153:308|92:294,1,103.500001974106,2|8,3:2|0:0,0:0:0:0:
262,237,64252,1,8,0:0:0:0:
262,237,64335,2,0,P|251:194|250:162,3,51.7500009870529,10|8|4|4,0:0|0:3|0:3|0:3,0:0:0:0:
277,95,64664,6,0,B|407:51|338:206|483:192,1,207.000003948212,6|8,3:2|0:0,0:0:0:0:
487,31,65159,1,2,0:0:0:0:
422,100,65324,2,0,P|371:75|372:26,1,103.500001974106,2|0,3:2|3:0,0:0:0:0:
505,112,65653,1,10,0:0:0:0:
365,194,65818,1,2,0:0:0:0:
512,315,65983,6,0,B|439:329|439:329|419:357|419:357|306:378,1,207.000003948212,2|8,3:2|0:0,0:0:0:0:
132,327,66477,1,2,0:0:0:0:
209,384,66642,2,0,B|232:347|232:347|208:248,1,103.500001974106,2|0,3:2|3:0,0:0:0:0:
174,96,66972,2,0,P|233:77|229:164,1,155.250002961159,10|0,0:0|0:0,0:0:0:0:
187,202,67302,6,0,B|70:218|130:45|1:83,1,225,6|10,3:2|0:0,0:0:0:0:
220,24,67796,1,2,3:2:0:0:
220,24,67961,2,0,P|252:47|288:-5,2,112.5,10|0|8,0:0|3:0|0:0,0:0:0:0:
270,194,68455,1,2,3:2:0:0:
270,194,68538,1,0,0:0:0:0:
270,194,68620,6,0,L|296:73,1,112.5,10|0,3:2|3:0,0:0:0:0:
140,23,68950,2,0,L|166:144,1,112.5,10|2,0:0|0:0,0:0:0:0:
10,209,69280,2,0,L|96:224,1,56.25,14|8,0:0|0:0,0:0:0:0:
190,292,69444,2,0,L|135:302,1,56.25,10|8,0:0|0:0,0:0:0:0:
282,180,69609,1,10,0:0:0:0:
325,173,69691,1,8,0:0:0:0:
366,190,69773,1,8,0:3:0:0:
391,227,69856,1,4,0:3:0:0:
393,271,69938,5,6,3:2:0:0:
488,91,70104,1,2,0:0:0:0:
512,311,70269,1,10,0:0:0:0:
299,228,70433,2,0,P|243:241|182:249,1,103.500001974106,2|0,0:0|3:0,0:0:0:0:
82,372,70763,1,2,3:2:0:0:
45,179,70928,1,10,0:0:0:0:
80,362,71093,1,2,0:0:0:0:
43,169,71258,6,0,B|78:182|78:182|105:260,1,103.500001974106,2|0,3:2|3:0,0:0:0:0:
228,62,71587,2,0,B|197:83|197:83|187:217,1,155.250002961159,10|0,0:0|0:0,0:0:0:0:
208,240,71917,2,0,P|263:228|249:179,1,103.500001974106,2|0,3:2|3:0,0:0:0:0:
90,58,72247,2,0,P|95:105|143:107,1,103.500001974106,10|0,0:0|0:0,0:0:0:0:
330,0,72576,5,2,3:2:0:0:
268,113,72741,1,8,0:0:0:0:
268,113,72824,1,8,0:0:0:0:
268,113,72906,5,8,0:0:0:0:
346,97,73071,1,10,0:0:0:0:
451,191,73236,5,8,0:0:0:0:
373,175,73401,1,8,0:3:0:0:
507,47,73565,5,4,0:3:0:0:
285,194,73730,2,0,B|217:180|217:180|203:151|203:151|88:130,1,207.000003948212,6|0,3:2|3:0,0:0:0:0:
268,113,74225,1,8,0:0:0:0:
156,227,74389,1,2,0:0:0:0:
156,227,74472,1,0,0:0:0:0:
156,227,74554,2,0,B|151:261|151:261|172:281|172:281|186:342,2,103.500001974106,10|8|2,0:0|0:0|3:2,0:0:0:0:
307,274,75049,1,2,3:2:0:0:
113,375,75214,6,0,P|57:348|74:307,1,90,6|0,3:2|3:0,0:0:0:0:
9,242,75543,2,0,P|80:229|135:121,1,180,2|10,0:0|0:0,0:0:0:0:
121,66,76038,1,0,3:0:0:0:
278,132,76203,2,0,P|267:187|267:257,1,90,2|4,0:0|0:3,0:0:0:0:
229,290,76450,1,4,0:3:0:0:
229,290,76532,6,0,P|219:179|201:85,1,180,2|2,3:2|0:0,0:0:0:0:
267,31,77027,1,0,3:0:0:0:
424,114,77192,2,0,P|368:113|374:58,1,90,10|0,0:0|3:0,0:0:0:0:
486,47,77521,1,2,0:0:0:0:
486,47,77686,1,10,0:0:0:0:
446,216,77851,5,6,3:2:0:0:
424,114,78016,1,0,3:0:0:0:
260,149,78181,5,8,0:0:0:0:
282,47,78346,1,2,0:0:0:0:
307,236,78510,6,0,P|243:250|186:268,1,103.500001974106,2|2,3:2|3:2,0:0:0:0:
20,233,78840,2,0,B|66:226|66:226|122:279|58:356,1,155.250002961159,10|0,0:0|0:0,0:0:0:0:
51,363,79170,6,0,B|1:269|141:265|54:150,1,207.000003948212,2|8,3:2|0:0,0:0:0:0:
6,61,79664,1,2,0:0:0:0:
196,122,79829,1,2,3:2:0:0:
236,26,79994,1,8,0:0:0:0:
236,26,80076,1,8,0:0:0:0:
236,26,80159,2,0,L|308:37,1,51.7500009870529,8|8,0:0|0:0,0:0:0:0:
174,154,80324,2,0,L|102:165,1,51.7500009870529,8|8,0:0|0:0,0:0:0:0:
331,258,80488,5,6,3:2:0:0:
439,170,80653,1,2,0:0:0:0:
258,113,80818,1,10,0:0:0:0:
453,280,80983,2,0,P|471:202|470:161,1,103.500001974106,2|8,3:2|0:0,0:0:0:0:
249,231,81313,1,2,3:2:0:0:
249,231,81395,1,0,0:0:0:0:
249,231,81477,2,0,P|231:153|232:112,1,103.500001974106,10|0,0:0|3:2,0:0:0:0:
446,54,81807,5,10,3:2:0:0:
323,275,81972,1,8,3:2:0:0:
323,275,83126,6,0,P|378:266|428:253,1,90,4|8,3:2|0:0,0:0:0:0:
411,258,83373,1,8,0:0:0:0:
411,258,83455,1,8,0:0:0:0:
274,206,83620,2,0,B|234:240|234:240|267:378,1,180,4|8,3:2|0:0,0:0:0:0:
396,331,84032,1,8,0:0:0:0:
396,331,84115,2,0,L|408:257,1,45,8|8,0:0|0:0,0:0:0:0:
276,222,84280,2,0,L|288:296,1,45,8|4,0:3|0:3,0:0:0:0:
371,174,84444,6,0,P|426:165|476:152,1,90,4|8,3:2|0:0,0:0:0:0:
459,156,84692,1,8,0:0:0:0:
459,156,84774,1,8,0:0:0:0:
333,69,84939,1,0,3:0:0:0:
287,296,85104,1,8,0:0:0:0:
251,293,85186,1,8,0:0:0:0:
215,290,85268,1,8,0:0:0:0:
179,288,85351,1,8,0:0:0:0:
143,285,85433,2,0,L|155:211,1,45,8|8,0:0|0:3,0:0:0:0:
67,148,85598,2,0,L|79:222,1,45,4|4,0:3|0:3,0:0:0:0:
192,55,85763,6,0,P|236:64|276:69,1,62.9999980773926,2|2,3:0|0:3,0:0:0:0:
170,136,86093,2,0,P|126:145|86:150,1,62.9999980773926,2|2,0:3|0:3,0:0:0:0:
192,217,86422,2,0,P|236:226|276:231,1,62.9999980773926,2|2,0:3|0:3,0:0:0:0:
141,375,86752,5,14,3:2:0:0:
185,93,86917,1,14,3:2:0:0:
256,192,86999,12,0,88483,3:0:0:0:
