osu file format v14

[General]
AudioFilename: audio.mp3
AudioLeadIn: 0
PreviewTime: -1
Countdown: 1
SampleSet: Soft
StackLeniency: 0.7
Mode: 0
LetterboxInBreaks: 0
WidescreenStoryboard: 1

[Editor]
DistanceSpacing: 2.5
BeatDivisor: 4
GridSize: 8
TimelineZoom: 1

[Metadata]
Title:Spooky Scary Borks
TitleUnicode:Spooky Scary Borks
Artist:Arf
ArtistUnicode:Arf
Creator:Vantos
Version:Hard
Source:
Tags:
BeatmapID:1152626
BeatmapSetID:543734

[Difficulty]
HPDrainRate:6
CircleSize:4
OverallDifficulty:6
ApproachRate:8
SliderMultiplier:2
SliderTickRate:4

[Events]
//Background and Video events
0,0,"maxresdefault.jpg",0,0
//Break Periods
//Storyboard Layer 0 (Background)
//Storyboard Layer 1 (Fail)
//Storyboard Layer 2 (Pass)
//Storyboard Layer 3 (Foreground)
//Storyboard Sound Samples

[TimingPoints]
-117,468.749717868338,4,2,0,63,1,0

[Colours]
Combo1 : 79,79,79
Combo2 : 255,255,255
Combo3 : 255,255,255
Combo4 : 192,192,192
Combo5 : 150,150,150

[HitObjects]
88,88,117,6,0,L|192:88,1,100,6|0,0:0|0:0,0:0:0:0:
188,88,468,1,0,0:0:0:0:
188,88,586,1,0,0:0:0:0:
280,96,820,1,0,0:0:0:0:
408,192,1054,1,4,0:0:0:0:
304,192,1289,1,0,0:0:0:0:
264,192,1406,1,0,0:0:0:0:
224,192,1523,1,0,0:0:0:0:
136,128,1757,1,0,0:0:0:0:
216,64,1992,1,0,0:0:0:0:
256,64,2109,1,0,0:0:0:0:
296,64,2226,1,0,0:0:0:0:
384,128,2461,5,4,0:0:0:0:
256,312,2695,1,0,0:0:0:0:
112,128,2929,1,4,0:0:0:0:
208,128,3164,2,0,L|320:128,1,100
304,200,3632,1,0,0:0:0:0:
304,200,3867,5,8,0:0:0:0:
304,48,4101,1,8,0:0:0:0:
240,232,4336,1,8,0:0:0:0:
232,56,4570,1,8,0:0:0:0:
176,264,4804,1,8,0:0:0:0:
160,64,5039,1,8,0:0:0:0:
112,296,5273,1,8,0:0:0:0:
260,72,5507,1,2,0:0:0:0:
160,72,5742,6,0,L|280:72,1,100,4|4,0:0|0:0,0:0:0:0:
280,72,6093,1,0,0:0:0:0:
296,72,6211,1,0,0:0:0:0:
120,192,6445,1,4,0:0:0:0:
384,192,6679,1,4,0:0:0:0:
160,72,6914,1,8,0:0:0:0:
256,288,7148,1,8,0:0:0:0:
112,64,7617,6,0,L|232:64,1,100,8|0,0:0|0:0,0:0:0:0:
224,64,7968,1,0,0:0:0:0:
240,64,8086,1,8,0:0:0:0:
320,64,8320,1,0,0:0:0:0:
320,168,8554,1,0,0:0:0:0:
248,168,8789,1,8,0:0:0:0:
224,168,8906,1,8,0:0:0:0:
200,168,9023,1,8,0:0:0:0:
120,168,9257,1,0,0:0:0:0:
120,168,9492,6,0,L|120:64,1,100,4|8,0:0|0:0,0:0:0:0:
144,72,9843,1,8,0:0:0:0:
168,72,9961,1,8,0:0:0:0:
192,168,10195,1,0,0:0:0:0:
304,120,10429,1,0,0:0:0:0:
296,240,10664,2,0,L|192:240,1,100
256,64,11132,1,0,0:0:0:0:
360,192,11367,1,0,0:0:0:0:
176,192,11601,5,0,0:0:0:0:
256,64,11836,2,0,L|344:64,1,50
96,208,12304,2,0,L|240:208,1,100
216,208,12656,1,0,0:0:0:0:
240,208,12773,2,0,L|360:208,1,100
360,208,13125,1,0,0:0:0:0:
384,208,13242,1,0,0:0:0:0:
200,56,13476,5,0,0:0:0:0:
312,56,13711,1,0,0:0:0:0:
200,208,13945,1,0,0:0:0:0:
312,208,14179,1,0,0:0:0:0:
256,104,14414,1,0,0:0:0:0:
256,168,14648,1,0,0:0:0:0:
176,48,15117,2,0,L|176:176,1,100,4|0,0:0|0:0,0:0:0:0:
176,152,15468,1,2,0:0:0:0:
176,148,15586,1,2,0:0:0:0:
256,152,15820,5,0,0:0:0:0:
328,152,16054,1,2,0:0:0:0:
416,152,16289,1,8,0:0:0:0:
416,152,16406,1,8,0:0:0:0:
416,152,16523,1,8,0:0:0:0:
416,224,16757,2,0,L|312:224,1,100
232,224,17226,1,0,0:0:0:0:
232,72,17461,1,0,0:0:0:0:
400,224,17695,1,0,0:0:0:0:
232,224,17929,1,0,0:0:0:0:
160,176,18164,1,8,0:0:0:0:
160,176,18281,1,8,0:0:0:0:
160,176,18398,2,8,L|160:72,1,100,8|4,0:0|0:0,0:0:0:0:
256,80,18867,5,0,0:0:0:0:
160,192,19101,1,0,0:0:0:0:
352,192,19336,1,0,0:0:0:0:
256,56,19570,1,0,0:0:0:0:
160,192,19804,2,0,L|264:192,1,100,4|0,0:0|0:0,0:0:0:0:
280,192,20156,1,8,0:0:0:0:
296,192,20273,1,8,0:0:0:0:
176,256,20507,1,0,0:0:0:0:
168,128,20742,1,0,0:0:0:0:
272,128,20976,1,0,0:0:0:0:
272,256,21211,1,0,0:0:0:0:
368,136,21445,1,0,0:0:0:0:
368,256,21679,6,0,L|304:256,1,50,2|0,0:0|0:0,0:0:0:0:
248,256,21914,1,8,0:0:0:0:
176,256,22148,1,8,0:0:0:0:
88,88,22617,6,0,L|192:88,1,100
188,88,22968,1,0,0:0:0:0:
188,88,23086,1,0,0:0:0:0:
352,96,23320,1,0,0:0:0:0:
352,232,23554,1,0,0:0:0:0:
352,96,23789,1,0,0:0:0:0:
304,96,23906,1,0,0:0:0:0:
256,96,24023,1,0,0:0:0:0:
352,304,24257,1,0,0:0:0:0:
352,96,24492,1,0,0:0:0:0:
304,96,24609,1,0,0:0:0:0:
256,96,24726,1,0,0:0:0:0:
160,96,24961,5,0,0:0:0:0:
256,312,25195,1,0,0:0:0:0:
448,96,25429,1,0,0:0:0:0:
200,192,25664,2,0,L|312:192,1,100
376,208,26132,1,0,0:0:0:0:
376,208,26367,5,0,0:0:0:0:
296,144,26601,1,0,0:0:0:0:
296,232,26836,1,0,0:0:0:0:
200,112,27070,1,0,0:0:0:0:
200,264,27304,1,0,0:0:0:0:
112,72,27539,1,0,0:0:0:0:
112,304,27773,1,0,0:0:0:0:
192,192,28007,1,0,0:0:0:0:
320,192,28242,6,0,L|440:192,1,100
160,288,28711,1,0,0:0:0:0:
392,192,28945,1,0,0:0:0:0:
128,192,29179,1,0,0:0:0:0:
256,304,29414,1,0,0:0:0:0:
256,56,29648,1,0,0:0:0:0:
