osu file format v14

[General]
AudioFilename: audio.mp3
AudioLeadIn: 0
PreviewTime: 3836
Countdown: 0
SampleSet: Normal
StackLeniency: 0.7
Mode: 1
LetterboxInBreaks: 0
WidescreenStoryboard: 0

[Editor]
DistanceSpacing: 1.1
BeatDivisor: 4
GridSize: 32
TimelineZoom: 1.5

[Metadata]
Title:ChocoBorks
TitleUnicode:ChocoBorks
Artist:Arf
ArtistUnicode:Arf
Creator:xtrem3x
Version:Muzukashii
Source:ファイナルファンタジーVII
Tags:Final Fantasy 7 チョコボ Chocobo Nobuo Uematsu 植松 伸夫 Square Enix Sony Computer Entertainment Eidos Interactive PlayStation Gabe The Dog Bork Meme YouTube Poop Music Video YTPMV Arfsama
BeatmapID:1451823
BeatmapSetID:685889

[Difficulty]
HPDrainRate:7
CircleSize:2
OverallDifficulty:5
ApproachRate:5
SliderMultiplier:1.4
SliderTickRate:1

[Events]
//Background and Video events
0,0,"ChocoBG.jpg",0,0
//Break Periods
//Storyboard Layer 0 (Background)
//Storyboard Layer 1 (Fail)
//Storyboard Layer 2 (Pass)
//Storyboard Layer 3 (Foreground)
//Storyboard Sound Samples

[TimingPoints]
3836,368.285691487076,4,1,0,80,1,0
33298,-100,4,1,0,60,0,0
36245,-100,4,1,0,40,0,0

[HitObjects]
256,192,3836,5,8,0:0:0:0:
256,192,4204,1,8,0:0:0:0:
256,192,4388,1,8,0:0:0:0:
256,192,4572,1,0,0:0:0:0:
256,192,4756,1,0,0:0:0:0:
256,192,4940,1,8,0:0:0:0:
256,192,5309,1,8,0:0:0:0:
256,192,5677,1,0,0:0:0:0:
256,192,6045,1,8,0:0:0:0:
256,192,6782,1,0,0:0:0:0:
256,192,7150,1,0,0:0:0:0:
256,192,7518,1,0,0:0:0:0:
256,192,8255,1,8,0:0:0:0:
256,192,8439,1,8,0:0:0:0:
256,192,8531,1,8,0:0:0:0:
256,192,8623,1,8,0:0:0:0:
256,192,8807,1,0,0:0:0:0:
256,192,8991,1,8,0:0:0:0:
256,192,9728,1,8,0:0:0:0:
256,192,10096,1,8,0:0:0:0:
256,192,10280,1,8,0:0:0:0:
256,192,10464,1,0,0:0:0:0:
256,192,10648,1,0,0:0:0:0:
256,192,10832,1,8,0:0:0:0:
256,192,11201,1,8,0:0:0:0:
256,192,11569,1,0,0:0:0:0:
256,192,11937,1,8,0:0:0:0:
256,192,12674,1,0,0:0:0:0:
256,192,13043,1,0,0:0:0:0:
256,192,13411,1,0,0:0:0:0:
256,192,14147,1,8,0:0:0:0:
256,192,14332,1,8,0:0:0:0:
256,192,14424,1,8,0:0:0:0:
256,192,14516,1,8,0:0:0:0:
256,192,14700,1,0,0:0:0:0:
256,192,14884,1,8,0:0:0:0:
256,192,15621,1,8,0:0:0:0:
256,192,15989,1,8,0:0:0:0:
256,192,16173,1,0,0:0:0:0:
256,192,16357,1,0,0:0:0:0:
256,192,16725,1,8,0:0:0:0:
256,192,16910,1,8,0:0:0:0:
256,192,17094,1,0,0:0:0:0:
256,192,17462,1,8,0:0:0:0:
256,192,17830,1,12,0:0:0:0:
256,192,18567,1,8,0:0:0:0:
256,192,18935,1,8,0:0:0:0:
256,192,19303,1,0,0:0:0:0:
256,192,19672,1,0,0:0:0:0:
256,192,20040,1,8,0:0:0:0:
256,192,20224,1,8,0:0:0:0:
256,192,20316,1,8,0:0:0:0:
256,192,20408,1,8,0:0:0:0:
256,192,20592,1,0,0:0:0:0:
256,192,20777,1,8,0:0:0:0:
256,192,21513,1,8,0:0:0:0:
256,192,21881,1,8,0:0:0:0:
256,192,22066,1,0,0:0:0:0:
256,192,22250,1,0,0:0:0:0:
256,192,22618,1,8,0:0:0:0:
256,192,22802,1,8,0:0:0:0:
256,192,22986,1,0,0:0:0:0:
256,192,23355,1,8,0:0:0:0:
256,192,23723,1,12,0:0:0:0:
256,192,24275,1,8,0:0:0:0:
256,192,24459,1,8,0:0:0:0:
256,192,24828,1,0,0:0:0:0:
256,192,25012,1,8,0:0:0:0:
256,192,25196,1,0,0:0:0:0:
256,192,25748,1,0,0:0:0:0:
256,192,25933,1,0,0:0:0:0:
256,192,26301,1,8,0:0:0:0:
256,192,26485,1,0,0:0:0:0:
256,192,26669,1,8,0:0:0:0:
256,192,27037,1,4,0:0:0:0:
256,192,27406,1,0,0:0:0:0:
256,192,27774,1,8,0:0:0:0:
256,192,28511,1,8,0:0:0:0:
256,192,28879,1,0,0:0:0:0:
256,192,29247,1,8,0:0:0:0:
256,192,29431,1,8,0:0:0:0:
256,192,29615,1,0,0:0:0:0:
256,192,29984,1,8,0:0:0:0:
256,192,30352,1,0,0:0:0:0:
256,192,30720,1,8,0:0:0:0:
256,192,31457,1,8,0:0:0:0:
256,192,31825,1,0,0:0:0:0:
256,192,32193,1,8,0:0:0:0:
256,192,32378,1,8,0:0:0:0:
256,192,32562,1,0,0:0:0:0:
256,192,32930,1,8,0:0:0:0:
256,192,33298,1,8,0:0:0:0:
256,192,33482,1,8,0:0:0:0:
256,192,34035,1,0,0:0:0:0:
256,192,34403,1,0,0:0:0:0:
256,192,34771,1,8,0:0:0:0:
256,192,34956,1,8,0:0:0:0:
256,192,35508,1,8,0:0:0:0:
256,192,35876,1,8,0:0:0:0:
256,192,36245,1,0,0:0:0:0:
256,192,36429,1,0,0:0:0:0:
256,192,36981,1,8,0:0:0:0:
256,192,37349,1,8,0:0:0:0:
256,192,37718,1,0,0:0:0:0:
256,192,37902,1,0,0:0:0:0:
256,192,38454,1,0,0:0:0:0:
256,192,38638,1,8,0:0:0:0:
