osu file format v14

[General]
AudioFilename: audio.mp3
AudioLeadIn: 0
PreviewTime: -1
Countdown: 0
SampleSet: Normal
StackLeniency: 0.7
Mode: 0
LetterboxInBreaks: 0
WidescreenStoryboard: 0

[Editor]
DistanceSpacing: 0.7
BeatDivisor: 4
GridSize: 4
TimelineZoom: 1

[Metadata]
Title:ChocoBorks
TitleUnicode:ChocoBorks
Artist:Arf
ArtistUnicode:Arf
Creator:NeoAxel58
Version:Shit
Source:Final Fantasy 7
Tags:
BeatmapID:1170001
BeatmapSetID:552468

[Difficulty]
HPDrainRate:7
CircleSize:4
OverallDifficulty:8
ApproachRate:9.2
SliderMultiplier:1.4
SliderTickRate:1

[Events]
//Background and Video events
//Break Periods
//Storyboard Layer 0 (Background)
//Storyboard Layer 1 (Fail)
//Storyboard Layer 2 (Pass)
//Storyboard Layer 3 (Foreground)
//Storyboard Sound Samples

[TimingPoints]
386,368.98099747863,4,1,0,100,1,0

[HitObjects]
0,264,386,6,0,P|48:192|116:144,1,140
224,112,939,1,0,0:0:0:0:
268,296,1123,1,0,0:0:0:0:
420,172,1308,1,0,0:0:0:0:
224,112,1492,1,0,0:0:0:0:
268,296,1677,1,0,0:0:0:0:
484,164,1861,5,0,0:0:0:0:
24,84,2230,1,0,0:0:0:0:
392,304,2599,2,0,B|492:184|440:80|440:80,1,210
332,72,3337,5,0,0:0:0:0:
212,100,3522,1,0,0:0:0:0:
120,172,3706,1,0,0:0:0:0:
112,284,3891,1,0,0:0:0:0:
216,336,4075,1,0,0:0:0:0:
304,128,4260,1,0,0:0:0:0:
232,336,4444,1,0,0:0:0:0:
308,132,4629,1,0,0:0:0:0:
336,332,4813,5,0,0:0:0:0:
436,200,4998,1,0,0:0:0:0:
436,200,5090,1,0,0:0:0:0:
436,200,5182,1,0,0:0:0:0:
164,80,5367,1,0,0:0:0:0:
260,320,5551,1,0,0:0:0:0:
356,80,5736,1,0,0:0:0:0:
128,228,5920,1,0,0:0:0:0:
384,228,6105,1,0,0:0:0:0:
508,264,6289,6,0,P|484:196|444:136,1,140
252,84,6843,1,0,0:0:0:0:
136,212,7027,1,0,0:0:0:0:
256,332,7212,1,0,0:0:0:0:
380,208,7396,1,0,0:0:0:0:
256,84,7581,1,0,0:0:0:0:
72,88,7765,1,0,0:0:0:0:
160,336,8134,1,0,0:0:0:0:
432,108,8503,2,0,P|384:44|308:52,1,140
216,64,9057,5,0,0:0:0:0:
72,168,9241,1,0,0:0:0:0:
216,64,9426,1,0,0:0:0:0:
136,208,9610,1,0,0:0:0:0:
216,64,9795,1,0,0:0:0:0:
204,224,9979,1,0,0:0:0:0:
448,168,10163,1,0,0:0:0:0:
208,112,10348,1,0,0:0:0:0:
448,168,10532,1,0,0:0:0:0:
388,260,10717,5,0,0:0:0:0:
308,336,10901,1,0,0:0:0:0:
308,336,10994,1,0,0:0:0:0:
308,336,11086,1,0,0:0:0:0:
188,336,11270,1,0,0:0:0:0:
320,60,11455,1,0,0:0:0:0:
132,288,11639,1,0,0:0:0:0:
372,112,11824,1,0,0:0:0:0:
100,228,12008,1,0,0:0:0:0:
40,184,12193,6,0,P|48:116|116:72,1,140
304,52,12746,1,0,0:0:0:0:
372,112,12931,1,0,0:0:0:0:
172,304,13115,1,0,0:0:0:0:
108,244,13300,1,0,0:0:0:0:
304,52,13484,1,0,0:0:0:0:
372,112,13669,1,0,0:0:0:0:
216,344,14038,1,0,0:0:0:0:
64,96,14407,2,0,B|96:24|288:52|288:52,1,210
344,72,15145,6,2,P|364:152|320:224,1,140
188,344,15698,1,0,0:0:0:0:
56,204,15883,1,0,0:0:0:0:
188,64,16067,1,0,0:0:0:0:
56,204,16252,1,0,0:0:0:0:
188,344,16436,1,0,0:0:0:0:
316,196,16621,1,0,0:0:0:0:
384,124,16805,1,0,0:0:0:0:
388,128,16897,1,0,0:0:0:0:
388,128,16990,1,0,0:0:0:0:
472,184,17174,1,0,0:0:0:0:
392,264,17359,1,0,0:0:0:0:
128,104,17543,1,0,0:0:0:0:
128,264,17728,1,0,0:0:0:0:
388,108,17912,1,0,0:0:0:0:
472,168,18097,6,0,P|476:236|392:264,1,140
320,312,18650,1,0,0:0:0:0:
192,48,18835,1,0,0:0:0:0:
192,312,19019,1,0,0:0:0:0:
328,52,19204,1,0,0:0:0:0:
440,100,19388,1,0,0:0:0:0:
304,344,19573,1,0,0:0:0:0:
128,104,19941,1,0,0:0:0:0:
444,80,20310,2,0,P|456:144|372:264,1,210
256,252,21048,5,0,0:0:0:0:
196,192,21233,1,0,0:0:0:0:
256,128,21417,1,0,0:0:0:0:
312,192,21602,1,0,0:0:0:0:
172,288,21786,1,0,0:0:0:0:
168,96,21971,1,0,0:0:0:0:
360,96,22155,1,0,0:0:0:0:
356,280,22340,1,0,0:0:0:0:
256,340,22524,1,0,0:0:0:0:
104,192,22709,1,0,0:0:0:0:
256,44,22893,1,0,0:0:0:0:
400,192,23078,1,0,0:0:0:0:
256,196,23262,1,0,0:0:0:0:
44,44,23631,2,0,B|0:64|80:68|4:88|72:104|-8:120|60:192,1,140
