osu file format v14

[General]
AudioFilename: audio1.mp3
AudioLeadIn: 0
PreviewTime: 27425
Countdown: 0
SampleSet: Normal
StackLeniency: 0.7
Mode: 3
LetterboxInBreaks: 0
SpecialStyle: 0
WidescreenStoryboard: 0

[Editor]
DistanceSpacing: 1.1
BeatDivisor: 16
GridSize: 8
TimelineZoom: 2.899999

[Metadata]
Title:Encounter on orbit
TitleUnicode:Encounter on orbit
Artist:Aresynth
ArtistUnicode:Aresynth
Creator:Meowstic
Version:NM
Source:EZ2AC : TIME TRAVELER
Tags:EZ2DJ EZ2AC Aresynth
BeatmapID:1498599
BeatmapSetID:708839

[Difficulty]
HPDrainRate:7
CircleSize:4
OverallDifficulty:7
ApproachRate:5
SliderMultiplier:1.4
SliderTickRate:1

[Events]
//Background and Video events
0,0,"65523930_p0.jpg",0,0
//Break Periods
2,74783,79956
//Storyboard Layer 0 (Background)
//Storyboard Layer 1 (Fail)
//Storyboard Layer 2 (Pass)
//Storyboard Layer 3 (Foreground)
//Storyboard Layer 4 (Overlay)
//Storyboard Sound Samples

[TimingPoints]
1480,324.324324324324,4,2,0,10,1,0
52074,-100,4,1,0,10,0,1
63750,-100,4,1,0,10,0,0
96182,-100,4,1,0,10,0,1
111750,-100,4,1,0,10,0,0

[HitObjects]
320,192,1480,5,0,0:0:0:0:
192,192,1642,1,0,0:0:0:0:
64,192,1804,1,0,0:0:0:0:
320,192,2128,1,0,0:0:0:0:
320,192,2452,1,0,0:0:0:0:
448,192,2615,1,0,0:0:0:0:
192,192,2777,1,0,0:0:0:0:
64,192,2939,1,0,0:0:0:0:
320,192,3101,1,0,0:0:0:0:
448,192,3425,1,0,0:0:0:0:
64,192,3750,1,0,0:0:0:0:
320,192,3750,1,0,0:0:0:0:
448,192,4074,1,0,0:0:0:0:
320,192,4236,1,0,0:0:0:0:
192,192,4398,1,0,0:0:0:0:
320,192,4723,1,0,0:0:0:0:
320,192,5047,1,0,0:0:0:0:
448,192,5209,1,0,0:0:0:0:
192,192,5371,1,0,0:0:0:0:
64,192,5534,1,0,0:0:0:0:
320,192,5696,1,0,0:0:0:0:
320,192,6020,1,0,0:0:0:0:
64,192,6344,128,0,6669:0:0:0:0:
448,192,6669,1,0,0:0:0:0:
192,192,6993,1,0,0:0:0:0:
320,192,6993,1,0,0:0:0:0:
448,192,7317,1,0,0:0:0:0:
192,192,7642,1,0,0:0:0:0:
64,192,7642,1,0,0:0:0:0:
320,192,7966,1,0,0:0:0:0:
192,192,8290,1,0,0:0:0:0:
64,192,8290,1,0,0:0:0:0:
448,192,8615,1,0,0:0:0:0:
192,192,8939,1,0,0:0:0:0:
320,192,8939,1,0,0:0:0:0:
448,192,9263,128,0,9588:0:0:0:0:
320,192,9588,128,0,9912:0:0:0:0:
192,192,9912,128,0,10236:0:0:0:0:
64,192,10236,128,0,10561:0:0:0:0:
320,192,10561,128,0,10885:0:0:0:0:
448,192,10885,128,0,11209:0:0:0:0:
192,192,11209,128,0,11534:0:0:0:0:
320,192,11534,1,0,0:0:0:0:
64,192,11534,128,0,11858:0:0:0:0:
448,192,11858,1,0,0:0:0:0:
448,192,12182,1,0,0:0:0:0:
448,192,12507,1,0,0:0:0:0:
448,192,12831,1,0,0:0:0:0:
64,192,13155,1,0,0:0:0:0:
64,192,13479,1,0,0:0:0:0:
64,192,13804,1,0,0:0:0:0:
64,192,14128,1,0,0:0:0:0:
320,192,14128,1,0,0:0:0:0:
448,192,14452,1,0,0:0:0:0:
448,192,14777,1,0,0:0:0:0:
448,192,15101,1,0,0:0:0:0:
448,192,15425,1,0,0:0:0:0:
64,192,15750,1,0,0:0:0:0:
64,192,16074,1,0,0:0:0:0:
64,192,16398,1,0,0:0:0:0:
448,192,16723,128,0,17047:0:0:0:0:
192,192,17047,1,0,0:0:0:0:
192,192,17371,1,0,0:0:0:0:
192,192,17696,1,0,0:0:0:0:
192,192,18020,1,0,0:0:0:0:
320,192,18344,1,0,0:0:0:0:
320,192,18669,1,0,0:0:0:0:
320,192,18993,1,0,0:0:0:0:
320,192,19317,1,0,0:0:0:0:
64,192,19642,1,0,0:0:0:0:
448,192,19804,1,0,0:0:0:0:
64,192,19966,1,0,0:0:0:0:
448,192,20128,1,0,0:0:0:0:
64,192,20290,128,0,20615:0:0:0:0:
448,192,20615,128,0,20939:0:0:0:0:
192,192,20939,1,0,0:0:0:0:
448,192,22236,1,0,0:0:0:0:
320,192,22561,1,0,0:0:0:0:
192,192,22885,1,0,0:0:0:0:
320,192,23371,1,0,0:0:0:0:
192,192,23858,1,0,0:0:0:0:
448,192,24344,1,0,0:0:0:0:
320,192,24831,1,0,0:0:0:0:
192,192,25479,1,0,0:0:0:0:
64,192,25804,1,0,0:0:0:0:
320,192,25966,1,0,0:0:0:0:
448,192,26777,1,0,0:0:0:0:
64,192,27101,128,0,27425:0:0:0:0:
320,192,27425,1,0,0:0:0:0:
192,192,28074,1,0,0:0:0:0:
448,192,28561,1,0,0:0:0:0:
192,192,29047,1,0,0:0:0:0:
320,192,29534,1,0,0:0:0:0:
64,192,30020,1,0,0:0:0:0:
192,192,30669,1,0,0:0:0:0:
320,192,31155,1,0,0:0:0:0:
448,192,31642,1,0,0:0:0:0:
64,192,32615,1,0,0:0:0:0:
320,192,32615,1,0,0:0:0:0:
448,192,32939,1,0,0:0:0:0:
192,192,32939,1,0,0:0:0:0:
64,192,33263,1,0,0:0:0:0:
448,192,33588,1,0,0:0:0:0:
192,192,33588,1,0,0:0:0:0:
64,192,33912,1,0,0:0:0:0:
448,192,34236,1,0,0:0:0:0:
192,192,34236,1,0,0:0:0:0:
320,192,34561,1,0,0:0:0:0:
64,192,34723,1,0,0:0:0:0:
448,192,34885,1,0,0:0:0:0:
192,192,34885,1,0,0:0:0:0:
320,192,35209,1,0,0:0:0:0:
64,192,35534,1,0,0:0:0:0:
192,192,35534,1,0,0:0:0:0:
448,192,35858,1,0,0:0:0:0:
192,192,36182,1,0,0:0:0:0:
64,192,36182,1,0,0:0:0:0:
320,192,36507,1,0,0:0:0:0:
192,192,36831,1,0,0:0:0:0:
64,192,36831,1,0,0:0:0:0:
448,192,37155,1,0,0:0:0:0:
64,192,37479,128,0,37804:0:0:0:0:
192,192,37804,1,0,0:0:0:0:
448,192,38128,1,0,0:0:0:0:
192,192,38128,1,0,0:0:0:0:
320,192,38452,1,0,0:0:0:0:
64,192,38777,1,0,0:0:0:0:
320,192,38777,1,0,0:0:0:0:
192,192,39101,1,0,0:0:0:0:
448,192,39425,1,0,0:0:0:0:
192,192,39425,1,0,0:0:0:0:
320,192,39750,1,0,0:0:0:0:
192,192,39912,1,0,0:0:0:0:
64,192,40074,1,0,0:0:0:0:
320,192,40074,1,0,0:0:0:0:
448,192,40398,128,0,41696:0:0:0:0:
192,192,40398,1,0,0:0:0:0:
192,192,40723,1,0,0:0:0:0:
64,192,41047,1,0,0:0:0:0:
64,192,41371,1,0,0:0:0:0:
64,192,41534,1,0,0:0:0:0:
320,192,41696,128,0,42993:0:0:0:0:
64,192,41858,1,0,0:0:0:0:
64,192,42182,1,0,0:0:0:0:
64,192,42507,1,0,0:0:0:0:
64,192,42669,128,0,42993:0:0:0:0:
448,192,42993,1,0,0:0:0:0:
448,192,43317,1,0,0:0:0:0:
448,192,43642,1,0,0:0:0:0:
448,192,43966,1,0,0:0:0:0:
448,192,44290,1,0,0:0:0:0:
448,192,44615,1,0,0:0:0:0:
448,192,44939,1,0,0:0:0:0:
448,192,45182,1,0,0:0:0:0:
448,192,45425,1,0,0:0:0:0:
64,192,45588,1,0,0:0:0:0:
320,192,45588,1,0,0:0:0:0:
64,192,45912,1,0,0:0:0:0:
64,192,46236,1,0,0:0:0:0:
64,192,46561,1,0,0:0:0:0:
64,192,46885,1,0,0:0:0:0:
64,192,47209,1,0,0:0:0:0:
64,192,47534,1,0,0:0:0:0:
320,192,47696,1,0,0:0:0:0:
64,192,47858,1,0,0:0:0:0:
320,192,48020,1,0,0:0:0:0:
448,192,48182,128,0,48507:0:0:0:0:
192,192,48182,1,0,0:0:0:0:
320,192,48507,128,0,48831:0:0:0:0:
192,192,48831,128,0,49155:0:0:0:0:
64,192,49155,128,0,49479:0:0:0:0:
448,192,49479,128,0,49804:0:0:0:0:
192,192,49479,1,0,0:0:0:0:
320,192,49804,128,0,50128:0:0:0:0:
192,192,50128,128,0,50452:0:0:0:0:
64,192,50452,128,0,52074:0:0:0:0:
448,192,50777,1,0,0:0:0:0:
192,192,50939,1,0,0:0:0:0:
448,192,51101,1,0,0:0:0:0:
192,192,51263,1,0,0:0:0:0:
448,192,51425,128,0,52074:0:0:0:0:
192,192,52074,1,0,0:0:0:0:
192,192,52885,1,0,0:0:0:0:
320,192,53047,1,0,0:0:0:0:
64,192,53047,1,0,0:0:0:0:
192,192,53371,1,0,0:0:0:0:
448,192,53371,1,0,0:0:0:0:
192,192,53696,1,0,0:0:0:0:
448,192,53696,1,0,0:0:0:0:
320,192,54020,1,0,0:0:0:0:
320,192,54263,1,0,0:0:0:0:
320,192,54507,1,0,0:0:0:0:
64,192,54669,1,0,0:0:0:0:
448,192,54669,1,0,0:0:0:0:
64,192,54993,1,0,0:0:0:0:
448,192,54993,1,0,0:0:0:0:
192,192,55317,1,0,0:0:0:0:
192,192,55561,1,0,0:0:0:0:
192,192,55804,1,0,0:0:0:0:
64,192,55966,1,0,0:0:0:0:
320,192,55966,1,0,0:0:0:0:
320,192,56290,1,0,0:0:0:0:
64,192,56290,1,0,0:0:0:0:
192,192,56615,1,0,0:0:0:0:
192,192,56858,1,0,0:0:0:0:
192,192,57101,1,0,0:0:0:0:
448,192,57425,1,0,0:0:0:0:
320,192,57425,1,0,0:0:0:0:
320,192,57750,1,0,0:0:0:0:
192,192,57750,1,0,0:0:0:0:
192,192,58074,1,0,0:0:0:0:
64,192,58074,1,0,0:0:0:0:
320,192,58236,128,0,58561:0:0:0:0:
64,192,58561,1,0,0:0:0:0:
448,192,58561,1,0,0:0:0:0:
64,192,58885,1,0,0:0:0:0:
448,192,58885,1,0,0:0:0:0:
320,192,59209,1,0,0:0:0:0:
320,192,59452,1,0,0:0:0:0:
320,192,59696,1,0,0:0:0:0:
64,192,59858,1,0,0:0:0:0:
192,192,60020,1,0,0:0:0:0:
64,192,60182,1,0,0:0:0:0:
192,192,60344,1,0,0:0:0:0:
448,192,60507,128,0,60709:0:0:0:0:
320,192,60709,1,0,0:0:0:0:
64,192,60912,1,0,0:0:0:0:
320,192,61155,1,0,0:0:0:0:
192,192,61155,1,0,0:0:0:0:
192,192,61479,1,0,0:0:0:0:
320,192,61642,1,0,0:0:0:0:
192,192,61804,1,0,0:0:0:0:
320,192,61966,1,0,0:0:0:0:
192,192,62128,1,0,0:0:0:0:
320,192,62452,1,0,0:0:0:0:
192,192,62615,1,0,0:0:0:0:
320,192,62777,1,0,0:0:0:0:
192,192,63101,1,0,0:0:0:0:
320,192,63263,1,0,0:0:0:0:
192,192,63425,1,0,0:0:0:0:
320,192,63588,128,0,63750:0:0:0:0:
64,192,63750,1,0,0:0:0:0:
448,192,63750,1,0,0:0:0:0:
320,192,64074,1,0,0:0:0:0:
448,192,64398,1,0,0:0:0:0:
64,192,64398,1,0,0:0:0:0:
320,192,64723,1,0,0:0:0:0:
448,192,65047,1,0,0:0:0:0:
192,192,65047,1,0,0:0:0:0:
192,192,65209,1,0,0:0:0:0:
192,192,65371,1,0,0:0:0:0:
448,192,65696,1,0,0:0:0:0:
64,192,65696,1,0,0:0:0:0:
448,192,66020,1,0,0:0:0:0:
192,192,66344,1,0,0:0:0:0:
64,192,66344,1,0,0:0:0:0:
448,192,66669,1,0,0:0:0:0:
320,192,66669,1,0,0:0:0:0:
192,192,66993,128,0,67155:0:0:0:0:
320,192,67155,128,0,67317:0:0:0:0:
64,192,67317,1,0,0:0:0:0:
448,192,67642,1,0,0:0:0:0:
192,192,67966,1,0,0:0:0:0:
64,192,67966,1,0,0:0:0:0:
448,192,68290,1,0,0:0:0:0:
192,192,68615,128,0,68939:0:0:0:0:
320,192,68615,1,0,0:0:0:0:
448,192,68939,1,0,0:0:0:0:
448,192,69182,1,0,0:0:0:0:
448,192,69425,1,0,0:0:0:0:
448,192,69669,1,0,0:0:0:0:
448,192,69912,1,0,0:0:0:0:
192,192,70155,1,0,0:0:0:0:
192,192,70398,1,0,0:0:0:0:
192,192,70642,1,0,0:0:0:0:
192,192,70885,1,0,0:0:0:0:
192,192,71128,1,0,0:0:0:0:
448,192,71371,1,0,0:0:0:0:
64,192,71371,1,0,0:0:0:0:
320,192,71534,1,0,0:0:0:0:
192,192,71777,1,0,0:0:0:0:
320,192,72020,1,0,0:0:0:0:
192,192,72263,1,0,0:0:0:0:
64,192,72507,1,0,0:0:0:0:
192,192,72750,1,0,0:0:0:0:
64,192,72993,1,0,0:0:0:0:
192,192,73236,1,0,0:0:0:0:
320,192,73479,1,0,0:0:0:0:
192,192,73723,1,0,0:0:0:0:
448,192,73966,1,0,0:0:0:0:
320,192,74128,1,0,0:0:0:0:
64,192,74128,1,0,0:0:0:0:
192,192,84507,5,0,0:0:0:0:
64,192,84831,5,0,0:0:0:0:
448,192,84831,1,0,0:0:0:0:
320,192,85155,1,0,0:0:0:0:
320,192,85479,1,0,0:0:0:0:
320,192,85642,1,0,0:0:0:0:
320,192,85804,1,0,0:0:0:0:
320,192,86128,1,0,0:0:0:0:
320,192,86452,1,0,0:0:0:0:
320,192,86696,1,0,0:0:0:0:
320,192,86939,1,0,0:0:0:0:
64,192,87101,1,0,0:0:0:0:
448,192,87101,1,0,0:0:0:0:
192,192,87425,1,0,0:0:0:0:
192,192,87750,1,0,0:0:0:0:
192,192,88074,1,0,0:0:0:0:
192,192,88236,1,0,0:0:0:0:
192,192,88398,1,0,0:0:0:0:
192,192,88723,1,0,0:0:0:0:
192,192,89047,1,0,0:0:0:0:
320,192,89371,128,0,89696:0:0:0:0:
64,192,89696,1,0,0:0:0:0:
448,192,89696,1,0,0:0:0:0:
192,192,89858,1,0,0:0:0:0:
192,192,90020,1,0,0:0:0:0:
192,192,90182,1,0,0:0:0:0:
192,192,90344,1,0,0:0:0:0:
192,192,90669,1,0,0:0:0:0:
64,192,90993,1,0,0:0:0:0:
448,192,90993,1,0,0:0:0:0:
320,192,91155,1,0,0:0:0:0:
320,192,91317,1,0,0:0:0:0:
320,192,91479,1,0,0:0:0:0:
320,192,91642,1,0,0:0:0:0:
320,192,91804,1,0,0:0:0:0:
320,192,91966,1,0,0:0:0:0:
320,192,92128,1,0,0:0:0:0:
448,192,92290,1,0,0:0:0:0:
192,192,92290,1,0,0:0:0:0:
448,192,92939,1,0,0:0:0:0:
64,192,92939,1,0,0:0:0:0:
448,192,93588,128,0,94885:0:0:0:0:
64,192,93588,1,0,0:0:0:0:
320,192,93588,1,0,0:0:0:0:
320,192,94885,1,0,0:0:0:0:
192,192,94885,1,0,0:0:0:0:
64,192,96182,1,0,0:0:0:0:
448,192,96182,1,0,0:0:0:0:
320,192,96507,1,0,0:0:0:0:
448,192,96750,1,0,0:0:0:0:
320,192,96831,1,0,0:0:0:0:
192,192,96993,1,0,0:0:0:0:
64,192,97155,1,0,0:0:0:0:
192,192,97317,1,0,0:0:0:0:
448,192,97642,1,0,0:0:0:0:
320,192,97723,1,0,0:0:0:0:
192,192,97885,1,0,0:0:0:0:
64,192,97966,1,0,0:0:0:0:
64,192,98290,1,0,0:0:0:0:
192,192,98371,1,0,0:0:0:0:
320,192,98615,1,0,0:0:0:0:
448,192,98696,1,0,0:0:0:0:
320,192,98939,1,0,0:0:0:0:
192,192,99263,1,0,0:0:0:0:
320,192,99425,1,0,0:0:0:0:
64,192,99588,1,0,0:0:0:0:
192,192,99750,1,0,0:0:0:0:
448,192,99912,1,0,0:0:0:0:
320,192,100074,1,0,0:0:0:0:
448,192,100398,1,0,0:0:0:0:
320,192,100479,1,0,0:0:0:0:
192,192,100642,1,0,0:0:0:0:
64,192,100723,1,0,0:0:0:0:
448,192,101047,128,0,101371:0:0:0:0:
64,192,101371,1,0,0:0:0:0:
192,192,101696,1,0,0:0:0:0:
320,192,101777,1,0,0:0:0:0:
448,192,101939,1,0,0:0:0:0:
320,192,102020,1,0,0:0:0:0:
192,192,102182,1,0,0:0:0:0:
320,192,102344,1,0,0:0:0:0:
64,192,102507,1,0,0:0:0:0:
448,192,102831,1,0,0:0:0:0:
320,192,102912,1,0,0:0:0:0:
192,192,103074,1,0,0:0:0:0:
64,192,103155,1,0,0:0:0:0:
64,192,103479,1,0,0:0:0:0:
192,192,103561,1,0,0:0:0:0:
320,192,103723,1,0,0:0:0:0:
448,192,103804,1,0,0:0:0:0:
192,192,103885,1,0,0:0:0:0:
320,192,103966,1,0,0:0:0:0:
192,192,104290,1,0,0:0:0:0:
64,192,104452,1,0,0:0:0:0:
192,192,104615,1,0,0:0:0:0:
320,192,104777,1,0,0:0:0:0:
448,192,105101,1,0,0:0:0:0:
448,192,105263,1,0,0:0:0:0:
320,192,105344,1,0,0:0:0:0:
64,192,105507,1,0,0:0:0:0:
64,192,105750,1,0,0:0:0:0:
320,192,105912,1,0,0:0:0:0:
448,192,106236,1,0,0:0:0:0:
320,192,106398,1,0,0:0:0:0:
64,192,106561,1,0,0:0:0:0:
192,192,106561,1,0,0:0:0:0:
64,192,106885,1,0,0:0:0:0:
320,192,106885,1,0,0:0:0:0:
192,192,107209,1,0,0:0:0:0:
192,192,107534,1,0,0:0:0:0:
320,192,107534,1,0,0:0:0:0:
64,192,107858,1,0,0:0:0:0:
64,192,108182,1,0,0:0:0:0:
448,192,108182,1,0,0:0:0:0:
192,192,108507,1,0,0:0:0:0:
192,192,108831,1,0,0:0:0:0:
320,192,108831,1,0,0:0:0:0:
64,192,109155,1,0,0:0:0:0:
320,192,109155,1,0,0:0:0:0:
64,192,109317,1,0,0:0:0:0:
64,192,109479,1,0,0:0:0:0:
448,192,109479,1,0,0:0:0:0:
192,192,109804,1,0,0:0:0:0:
192,192,110128,1,0,0:0:0:0:
320,192,110128,1,0,0:0:0:0:
64,192,110452,1,0,0:0:0:0:
64,192,110777,1,0,0:0:0:0:
448,192,110777,1,0,0:0:0:0:
192,192,111101,1,0,0:0:0:0:
64,192,111425,1,0,0:0:0:0:
448,192,111425,128,0,111750:0:0:0:0:
192,192,111750,1,0,0:0:0:0:
320,192,111750,1,0,0:0:0:0:
64,192,111912,1,0,0:0:0:0:
320,192,112074,1,0,0:0:0:0:
64,192,112236,1,0,0:0:0:0:
320,192,112398,1,0,0:0:0:0:
64,192,112561,1,0,0:0:0:0:
320,192,112723,1,0,0:0:0:0:
192,192,112885,1,0,0:0:0:0:
448,192,113047,1,0,0:0:0:0:
64,192,113047,1,0,0:0:0:0:
192,192,113209,1,0,0:0:0:0:
448,192,113371,1,0,0:0:0:0:
192,192,113534,1,0,0:0:0:0:
448,192,113696,1,0,0:0:0:0:
192,192,113858,1,0,0:0:0:0:
448,192,114020,1,0,0:0:0:0:
192,192,114182,1,0,0:0:0:0:
64,192,114344,1,0,0:0:0:0:
448,192,114344,1,0,0:0:0:0:
192,192,114507,1,0,0:0:0:0:
320,192,114669,1,0,0:0:0:0:
448,192,114831,1,0,0:0:0:0:
64,192,114993,1,0,0:0:0:0:
320,192,114993,1,0,0:0:0:0:
448,192,115155,1,0,0:0:0:0:
320,192,115317,1,0,0:0:0:0:
192,192,115479,1,0,0:0:0:0:
320,192,115642,128,0,115804:0:0:0:0:
192,192,115804,128,0,115966:0:0:0:0:
448,192,115966,128,0,116128:0:0:0:0:
320,192,116128,128,0,116290:0:0:0:0:
448,192,116290,128,0,116452:0:0:0:0:
192,192,116452,128,0,116615:0:0:0:0:
64,192,116615,128,0,116777:0:0:0:0:
320,192,116777,128,0,116939:0:0:0:0:
