osu file format v14

[General]
AudioFilename: audio.mp3
AudioLeadIn: 0
PreviewTime: 42818
Countdown: 0
SampleSet: Soft
StackLeniency: 0.7
Mode: 2
LetterboxInBreaks: 0
WidescreenStoryboard: 0

[Editor]
Bookmarks: 82943,101157,128586
DistanceSpacing: 1.1
BeatDivisor: 4
GridSize: 4
TimelineZoom: 1.5

[Metadata]
Title:Wild Water
TitleUnicode:Wild Water
Artist:Ardolf
ArtistUnicode:Ardolf
Creator:4rcheR-
Version:Wild Platter
Source:
Tags:archer Electronic Instrumental dance & edm Tropical house furry wolf summer beach sea werewolf fa featured artist
BeatmapID:4099650
BeatmapSetID:1975164

[Difficulty]
HPDrainRate:4
CircleSize:3
OverallDifficulty:8
ApproachRate:8
SliderMultiplier:2.2
SliderTickRate:2

[Events]
//Background and Video events
0,0,"bg.jpg",0,0
//Break Periods
2,87872,96015
//Storyboard Layer 0 (Background)
//Storyboard Layer 1 (Fail)
//Storyboard Layer 2 (Pass)
//Storyboard Layer 3 (Foreground)
//Storyboard Layer 4 (Overlay)
//Storyboard Sound Samples

[TimingPoints]
15,428.571428571429,4,2,22,80,1,0
443,-100,4,2,22,25,0,0
872,-100,4,2,22,30,0,0
1300,-100,4,2,22,35,0,0
1729,-200,4,2,22,40,0,0
13729,-100,4,2,22,40,0,0
14157,-100,4,2,22,45,0,0
14586,-100,4,2,22,50,0,0
15015,-100,4,2,22,55,0,0
15443,-100,4,2,21,60,0,0
27443,-100,4,2,22,70,0,0
28300,-100,4,2,22,75,0,0
29157,-100,4,2,22,80,0,1
31193,-100,4,2,22,5,0,1
31300,-100,4,2,22,80,0,1
31622,-100,4,2,22,5,0,1
31729,-100,4,2,22,80,0,1
56586,-100,4,2,21,60,0,0
68586,-100,4,2,20,65,0,0
70086,-100,4,2,21,65,0,0
70300,-100,4,2,21,70,0,0
85729,-100,4,2,22,50,0,0
87336,-100,4,2,22,5,0,0
87443,-100,4,2,22,40,0,0
99443,-100,4,2,22,50,0,0
99872,-100,4,2,22,55,0,0
100300,-100,4,2,22,60,0,0
100729,-100,4,2,22,65,0,0
101157,-100,4,2,22,70,0,0
114872,-100,4,2,22,65,0,1
114979,-100,4,2,22,65,0,0
115300,-100,4,2,21,65,0,0
116586,-100,4,2,22,65,0,0
117015,-100,4,2,21,65,0,0
118300,-100,4,2,21,70,0,0
120015,-100,4,2,22,75,0,0
121729,-100,4,2,22,80,0,1
128586,-100,4,2,22,85,0,1
130622,-100,4,2,22,5,0,1
130729,-100,4,2,22,85,0,1
131050,-100,4,2,22,5,0,1
131157,-100,4,2,22,85,0,1
132336,-100,4,2,22,5,0,1
132443,-100,4,2,22,85,0,1
132765,-100,4,2,22,5,0,1
132872,-100,4,2,22,85,0,1
133193,-100,4,2,22,5,0,1
133300,-100,4,2,22,85,0,1
139193,-100,4,2,22,5,0,1
139300,-100,4,2,22,85,0,1
142300,-100,4,2,22,75,0,0
142729,-100,4,2,22,60,0,0
143157,-100,4,2,22,45,0,0
143586,-100,4,2,22,30,0,0
144015,-100,4,2,22,15,0,0

[Colours]
Combo1 : 192,192,192
Combo2 : 107,107,107
Combo3 : 17,89,198
Combo4 : 23,180,255
Combo5 : 185,51,32
Combo6 : 183,197,58

[HitObjects]
256,192,15,12,0,1300,0:0:0:0:
256,264,1729,6,0,P|352:264|432:56,1,330,4|0,1:0|0:0,0:0:0:0:
200,96,3443,6,0,P|296:96|420:276,1,330,2|0,1:0|0:0,0:0:0:0:
180,292,5157,6,0,P|68:248|164:112,1,330,2|0,1:0|0:0,0:0:0:0:
400,120,6872,6,0,B|304:96|244:168|244:168|168:112|88:164,1,330,2|0,1:0|0:0,0:0:0:0:
396,140,8586,6,0,P|480:192|384:360,1,330,2|0,1:0|0:0,0:0:0:0:
152,340,10300,6,0,P|164:308|392:352,1,330,2|0,1:0|0:0,0:0:0:0:
148,332,12015,6,0,P|72:264|104:48,1,330,2|0,1:0|0:0,0:0:0:0:
340,64,13729,6,0,P|416:120|340:192,1,220,2|8,1:0|0:3,0:0:0:0:
224,192,14372,1,8,0:3:0:0:
174,213,14479,1,8,0:3:0:0:
154,263,14586,1,8,0:3:0:0:
173,313,14693,1,8,0:3:0:0:
222,335,14800,1,8,0:3:0:0:
420,332,15015,2,0,L|416:208,1,110,8|8,0:3|0:3,0:0:0:0:
108,200,15443,6,0,P|48:152|128:36,1,220,4|8,1:2|0:0,0:0:0:0:
220,52,16086,2,0,P|328:64|364:172,1,220,0|0,1:0|1:0,0:0:0:0:
168,156,16729,2,0,L|24:152,1,110,8|8,0:0|0:1,0:0:0:0:
120,152,17050,1,8,0:1:0:0:
252,228,17157,6,0,P|360:208|400:100,1,220,0|8,1:0|0:0,0:0:0:0:
284,140,17800,2,0,P|196:128|132:8,1,220,0|0,1:0|1:0,0:0:0:0:
328,60,18443,2,0,L|480:60,1,110,8|0,0:0|3:0,0:0:0:0:
240,60,18872,6,0,P|128:88|108:208,1,220,0|8,1:0|0:0,0:0:0:0:
220,168,19515,2,0,P|300:168|340:296,1,220,0|0,1:0|1:0,0:0:0:0:
148,300,20157,2,0,L|272:300,1,110,8|8,0:0|0:1,0:0:0:0:
320,300,20479,1,8,0:1:0:0:
428,300,20586,6,0,P|472:248|408:104,1,220,0|8,1:0|0:0,0:0:0:0:
308,108,21229,2,0,L|88:72,1,220,0|0,1:0|1:0,0:0:0:0:
288,100,21872,2,0,L|412:120,1,110,8|0,0:0|3:0,0:0:0:0:
88,96,22300,6,0,P|36:164|124:264,1,220,0|8,1:0|0:0,0:0:0:0:
224,244,22943,2,0,P|344:220|356:104,1,220,0|0,1:0|1:0,0:0:0:0:
168,124,23586,2,0,L|168:260,1,110,8|8,0:0|0:1,0:0:0:0:
228,240,23907,1,8,0:1:0:0:
340,240,24015,6,0,P|340:164|204:116,1,220,0|8,1:0|0:0,0:0:0:0:
104,104,24657,2,0,P|60:160|144:280,1,220,0|0,1:0|1:0,0:0:0:0:
324,268,25300,2,0,L|188:268,1,110,8|0,0:0|3:0,0:0:0:0:
412,272,25729,6,0,P|464:224|396:108,1,220,0|8,1:0|0:0,0:0:0:0:
284,112,26372,2,0,P|176:128|136:236,1,220,0|0,1:0|1:0,0:0:0:0:
332,232,27015,2,0,L|448:232,1,110,8|0,0:0|1:0,0:0:0:0:
136,244,27443,5,10,1:3:0:0:
96,208,27550,1,0,0:0:0:0:
99,155,27657,1,8,0:3:0:0:
142,124,27765,1,8,0:3:0:0:
252,120,27872,2,0,L|392:120,1,110,10|0,0:3|1:0,0:0:0:0:
164,120,28300,2,0,L|76:120,1,55,10|8,0:3|0:3,0:0:0:0:
164,120,28515,2,0,L|236:120,1,55,8|8,0:3|0:3,0:0:0:0:
328,116,28729,2,0,P|352:176|320:232,1,110,10|8,0:3|0:3,0:0:0:0:
20,236,29157,6,0,L|20:104,1,110,6|0,1:2|3:0,0:0:0:0:
148,100,29586,2,0,L|32:112,1,110,10|0,0:0|3:0,0:0:0:0:
172,108,30015,2,0,L|284:100,1,110,2|2,1:0|3:0,0:0:0:0:
72,100,30443,2,0,L|72:228,1,110,10|8,0:0|3:1,0:0:0:0:
280,184,30872,6,0,P|392:168|472:72,2,220,2|10|2,1:0|0:0|1:0,0:0:0:0:
148,164,31943,1,0,3:0:0:0:
356,156,32157,2,0,L|472:156,1,110,10|2,0:0|3:0,0:0:0:0:
124,164,32586,6,0,L|124:304,1,110,2|0,1:0|3:0,0:0:0:0:
332,280,33015,2,0,L|332:152,1,110,10|0,0:0|3:0,0:0:0:0:
200,188,33443,2,0,L|200:40,1,110,2|0,1:0|3:0,0:0:0:0:
408,60,33872,2,0,L|408:200,1,110,10|8,0:0|3:1,0:0:0:0:
200,184,34300,6,0,P|136:232|216:320,1,220,2|8,1:0|0:0,0:0:0:0:
340,324,34943,1,0,3:0:0:0:
132,332,35157,2,0,L|132:196,1,110,2|0,1:0|3:0,0:0:0:0:
340,200,35586,2,0,L|476:200,1,110,10|2,0:0|3:0,0:0:0:0:
132,212,36015,6,0,P|80:152|196:88,1,220,2|10,1:0|0:0,0:0:0:0:
276,72,36657,1,0,3:0:0:0:
388,80,36872,2,0,L|388:228,1,110,2|2,1:0|3:0,0:0:0:0:
180,188,37300,2,0,L|44:192,1,110,10|10,0:0|3:1,0:0:0:0:
280,188,37729,6,0,L|504:188,1,220,2|10,1:0|0:0,0:0:0:0:
292,192,38372,2,0,L|48:192,1,220,2|0,3:0|3:0,0:0:0:0:
280,172,39015,2,0,L|396:172,1,110,10|2,0:0|3:0,0:0:0:0:
72,168,39443,6,0,P|20:220|80:336,1,220,2|10,1:0|0:0,0:0:0:0:
208,332,40086,1,0,3:0:0:0:
76,332,40300,2,0,L|72:204,1,110,2|0,1:0|3:0,0:0:0:0:
280,208,40729,2,0,L|156:208,1,110,10|8,0:0|3:1,0:0:0:0:
380,208,41157,5,2,1:0:0:0:
248,196,41372,2,0,L|212:144,2,55,8|8|8,0:3|0:3|0:3,0:0:0:0:
380,204,41800,1,2,1:0:0:0:
172,212,42015,1,10,0:3:0:0:
125,236,42122,1,8,0:3:0:0:
127,288,42229,1,10,0:3:0:0:
174,311,42336,1,8,0:3:0:0:
284,308,42443,2,0,L|408:308,1,110,10|2,0:3|1:0,0:0:0:0:
72,316,42872,6,0,P|72:248|200:196,1,220,6|10,1:2|0:0,0:0:0:0:
328,168,43515,1,0,3:0:0:0:
196,160,43729,2,0,L|192:24,1,110,2|2,1:0|3:0,0:0:0:0:
400,60,44157,2,0,L|400:188,1,110,10|10,0:0|3:1,0:0:0:0:
192,168,44586,6,0,L|440:168,2,220,2|10|2,1:0|0:0|1:0,0:0:0:0:
72,168,45657,1,0,3:0:0:0:
280,284,45872,2,0,L|156:280,1,110,10|2,0:0|3:0,0:0:0:0:
488,284,46300,6,0,L|488:148,1,110,2|0,1:0|3:0,0:0:0:0:
280,164,46729,2,0,L|420:164,1,110,10|0,0:0|3:0,0:0:0:0:
260,164,47157,2,0,L|132:164,1,110,2|0,1:0|3:0,0:0:0:0:
360,168,47586,2,0,L|360:44,1,110,10|8,0:0|3:1,0:0:0:0:
152,84,48015,6,0,L|392:84,1,220,2|8,1:0|0:0,0:0:0:0:
240,80,48657,1,0,3:0:0:0:
448,84,48872,2,0,L|448:216,1,110,2|0,1:0|3:0,0:0:0:0:
240,196,49300,2,0,L|88:196,1,110,10|2,0:0|3:0,0:0:0:0:
452,196,49729,6,0,P|456:280|304:320,1,220,2|10,1:0|0:0,0:0:0:0:
216,332,50372,1,0,3:0:0:0:
348,328,50586,2,0,L|208:328,1,110,2|2,1:0|3:0,0:0:0:0:
28,304,51015,2,0,L|168:304,1,110,10|10,0:0|3:1,0:0:0:0:
348,308,51443,6,0,P|396:240|336:120,1,220,2|10,1:0|0:0,0:0:0:0:
24,124,52086,2,0,P|16:240|68:336,1,220,2|0,3:0|3:0,0:0:0:0:
264,108,52729,2,0,L|152:116,1,110,10|2,0:0|3:0,0:0:0:0:
472,108,53157,6,0,P|476:200|340:260,1,220,2|10,1:0|0:0,0:0:0:0:
248,260,53800,1,0,3:0:0:0:
456,260,54015,2,0,L|456:372,1,110,2|0,1:0|3:0,0:0:0:0:
248,364,54443,2,0,L|120:364,1,110,10|8,0:0|3:1,0:0:0:0:
460,360,54872,6,0,L|456:220,1,110,2|8,1:0|0:3,0:0:0:0:
392,244,55193,1,8,0:3:0:0:
328,236,55300,2,0,L|464:232,1,110,10|0,0:3|1:0,0:0:0:0:
228,240,55729,2,0,L|156:240,1,55,10|8,0:3|0:3,0:0:0:0:
173,240,55943,2,0,L|248:240,1,55,10|8,0:3|0:3,0:0:0:0:
336,240,56157,2,0,L|480:240,1,110,10|2,0:3|0:1,0:0:0:0:
136,248,56586,6,0,P|48:200|128:108,1,220,6|2,1:2|0:0,0:0:0:0:
216,100,57229,1,0,1:0:0:0:
412,104,57443,1,10,0:0:0:0:
483,180,57657,1,2,0:0:0:0:
444,276,57872,1,2,0:0:0:0:
340,283,58086,1,2,0:0:0:0:
144,296,58300,6,0,P|60:280|4:220,2,165,2|0|0,1:2|1:0|1:0,0:0:0:0:
344,292,59157,1,10,0:0:0:0:
464,280,59372,2,0,L|488:228,2,55,0|0|0,0:0|0:0|0:0,0:0:0:0:
344,272,59800,1,2,0:0:0:0:
136,276,60015,6,0,P|100:220|224:152,1,220,2|2,1:2|0:0,0:0:0:0:
320,128,60657,1,0,1:0:0:0:
120,124,60872,2,0,L|372:120,1,220,10|2,0:0|0:0,0:0:0:0:
460,116,61515,1,0,1:0:0:0:
264,112,61729,6,0,L|88:112,2,165,2|0|2,1:2|1:0|1:2,0:0:0:0:
464,120,62586,1,10,0:0:0:0:
344,112,62800,1,0,0:0:0:0:
316,164,62907,1,0,0:0:0:0:
344,220,63015,1,0,0:0:0:0:
464,228,63229,1,2,0:0:0:0:
156,232,63443,6,0,P|128:176|248:96,1,220,2|2,1:2|0:0,0:0:0:0:
356,104,64086,1,0,1:0:0:0:
160,132,64300,2,0,L|160:260,1,110,10|2,0:0|0:0,0:0:0:0:
348,248,64729,2,0,L|484:248,1,110,2|2,0:0|0:0,0:0:0:0:
272,252,65157,6,0,L|96:252,1,165,2|0,1:2|1:0,0:0:0:0:
48,244,65586,2,0,L|188:244,1,110,2|2,0:0|1:2,0:0:0:0:
360,108,66015,2,0,L|360:244,1,110,8|2,0:0|0:0,0:0:0:0:
164,232,66443,2,0,L|164:360,1,110,2|2,0:0|0:0,0:0:0:0:
364,344,66872,6,0,L|132:344,1,220,2|2,1:2|0:0,0:0:0:0:
264,340,67515,1,0,1:0:0:0:
460,336,67729,2,0,L|460:212,1,110,10|0,0:0|0:0,0:0:0:0:
264,188,68157,2,0,L|392:188,1,110,2|0,0:0|1:0,0:0:0:0:
64,180,68586,6,0,L|64:292,1,110,2|8,1:2|0:0,0:0:0:0:
124,288,68907,1,8,0:0:0:0:
184,288,69015,2,0,L|40:288,1,110,8|2,0:0|1:2,0:0:0:0:
272,292,69443,2,0,L|336:292,1,55,10|8,0:0|0:0,0:0:0:0:
272,292,69657,2,0,L|200:292,1,55,8|8,0:0|0:0,0:0:0:0:
108,292,69872,2,0,P|88:236|144:184,1,110,10|8,0:0|0:0,0:0:0:0:
416,152,70300,6,0,P|488:80|392:32,1,220,6|10,1:2|0:0,0:0:0:0:
296,40,70943,1,0,1:0:0:0:
416,36,71157,2,0,L|416:184,1,110,2|2,0:0|1:2,0:0:0:0:
216,140,71586,2,0,L|84:140,1,110,10|2,0:0|0:0,0:0:0:0:
304,136,72015,6,0,P|440:136|480:52,2,220,2|10|2,1:2|0:0|0:0,0:0:0:0:
184,132,73086,1,0,1:0:0:0:
244,132,73193,1,0,1:0:0:0:
356,136,73300,2,0,L|356:272,1,110,8|2,0:0|1:2,0:0:0:0:
156,252,73729,6,0,L|396:252,1,220,2|10,1:2|0:0,0:0:0:0:
256,248,74372,1,0,1:0:0:0:
60,256,74586,2,0,L|56:112,1,110,2|0,0:0|1:0,0:0:0:0:
256,140,75015,2,0,L|392:136,1,110,10|8,0:0|0:1,0:0:0:0:
172,104,75443,6,0,P|96:156|196:216,1,220,2|8,1:2|0:0,0:0:0:0:
288,228,76086,1,2,1:2:0:0:
92,236,76300,2,0,L|212:236,1,110,2|0,0:0|1:0,0:0:0:0:
140,236,76622,1,0,1:0:0:0:
32,240,76729,2,0,L|32:120,1,110,8|2,0:0|1:2,0:0:0:0:
340,148,77157,6,0,P|404:144|468:12,1,220,2|10,1:2|0:0,0:0:0:0:
348,36,77800,1,0,1:0:0:0:
228,32,78015,2,0,L|228:176,1,110,2|2,0:0|1:2,0:0:0:0:
424,136,78443,2,0,L|424:276,1,110,10|2,0:0|0:0,0:0:0:0:
224,248,78872,6,0,P|66:249|8:196,1,220,2|10,1:2|0:0,0:0:0:0:
220,220,79515,2,0,P|326:238|421:187,1,220,2|2,1:2|1:2,0:0:0:0:
224,184,80157,2,0,P|156:176|112:148,1,110,10|0,0:0|1:0,0:0:0:0:
320,136,80586,6,0,P|368:120|304:20,1,220,2|10,1:2|0:2,0:0:0:0:
184,40,81229,1,0,1:0:0:0:
304,36,81443,2,0,L|304:168,1,110,2|0,0:0|1:0,0:0:0:0:
104,160,81872,2,0,L|104:276,1,110,10|8,0:0|0:1,0:0:0:0:
412,280,82300,6,0,P|448:228|432:116,1,165,6|6,1:2|1:2,0:0:0:0:
40,108,82943,1,6,1:2:0:0:
40,108,85729,5,2,1:0:0:0:
280,96,86157,2,0,L|280:212,1,110,2|2,0:0|0:0,0:0:0:0:
160,200,86586,2,0,L|164:332,1,110,2|2,0:0|0:0,0:0:0:0:
44,304,87015,1,2,0:0:0:0:
372,304,87443,5,4,1:0:0:0:
256,192,97729,12,0,99015,0:0:0:0:
256,196,99443,6,0,P|144:152|268:84,1,330,2|8,1:0|0:3,0:0:0:0:
320,116,100193,1,8,0:3:0:0:
276,156,100300,1,10,0:3:0:0:
220,172,100407,1,8,0:3:0:0:
216,232,100515,1,8,0:3:0:0:
272,256,100622,1,8,0:3:0:0:
380,264,100729,2,0,L|504:264,1,110,8|8,0:3|0:3,0:0:0:0:
184,264,101157,6,0,P|112:232|192:128,1,220,6|8,1:2|3:0,0:0:0:0:
280,124,101800,2,0,P|368:120|384:8,1,220,0|0,1:0|1:0,0:0:0:0:
188,32,102443,2,0,L|68:36,1,110,10|0,3:0|0:0,0:0:0:0:
276,36,102872,6,0,P|392:68|416:184,1,220,2|8,1:0|3:0,0:0:0:0:
300,160,103515,2,0,P|196:176|176:276,1,220,0|0,1:0|1:0,0:0:0:0:
372,280,104157,2,0,L|436:284,2,55,10|0|0,3:0|1:0|3:0,0:0:0:0:
172,284,104586,6,0,P|116:236|208:128,1,220,2|8,1:0|3:0,0:0:0:0:
300,136,105229,2,0,L|80:96,1,220,0|0,1:0|1:0,0:0:0:0:
280,84,105872,2,0,L|424:72,1,110,10|0,3:0|0:0,0:0:0:0:
192,80,106300,6,0,P|132:152|216:256,1,220,2|8,1:0|3:0,0:0:0:0:
308,236,106943,2,0,P|388:272|296:308,1,220,0|0,1:0|1:0,0:0:0:0:
112,312,107586,2,0,L|36:288,2,55,10|0|0,3:0|1:0|3:0,0:0:0:0:
420,320,108015,6,0,P|472:240|400:152,1,220,2|8,1:0|3:0,0:0:0:0:
284,164,108657,2,0,P|200:112|280:36,1,220,0|0,1:0|1:0,0:0:0:0:
456,52,109300,2,0,L|344:48,1,110,10|0,3:0|0:0,0:0:0:0:
148,44,109729,6,0,P|80:112|160:208,1,220,2|8,1:0|3:0,0:0:0:0:
256,200,110372,1,0,1:0:0:0:
376,192,110586,2,0,L|384:344,1,110,2|0,3:0|1:0,0:0:0:0:
184,304,111015,2,0,L|48:312,1,110,10|0,3:0|3:0,0:0:0:0:
272,304,111443,6,0,L|412:296,1,110,10|0,0:3|1:0,0:0:0:0:
260,308,111872,2,0,L|132:312,1,110,8|0,0:3|1:0,0:0:0:0:
348,308,112300,2,0,P|376:256|352:184,1,110,8|0,0:3|1:0,0:0:0:0:
168,212,112729,2,0,L|52:212,1,110,10|0,0:3|1:0,0:0:0:0:
368,207,113157,5,10,1:3:0:0:
424,208,113265,1,0,0:0:0:0:
424,264,113372,1,8,0:3:0:0:
368,264,113479,1,8,0:3:0:0:
257,265,113586,2,0,L|133:265,1,110,10|8,0:3|0:3,0:0:0:0:
345,265,114015,2,0,L|421:265,1,55,10|8,0:3|0:3,0:0:0:0:
345,265,114229,2,0,L|273:265,1,55,8|8,0:3|0:3,0:0:0:0:
181,269,114443,2,0,L|57:269,1,110,10|8,0:3|0:3,0:0:0:0:
381,281,114872,6,0,P|444:228|416:100,1,220,6|8,1:2|0:3,0:0:0:0:
300,116,115515,1,0,1:0:0:0:
420,112,115729,2,0,L|424:232,1,110,2|2,0:3|1:3,0:0:0:0:
304,212,116157,2,0,L|424:208,1,110,10|10,0:3|0:1,0:0:0:0:
216,212,116586,6,0,P|124:208|16:100,2,220,2|10|2,1:3|0:3|0:3,0:0:0:0:
332,180,117657,1,0,1:0:0:0:
132,168,117872,2,0,L|16:168,1,110,10|2,0:3|0:3,0:0:0:0:
220,168,118300,6,0,L|444:172,1,220,2|10,1:3|0:3,0:0:0:0:
320,168,118943,1,0,1:0:0:0:
200,148,119157,2,0,L|196:280,1,110,2|0,0:3|1:0,0:0:0:0:
396,272,119586,2,0,L|396:144,1,110,10|8,0:3|0:1,0:0:0:0:
88,160,120015,6,0,L|88:40,1,110,2|8,1:0|0:3,0:0:0:0:
148,44,120336,1,8,0:3:0:0:
208,44,120443,2,0,L|84:44,1,110,8|8,0:3|1:3,0:0:0:0:
296,48,120872,1,10,0:3:0:0:
340,84,120979,1,8,0:3:0:0:
328,136,121086,1,8,0:3:0:0:
280,160,121193,1,8,0:3:0:0:
171,158,121300,2,0,L|55:158,1,110,10|2,0:3|1:0,0:0:0:0:
380,172,121729,6,0,P|432:216|332:288,1,220,6|10,1:2|0:3,0:0:0:0:
232,300,122372,1,0,3:0:0:0:
124,304,122586,2,0,L|124:156,1,110,2|2,1:0|3:0,0:0:0:0:
332,196,123015,2,0,L|468:192,1,110,10|10,0:3|3:1,0:0:0:0:
232,196,123443,6,0,L|8:196,1,220,2|10,1:0|0:3,0:0:0:0:
220,192,124086,2,0,L|464:192,1,220,2|0,3:0|3:0,0:0:0:0:
232,212,124729,2,0,L|116:212,1,110,10|2,0:3|3:0,0:0:0:0:
440,216,125157,6,0,P|492:164|432:48,1,220,2|10,1:0|0:3,0:0:0:0:
304,52,125800,1,0,3:0:0:0:
436,52,126015,2,0,L|440:180,1,110,2|0,1:0|3:0,0:0:0:0:
232,176,126443,2,0,L|356:176,1,110,10|8,0:3|3:1,0:0:0:0:
132,176,126872,5,2,1:0:0:0:
264,188,127086,2,0,L|300:240,2,55,8|8|8,0:3|0:3|0:3,0:0:0:0:
132,180,127515,1,0,1:0:0:0:
340,172,127729,1,10,0:3:0:0:
404,168,127836,1,8,0:3:0:0:
340,160,127943,1,10,0:3:0:0:
276,156,128050,1,0,0:0:0:0:
166,159,128157,2,0,L|42:159,1,110,10|2,0:3|1:0,0:0:0:0:
376,140,128586,6,0,P|412:200|284:272,1,220,6|10,1:2|0:3,0:0:0:0:
184,216,129229,1,0,3:0:0:0:
392,228,129443,2,0,L|396:364,1,110,2|2,1:0|3:0,0:0:0:0:
184,326,129872,2,0,L|56:324,1,110,10|10,0:3|3:1,0:0:0:0:
284,332,130300,6,0,L|36:332,2,220,2|10|2,1:0|0:3|1:0,0:0:0:0:
404,332,131372,1,0,3:0:0:0:
196,216,131586,2,0,L|56:216,1,110,10|2,0:3|1:0,0:0:0:0:
404,100,132015,6,0,L|404:236,1,110,2|0,1:0|3:0,0:0:0:0:
196,220,132443,2,0,L|80:220,1,110,10|0,0:3|3:0,0:0:0:0:
296,212,132872,2,0,L|432:212,1,110,2|0,1:0|3:0,0:0:0:0:
196,220,133300,2,0,L|196:344,1,110,10|8,0:3|3:1,0:0:0:0:
404,336,133729,6,0,P|476:276|396:176,1,220,2|8,1:0|0:3,0:0:0:0:
296,332,134372,1,0,3:0:0:0:
88,332,134586,2,0,L|88:200,1,110,2|0,1:0|3:0,0:0:0:0:
296,220,135015,2,0,L|448:220,1,110,10|2,0:3|1:0,0:0:0:0:
68,232,135443,6,0,P|60:164|208:76,1,220,2|10,1:0|0:3,0:0:0:0:
296,52,136086,1,0,3:0:0:0:
88,68,136300,2,0,L|88:188,1,110,2|2,1:0|3:0,0:0:0:0:
296,172,136729,2,0,L|156:172,1,110,10|10,0:3|3:1,0:0:0:0:
396,168,137157,6,0,P|464:228|384:356,1,220,2|10,1:0|0:3,0:0:0:0:
108,352,137800,2,0,P|40:280|120:168,1,220,2|0,3:0|3:0,0:0:0:0:
292,160,138443,2,0,L|444:152,1,110,10|2,0:3|1:0,0:0:0:0:
84,276,138872,6,0,P|60:192|172:124,1,220,2|10,1:0|0:3,0:0:0:0:
288,136,139515,1,0,3:0:0:0:
80,136,139729,2,0,L|80:24,1,110,2|0,1:0|3:0,0:0:0:0:
288,32,140157,2,0,L|416:32,1,110,10|0,0:3|3:0,0:0:0:0:
80,28,140586,6,0,L|84:168,1,110,2|8,1:0|0:3,0:0:0:0:
148,144,140907,1,8,0:3:0:0:
212,152,141015,2,0,L|76:156,1,110,10|0,0:3|1:0,0:0:0:0:
312,148,141443,2,0,L|384:148,1,55,10|8,0:3|0:3,0:0:0:0:
312,148,141657,2,0,L|237:148,1,55,8|8,0:3|0:3,0:0:0:0:
149,148,141872,2,0,L|5:148,1,110,10|0,0:3|1:0,0:0:0:0:
360,156,142300,5,6,1:3:0:0:
256,192,142729,12,0,144015,0:0:0:0:
