osu file format v14

[General]
AudioFilename: audio.mp3
AudioLeadIn: 0
PreviewTime: 42818
Countdown: 0
SampleSet: Soft
StackLeniency: 0.7
Mode: 2
LetterboxInBreaks: 0
WidescreenStoryboard: 0

[Editor]
Bookmarks: 82943,101157,128586
DistanceSpacing: 2.8
BeatDivisor: 4
GridSize: 4
TimelineZoom: 1.5

[Metadata]
Title:Wild Water
TitleUnicode:Wild Water
Artist:Ardolf
ArtistUnicode:Ardolf
Creator:4rcheR-
Version:Wild Overdose
Source:
Tags:archer Electronic Instrumental dance & edm Tropical house furry wolf summer beach sea werewolf fa featured artist
BeatmapID:4099305
BeatmapSetID:1975164

[Difficulty]
HPDrainRate:6
CircleSize:4
OverallDifficulty:9.4
ApproachRate:9.4
SliderMultiplier:2.6
SliderTickRate:2

[Events]
//Background and Video events
0,0,"bg.jpg",0,0
//Break Periods
2,87872,96015
//Storyboard Layer 0 (Background)
//Storyboard Layer 1 (Fail)
//Storyboard Layer 2 (Pass)
//Storyboard Layer 3 (Foreground)
//Storyboard Layer 4 (Overlay)
//Storyboard Sound Samples

[TimingPoints]
15,428.571428571429,4,2,22,80,1,0
443,-100,4,2,22,25,0,0
872,-100,4,2,22,30,0,0
1300,-100,4,2,22,35,0,0
1729,-200,4,2,22,40,0,0
13729,-100,4,2,22,40,0,0
14157,-100,4,2,22,45,0,0
14586,-100,4,2,22,50,0,0
15015,-100,4,2,22,55,0,0
15443,-100,4,2,21,60,0,0
27443,-100,4,2,22,70,0,0
28300,-100,4,2,22,75,0,0
29157,-100,4,2,22,80,0,1
31193,-100,4,2,22,5,0,1
31300,-100,4,2,22,80,0,1
31622,-100,4,2,22,5,0,1
31729,-100,4,2,22,80,0,1
56586,-100,4,2,21,60,0,0
68586,-100,4,2,20,65,0,0
70086,-100,4,2,21,65,0,0
70300,-100,4,2,21,70,0,0
85729,-100,4,2,22,50,0,0
87336,-100,4,2,22,5,0,0
87443,-100,4,2,22,40,0,0
99443,-100,4,2,22,50,0,0
99872,-100,4,2,22,55,0,0
100300,-100,4,2,22,60,0,0
100729,-100,4,2,22,65,0,0
101157,-100,4,2,22,70,0,0
114872,-100,4,2,22,65,0,1
114979,-100,4,2,22,65,0,0
115300,-100,4,2,21,65,0,0
116586,-100,4,2,22,65,0,0
117015,-100,4,2,21,65,0,0
117336,-100,4,2,21,5,0,0
117443,-100,4,2,21,65,0,0
118300,-100,4,2,21,70,0,0
120015,-100,4,2,22,75,0,0
121729,-100,4,2,22,80,0,1
128586,-100,4,2,22,85,0,1
130622,-100,4,2,22,5,0,1
130729,-100,4,2,22,85,0,1
131050,-100,4,2,22,5,0,1
131157,-100,4,2,22,85,0,1
132336,-100,4,2,22,5,0,1
132443,-100,4,2,22,85,0,1
132765,-100,4,2,22,5,0,1
132872,-100,4,2,22,85,0,1
133193,-100,4,2,22,5,0,1
133300,-100,4,2,22,85,0,1
139193,-100,4,2,22,5,0,1
139300,-100,4,2,22,85,0,1
142300,-100,4,2,22,75,0,0
142729,-100,4,2,22,60,0,0
143157,-100,4,2,22,45,0,0
143586,-100,4,2,22,30,0,0
144015,-100,4,2,22,15,0,0

[Colours]
Combo1 : 192,192,192
Combo2 : 107,107,107
Combo3 : 17,89,198
Combo4 : 23,180,255
Combo5 : 185,51,32
Combo6 : 183,197,58

[HitObjects]
256,192,15,12,0,1515,0:0:0:0:
392,352,1729,6,0,P|448:280|368:16,1,390,4|0,1:0|0:0,0:0:0:0:
60,56,3443,6,0,B|-76:232|288:160|24:368,1,390,2|0,1:0|0:0,0:0:0:0:
344,344,5157,6,0,P|240:340|72:112,1,390,2|0,1:0|0:0,0:0:0:0:
384,124,6872,6,0,B|276:80|200:160|200:160|112:112|16:196,1,390,2|0,1:0|0:0,0:0:0:0:
336,220,8586,6,0,P|412:236|396:16,1,390,2|0,1:0|0:0,0:0:0:0:
104,52,10300,6,0,P|264:152|488:176,1,390,2|0,1:0|0:0,0:0:0:0:
148,156,12015,6,0,P|24:208|160:344,1,390,2|0,1:0|0:0,0:0:0:0:
464,340,13729,6,0,P|444:260|264:176,1,260,2|8,1:0|0:3,0:0:0:0:
228,144,14265,1,8,0:3:0:0:
228,72,14372,1,8,0:3:0:0:
300,60,14479,1,8,0:3:0:0:
120,56,14586,2,0,L|28:56,3,65,8|8|8|8,0:3|0:3|0:3|0:3,0:0:0:0:
240,52,15015,2,0,L|96:52,1,130,8|8,0:3|0:3,0:0:0:0:
424,52,15443,6,0,L|148:52,1,260,4|8,1:2|0:0,0:0:0:0:
360,60,16086,2,0,L|360:212,1,130,0|0,1:0|3:0,0:0:0:0:
164,196,16515,1,0,1:0:0:0:
236,196,16622,1,0,0:0:0:0:
420,196,16729,2,0,L|420:352,1,130,8|8,0:0|0:1,0:0:0:0:
348,324,17050,1,8,0:1:0:0:
152,328,17157,6,0,L|8:328,2,130,0|0|8,1:0|0:0|0:0,0:0:0:0:
348,316,17800,2,0,L|176:316,1,130,0|0,1:0|3:0,0:0:0:0:
412,316,18229,1,0,1:0:0:0:
340,316,18336,1,0,0:0:0:0:
156,316,18443,2,0,L|240:316,1,65,8|0,0:0|1:0,0:0:0:0:
332,316,18657,1,0,3:0:0:0:
20,312,18872,6,0,L|160:312,2,130,0|0|8,1:0|0:0|0:0,0:0:0:0:
216,312,19515,2,0,L|216:160,1,130,0|0,1:0|3:0,0:0:0:0:
20,176,19943,1,0,1:0:0:0:
92,176,20050,1,0,0:0:0:0:
276,168,20157,2,0,L|116:168,1,130,8|8,0:0|0:1,0:0:0:0:
72,168,20479,1,8,0:1:0:0:
268,168,20586,6,0,L|400:168,2,130,0|0|8,1:0|0:0|0:0,0:0:0:0:
464,168,21229,2,0,L|464:32,1,130,0|0,1:0|3:0,0:0:0:0:
268,36,21657,1,0,1:0:0:0:
340,36,21765,1,0,0:0:0:0:
160,44,21872,2,0,L|160:120,1,65,8|0,0:0|1:0,0:0:0:0:
340,116,22086,2,0,L|416:116,2,43.3333333333333,0|0|0,3:0|3:0|3:0,0:0:0:0:
176,116,22300,6,0,P|104:148|188:288,1,260,0|8,1:0|0:0,0:0:0:0:
352,268,22943,2,0,L|192:268,1,130,0|0,1:0|3:0,0:0:0:0:
28,256,23372,2,0,L|28:164,1,65,0|0,1:0|0:0,0:0:0:0:
208,192,23586,2,0,L|348:192,1,130,8|8,0:0|0:1,0:0:0:0:
268,192,23907,1,8,0:1:0:0:
464,208,24015,6,0,L|180:208,1,260,0|8,1:0|0:0,0:0:0:0:
400,208,24657,2,0,L|232:208,1,130,0|0,1:0|3:0,0:0:0:0:
76,212,25086,2,0,L|76:144,1,65,0|0,1:0|0:0,0:0:0:0:
256,164,25300,2,0,L|184:164,1,65,8|0,0:0|1:0,0:0:0:0:
80,164,25515,1,0,3:0:0:0:
392,164,25729,6,0,L|120:164,1,260,0|8,1:0|0:0,0:0:0:0:
328,168,26372,2,0,L|472:168,1,130,0|0,1:0|3:0,0:0:0:0:
264,168,26800,2,0,L|168:168,1,65,0|0,1:0|0:0,0:0:0:0:
384,168,27015,2,0,L|452:168,2,65,8|0|0,0:0|1:0|1:0,0:0:0:0:
72,172,27443,6,0,L|72:92,1,65,10|0,1:3|0:0,0:0:0:0:
252,100,27657,2,0,L|332:100,1,65,8|8,0:3|0:3,0:0:0:0:
132,108,27872,2,0,L|60:108,3,65,10|0|0|0,0:3|0:0|1:0|0:0,0:0:0:0:
248,108,28300,2,0,L|324:108,1,65,10|8,0:3|0:3,0:0:0:0:
496,116,28515,2,0,L|404:116,1,65,8|8,0:3|0:3,0:0:0:0:
248,120,28729,2,0,L|156:120,3,65,10|8|8|8,0:3|1:3|0:3|1:3,0:0:0:0:
444,124,29157,6,0,P|480:212|436:260,1,130,6|0,1:2|3:0,0:0:0:0:
168,236,29586,2,0,L|32:236,1,130,10|0,0:0|3:0,0:0:0:0:
340,124,30015,1,2,1:0:0:0:
172,128,30229,1,2,3:0:0:0:
340,124,30443,1,10,0:0:0:0:
40,120,30657,2,0,L|132:120,1,65,8|8,3:1|0:1,0:0:0:0:
352,132,30872,6,0,P|392:188|332:296,1,195,2|0,1:0|0:0,0:0:0:0:
148,304,31300,2,0,L|360:304,1,195,10|0,0:0|0:0,0:0:0:0:
224,304,31729,2,0,L|60:304,1,130,2|0,1:0|3:0,0:0:0:0:
172,304,32050,1,0,0:0:0:0:
368,304,32157,1,10,0:0:0:0:
68,304,32372,1,2,3:0:0:0:
392,304,32586,6,0,P|456:292|476:228,1,130,2|0,1:0|3:0,0:0:0:0:
400,180,32907,1,0,0:0:0:0:
204,184,33015,2,0,L|364:184,1,130,10|0,0:0|3:0,0:0:0:0:
128,184,33443,2,0,L|288:184,1,130,2|0,1:0|3:0,0:0:0:0:
336,184,33765,1,0,0:0:0:0:
140,188,33872,2,0,L|8:188,1,130,10|8,0:0|3:1,0:0:0:0:
88,188,34193,1,8,0:1:0:0:
336,176,34300,6,0,P|364:112|320:48,1,130,2|0,1:0|3:0,0:0:0:0:
260,56,34622,1,0,0:0:0:0:
456,68,34729,2,0,L|312:68,1,130,8|0,0:0|3:0,0:0:0:0:
120,68,35157,2,0,L|120:208,1,130,2|0,1:0|3:0,0:0:0:0:
420,192,35586,1,10,0:0:0:0:
124,196,35800,2,0,L|72:196,2,43.3333333333333,2|0|0,3:0|3:0|3:0,3:0:0:0:
296,196,36015,6,0,L|452:196,1,130,2|0,1:0|3:0,0:0:0:0:
128,200,36443,2,0,L|128:56,1,130,10|0,0:0|3:0,0:0:0:0:
428,76,36872,1,2,1:0:0:0:
260,76,37086,1,2,3:0:0:0:
92,80,37300,1,10,0:0:0:0:
392,92,37515,2,0,L|468:92,1,65,10|8,3:1|0:1,0:0:0:0:
208,84,37729,5,2,1:0:0:0:
157,120,37836,1,2,0:0:0:0:
158,183,37943,1,2,3:0:0:0:
209,219,38050,1,2,0:0:0:0:
404,92,38157,1,10,0:0:0:0:
104,100,38372,1,2,3:0:0:0:
76,116,38425,1,2,0:0:0:0:
60,144,38479,1,2,0:0:0:0:
56,176,38532,1,2,0:0:0:0:
64,208,38586,1,2,1:0:0:0:
88,232,38639,1,2,0:0:0:0:
116,240,38693,1,2,0:0:0:0:
236,232,38800,2,0,L|236:140,1,65,0|0,3:0|0:0,0:0:0:0:
40,172,39015,1,10,0:0:0:0:
340,168,39229,1,2,3:0:0:0:
16,172,39443,6,0,L|152:172,1,130,2|0,1:0|3:0,0:0:0:0:
224,172,39765,1,0,0:0:0:0:
420,180,39872,2,0,L|420:28,1,130,10|0,0:0|3:0,0:0:0:0:
212,48,40300,2,0,L|212:196,1,130,2|0,1:0|3:0,0:0:0:0:
292,176,40622,1,0,0:0:0:0:
488,184,40729,2,0,L|340:184,1,130,10|8,0:0|3:1,0:0:0:0:
280,188,41050,1,8,0:1:0:0:
32,196,41157,5,2,1:0:0:0:
200,196,41372,2,0,L|132:196,1,65,8|8,0:3|0:3,0:0:0:0:
328,196,41586,2,0,L|464:196,1,130,8|2,0:3|1:0,0:0:0:0:
132,204,42015,2,0,L|220:204,1,65,10|8,0:3|0:3,0:0:0:0:
392,204,42229,2,0,L|392:132,1,65,10|8,0:3|0:3,0:0:0:0:
196,136,42443,2,0,L|40:136,1,130,10|2,0:3|1:0,0:0:0:0:
392,139,42872,6,0,L|392:275,1,130,6|0,1:2|3:0,0:0:0:0:
96,300,43300,2,0,L|244:300,1,130,10|0,0:0|3:0,0:0:0:0:
436,304,43729,1,2,1:0:0:0:
268,304,43943,1,2,3:0:0:0:
436,304,44157,1,10,0:0:0:0:
144,304,44372,2,0,L|56:304,1,65,10|8,3:1|0:1,0:0:0:0:
324,300,44586,6,0,P|360:256|312:192,1,130,2|0,1:0|3:0,0:0:0:0:
252,200,44907,1,0,0:0:0:0:
448,212,45015,2,0,P|484:168|436:104,1,130,10|0,0:0|3:0,0:0:0:0:
376,112,45336,1,0,0:0:0:0:
180,96,45443,2,0,L|32:96,1,130,2|0,1:0|3:0,0:0:0:0:
348,96,45872,1,10,0:0:0:0:
52,96,46086,1,2,3:0:0:0:
372,92,46300,6,0,L|372:224,1,130,2|0,1:0|3:0,0:0:0:0:
292,92,46622,1,0,0:0:0:0:
96,96,46729,2,0,L|252:96,1,130,10|0,0:0|3:0,0:0:0:0:
432,92,47157,2,0,L|296:92,1,130,2|0,1:0|3:0,0:0:0:0:
224,92,47479,1,0,0:0:0:0:
420,88,47586,2,0,L|420:224,1,130,10|8,0:0|3:1,0:0:0:0:
344,92,47907,1,8,0:1:0:0:
96,92,48015,6,0,L|232:92,1,130,2|0,1:0|3:0,0:0:0:0:
304,92,48336,1,0,0:0:0:0:
108,96,48443,2,0,L|108:232,1,130,8|0,0:0|3:0,0:0:0:0:
316,212,48872,2,0,L|460:212,1,130,2|0,1:0|3:0,0:0:0:0:
148,216,49300,1,10,0:0:0:0:
446,212,49515,2,0,L|494:212,2,43.3333333333333,2|0|0,3:0|3:0|3:0,3:0:0:0:
274,212,49729,6,0,L|134:212,1,130,2|0,1:0|3:0,0:0:0:0:
446,212,50157,2,0,L|304:212,1,130,10|0,0:0|3:0,0:0:0:0:
108,84,50586,1,2,1:0:0:0:
276,88,50800,1,2,3:0:0:0:
108,84,51015,1,10,0:0:0:0:
408,88,51229,2,0,L|324:88,1,65,10|8,3:1|0:1,0:0:0:0:
96,84,51443,6,0,P|96:152|204:208,1,195,2|0,1:0|0:0,0:0:0:0:
392,208,51872,1,10,0:0:0:0:
92,196,52086,2,0,L|372:196,1,260,2|0,3:0|3:0,0:0:0:0:
352,196,52622,1,0,0:0:0:0:
156,196,52729,1,10,0:0:0:0:
456,196,52943,1,2,3:0:0:0:
132,202,53157,6,0,L|292:202,1,130,2|0,1:0|3:0,0:0:0:0:
340,202,53479,1,0,0:0:0:0:
144,202,53586,2,0,P|96:144|116:68,1,130,10|0,0:0|3:0,0:0:0:0:
308,76,54015,2,0,L|472:76,1,130,2|0,1:0|3:0,0:0:0:0:
360,76,54336,1,0,0:0:0:0:
164,76,54443,2,0,P|136:144|152:208,1,130,10|8,0:0|3:1,0:0:0:0:
224,196,54765,1,8,0:1:0:0:
472,196,54872,5,2,1:0:0:0:
304,196,55087,2,0,L|372:196,1,65,8|0,0:3|0:0,0:0:0:0:
176,196,55301,2,0,L|40:196,1,130,10|0,0:3|1:0,0:0:0:0:
344,196,55729,2,0,L|420:196,1,65,10|8,0:3|0:3,0:0:0:0:
216,200,55943,2,0,L|296:200,1,65,10|8,0:3|0:3,0:0:0:0:
476,196,56157,2,0,L|476:44,1,130,10|2,0:3|0:1,0:0:0:0:
164,64,56586,6,0,L|308:64,1,130,6|0,1:2|0:0,0:0:0:0:
100,64,57015,2,0,L|100:204,1,130,2|0,0:0|1:0,0:0:0:0:
412,60,57443,1,10,0:0:0:0:
244,60,57657,1,2,0:0:0:0:
328,60,57765,1,0,0:0:0:0:
412,60,57872,1,2,0:0:0:0:
128,56,58086,2,0,L|36:56,1,65,2|0,0:0|0:0,0:0:0:0:
256,52,58300,6,0,L|400:52,1,130,2|0,1:2|0:0,0:0:0:0:
316,48,58622,1,0,1:0:0:0:
200,40,58729,2,0,L|352:40,1,130,2|0,0:0|1:0,0:0:0:0:
44,48,59157,2,0,P|48:108|116:164,1,130,10|0,0:0|0:0,0:0:0:0:
168,172,59479,1,0,0:0:0:0:
96,176,59586,1,0,0:0:0:0:
292,168,59800,1,2,0:0:0:0:
364,164,59907,2,0,L|324:164,1,32.5,2|2,0:0|0:0,0:0:0:0:
180,164,60015,6,0,L|40:164,1,130,2|0,1:2|0:0,0:0:0:0:
244,164,60443,1,2,0:0:0:0:
76,180,60657,1,0,1:0:0:0:
364,184,60872,1,10,0:0:0:0:
196,184,61086,2,0,L|196:256,1,65,0|0,0:0|0:0,0:0:0:0:
376,248,61300,2,0,L|236:244,1,130,2|0,0:0|1:0,0:0:0:0:
176,248,61622,2,0,L|216:248,1,32.5,0|0,0:0|0:0,0:0:0:0:
348,248,61729,6,0,P|376:216|332:144,1,130,2|0,1:2|0:0,0:0:0:0:
224,144,62050,2,0,P|204:200|248:256,1,130,0|0,1:0|0:0,0:0:0:0:
360,252,62372,1,2,1:2:0:0:
76,248,62586,1,10,0:0:0:0:
244,252,62800,2,0,L|316:252,2,65,0|0|0,0:0|0:0|0:0,0:0:0:0:
76,248,63229,2,0,L|76:168,1,65,2|0,0:0|1:0,0:0:0:0:
112,184,63390,1,2,0:0:0:0:
256,180,63443,6,0,L|392:180,1,130,2|0,1:2|0:0,0:0:0:0:
192,184,63872,2,0,L|48:184,1,130,2|0,0:0|1:0,0:0:0:0:
348,192,64300,1,10,0:0:0:0:
180,188,64515,1,2,0:0:0:0:
264,188,64622,1,0,0:0:0:0:
348,188,64729,1,2,0:0:0:0:
64,188,64943,2,0,L|64:92,1,65,2|2,0:0|0:0,0:0:0:0:
100,124,65104,1,2,0:0:0:0:
240,188,65157,6,0,L|380:188,1,130,2|0,1:2|0:0,0:0:0:0:
444,188,65479,1,0,1:0:0:0:
264,188,65586,1,2,0:0:0:0:
432,188,65800,1,2,1:2:0:0:
140,188,66015,2,0,P|104:120|136:84,1,130,8|2,0:0|0:0,0:0:0:0:
204,88,66336,1,0,0:0:0:0:
384,88,66443,1,2,0:0:0:0:
100,88,66657,1,2,0:0:0:0:
416,188,66872,6,0,P|452:144|416:72,1,130,2|0,1:2|0:0,0:0:0:0:
352,60,67193,1,0,0:0:0:0:
236,60,67300,2,0,L|372:60,1,130,2|0,0:0|1:0,0:0:0:0:
80,60,67729,2,0,L|76:196,1,130,10|0,0:0|0:0,0:0:0:0:
148,192,68050,1,0,0:0:0:0:
264,200,68157,2,0,L|112:200,1,130,2|0,0:0|1:0,0:0:0:0:
208,200,68479,2,0,L|244:200,1,32.5,2|2,0:0|0:0,0:0:0:0:
380,196,68586,5,2,1:2:0:0:
212,204,68800,2,0,L|292:204,1,65,8|8,0:0|0:0,0:0:0:0:
92,212,69015,2,0,P|56:160|96:116,1,130,8|2,0:0|1:2,0:0:0:0:
164,80,69336,2,0,L|212:80,1,32.5,0|0,0:0|0:0,0:0:0:0:
328,80,69443,2,0,L|328:152,1,65,10|8,0:0|0:0,0:0:0:0:
148,148,69657,2,0,L|148:228,1,65,8|8,0:0|0:0,0:0:0:0:
332,220,69872,2,0,L|484:220,1,130,10|8,0:0|0:0,0:0:0:0:
152,232,70300,6,0,L|152:96,1,130,6|0,1:2|0:0,0:0:0:0:
224,108,70622,1,0,0:0:0:0:
404,100,70729,2,0,L|248:100,1,130,10|0,0:0|1:0,0:0:0:0:
468,100,71157,1,2,0:0:0:0:
300,100,71372,1,2,1:2:0:0:
384,100,71479,1,0,0:0:0:0:
468,100,71586,1,10,0:0:0:0:
184,96,71800,2,0,L|108:96,1,65,2|8,0:0|0:1,0:0:0:0:
316,92,72015,6,0,P|356:152|312:184,1,130,2|0,1:2|3:0,0:0:0:0:
288,184,72282,1,0,3:0:0:0:
252,184,72336,1,0,3:0:0:0:
72,196,72443,2,0,L|72:336,1,130,10|0,0:0|1:0,0:0:0:0:
268,336,72872,1,2,0:0:0:0:
412,332,73086,2,0,L|412:244,1,65,0|0,1:0|1:0,0:0:0:0:
232,272,73300,2,0,L|80:272,1,130,8|2,0:0|1:2,0:0:0:0:
172,184,73622,2,0,L|216:184,1,32.5,2|2,0:0|0:0,0:0:0:0:
352,184,73729,6,0,P|424:164|440:112,1,130,2|0,1:2|0:0,0:0:0:0:
368,100,74050,1,0,0:0:0:0:
188,100,74157,2,0,L|52:100,1,130,10|0,0:0|1:0,0:0:0:0:
252,96,74586,2,0,L|112:96,1,130,2|0,0:0|1:0,0:0:0:0:
192,96,74907,1,0,1:0:0:0:
376,96,75015,2,0,P|384:168|340:212,1,130,10|8,0:0|0:1,0:0:0:0:
272,208,75336,1,8,0:1:0:0:
236,208,75390,1,2,0:0:0:0:
372,208,75443,6,0,L|504:208,1,130,2|0,1:2|0:0,0:0:0:0:
428,208,75765,1,0,0:0:0:0:
248,200,75872,1,8,0:0:0:0:
416,200,76086,1,2,1:2:0:0:
128,216,76300,2,0,P|108:136|140:92,1,130,2|0,0:0|1:0,0:0:0:0:
204,208,76622,1,0,1:0:0:0:
384,212,76729,2,0,L|312:212,1,65,8|0,0:0|0:0,0:0:0:0:
136,280,76943,2,0,L|228:280,1,65,2|0,1:2|1:0,0:0:0:0:
236,280,77104,1,2,0:0:0:0:
380,280,77157,6,0,P|420:236|372:208,1,130,2|0,1:2|0:0,0:0:0:0:
300,204,77479,1,0,0:0:0:0:
120,212,77586,2,0,L|120:80,1,130,10|0,0:0|1:0,0:0:0:0:
316,100,78015,1,2,0:0:0:0:
148,104,78229,1,2,1:2:0:0:
64,104,78336,1,0,1:0:0:0:
148,104,78443,1,10,0:0:0:0:
432,96,78657,2,0,L|348:96,1,65,2|2,0:0|0:0,0:0:0:0:
332,96,78818,1,2,0:0:0:0:
196,104,78872,6,0,P|132:176|200:248,1,195,2|0,1:2|0:0,0:0:0:0:
364,244,79300,1,10,0:0:0:0:
76,244,79515,2,0,L|352:248,1,260,2|2,1:2|1:2,0:0:0:0:
264,248,80050,1,0,1:0:0:0:
84,240,80157,2,0,L|176:244,1,65,10|0,0:0|0:0,0:0:0:0:
332,240,80372,2,0,L|328:168,1,65,0|0,1:0|0:0,0:0:0:0:
104,200,80586,6,0,L|260:200,1,130,2|0,1:2|0:0,0:0:0:0:
304,196,80907,1,0,0:0:0:0:
120,200,81015,2,0,L|120:52,1,130,10|0,0:2|1:0,0:0:0:0:
312,92,81443,2,0,L|448:92,1,130,2|0,0:0|1:0,0:0:0:0:
441,128,81765,1,0,1:0:0:0:
256,116,81872,1,10,0:0:0:0:
112,120,82086,2,0,L|112:44,1,65,8|2,0:1|0:0,0:0:0:0:
148,52,82247,1,2,0:0:0:0:
292,48,82300,6,0,L|432:48,1,130,6|0,1:2|0:0,0:0:0:0:
212,48,82622,2,0,L|60:48,1,130,6|0,1:2|0:0,0:0:0:0:
320,52,82943,1,6,1:2:0:0:
320,52,85729,5,2,1:0:0:0:
112,76,86157,2,0,L|112:208,1,130,2|2,0:0|0:0,0:0:0:0:
216,196,86586,2,0,L|216:344,1,130,2|2,0:0|0:0,0:0:0:0:
20,332,87015,2,0,P|16:244|112:188,1,195,2|0,0:0|0:0,0:0:0:0:
324,188,87443,5,4,1:0:0:0:
256,192,97729,12,0,99015,0:0:0:0:
256,316,99443,6,0,L|228:244,3,65,2|0|0|0,1:0|1:0|1:0|1:0,0:0:0:0:
352,252,99872,1,8,0:3:0:0:
407,227,99979,1,8,0:3:0:0:
404,166,100086,1,8,0:3:0:0:
346,147,100193,1,8,0:3:0:0:
164,160,100300,2,0,L|88:160,3,65,10|8|8|8,0:3|0:3|0:3|0:3,0:0:0:0:
284,164,100729,2,0,L|440:164,1,130,8|8,0:3|0:3,0:0:0:0:
104,172,101157,6,0,P|56:252|136:320,1,195,6|0,1:2|0:0,0:0:0:0:
300,304,101586,1,8,3:0:0:0:
132,300,101800,2,0,L|132:160,1,130,0|0,1:0|3:0,0:0:0:0:
328,148,102229,1,0,1:0:0:0:
256,148,102336,1,0,0:0:0:0:
72,144,102443,1,10,3:0:0:0:
240,140,102657,2,0,L|148:140,1,65,0|0,0:0|0:0,0:0:0:0:
384,140,102872,6,0,P|452:204|368:252,1,195,2|0,1:0|0:0,0:0:0:0:
212,264,103300,1,8,3:0:0:0:
380,256,103515,2,0,L|380:100,1,130,0|0,1:0|3:0,0:0:0:0:
184,128,103943,1,0,1:0:0:0:
256,128,104050,1,0,0:0:0:0:
440,136,104157,2,0,L|440:52,1,65,10|0,3:0|1:0,0:0:0:0:
256,76,104372,2,0,L|156:76,1,65,0|0,3:0|0:0,0:0:0:0:
420,72,104586,6,0,P|484:132|408:180,1,195,2|0,1:0|0:0,0:0:0:0:
232,188,105015,1,8,3:0:0:0:
64,196,105229,2,0,L|220:196,1,130,0|0,1:0|3:0,0:0:0:0:
388,192,105657,1,0,1:0:0:0:
316,196,105765,1,0,0:0:0:0:
132,192,105872,1,10,3:0:0:0:
300,188,106086,2,0,L|376:188,1,65,0|0,0:0|0:0,0:0:0:0:
156,188,106300,6,0,P|96:220|164:320,1,195,2|0,1:0|0:0,0:0:0:0:
320,324,106729,1,8,3:0:0:0:
488,316,106943,2,0,L|332:316,1,130,0|0,1:0|3:0,0:0:0:0:
164,320,107372,1,0,1:0:0:0:
236,320,107479,1,0,0:0:0:0:
420,316,107586,2,0,L|320:316,1,65,10|0,3:0|1:0,0:0:0:0:
172,320,107800,2,0,L|172:228,1,65,0|0,3:0|0:0,0:0:0:0:
400,248,108015,6,0,P|460:188|380:116,1,195,2|0,1:0|0:0,0:0:0:0:
220,108,108443,1,8,3:0:0:0:
388,124,108657,2,0,L|248:124,1,130,0|0,1:0|3:0,0:0:0:0:
452,124,109086,1,0,1:0:0:0:
380,124,109193,1,0,0:0:0:0:
200,124,109300,1,10,3:0:0:0:
368,120,109515,2,0,L|440:120,1,65,0|0,0:0|0:0,0:0:0:0:
224,120,109729,6,0,P|152:176|244:252,1,195,2|0,1:0|0:0,0:0:0:0:
380,248,110157,2,0,L|244:248,1,130,8|0,3:0|1:0,0:0:0:0:
56,256,110586,2,0,L|56:116,1,130,2|0,3:0|1:0,0:0:0:0:
128,124,110907,1,0,0:0:0:0:
312,120,111015,2,0,L|212:120,1,65,10|0,3:0|1:0,0:0:0:0:
64,120,111229,2,0,L|168:120,1,65,0|0,3:0|0:0,0:0:0:0:
356,112,111443,6,0,L|488:112,1,130,10|0,0:3|1:0,0:0:0:0:
200,104,111872,2,0,L|364:104,1,130,8|0,0:3|1:0,0:0:0:0:
44,96,112300,2,0,L|188:96,1,130,8|0,0:3|1:0,0:0:0:0:
464,96,112729,2,0,L|464:180,1,65,10|0,0:3|1:0,0:0:0:0:
392,160,112943,1,0,1:0:0:0:
228,160,113050,1,8,0:3:0:0:
48,164,113157,6,0,L|48:252,1,65,10|0,1:3|0:0,0:0:0:0:
232,228,113372,2,0,L|148:228,1,65,8|8,0:3|0:3,0:0:0:0:
348,224,113586,2,0,L|348:136,1,65,10|0,0:3|0:0,0:0:0:0:
264,160,113800,2,0,L|264:92,1,65,8|0,0:3|0:0,0:0:0:0:
448,96,114015,2,0,L|356:96,1,65,10|8,0:3|0:3,0:0:0:0:
200,100,114229,2,0,L|112:100,1,65,8|8,0:3|0:3,0:0:0:0:
316,100,114443,2,0,L|380:100,1,65,10|8,0:3|0:3,0:0:0:0:
200,104,114657,2,0,L|120:104,1,65,8|8,0:3|0:3,0:0:0:0:
364,104,114872,6,0,L|520:104,2,130,6|0|8,1:2|3:0|0:3,0:0:0:0:
168,108,115515,2,0,L|164:256,1,130,0|2,1:0|0:3,0:0:0:0:
360,240,115943,2,0,L|448:240,1,65,2|0,1:3|0:0,0:0:0:0:
244,244,116157,2,0,L|84:244,1,130,10|10,0:3|0:1,0:0:0:0:
188,244,116479,1,8,0:1:0:0:
396,240,116586,6,2,L|428:192,6,32.5,2|2|2|2|2|2|2,1:3|0:0|0:0|0:0|3:0|0:0|0:0,0:0:0:0:
212,236,117015,2,0,P|172:196|232:76,1,195,10|0,0:3|0:0,0:0:0:0:
332,60,117443,2,0,L|176:60,1,130,2|0,0:3|1:0,0:0:0:0:
276,60,117765,1,0,1:0:0:0:
456,60,117872,2,0,L|384:60,1,65,10|0,0:3|0:0,0:0:0:0:
208,64,118086,2,0,L|132:64,1,65,2|0,0:3|0:0,0:0:0:0:
372,60,118300,6,0,P|416:120|372:180,1,130,2|0,1:3|3:0,0:0:0:0:
324,184,118622,1,0,0:0:0:0:
144,176,118729,2,0,P|124:248|160:304,1,130,10|0,0:3|1:0,0:0:0:0:
344,304,119157,2,0,L|200:304,1,130,2|0,0:3|1:0,0:0:0:0:
288,304,119479,1,0,0:0:0:0:
468,304,119586,2,0,P|488:256|460:184,1,130,10|8,0:3|0:1,0:0:0:0:
392,188,119907,1,8,0:1:0:0:
164,192,120015,6,0,L|164:108,1,65,2|0,1:0|0:0,0:0:0:0:
344,112,120229,2,0,L|416:112,1,65,8|8,0:3|0:3,0:0:0:0:
228,116,120443,2,0,L|232:204,1,65,8|8,0:3|0:3,0:0:0:0:
412,192,120657,2,0,L|328:192,1,65,8|8,1:3|0:3,0:0:0:0:
164,192,120872,2,0,L|164:268,1,65,10|8,0:3|0:3,0:0:0:0:
344,252,121086,2,0,L|344:180,1,65,8|8,0:3|0:3,0:0:0:0:
164,192,121300,2,0,L|28:192,1,130,10|2,0:3|1:0,0:0:0:0:
428,60,121729,6,0,L|428:204,1,130,6|0,1:2|3:0,0:0:0:0:
128,176,122157,2,0,L|128:324,1,130,10|0,0:3|3:0,0:0:0:0:
432,300,122586,1,2,1:0:0:0:
264,296,122800,1,2,3:0:0:0:
432,300,123015,1,10,0:3:0:0:
132,296,123229,2,0,L|216:296,1,65,10|8,3:1|0:1,0:0:0:0:
444,300,123443,6,0,P|444:232|336:176,1,195,2|0,1:0|0:0,0:0:0:0:
148,176,123872,1,10,0:3:0:0:
448,188,124086,1,2,3:0:0:0:
445,155,124139,1,2,0:0:0:0:
434,125,124193,1,2,0:0:0:0:
415,99,124246,1,2,0:0:0:0:
389,79,124300,1,2,1:0:0:0:
359,67,124353,1,2,0:0:0:0:
327,64,124407,1,2,0:0:0:0:
295,71,124461,1,2,0:0:0:0:
266,86,124514,1,2,3:0:0:0:
188,188,124622,1,0,0:0:0:0:
384,188,124729,1,10,0:3:0:0:
84,188,124943,1,2,3:0:0:0:
408,184,125157,6,0,L|248:184,1,130,2|0,1:0|3:0,0:0:0:0:
200,184,125479,1,0,0:0:0:0:
396,184,125586,2,0,P|440:256|428:320,1,130,10|0,0:3|3:0,0:0:0:0:
228,312,126015,2,0,L|64:312,1,130,2|0,1:0|3:0,0:0:0:0:
176,312,126336,1,0,0:0:0:0:
372,312,126443,2,0,L|372:164,1,130,10|8,0:3|3:1,0:0:0:0:
292,188,126765,1,8,0:1:0:0:
44,188,126872,5,2,1:0:0:0:
212,188,127087,2,0,L|144:188,1,65,8|0,0:3|0:0,0:0:0:0:
340,188,127301,2,0,L|476:188,1,130,8|0,0:3|1:0,0:0:0:0:
172,188,127729,2,0,L|96:188,1,65,10|8,0:3|0:3,0:0:0:0:
300,184,127943,2,0,L|372:184,1,65,10|0,0:3|0:0,0:0:0:0:
184,188,128157,2,0,L|48:188,1,130,10|2,0:3|1:0,0:0:0:0:
380,184,128586,6,0,P|420:128|372:72,1,130,6|0,1:2|3:0,0:0:0:0:
92,80,129015,2,0,L|240:80,1,130,10|0,0:3|3:0,0:0:0:0:
16,80,129443,1,2,1:0:0:0:
184,80,129657,1,2,3:0:0:0:
16,80,129872,1,10,0:3:0:0:
316,80,130086,2,0,L|400:80,1,65,10|8,3:1|0:1,0:0:0:0:
156,92,130300,6,0,P|120:148|184:248,1,195,2|0,1:0|0:0,0:0:0:0:
376,240,130729,2,0,L|152:240,1,195,10|0,0:3|0:0,0:0:0:0:
376,240,131157,2,0,P|404:220|360:136,1,130,2|0,1:0|3:0,0:0:0:0:
304,140,131479,1,0,0:0:0:0:
108,140,131586,2,0,L|192:140,1,65,10|0,0:3|0:0,0:0:0:0:
368,132,131800,2,0,L|444:132,1,65,2|0,1:0|0:0,0:0:0:0:
184,136,132015,6,0,L|396:136,1,195,2|0,1:0|0:0,0:0:0:0:
184,128,132443,2,0,L|384:128,1,195,10|0,0:3|0:0,0:0:0:0:
184,124,132872,2,0,P|156:188|248:256,1,195,2|0,1:0|0:0,0:0:0:0:
436,248,133300,2,0,L|284:248,1,130,10|8,0:3|3:1,0:0:0:0:
232,248,133622,1,8,0:1:0:0:
460,248,133729,6,0,L|172:248,1,260,2|8,1:0|0:3,0:0:0:0:
356,248,134372,1,0,3:0:0:0:
56,256,134586,2,0,L|56:104,1,130,2|0,1:0|3:0,0:0:0:0:
132,124,134907,1,0,0:0:0:0:
328,120,135015,2,0,L|404:120,1,65,10|0,0:3|0:0,0:0:0:0:
196,192,135229,2,0,L|152:192,2,43.3333333333333,2|0|0,3:0|3:0|3:0,3:0:0:0:
364,204,135443,6,0,P|416:184|376:120,1,130,2|0,1:0|3:0,0:0:0:0:
96,156,135872,2,0,L|248:156,1,130,10|0,0:3|3:0,0:0:0:0:
432,164,136300,1,2,1:0:0:0:
264,164,136515,1,2,3:0:0:0:
432,160,136729,1,10,0:3:0:0:
132,176,136943,2,0,L|56:176,1,65,10|8,3:1|0:1,0:0:0:0:
296,184,137157,6,0,P|352:272|284:316,1,195,2|0,1:0|0:0,0:0:0:0:
100,316,137586,1,10,0:3:0:0:
400,308,137800,2,0,L|120:312,1,260,2|0,3:0|3:0,0:0:0:0:
220,308,138336,1,0,0:0:0:0:
416,304,138443,2,0,L|416:240,1,65,10|0,0:3|0:0,0:0:0:0:
220,228,138657,2,0,L|136:228,1,65,2|0,1:0|0:0,0:0:0:0:
404,228,138872,6,0,L|200:228,1,195,2|0,1:0|0:0,0:0:0:0:
404,228,139300,2,0,L|404:88,1,130,10|0,0:3|3:0,0:0:0:0:
104,104,139729,2,0,L|104:244,1,130,2|0,1:0|3:0,0:0:0:0:
400,220,140157,1,10,0:3:0:0:
232,224,140372,2,0,L|308:224,1,65,0|0,3:0|0:0,0:0:0:0:
68,228,140586,5,2,1:0:0:0:
236,228,140800,2,0,L|156:228,1,65,8|8,0:3|0:3,0:0:0:0:
368,224,141015,2,0,L|504:224,1,130,10|0,0:3|1:0,0:0:0:0:
200,236,141443,2,0,L|284:236,1,65,10|8,0:3|0:3,0:0:0:0:
460,236,141657,2,0,L|388:236,1,65,8|8,0:3|0:3,0:0:0:0:
200,236,141872,2,0,L|64:236,1,130,10|0,0:3|1:0,0:0:0:0:
396,48,142300,5,6,1:3:0:0:
256,192,142515,12,0,144015,0:0:0:0:
