osu file format v14

[General]
AudioFilename: audio.mp3
AudioLeadIn: 0
PreviewTime: 100447
Countdown: 0
SampleSet: Soft
StackLeniency: 0.7
Mode: 2
LetterboxInBreaks: 0
WidescreenStoryboard: 0

[Editor]
Bookmarks: 144868
DistanceSpacing: 1
BeatDivisor: 4
GridSize: 4
TimelineZoom: 1.7

[Metadata]
Title:Warrior Of Multiverse
TitleUnicode:Warrior Of Multiverse
Artist:Ardolf
ArtistUnicode:Ardolf
Creator:4rcheR-
Version:Salad
Source:
Tags:archer Mniam Electronic Instrumental fa featured artist furry dragon celtic hardcore neurofunk neuro house bass hard psy edm & dance
BeatmapID:4134589
BeatmapSetID:1981980

[Difficulty]
HPDrainRate:3
CircleSize:2.5
OverallDifficulty:7
ApproachRate:7
SliderMultiplier:1.4
SliderTickRate:1

[Events]
//Background and Video events
0,0,"bg.jpg",0,0
//Break Periods
//Storyboard Layer 0 (Background)
//Storyboard Layer 1 (Fail)
//Storyboard Layer 2 (Pass)
//Storyboard Layer 3 (Foreground)
//Storyboard Layer 4 (Overlay)
//Storyboard Sound Samples

[TimingPoints]
828,375,3,3,22,50,1,0
9828,-100,3,3,22,60,0,0
17703,-100,3,3,22,65,0,0
18828,-100,3,3,22,70,0,0
20234,-100,3,3,22,5,0,0
20328,-100,3,3,22,70,0,0
22484,-100,3,3,22,5,0,0
22578,-100,3,3,22,70,0,0
25578,-100,3,2,22,75,0,0
27828,-100,3,2,22,50,0,0
28203,-100,3,2,22,75,0,0
28953,333.333333333333,4,2,22,80,1,1
30286,-100,4,2,22,80,0,1
30619,-100,4,2,22,80,0,1
31619,-100,4,2,22,80,0,1
31952,-100,4,2,22,80,0,1
39286,-100,4,2,22,80,0,1
39452,-100,4,2,22,80,0,1
40952,-100,4,2,22,80,0,1
41286,-100,4,2,22,80,0,1
42286,-100,4,2,22,80,0,1
42619,-100,4,2,22,80,0,1
50286,-100,4,2,22,60,0,0
60952,-100,4,2,22,70,0,0
68952,-100,4,2,22,75,0,0
71619,400,3,2,22,50,1,0
79119,-100,3,2,22,5,0,0
79219,-100,3,2,22,50,0,0
79519,-100,3,2,22,5,0,0
79619,-100,3,2,22,50,0,0
79919,-100,3,2,22,5,0,0
80019,-100,3,2,22,50,0,0
81219,-100,3,2,22,55,0,0
86019,-100,3,2,22,60,0,0
86319,-100,3,2,22,5,0,0
86419,-100,3,2,22,60,0,0
86719,-100,3,2,22,5,0,0
86819,-100,3,2,22,60,0,0
87519,-100,3,2,22,5,0,0
87619,-100,3,2,22,60,0,0
89619,375,3,2,22,65,1,0
90744,-100,3,3,22,70,0,0
97494,-100,3,2,22,75,0,0
99744,-100,3,2,22,50,0,0
100119,-100,3,2,22,75,0,0
100869,333.333333333333,4,2,21,80,1,1
109535,-100,4,2,22,80,0,1
110368,-100,4,2,21,80,0,1
119702,-100,4,2,22,80,0,1
119785,-100,4,2,21,80,0,1
120702,-100,4,2,22,80,0,1
122202,-100,4,2,22,60,0,0
131785,-100,4,2,22,5,0,0
131868,-100,4,2,22,60,0,0
138202,-100,4,2,22,65,0,0
140868,-100,4,2,22,70,0,0
142202,-100,4,2,22,75,0,0
143535,-100,4,2,22,50,0,0

[Colours]
Combo1 : 170,43,43
Combo2 : 255,34,34
Combo3 : 0,128,192
Combo4 : 180,107,48

[HitObjects]
160,296,828,6,0,P|96:252|176:176,1,210,6|2,1:3|0:0,0:0:0:0:
236,172,1578,1,10,0:0:0:0:
376,164,1953,2,0,P|344:104|140:72,1,280,2|10,1:3|0:0,0:0:0:0:
220,56,2890,1,2,0:0:0:0:
292,56,3078,6,0,P|344:96|272:200,1,210,2|2,1:3|0:0,0:0:0:0:
220,172,3828,1,10,0:0:0:0:
80,172,4203,2,0,P|80:224|280:308,1,280,2|10,1:3|0:0,0:0:0:0:
324,316,5140,1,2,0:0:0:0:
148,312,5328,6,0,P|76:256|144:192,1,210,2|2,1:3|0:0,0:0:0:0:
216,184,6078,1,10,0:0:0:0:
76,204,6453,2,0,P|28:176|104:68,1,210,2|2,1:3|0:0,0:0:0:0:
152,64,7203,1,10,0:0:0:0:
292,64,7578,6,0,P|388:128|284:204,1,280,2|10,1:3|0:0,0:0:0:0:
220,212,8515,1,2,0:0:0:0:
152,224,8703,2,0,P|68:252|48:312,2,140,2|10|10,1:3|0:0|0:0,0:0:0:0:
464,232,9828,6,0,P|492:164|392:96,1,210,6|2,1:3|0:0,0:0:0:0:
328,96,10578,1,10,0:0:0:0:
188,88,10953,2,0,P|304:96|428:200,1,280,2|10,1:3|0:0,0:0:0:0:
356,188,11890,1,2,0:0:0:0:
288,176,12078,6,0,P|228:220|316:304,1,210,2|2,1:3|0:0,0:0:0:0:
364,312,12828,1,10,0:0:0:0:
224,320,13203,2,0,P|136:304|32:136,1,280,2|10,1:3|0:0,0:0:0:0:
104,156,14140,1,2,3:0:0:0:
280,144,14328,6,0,L|424:108,2,140,2|10|10,1:3|0:0|0:0,0:0:0:0:
140,132,15453,2,0,P|112:204|164:264,1,140,2|10,1:3|0:0,0:0:0:0:
284,252,16203,2,0,L|364:252,1,70,8|2,0:0|3:0,0:0:0:0:
284,252,16578,6,0,L|120:252,2,140,2|10|10,1:3|0:0|0:0,0:0:0:0:
424,248,17703,2,0,P|448:200|416:140,1,105,2|0,1:3|1:0,0:0:0:0:
396,152,18078,2,0,L|296:152,1,70,0|8,1:0|1:3,0:0:0:0:
396,152,18453,2,0,L|472:152,1,70,0|0,1:0|1:0,0:0:0:0:
292,160,18828,6,0,P|216:152|144:48,1,210,6|2,1:3|0:0,0:0:0:0:
216,52,19578,1,10,1:3:0:0:
356,36,19953,2,0,P|393:30|492:80,2,140,2|10|10,1:3|1:3|1:3,0:0:0:0:
216,36,21078,6,0,P|128:68|228:164,1,280,2|10,1:3|1:3,0:0:0:0:
288,164,22015,1,8,0:0:0:0:
360,168,22203,2,0,P|340:232|140:280,1,280,2|10,1:3|1:3,0:0:0:0:
84,288,23140,1,10,1:3:0:0:
260,292,23328,6,0,P|320:240|256:144,1,210,6|10,1:3|0:0,0:0:0:0:
192,136,24078,1,10,1:3:0:0:
52,132,24453,2,0,L|208:88,2,140,10|10|10,1:3|1:3|1:3,0:0:0:0:
360,112,25578,6,0,P|464:96|496:52,2,140,6|0|0,1:3|1:3|1:3,0:0:0:0:
220,240,26703,2,0,P|136:228|96:184,2,140,2|0|0,1:3|1:3|1:3,0:0:0:0:
356,324,27828,5,0,1:0:0:0:
216,320,28203,1,0,1:0:0:0:
154,298,28390,1,8,0:3:0:0:
147,233,28578,1,10,0:1:0:0:
209,213,28765,1,0,1:0:0:0:
392,216,28953,6,0,P|452:196|476:128,1,140,6|8,1:0|0:1,0:0:0:0:
400,128,29453,1,2,3:1:0:0:
324,132,29619,2,0,L|320:48,1,70,2|0,0:1|1:0,0:0:0:0:
400,60,29953,1,10,0:1:0:0:
92,64,30286,6,0,P|48:112|116:144,1,140,2|8,1:0|0:1,0:0:0:0:
172,148,30786,1,2,3:1:0:0:
248,152,30952,2,0,L|248:232,1,70,2|0,0:1|1:0,0:0:0:0:
172,224,31286,1,10,0:1:0:0:
480,228,31619,6,0,P|480:184|392:144,1,140,2|10,1:0|0:1,0:0:0:0:
336,136,32119,1,2,3:1:0:0:
264,136,32286,2,0,P|220:88|272:36,1,140,2|10,0:1|0:1,0:0:0:0:
328,40,32786,1,2,0:0:0:0:
152,44,32952,6,0,L|12:44,1,140,2|8,1:0|0:1,0:0:0:0:
88,48,33452,1,2,3:1:0:0:
164,48,33619,1,2,0:1:0:0:
240,44,33786,2,0,L|80:44,1,140,2|2,1:0|1:0,0:0:0:0:
276,44,34286,6,0,P|312:120|260:160,1,140,2|10,1:0|0:1,0:0:0:0:
128,160,34952,1,2,0:1:0:0:
66,182,35118,1,2,1:0:0:0:
72,247,35285,1,10,0:1:0:0:
136,260,35451,1,2,0:1:0:0:
444,264,35786,6,0,P|484:228|432:176,1,140,2|2,3:1|0:1,0:0:0:0:
360,172,36286,2,0,L|216:172,1,140,2|10,0:1|0:1,0:0:0:0:
220,172,36786,1,2,0:1:0:0:
376,140,36952,6,0,L|460:92,2,70,2|2|8,1:0|0:1|0:1,0:0:0:0:
224,128,37619,1,2,0:1:0:0:
155,128,37785,1,0,1:0:0:0:
97,167,37952,1,10,0:1:0:0:
72,231,38118,1,2,0:1:0:0:
236,228,38286,6,0,P|284:192|248:120,1,140,2|10,1:0|1:0,0:0:0:0:
184,120,38786,1,2,1:0:0:0:
108,128,38952,2,0,L|108:224,1,70,10|2,1:0|1:0,0:0:0:0:
184,196,39286,1,10,0:1:0:0:
492,196,39619,6,0,L|328:196,1,140,6|8,1:0|0:1,0:0:0:0:
352,196,40119,1,2,3:1:0:0:
428,200,40286,2,0,L|428:280,1,70,2|0,0:1|1:0,0:0:0:0:
352,276,40619,1,10,0:1:0:0:
44,280,40952,6,0,P|24:236|44:144,1,140,2|8,1:0|0:1,0:0:0:0:
116,140,41452,1,2,3:1:0:0:
192,140,41619,2,0,L|192:224,1,70,2|0,0:1|1:0,0:0:0:0:
116,212,41952,1,10,0:1:0:0:
424,212,42286,6,0,P|444:160|408:76,1,140,2|10,1:0|0:1,0:0:0:0:
340,84,42786,1,2,3:1:0:0:
264,84,42952,2,0,L|408:84,1,140,2|10,3:1|0:1,0:0:0:0:
404,84,43452,1,2,0:1:0:0:
228,84,43619,6,0,L|84:84,1,140,2|8,1:0|0:1,0:0:0:0:
160,84,44119,1,2,3:1:0:0:
232,84,44286,1,2,0:1:0:0:
232,84,44452,2,0,L|396:84,1,140,2|2,1:0|1:0,0:0:0:0:
216,84,44952,6,0,P|176:144|224:192,1,140,6|10,1:0|0:1,0:0:0:0:
368,188,45619,2,0,L|216:208,1,140,10|10,0:1|0:1,0:0:0:0:
152,220,46119,1,2,1:0:0:0:
312,224,46286,5,12,1:0:0:0:
372,200,46452,1,10,1:0:0:0:
365,135,46619,1,8,0:1:0:0:
301,124,46785,1,10,1:0:0:0:
128,116,46952,2,0,L|40:120,1,70,10|10,0:1|1:0,0:0:0:0:
58,119,47286,2,0,L|150:115,1,70,10|10,0:1|1:0,0:0:0:0:
436,116,47786,6,0,L|300:60,1,140,10|0,1:0|1:0,0:0:0:0:
228,56,48286,2,0,L|380:116,1,140,10|10,1:0|1:0,0:0:0:0:
200,128,48786,6,0,P|156:176|200:228,1,140,8|0,0:1|1:0,0:0:0:0:
272,216,49286,1,10,1:0:0:0:
331,246,49452,1,10,1:0:0:0:
335,312,49619,1,10,1:0:0:0:
279,349,49785,1,10,1:0:0:0:
204,352,49952,2,0,L|200:260,1,70,10|0,1:0|0:0,0:0:0:0:
372,280,50286,6,0,P|412:228|364:168,1,140,6|0,1:2|1:0,0:0:0:0:
236,164,50952,2,0,L|400:144,1,140,2|2,1:0|1:0,0:0:0:0:
236,144,51619,2,0,L|92:108,1,140,2|0,1:0|1:0,0:0:0:0:
168,100,52119,1,2,1:0:0:0:
240,100,52286,2,0,L|392:56,1,140,2|0,1:0|1:0,0:0:0:0:
80,48,52952,6,0,P|52:120|100:184,1,140,6|0,1:2|1:0,0:0:0:0:
220,184,53619,2,0,L|388:208,1,140,0|0,1:0|1:0,0:0:0:0:
220,224,54286,2,0,P|184:296|232:348,1,140,0|0,1:0|1:0,0:0:0:0:
352,328,54952,2,0,L|496:336,1,140,0|0,1:0|1:0,0:0:0:0:
424,324,55452,1,2,1:0:0:0:
256,332,55619,6,0,P|208:276|260:204,1,140,6|0,1:2|1:0,0:0:0:0:
372,196,56286,2,0,P|404:120|352:64,1,140,0|0,1:0|1:0,0:0:0:0:
240,100,56952,2,0,L|400:80,1,140,0|0,1:0|1:0,0:0:0:0:
240,104,57619,2,0,L|84:128,1,140,0|0,1:0|1:0,0:0:0:0:
101,125,58119,1,2,1:0:0:0:
268,124,58286,6,0,P|308:200|252:244,1,140,6|0,1:2|1:0,0:0:0:0:
140,244,58952,2,0,P|100:208|148:140,1,140,0|0,1:0|1:0,0:0:0:0:
276,124,59619,6,0,L|360:112,2,70,8|0|8,1:2|1:0|0:3,0:0:0:0:
136,136,60286,1,2,1:0:0:0:
88,140,60397,2,0,L|80:56,1,46.6666666666667,2|0,1:0|1:0,0:0:0:0:
128,84,60619,2,0,L|200:72,1,70,2|0,1:0|0:0,0:0:0:0:
364,76,60952,6,0,P|396:132|360:200,1,140,6|0,1:2|1:0,0:0:0:0:
228,208,61619,2,0,L|96:280,1,140,2|2,1:0|1:0,0:0:0:0:
244,292,62286,2,0,L|380:224,1,140,2|0,1:0|1:0,0:0:0:0:
300,228,62786,1,0,0:0:0:0:
232,228,62952,2,0,P|172:188|200:136,1,140,2|2,1:0|1:0,0:0:0:0:
268,148,63452,1,0,0:0:0:0:
436,192,63619,6,0,P|464:148|416:72,1,140,6|0,1:2|1:0,0:0:0:0:
288,80,64286,2,0,P|248:140|304:192,1,140,0|0,1:0|1:0,0:0:0:0:
424,184,64952,2,0,L|272:184,1,140,0|0,1:0|1:0,0:0:0:0:
212,184,65452,2,0,P|168:128|216:88,1,140,0|0,0:0|0:0,0:0:0:0:
280,88,65952,1,0,1:0:0:0:
212,184,66119,1,0,1:0:0:0:
44,312,66286,6,0,P|24:256|80:192,1,140,6|2,1:2|1:0,0:0:0:0:
212,184,66952,2,0,L|60:156,1,140,2|2,1:0|1:0,0:0:0:0:
368,148,67619,2,0,P|416:196|352:240,1,140,2|2,1:0|1:0,0:0:0:0:
236,244,68286,2,0,P|149:244|124:180,1,140,2|2,1:0|1:0,0:0:0:0:
196,196,68786,1,0,0:0:0:0:
364,204,68952,6,0,L|376:92,1,93.3333333333333,6|2,1:2|1:0,0:0:0:0:
280,104,69397,1,2,1:0:0:0:
76,88,69619,2,0,L|60:216,1,93.3333333333333,2|2,1:0|1:0,0:0:0:0:
160,180,70064,1,2,1:0:0:0:
364,184,70286,5,2,1:0:0:0:
402,191,70397,1,2,1:0:0:0:
426,222,70508,1,2,1:0:0:0:
422,261,70619,1,2,1:0:0:0:
393,287,70730,1,2,1:0:0:0:
354,286,70841,1,2,1:0:0:0:
308,288,70952,2,0,L|460:312,1,140,2|0,1:0|1:0,0:0:0:0:
168,292,71619,6,0,P|100:224|180:176,1,210,4|2,1:0|0:0,0:0:0:0:
244,176,72419,1,2,0:0:0:0:
384,180,72819,2,0,L|96:112,1,280,2|2,1:0|0:0,0:0:0:0:
180,116,73819,1,2,0:0:0:0:
248,112,74019,6,0,P|324:184|252:224,1,210,2|2,1:0|0:0,0:0:0:0:
192,228,74819,1,2,0:0:0:0:
332,244,75219,2,0,P|408:228|352:76,1,280,2|2,1:0|0:0,0:0:0:0:
296,76,76219,1,2,0:0:0:0:
116,88,76419,6,0,P|64:148|148:236,1,210,2|2,1:0|0:0,0:0:0:0:
204,236,77219,1,2,0:0:0:0:
344,240,77619,2,0,L|136:192,1,210,2|2,1:0|0:0,0:0:0:0:
68,184,78419,1,2,0:0:0:0:
208,168,78819,6,0,L|368:136,2,140,2|2|2,1:0|0:0|0:0,0:0:0:0:
68,312,80019,2,0,P|36:260|76:40,1,280,2|2,1:0|0:0,0:0:0:0:
136,52,81019,1,2,0:0:0:0:
316,44,81219,6,0,P|392:96|296:144,1,210,6|2,1:0|0:0,0:0:0:0:
256,160,82019,1,2,0:0:0:0:
116,172,82419,2,0,L|344:120,1,210,2|2,1:0|0:0,0:0:0:0:
388,108,83219,1,2,0:0:0:0:
320,125,83419,1,2,0:0:0:0:
252,140,83619,6,0,P|200:200|272:284,1,210,2|2,1:0|0:0,0:0:0:0:
344,284,84419,1,2,0:0:0:0:
272,284,84619,1,2,0:0:0:0:
200,284,84819,2,0,P|136:208|260:108,1,280,2|2,1:0|0:0,0:0:0:0:
316,104,85819,1,2,0:0:0:0:
136,112,86019,6,0,P|48:88|4:48,2,140,2|2|2,1:0|0:0|0:0,0:0:0:0:
260,104,87219,1,2,1:0:0:0:
384,108,87619,2,0,P|448:156|372:232,1,210,2|2,0:0|0:0,0:0:0:0:
196,228,88419,5,2,1:0:0:0:
256,192,88819,12,8,90369,1:3:0:0:
220,224,90744,6,0,P|296:232|368:336,1,210,6|2,1:3|0:0,0:0:0:0:
296,332,91494,1,10,1:3:0:0:
156,348,91869,2,0,P|119:354|20:304,2,140,2|10|10,1:3|1:3|1:3,0:0:0:0:
296,348,92994,6,0,P|384:316|284:220,1,280,2|10,1:3|1:3,0:0:0:0:
224,220,93931,1,8,0:0:0:0:
152,216,94119,2,0,P|172:152|372:104,1,280,2|10,1:3|1:3,0:0:0:0:
428,96,95056,1,10,1:3:0:0:
252,92,95244,6,0,L|172:236,1,140,6|8,1:3|1:3,0:0:0:0:
252,240,95806,1,10,0:0:0:0:
320,248,95994,1,10,1:3:0:0:
460,252,96369,2,0,L|304:296,2,140,10|10|10,1:3|1:3|1:3,0:0:0:0:
152,272,97494,6,0,L|4:240,2,140,6|0|0,1:3|1:3|1:3,0:0:0:0:
292,144,98619,2,0,L|436:96,2,140,2|0|0,1:3|1:3|1:3,0:0:0:0:
156,60,99744,5,0,1:0:0:0:
296,64,100119,1,0,1:0:0:0:
358,86,100306,1,8,0:3:0:0:
365,151,100494,1,10,0:1:0:0:
303,171,100681,1,0,1:0:0:0:
120,180,100869,6,0,P|80:232|144:280,1,140,6|10,1:2|0:0,0:0:0:0:
200,272,101369,1,2,0:0:0:0:
276,264,101535,2,0,P|352:240|360:184,1,140,2|8,1:2|0:0,0:0:0:0:
284,196,102035,1,2,0:0:0:0:
124,208,102202,5,2,1:2:0:0:
68,172,102368,1,2,0:0:0:0:
82,108,102535,1,10,0:0:0:0:
147,99,102702,1,2,0:0:0:0:
308,104,102869,2,0,L|472:96,1,140,2|10,1:2|0:0,0:0:0:0:
372,100,103369,1,2,0:0:0:0:
212,96,103535,6,0,L|132:72,2,70,2|2|10,1:2|0:0|0:0,0:0:0:0:
364,116,104202,1,2,1:2:0:0:
428,130,104368,1,2,0:0:0:0:
438,195,104535,1,10,0:0:0:0:
381,229,104702,1,2,0:0:0:0:
228,244,104869,6,0,P|184:196|232:144,1,140,2|8,1:2|0:0,0:0:0:0:
376,152,105535,1,10,1:2:0:0:
385,84,105701,1,2,1:2:0:0:
342,32,105868,1,10,1:2:0:0:
274,29,106035,1,2,1:2:0:0:
112,36,106202,6,0,P|72:96|112:160,1,140,6|10,1:2|0:0,0:0:0:0:
176,156,106702,1,2,0:0:0:0:
252,164,106869,2,0,L|100:168,1,140,2|10,1:2|0:0,0:0:0:0:
112,167,107369,1,0,0:0:0:0:
272,164,107535,6,0,L|352:160,2,70,2|2|8,1:2|0:0|0:0,0:0:0:0:
112,167,108202,2,0,P|80:240|144:252,1,140,2|10,1:2|0:0,0:0:0:0:
196,260,108702,1,2,0:0:0:0:
356,260,108868,6,0,P|448:232|472:192,1,140,2|10,1:2|0:0,0:0:0:0:
392,196,109368,1,2,0:0:0:0:
232,188,109535,2,0,P|168:180|124:144,2,105,6|6|6,1:0|1:0|1:0,0:0:0:0:
396,196,110202,6,0,P|432:244|388:316,1,140,6|8,1:0|1:2,0:0:0:0:
248,304,110868,1,10,1:2:0:0:
233,237,111034,1,2,1:2:0:0:
270,180,111201,1,10,1:2:0:0:
336,166,111368,1,2,1:2:0:0:
176,168,111535,6,0,L|40:132,1,140,6|10,1:2|0:0,0:0:0:0:
116,132,112035,1,2,0:0:0:0:
192,128,112202,2,0,P|232:180|180:236,1,140,2|8,1:2|0:0,0:0:0:0:
116,236,112702,1,2,0:0:0:0:
276,240,112868,6,0,L|348:240,1,70,2|2,1:2|0:0,0:0:0:0:
268,240,113202,2,0,L|172:236,1,70,10|2,0:0|0:0,0:0:0:0:
360,244,113535,2,0,P|396:188|356:128,1,140,2|10,1:2|0:0,0:0:0:0:
284,132,114035,1,2,0:0:0:0:
124,144,114201,6,0,L|56:112,2,70,2|2|10,1:2|0:0|0:0,0:0:0:0:
280,140,114868,1,2,1:2:0:0:
288,208,115034,1,2,0:0:0:0:
236,252,115201,1,10,0:0:0:0:
168,248,115368,1,2,0:0:0:0:
328,248,115535,6,0,L|480:248,1,140,2|8,1:2|0:0,0:0:0:0:
312,244,116202,1,10,1:2:0:0:
258,205,116368,1,2,1:2:0:0:
271,141,116535,1,10,1:2:0:0:
336,127,116702,1,2,1:2:0:0:
176,136,116868,6,0,L|24:108,1,140,6|8,1:2|0:0,0:0:0:0:
116,124,117368,1,2,1:2:0:0:
192,128,117535,2,0,P|232:184|188:232,1,140,10|10,0:0|0:0,0:0:0:0:
116,236,118035,1,0,1:0:0:0:
276,252,118202,6,0,L|352:268,2,70,10|8|10,0:0|0:0|0:0,0:0:0:0:
200,240,118702,1,10,0:0:0:0:
276,224,118868,2,0,L|384:200,2,105,8|0|8,0:0|1:0|0:0,0:0:0:0:
112,232,119535,6,0,L|112:144,1,70,0|12,1:0|1:0,0:0:0:0:
268,164,120035,1,0,1:2:0:0:
428,168,120202,2,0,P|472:220|424:280,1,140,8|8,1:2|1:2,0:0:0:0:
280,280,120702,6,0,P|160:276|100:180,1,210,12|2,1:0|1:0,0:0:0:0:
260,204,121535,1,2,1:0:0:0:
283,140,121701,1,2,1:0:0:0:
244,85,121868,1,2,1:0:0:0:
177,86,122035,1,2,1:0:0:0:
332,84,122202,6,0,P|424:72|472:28,1,140,6|0,1:0|1:0,0:0:0:0:
320,52,122868,2,0,P|236:60|168:108,1,140,2|2,1:0|1:0,0:0:0:0:
328,100,123535,2,0,P|368:160|324:196,1,140,2|0,1:0|1:0,0:0:0:0:
256,200,124035,1,2,1:0:0:0:
184,204,124202,2,0,P|152:252|192:324,1,140,2|2,1:0|1:0,0:0:0:0:
324,324,124868,6,0,P|388:320|440:248,1,140,2|0,1:0|1:0,0:0:0:0:
296,256,125535,2,0,P|260:328|304:368,1,140,0|0,1:0|1:0,0:0:0:0:
432,356,126202,2,0,P|464:316|424:248,1,140,0|0,1:0|1:0,0:0:0:0:
284,248,126868,2,0,L|436:200,1,140,0|0,1:0|1:0,0:0:0:0:
348,204,127368,1,0,1:0:0:0:
192,212,127535,6,0,P|152:176|200:88,1,140,0|8,1:0|1:3,0:0:0:0:
312,84,128202,2,0,L|172:56,1,140,0|8,1:0|1:3,0:0:0:0:
36,68,128868,2,0,L|176:92,1,140,0|8,1:0|1:3,0:0:0:0:
312,116,129535,2,0,P|352:172|304:232,1,140,0|8,1:0|1:3,0:0:0:0:
180,220,130202,6,0,P|132:176|188:120,1,140,0|8,1:0|1:3,0:0:0:0:
304,112,130868,2,0,P|380:120|456:164,1,140,0|8,1:0|1:3,0:0:0:0:
144,192,131535,6,0,L|68:212,2,70,8|0|8,1:2|1:0|0:3,0:0:0:0:
440,188,132202,1,2,1:0:0:0:
479,240,132368,1,8,1:3:0:0:
447,298,132535,1,8,1:0:0:0:
376,300,132702,1,0,1:0:0:0:
224,308,132868,6,0,P|184:264|240:216,1,140,6|0,1:0|1:0,0:0:0:0:
372,200,133535,2,0,L|212:168,1,140,2|2,1:0|1:0,0:0:0:0:
96,180,134202,2,0,P|64:248|112:296,1,140,2|0,1:0|1:0,0:0:0:0:
172,292,134702,1,2,1:0:0:0:
240,292,134868,2,0,L|104:332,1,140,2|2,1:0|1:0,0:0:0:0:
244,336,135534,6,0,L|392:296,1,140,2|0,1:0|1:0,0:0:0:0:
240,308,136201,2,0,P|196:248|232:196,1,140,0|0,1:0|1:0,0:0:0:0:
368,204,136868,2,0,P|404:144|352:84,1,140,0|0,1:0|1:0,0:0:0:0:
232,92,137535,1,0,1:0:0:0:
92,80,137868,1,8,1:3:0:0:
160,76,138035,1,0,1:0:0:0:
312,88,138202,6,0,P|344:164|312:228,1,140,8|8,1:3|1:3,0:0:0:0:
248,216,138702,1,0,1:0:0:0:
172,220,138868,2,0,P|140:296|188:344,1,140,8|8,1:3|1:3,0:0:0:0:
248,332,139368,1,0,1:0:0:0:
324,336,139535,6,0,L|176:312,1,140,8|8,1:3|1:3,0:0:0:0:
260,296,140035,1,0,1:0:0:0:
336,280,140202,2,0,L|472:204,1,140,8|8,1:3|1:3,0:0:0:0:
380,204,140702,1,8,1:3:0:0:
228,212,140868,5,8,1:3:0:0:
160,210,141034,1,8,0:3:0:0:
123,154,141201,1,8,1:3:0:0:
147,91,141367,1,8,0:3:0:0:
304,80,141535,1,8,1:3:0:0:
364,106,141701,1,8,0:3:0:0:
367,172,141868,1,8,1:3:0:0:
309,204,142034,1,8,0:3:0:0:
156,216,142202,6,0,P|80:200|40:144,1,140,8|8,1:3|1:3,0:0:0:0:
336,152,142868,1,8,1:3:0:0:
390,190,143034,1,0,1:0:0:0:
383,257,143201,1,8,1:3:0:0:
322,284,143367,1,0,1:0:0:0:
168,276,143535,5,4,0:1:0:0:
256,192,143868,12,0,144868,0:0:0:0:
