osu file format v14

[General]
AudioFilename: audio.mp3
AudioLeadIn: 0
PreviewTime: 100447
Countdown: 0
SampleSet: Soft
StackLeniency: 0.7
Mode: 2
LetterboxInBreaks: 0
WidescreenStoryboard: 1

[Editor]
Bookmarks: 144868
DistanceSpacing: 3.3
BeatDivisor: 4
GridSize: 4
TimelineZoom: 1.7

[Metadata]
Title:Warrior Of Multiverse
TitleUnicode:Warrior Of Multiverse
Artist:Ardolf
ArtistUnicode:Ardolf
Creator:4rcheR-
Version:Rain
Source:
Tags:archer Mniam Electronic Instrumental fa featured artist furry dragon celtic hardcore neurofunk neuro house bass hard psy edm & dance
BeatmapID:4126480
BeatmapSetID:1981980

[Difficulty]
HPDrainRate:5
CircleSize:3.5
OverallDifficulty:9
ApproachRate:9
SliderMultiplier:1.8
SliderTickRate:2

[Events]
//Background and Video events
0,0,"bg.jpg",0,0
//Break Periods
//Storyboard Layer 0 (Background)
//Storyboard Layer 1 (Fail)
//Storyboard Layer 2 (Pass)
//Storyboard Layer 3 (Foreground)
//Storyboard Layer 4 (Overlay)
//Storyboard Sound Samples

[TimingPoints]
828,375,3,3,22,50,1,0
9828,-100,3,3,22,60,0,0
17703,-100,3,3,22,65,0,0
18828,-100,3,3,22,70,0,0
20234,-100,3,3,22,5,0,0
20328,-100,3,3,22,70,0,0
22484,-100,3,3,22,5,0,0
22578,-100,3,3,22,70,0,0
25578,-100,3,2,22,75,0,0
28953,333.333333333333,4,2,22,80,1,1
50286,-100,4,2,22,60,0,0
60952,-100,4,2,22,70,0,0
68952,-100,4,2,22,75,0,0
71619,400,3,2,22,50,1,0
79119,-100,3,2,22,5,0,0
79219,-100,3,2,22,50,0,0
79519,-100,3,2,22,5,0,0
79619,-100,3,2,22,50,0,0
79919,-100,3,2,22,5,0,0
80019,-100,3,2,22,50,0,0
81219,-100,3,2,22,55,0,0
86019,-100,3,2,22,60,0,0
86319,-100,3,2,22,5,0,0
86419,-100,3,2,22,60,0,0
86719,-100,3,2,22,5,0,0
86819,-100,3,2,22,60,0,0
87519,-100,3,2,22,5,0,0
87619,-100,3,2,22,60,0,0
89619,375,3,2,22,65,1,0
90744,-100,3,3,22,70,0,0
97494,-100,3,2,22,75,0,0
99744,-40,3,2,22,50,0,0
100119,-100,3,2,22,75,0,0
100869,333.333333333333,4,2,21,80,1,1
109535,-100,4,2,22,80,0,1
110368,-100,4,2,21,80,0,1
119702,-100,4,2,22,80,0,1
119785,-100,4,2,21,80,0,1
120702,-100,4,2,22,80,0,1
122202,-100,4,2,22,60,0,0
131785,-100,4,2,22,5,0,0
131868,-100,4,2,22,60,0,0
138202,-100,4,2,22,65,0,0
140868,-100,4,2,22,70,0,0
142202,-100,4,2,22,75,0,0
143535,-100,4,2,22,50,0,0

[Colours]
Combo1 : 170,43,43
Combo2 : 255,34,34
Combo3 : 0,128,192
Combo4 : 180,107,48

[HitObjects]
120,212,828,6,0,P|28:152|136:40,1,270,6|2,1:3|0:0,0:0:0:0:
196,40,1578,1,10,0:0:0:0:
464,48,1953,6,0,P|436:132|320:164,1,180,2|8,1:3|0:0,0:0:0:0:
160,180,2703,2,0,L|140:292,1,90,10|2,0:0|0:0,0:0:0:0:
316,276,3078,6,0,P|336:196|184:152,1,270,2|2,1:3|0:0,0:0:0:0:
92,152,3828,1,10,0:0:0:0:
360,160,4203,6,0,P|408:236|344:308,1,180,2|8,1:3|0:0,0:0:0:0:
164,328,4953,2,0,L|56:332,1,90,10|2,0:0|0:0,0:0:0:0:
364,328,5328,6,0,P|436:304|464:128,1,270,2|2,1:3|0:0,0:0:0:0:
368,124,6078,1,10,0:0:0:0:
100,144,6453,6,0,P|64:184|208:224,1,270,2|2,1:3|0:0,0:0:0:0:
96,244,7203,1,10,0:0:0:0:
364,288,7578,6,0,P|404:244|332:132,1,180,2|8,1:3|0:0,0:0:0:0:
168,160,8328,2,0,L|164:52,1,90,10|2,0:0|0:0,0:0:0:0:
336,64,8703,6,0,P|400:112|376:212,1,180,2|10,1:3|0:0,0:0:0:0:
116,192,9453,2,0,P|96:240|132:264,1,90,10|0,0:0|3:0,0:0:0:0:
424,256,9828,6,0,P|284:256|220:140,1,270,6|2,1:3|0:0,0:0:0:0:
328,148,10578,1,10,0:0:0:0:
60,168,10953,6,0,P|40:124|144:52,1,180,2|8,1:3|0:0,0:0:0:0:
320,44,11703,2,0,L|192:40,1,90,10|2,0:0|0:0,0:0:0:0:
400,44,12078,6,0,P|484:140|404:244,1,270,2|2,1:3|0:0,0:0:0:0:
316,244,12828,1,10,0:0:0:0:
48,228,13203,6,0,L|244:160,1,180,2|8,1:3|0:0,0:0:0:0:
24,128,13953,2,0,L|20:32,1,90,10|2,0:0|3:0,0:0:0:0:
308,44,14328,6,0,P|364:128|284:180,1,180,2|10,1:3|0:0,0:0:0:0:
224,176,14890,1,0,3:0:0:0:
324,176,15078,1,10,0:0:0:0:
56,180,15453,6,0,L|248:124,1,180,2|10,1:3|0:0,0:0:0:0:
428,120,16203,2,0,L|428:232,1,90,8|2,0:0|3:0,0:0:0:0:
256,208,16578,6,0,P|168:196|132:104,1,180,2|10,1:3|0:0,0:0:0:0:
328,128,17328,2,0,L|328:20,1,90,10|2,0:0|0:0,0:0:0:0:
156,44,17703,6,0,P|108:84|160:112,1,135,2|0,1:3|1:0,0:0:0:0:
252,112,18078,1,0,1:0:0:0:
289,133,18171,1,0,0:0:0:0:
291,176,18265,1,8,1:3:0:0:
255,200,18359,1,0,0:0:0:0:
88,200,18453,2,0,L|164:200,1,45,0|0,1:0|1:0,0:0:0:0:
300,200,18640,2,0,L|300:132,1,45,0|0,1:0|1:0,0:0:0:0:
112,156,18828,6,0,P|52:136|132:96,1,180,6|8,1:3|1:3,0:0:0:0:
208,68,19390,1,2,0:0:0:0:
256,68,19484,1,8,0:3:0:0:
424,68,19578,2,0,L|424:188,1,90,10|8,1:3|0:3,0:0:0:0:
252,164,19953,6,0,L|452:124,1,180,2|10,1:3|1:3,0:0:0:0:
332,152,20515,1,2,0:0:0:0:
280,164,20609,1,8,0:3:0:0:
112,172,20703,2,0,L|112:288,1,90,10|8,1:3|0:3,0:0:0:0:
400,256,21078,6,0,L|212:292,1,180,2|8,1:3|1:3,0:0:0:0:
320,300,21640,1,2,0:0:0:0:
372,300,21734,1,8,0:3:0:0:
204,304,21828,2,0,L|204:200,1,90,10|8,1:3|0:0,0:0:0:0:
376,204,22203,6,0,L|196:164,1,180,2|8,1:3|1:3,0:0:0:0:
296,148,22765,1,0,0:0:0:0:
348,144,22859,1,8,0:3:0:0:
180,152,22953,2,0,L|56:152,1,90,10|10,1:3|1:3,0:0:0:0:
380,152,23328,6,0,L|480:152,2,90,6|8|8,1:3|0:0|1:3,0:0:0:0:
280,152,23890,1,10,0:0:0:0:
108,168,24078,2,0,L|108:52,1,90,10|8,1:3|0:0,0:0:0:0:
280,72,24453,6,0,L|408:72,1,90,10|8,1:3|0:0,0:0:0:0:
100,76,24828,2,0,L|100:200,1,90,10|8,1:3|0:0,0:0:0:0:
372,160,25203,2,0,L|492:160,1,90,10|0,1:3|1:0,0:0:0:0:
156,152,25578,5,6,1:3:0:0:
123,181,25671,1,0,1:0:0:0:
123,225,25765,1,0,1:0:0:0:
155,254,25859,1,0,1:0:0:0:
256,252,25953,1,0,1:3:0:0:
294,235,26046,1,0,1:0:0:0:
293,193,26140,1,0,1:0:0:0:
252,181,26234,1,0,1:0:0:0:
84,184,26328,1,0,1:3:0:0:
64,145,26421,1,0,1:0:0:0:
79,104,26515,1,0,1:0:0:0:
119,87,26609,1,0,1:0:0:0:
296,84,26703,5,2,1:3:0:0:
339,89,26796,1,0,1:0:0:0:
377,66,26890,1,0,1:0:0:0:
392,24,26984,1,0,1:0:0:0:
224,32,27078,2,0,L|156:32,1,45,0|0,1:3|1:0,0:0:0:0:
224,32,27265,2,0,L|288:32,1,45,0|0,1:0|1:0,0:0:0:0:
440,40,27453,2,0,L|440:112,1,45,0|0,1:3|1:0,0:0:0:0:
272,104,27640,2,0,L|212:104,1,45,0|0,1:0|1:0,0:0:0:0:
404,104,27828,5,0,1:0:0:0:
404,104,28203,2,0,L|456:104,1,45,0|0,1:0|3:0,0:0:0:0:
404,104,28390,2,0,L|344:104,1,45,8|0,0:3|3:0,0:0:0:0:
192,108,28578,2,0,L|192:176,1,45,10|0,0:1|1:0,0:0:0:0:
356,172,28765,2,0,L|420:172,1,45,0|0,1:0|0:0,0:0:0:0:
196,172,28953,6,0,P|128:216|192:280,1,180,6|8,1:0|0:1,0:0:0:0:
284,276,29453,1,2,3:1:0:0:
116,288,29619,2,0,L|116:176,1,90,2|0,0:1|1:0,0:0:0:0:
380,188,29953,2,0,L|488:188,1,90,10|0,0:1|0:0,0:0:0:0:
192,188,30286,6,0,L|376:188,1,180,2|8,1:0|0:1,0:0:0:0:
264,184,30786,1,2,3:1:0:0:
436,176,30952,2,0,L|340:176,1,90,2|0,0:1|1:0,0:0:0:0:
84,184,31286,2,0,L|196:184,1,90,10|0,0:1|0:0,0:0:0:0:
452,192,31619,6,0,P|492:132|436:44,1,180,2|10,1:0|0:1,0:0:0:0:
388,48,32036,1,0,0:0:0:0:
392,100,32119,1,2,3:1:0:0:
444,100,32202,1,0,3:0:0:0:
280,104,32286,2,0,L|160:100,1,90,2|0,0:1|1:0,0:0:0:0:
452,108,32619,2,0,L|452:212,1,90,10|2,0:1|0:0,0:0:0:0:
172,204,32952,6,0,P|116:184|100:56,1,180,2|8,1:0|0:1,0:0:0:0:
196,80,33452,1,2,3:1:0:0:
368,76,33619,2,0,L|364:196,1,90,2|2,0:1|1:0,0:0:0:0:
104,160,33952,2,0,L|8:160,1,90,10|2,0:1|1:0,0:0:0:0:
68,160,34202,1,2,1:0:0:0:
240,156,34286,6,0,L|352:156,1,90,2|0,1:0|0:0,0:0:0:0:
158,160,34619,2,0,L|50:160,1,90,10|2,0:1|3:1,0:0:0:0:
328,164,34952,2,0,L|328:276,1,90,2|2,0:1|1:0,0:0:0:0:
276,264,35202,1,2,0:1:0:0:
112,268,35286,2,0,L|112:160,1,90,10|2,0:1|0:1,0:0:0:0:
392,176,35619,6,0,L|392:72,1,90,0|2,1:0|3:1,0:0:0:0:
132,100,35952,2,0,L|128:208,1,90,8|2,0:1|0:1,0:0:0:0:
300,184,36286,2,0,L|196:184,1,90,2|0,0:1|1:0,0:0:0:0:
40,192,36619,2,0,L|164:192,1,90,10|2,0:1|0:1,0:0:0:0:
184,192,36869,1,2,0:1:0:0:
356,192,36952,6,0,L|360:72,1,90,2|2,1:0|0:1,0:0:0:0:
304,92,37202,1,0,0:0:0:0:
140,108,37286,2,0,L|32:108,1,90,8|2,0:1|3:1,0:0:0:0:
104,108,37536,1,0,3:0:0:0:
192,108,37619,2,0,L|304:108,1,90,2|0,0:1|1:0,0:0:0:0:
20,108,37952,2,0,L|20:208,1,90,10|2,0:1|0:1,0:0:0:0:
300,192,38286,6,0,L|120:192,1,180,2|10,1:0|1:0,0:0:0:0:
68,188,38702,2,0,L|68:112,1,45,2|2,1:0|1:0,0:0:0:0:
120,132,38869,1,2,1:0:0:0:
280,120,38952,2,0,L|352:120,1,45,10|2,1:0|1:0,0:0:0:0:
160,128,39119,2,0,L|160:192,1,45,2|2,1:0|1:0,0:0:0:0:
324,176,39286,2,0,L|448:176,1,90,10|0,0:1|1:0,0:0:0:0:
116,188,39619,6,0,L|320:188,1,180,6|8,1:0|0:1,0:0:0:0:
188,188,40119,1,2,3:1:0:0:
360,188,40286,2,0,L|360:296,1,90,2|0,0:1|1:0,0:0:0:0:
100,276,40619,2,0,L|216:276,1,90,10|0,0:1|0:0,0:0:0:0:
468,296,40952,6,0,L|276:296,1,180,2|8,1:0|0:1,0:0:0:0:
392,328,41452,1,2,3:1:0:0:
220,340,41619,2,0,L|220:228,1,90,2|0,0:1|1:0,0:0:0:0:
480,252,41952,2,0,L|368:252,1,90,10|0,0:1|0:0,0:0:0:0:
108,252,42286,6,0,L|304:252,1,180,2|10,1:0|0:1,0:0:0:0:
340,244,42702,2,0,L|340:176,1,45,0|2,0:0|3:1,0:0:0:0:
288,192,42869,1,0,3:0:0:0:
448,192,42952,2,0,P|468:236|432:284,1,90,2|0,3:1|1:0,0:0:0:0:
188,264,43286,2,0,L|88:264,1,90,10|2,0:1|0:1,0:0:0:0:
376,232,43619,6,0,P|392:292|276:352,1,180,2|8,1:0|0:1,0:0:0:0:
204,348,44119,1,2,3:1:0:0:
376,352,44286,2,0,L|376:252,1,90,2|2,0:1|1:0,0:0:0:0:
116,348,44619,2,0,L|232:348,1,90,10|2,0:1|1:0,0:0:0:0:
260,348,44869,1,2,1:0:0:0:
80,352,44952,6,0,L|80:228,1,90,6|0,1:0|1:0,0:0:0:0:
252,256,45286,2,0,L|360:256,1,90,10|0,0:1|1:0,0:0:0:0:
80,264,45619,2,0,L|80:144,1,90,10|2,0:1|1:0,0:0:0:0:
136,172,45869,1,0,1:0:0:0:
224,176,45952,2,0,L|96:176,1,90,10|2,0:1|1:0,0:0:0:0:
432,184,46286,6,0,L|432:288,1,90,12|10,1:0|1:0,0:0:0:0:
172,272,46619,2,0,L|172:368,1,90,8|10,0:1|1:0,0:0:0:0:
432,348,46952,2,0,L|324:348,1,90,10|10,0:1|1:0,0:0:0:0:
80,352,47286,2,0,L|200:352,1,90,10|10,0:1|1:0,0:0:0:0:
340,352,47619,5,0,1:0:0:0:
80,352,47786,2,0,L|80:244,1,90,10|0,1:0|1:0,0:0:0:0:
180,256,48119,2,0,L|232:256,1,45,0|0,1:0|1:0,0:0:0:0:
388,256,48286,2,0,L|384:136,1,90,10|0,1:0|1:0,0:0:0:0:
124,164,48619,2,0,L|128:280,1,90,10|8,1:0|0:1,0:0:0:0:
408,260,48952,6,0,L|304:260,1,90,2|0,1:0|1:0,0:0:0:0:
56,260,49286,2,0,L|52:196,1,45,10|10,1:0|1:0,0:0:0:0:
104,200,49452,2,0,L|184:184,1,45,10|10,1:0|1:0,0:0:0:0:
312,200,49619,2,0,L|320:276,1,45,10|10,1:0|1:0,0:0:0:0:
152,252,49786,2,0,L|100:272,1,45,10|10,1:0|1:0,0:0:0:0:
272,280,49952,2,0,L|368:288,2,60,10|8|8,1:0|1:0|1:0,0:0:0:0:
60,296,50286,6,0,P|16:256|64:156,1,180,6|0,1:2|1:0,0:0:0:0:
156,168,50786,1,0,1:0:0:0:
316,176,50952,2,0,L|316:272,1,90,2|0,1:0|1:0,0:0:0:0:
152,268,51286,2,0,L|152:140,1,90,2|0,1:0|1:0,0:0:0:0:
316,176,51619,6,0,L|496:140,1,180,2|0,1:0|1:0,0:0:0:0:
392,132,52119,1,2,1:0:0:0:
228,136,52286,2,0,L|224:28,1,90,2|0,1:0|1:0,0:0:0:0:
388,36,52619,2,0,L|392:160,1,90,0|2,1:0|1:0,0:0:0:0:
124,156,52952,6,0,L|332:196,1,180,6|0,1:2|1:0,0:0:0:0:
200,196,53452,1,0,1:0:0:0:
364,196,53619,2,0,L|364:304,1,90,0|0,1:0|1:0,0:0:0:0:
200,292,53952,2,0,L|72:292,1,90,0|0,1:0|1:0,0:0:0:0:
272,304,54286,6,0,L|284:192,1,90,0|0,1:0|1:0,0:0:0:0:
184,208,54619,2,0,L|180:104,1,90,0|0,1:0|1:0,0:0:0:0:
80,116,54952,2,0,L|60:16,1,90,0|0,1:0|1:0,0:0:0:0:
224,56,55286,2,0,L|116:56,1,90,0|2,1:0|1:0,0:0:0:0:
404,48,55619,6,0,P|448:120|392:192,1,180,6|0,1:2|1:0,0:0:0:0:
300,208,56119,1,0,1:0:0:0:
396,228,56286,2,0,L|404:332,1,90,0|0,1:0|1:0,0:0:0:0:
304,328,56619,2,0,L|424:328,1,90,0|0,1:0|1:0,0:0:0:0:
232,336,56952,6,0,L|216:232,1,90,0|0,1:0|1:0,0:0:0:0:
316,240,57286,2,0,L|316:128,1,90,0|0,1:0|1:0,0:0:0:0:
416,152,57619,2,0,L|440:48,1,90,0|0,1:0|1:0,0:0:0:0:
276,52,57952,2,0,L|396:36,1,90,0|2,1:0|1:0,0:0:0:0:
92,52,58286,6,0,P|44:104|116:192,1,180,6|0,1:2|1:0,0:0:0:0:
192,188,58786,1,0,1:0:0:0:
96,208,58952,2,0,L|92:324,1,90,0|0,1:0|1:0,0:0:0:0:
192,292,59286,2,0,L|96:288,1,90,0|0,1:0|1:0,0:0:0:0:
372,300,59619,6,0,L|384:184,1,90,8|0,1:2|1:0,0:0:0:0:
220,200,59952,2,0,L|196:80,1,90,8|0,0:3|1:0,0:0:0:0:
456,108,60286,2,0,L|464:24,1,60,2|2,1:0|1:0,0:0:0:0:
396,48,60508,1,0,1:0:0:0:
212,48,60619,2,0,L|128:44,2,60,2|2|0,1:0|1:0|1:0,0:0:0:0:
420,48,60952,6,0,P|464:96|392:184,1,180,6|0,1:2|1:0,0:0:0:0:
348,200,61397,1,0,1:0:0:0:
284,180,61508,1,2,1:0:0:0:
172,196,61619,2,0,L|156:288,1,60,2|0,1:0|1:0,0:0:0:0:
224,272,61841,1,0,1:0:0:0:
408,276,61952,2,0,L|472:284,2,60,2|0|0,1:0|1:0|1:0,0:0:0:0:
208,272,62286,6,0,L|136:296,2,60,2|0|0,1:0|1:0|1:0,0:0:0:0:
320,296,62619,2,0,L|328:368,1,60,0|0,1:0|1:0,0:0:0:0:
260,352,62841,1,2,1:0:0:0:
76,348,62952,2,0,L|72:272,1,60,2|0,1:0|1:0,0:0:0:0:
140,284,63175,1,0,1:0:0:0:
252,348,63286,1,2,1:0:0:0:
316,340,63397,1,0,1:0:0:0:
380,332,63508,1,0,1:0:0:0:
184,312,63619,6,0,L|8:276,1,180,6|0,1:2|1:0,0:0:0:0:
12,208,64064,2,0,L|92:188,1,60,0|0,1:0|1:0,0:0:0:0:
184,200,64286,2,0,L|196:112,1,60,0|0,1:0|1:0,0:0:0:0:
128,128,64508,1,0,1:0:0:0:
240,120,64619,2,0,L|328:104,2,60,0|0|0,1:0|1:0|1:0,0:0:0:0:
124,140,64952,6,0,L|116:228,1,60,0|0,1:0|1:0,0:0:0:0:
184,200,65175,1,0,1:0:0:0:
296,200,65286,1,0,1:0:0:0:
360,216,65397,1,0,1:0:0:0:
368,280,65508,1,0,1:0:0:0:
256,292,65619,2,0,L|180:296,2,60,0|0|0,1:0|1:0|1:0,0:0:0:0:
440,280,65952,2,0,L|444:208,1,45,0|0,1:0|1:0,0:0:0:0:
284,220,66119,2,0,L|220:208,1,45,0|2,1:0|1:0,0:0:0:0:
416,216,66286,6,0,P|464:256|392:352,1,180,6|2,1:2|1:0,0:0:0:0:
356,340,66730,1,0,1:0:0:0:
292,328,66841,1,0,1:0:0:0:
404,300,66952,2,0,L|408:228,1,60,2|0,1:0|1:0,0:0:0:0:
340,232,67175,1,0,1:0:0:0:
228,224,67286,2,0,L|116:220,2,60,2|0|0,1:0|1:0|1:0,0:0:0:0:
412,208,67619,6,0,L|500:208,2,60,2|0|0,1:0|1:0|1:0,0:0:0:0:
300,200,67952,2,0,L|284:120,1,60,2|0,1:0|1:0,0:0:0:0:
352,128,68175,1,0,1:0:0:0:
168,120,68286,2,0,L|96:108,2,60,2|0|0,1:0|1:0|1:0,0:0:0:0:
352,108,68619,2,0,L|416:92,2,60,2|0|0,1:0|1:0|1:0,0:0:0:0:
156,116,68952,5,6,1:2:0:0:
24,100,69175,1,2,1:0:0:0:
156,116,69397,1,2,1:0:0:0:
468,124,69619,1,2,1:0:0:0:
252,108,69841,1,2,1:0:0:0:
468,124,70064,1,2,1:0:0:0:
132,116,70286,5,2,1:0:0:0:
68,112,70397,1,2,1:0:0:0:
132,112,70508,1,2,1:0:0:0:
316,132,70619,1,2,1:0:0:0:
380,136,70730,1,2,1:0:0:0:
444,140,70841,1,2,1:0:0:0:
260,152,70952,2,0,L|152:148,2,60,2|0|0,1:0|1:0|1:0,0:0:0:0:
444,180,71286,1,0,1:0:0:0:
467,197,71341,1,0,1:0:0:0:
476,225,71397,1,0,1:0:0:0:
468,254,71452,1,0,1:0:0:0:
445,272,71508,1,0,1:0:0:0:
252,268,71619,6,0,P|156:216|260:152,1,270,4|2,1:0|0:0,0:0:0:0:
348,140,72419,1,2,0:0:0:0:
44,160,72819,6,0,P|56:292|256:344,1,360,2|2,1:0|0:0,0:0:0:0:
152,344,73819,1,2,0:0:0:0:
332,348,74019,6,0,P|332:264|172:188,1,270,2|2,1:0|0:0,0:0:0:0:
84,184,74819,1,2,0:0:0:0:
388,208,75219,6,0,P|396:144|168:56,1,360,2|2,1:0|0:0,0:0:0:0:
76,80,76219,1,2,0:0:0:0:
392,80,76419,6,0,P|380:200|224:248,1,270,2|2,1:0|0:0,0:0:0:0:
156,256,77219,1,2,0:0:0:0:
460,264,77619,6,0,P|320:244|272:136,1,270,2|2,1:0|0:0,0:0:0:0:
372,128,78419,1,2,0:0:0:0:
68,140,78819,6,0,L|272:100,2,180,2|2|2,1:0|0:0|0:0,0:0:0:0:
372,112,80019,6,0,P|360:232|168:344,1,360,2|2,1:0|0:0,0:0:0:0:
68,340,81019,1,2,0:0:0:0:
400,344,81219,6,0,P|440:284|380:88,1,270,6|2,1:0|0:0,0:0:0:0:
300,108,82019,2,0,L|416:108,1,90,2|0,0:0|0:0,0:0:0:0:
212,112,82419,6,0,P|144:192|252:296,1,270,2|2,1:0|0:0,0:0:0:0:
416,300,83219,2,0,L|416:188,1,90,2|2,0:0|0:0,0:0:0:0:
120,196,83619,6,0,L|408:112,1,270,2|2,1:0|0:0,0:0:0:0:
200,108,84419,2,0,L|88:92,1,90,2|2,0:0|0:0,0:0:0:0:
292,84,84819,6,0,P|288:184|44:252,1,360,2|2,1:0|0:0,0:0:0:0:
184,276,85819,1,2,0:0:0:0:
480,276,86019,6,0,L|304:240,2,180,2|2|2,1:0|0:0|0:0,0:0:0:0:
176,260,87219,5,2,1:0:0:0:
372,276,87619,2,0,P|428:248|352:108,1,270,2|2,0:0|0:0,0:0:0:0:
304,112,88319,1,2,0:0:0:0:
116,116,88419,5,2,1:0:0:0:
256,192,88619,12,0,89419,0:0:0:0:
356,340,89619,6,0,P|404:300|352:272,1,135,0|0,1:0|1:0,0:0:0:0:
260,272,89994,1,0,1:0:0:0:
223,251,90087,1,0,1:0:0:0:
221,208,90181,1,0,1:0:0:0:
257,184,90275,1,0,1:0:0:0:
424,184,90369,2,0,L|348:184,1,45,8|8,1:3|1:3,0:0:0:0:
212,184,90556,2,0,L|212:252,1,45,8|8,0:3|0:3,0:0:0:0:
400,228,90744,6,0,P|460:248|380:288,1,180,6|8,1:3|1:3,0:0:0:0:
304,316,91306,1,2,0:0:0:0:
256,316,91400,1,8,0:3:0:0:
88,316,91494,2,0,L|88:196,1,90,10|8,1:3|0:3,0:0:0:0:
260,220,91869,6,0,L|60:260,1,180,2|10,1:3|1:3,0:0:0:0:
180,232,92431,1,2,0:0:0:0:
232,220,92525,1,8,0:3:0:0:
400,212,92619,2,0,L|400:96,1,90,10|8,1:3|0:3,0:0:0:0:
112,128,92994,6,0,L|300:92,1,180,2|8,1:3|1:3,0:0:0:0:
192,84,93556,1,2,0:0:0:0:
140,84,93650,1,8,0:3:0:0:
308,80,93744,2,0,L|308:184,1,90,10|8,1:3|0:0,0:0:0:0:
136,180,94119,6,0,L|316:220,1,180,2|8,1:3|1:3,0:0:0:0:
216,236,94681,1,0,0:0:0:0:
164,240,94775,1,8,0:3:0:0:
332,232,94869,2,0,L|456:232,1,90,10|10,1:3|1:3,0:0:0:0:
132,232,95244,6,0,L|32:232,2,90,6|8|8,1:3|0:0|1:3,0:0:0:0:
232,232,95806,1,10,0:0:0:0:
404,216,95994,2,0,L|404:332,1,90,10|8,1:3|0:0,0:0:0:0:
232,312,96369,6,0,L|104:312,1,90,10|8,1:3|0:0,0:0:0:0:
412,308,96744,2,0,L|412:184,1,90,10|8,1:3|0:0,0:0:0:0:
140,224,97119,2,0,L|20:224,1,90,10|0,1:3|1:0,0:0:0:0:
356,232,97494,5,6,1:3:0:0:
389,203,97587,1,0,1:0:0:0:
389,159,97681,1,0,1:0:0:0:
357,130,97775,1,0,1:0:0:0:
256,132,97869,1,0,1:3:0:0:
218,149,97962,1,0,1:0:0:0:
219,191,98056,1,0,1:0:0:0:
260,203,98150,1,0,1:0:0:0:
428,200,98244,1,0,1:3:0:0:
448,239,98337,1,0,1:0:0:0:
433,280,98431,1,0,1:0:0:0:
393,297,98525,1,0,1:0:0:0:
216,300,98619,5,2,1:3:0:0:
173,295,98712,1,0,1:0:0:0:
135,318,98806,1,0,1:0:0:0:
120,360,98900,1,0,1:0:0:0:
288,352,98994,2,0,L|356:352,1,45,0|0,1:3|1:0,0:0:0:0:
288,352,99181,2,0,L|224:352,1,45,0|0,1:0|1:0,0:0:0:0:
72,348,99369,2,0,L|72:276,1,45,0|0,1:3|1:0,0:0:0:0:
240,284,99556,2,0,L|300:284,1,45,0|0,1:0|1:0,0:0:0:0:
108,284,99744,5,0,1:0:0:0:
108,284,100119,2,0,L|56:284,1,45,0|0,1:0|3:0,0:0:0:0:
108,284,100306,2,0,L|168:284,1,45,8|0,0:3|3:0,0:0:0:0:
320,280,100494,2,0,L|320:212,1,45,10|0,0:1|1:0,0:0:0:0:
156,216,100681,2,0,L|92:216,1,45,0|0,1:0|0:0,0:0:0:0:
316,216,100869,6,0,P|380:172|304:100,1,180,6|10,1:2|0:0,0:0:0:0:
228,112,101369,1,2,0:0:0:0:
400,116,101535,2,0,L|400:228,1,90,2|2,1:2|0:0,0:0:0:0:
136,216,101869,2,0,L|20:216,1,90,8|2,0:0|0:0,0:0:0:0:
324,220,102202,6,0,L|324:116,1,90,2|2,1:2|0:0,0:0:0:0:
268,128,102452,1,2,0:0:0:0:
108,120,102535,2,0,L|104:8,1,90,10|2,0:0|0:0,0:0:0:0:
368,40,102869,2,0,L|368:152,1,90,2|2,1:2|0:0,0:0:0:0:
108,144,103202,2,0,L|48:144,1,45,10|2,0:0|0:0,0:0:0:0:
108,144,103369,2,0,L|180:144,1,45,2|2,0:0|0:0,0:0:0:0:
324,140,103535,6,0,L|440:136,1,90,2|2,1:2|0:0,0:0:0:0:
360,132,103785,1,2,0:0:0:0:
196,148,103869,2,0,P|176:208|212:236,1,90,10|2,0:0|0:0,0:0:0:0:
360,224,104202,2,0,P|376:188|328:132,1,90,2|2,1:2|0:0,0:0:0:0:
304,144,104452,1,2,0:0:0:0:
144,148,104535,2,0,L|48:148,1,90,10|2,0:0|0:0,0:0:0:0:
336,140,104869,6,0,P|336:216|244:232,1,180,2|8,1:2|0:0,0:0:0:0:
140,216,105369,1,0,1:0:0:0:
400,224,105535,2,0,L|412:152,1,45,10|2,1:2|1:2,0:0:0:0:
352,172,105702,2,0,L|276:160,1,45,2|2,1:2|1:2,0:0:0:0:
144,164,105869,2,0,L|144:232,1,45,10|2,1:2|1:2,0:0:0:0:
304,220,106035,2,0,L|376:228,1,45,2|2,1:2|1:2,0:0:0:0:
168,236,106202,6,0,P|108:200|184:128,1,180,6|10,1:2|0:0,0:0:0:0:
264,104,106702,1,2,0:0:0:0:
92,92,106869,2,0,L|88:200,1,90,2|2,1:2|0:0,0:0:0:0:
352,192,107202,2,0,L|460:200,1,90,10|0,0:0|0:0,0:0:0:0:
164,184,107535,6,0,P|140:224|176:260,1,90,2|2,1:2|0:0,0:0:0:0:
216,252,107785,1,2,0:0:0:0:
380,256,107869,2,0,L|488:256,1,90,8|2,0:0|0:0,0:0:0:0:
300,248,108202,2,0,L|172:248,1,90,2|2,1:2|0:0,0:0:0:0:
472,232,108535,2,0,L|364:232,1,90,10|2,0:0|0:0,0:0:0:0:
104,232,108868,6,0,P|40:220|32:112,1,180,2|10,1:2|0:0,0:0:0:0:
132,232,109368,1,2,0:0:0:0:
428,232,109535,2,0,L|432:104,1,90,6|0,1:0|0:0,0:0:0:0:
268,324,109785,2,0,L|268:216,1,90,6|0,1:0|0:0,0:0:0:0:
432,236,110035,2,0,L|488:236,1,45,6|0,1:0|0:0,0:0:0:0:
296,240,110202,6,0,L|164:240,1,90,6|0,1:0|1:0,0:0:0:0:
376,236,110535,2,0,L|384:116,1,90,8|2,1:2|1:2,0:0:0:0:
328,148,110785,1,2,1:2:0:0:
168,160,110868,2,0,L|96:160,1,45,10|2,1:2|1:2,0:0:0:0:
123,160,111035,2,0,L|180:160,1,45,2|2,1:2|1:2,0:0:0:0:
332,156,111202,2,0,L|332:228,1,45,10|2,1:2|1:2,0:0:0:0:
172,216,111368,2,0,L|120:216,1,45,2|2,1:2|1:2,0:0:0:0:
308,216,111535,6,0,P|368:168|300:128,1,180,6|10,1:2|0:0,0:0:0:0:
196,124,112035,1,2,0:0:0:0:
368,124,112202,2,0,L|476:124,1,90,2|2,1:2|0:0,0:0:0:0:
196,124,112535,2,0,L|100:124,1,90,8|2,0:0|0:0,0:0:0:0:
384,132,112868,6,0,P|392:196|368:236,1,90,2|2,1:2|0:0,0:0:0:0:
328,220,113118,1,2,0:0:0:0:
164,228,113202,2,0,L|56:228,1,90,10|2,0:0|0:0,0:0:0:0:
336,228,113535,2,0,L|460:228,1,90,2|2,1:2|0:0,0:0:0:0:
164,228,113868,2,0,L|156:156,1,45,10|2,0:0|0:0,0:0:0:0:
212,176,114035,2,0,L|284:168,1,45,2|2,0:0|0:0,0:0:0:0:
428,172,114202,6,0,P|448:132|408:88,1,90,2|2,1:2|0:0,0:0:0:0:
372,96,114452,1,2,0:0:0:0:
212,100,114535,2,0,P|184:64|224:36,1,90,10|2,0:0|0:0,0:0:0:0:
380,44,114868,2,0,L|276:44,1,90,2|2,1:2|0:0,0:0:0:0:
236,44,115118,1,2,0:0:0:0:
396,44,115202,2,0,L|492:44,1,90,10|2,0:0|0:0,0:0:0:0:
208,48,115535,6,0,P|208:124|300:140,1,180,2|8,1:2|0:0,0:0:0:0:
404,124,116035,1,0,1:0:0:0:
144,132,116202,2,0,L|132:60,1,45,10|2,1:2|1:2,0:0:0:0:
192,80,116368,2,0,L|268:68,1,45,2|2,1:2|1:2,0:0:0:0:
400,72,116535,2,0,L|400:140,1,45,10|2,1:2|1:2,0:0:0:0:
240,128,116702,2,0,L|168:136,1,45,2|2,1:2|1:2,0:0:0:0:
376,128,116868,6,0,L|488:120,1,90,6|0,1:2|0:0,0:0:0:0:
292,132,117202,2,0,L|396:128,1,90,8|2,0:0|1:2,0:0:0:0:
120,132,117535,2,0,L|120:248,1,90,10|0,0:0|1:0,0:0:0:0:
380,228,117868,2,0,L|472:228,1,90,10|0,0:0|1:0,0:0:0:0:
172,228,118202,5,10,0:0:0:0:
56,224,118368,1,8,0:0:0:0:
172,220,118535,1,10,0:0:0:0:
56,216,118702,1,10,0:0:0:0:
352,188,118868,2,0,P|376:240|344:284,1,90,8|8,0:0|0:0,0:0:0:0:
184,268,119118,2,0,P|164:316|192:364,1,90,0|0,1:0|0:0,0:0:0:0:
356,356,119368,2,0,L|424:356,1,45,8|0,0:0|0:0,0:0:0:0:
228,360,119535,6,0,L|104:360,1,90,0|12,1:0|1:0,0:0:0:0:
308,352,119868,2,0,L|360:352,1,45,0|0,1:2|1:2,0:0:0:0:
308,352,120035,2,0,L|240:352,1,45,0|0,1:2|1:2,0:0:0:0:
80,356,120202,2,0,P|64:300|88:272,1,90,8|0,1:2|1:2,0:0:0:0:
340,252,120535,1,8,1:2:0:0:
44,248,120702,6,0,P|12:192|60:80,1,180,12|0,1:0|0:0,0:0:0:0:
308,72,121202,2,0,L|308:120,1,45,2|2,1:0|1:0,0:0:0:0:
256,120,121368,2,0,L|188:120,1,45,2|2,1:0|1:0,0:0:0:0:
376,120,121535,2,0,L|376:188,1,45,2|2,1:0|1:0,0:0:0:0:
212,168,121702,2,0,L|144:168,1,45,2|2,1:0|1:0,0:0:0:0:
328,168,121868,2,0,L|384:168,1,45,2|2,1:0|1:0,0:0:0:0:
212,168,122035,2,0,L|212:232,1,45,2|2,1:0|1:0,0:0:0:0:
388,216,122202,6,0,P|444:184|380:120,1,180,6|0,1:0|1:0,0:0:0:0:
284,120,122702,1,0,1:0:0:0:
124,128,122868,2,0,L|124:240,1,90,2|0,1:0|1:0,0:0:0:0:
288,220,123202,2,0,L|404:220,1,90,2|0,1:0|1:0,0:0:0:0:
216,224,123535,6,0,L|20:224,1,180,2|0,1:0|1:0,0:0:0:0:
144,220,124035,1,2,1:0:0:0:
308,220,124202,2,0,L|308:112,1,90,2|0,1:0|1:0,0:0:0:0:
144,136,124535,2,0,L|144:40,1,90,2|0,1:0|1:0,0:0:0:0:
416,44,124868,6,0,L|416:160,1,90,2|0,1:0|1:0,0:0:0:0:
252,140,125202,2,0,L|248:256,1,90,0|0,1:0|1:0,0:0:0:0:
412,228,125535,2,0,L|316:228,1,90,0|0,1:0|1:0,0:0:0:0:
160,232,125868,2,0,L|160:336,1,90,0|0,1:0|1:0,0:0:0:0:
324,320,126202,6,0,L|324:216,1,90,0|0,1:0|1:0,0:0:0:0:
224,236,126535,2,0,L|224:132,1,90,0|0,1:0|1:0,0:0:0:0:
324,140,126868,2,0,L|424:140,1,90,0|0,1:0|1:0,0:0:0:0:
316,140,127202,2,0,L|416:140,1,90,0|0,1:0|1:0,0:0:0:0:
136,140,127535,6,0,L|136:244,1,90,0|0,1:0|1:0,0:0:0:0:
388,224,127868,2,0,L|272:224,1,90,8|0,1:3|1:0,0:0:0:0:
396,224,128202,2,0,L|492:224,1,90,0|0,1:0|1:0,0:0:0:0:
232,232,128535,2,0,L|108:232,1,90,8|0,1:3|1:0,0:0:0:0:
304,232,128868,6,0,L|304:348,1,90,0|0,1:0|1:0,0:0:0:0:
48,320,129202,2,0,L|164:320,1,90,8|0,1:3|1:0,0:0:0:0:
300,320,129535,2,0,L|300:204,1,90,0|0,1:0|1:0,0:0:0:0:
48,236,129868,2,0,L|48:332,1,90,8|0,1:3|1:0,0:0:0:0:
320,320,130202,6,0,L|432:320,1,90,0|0,1:0|1:0,0:0:0:0:
156,328,130535,2,0,L|156:216,1,90,8|0,1:3|1:0,0:0:0:0:
320,232,130868,2,0,L|420:232,1,90,0|0,1:0|1:0,0:0:0:0:
156,232,131202,2,0,L|44:232,1,90,8|0,1:3|1:0,0:0:0:0:
356,228,131535,6,0,L|476:228,1,90,8|0,1:2|1:0,0:0:0:0:
192,220,131868,2,0,L|316:220,1,90,8|0,0:3|1:0,0:0:0:0:
120,228,132202,2,0,L|64:228,1,45,2|8,1:0|1:3,0:0:0:0:
75,228,132368,2,0,L|136:228,1,45,8|8,1:3|1:3,0:0:0:0:
280,224,132535,2,0,L|340:224,1,45,8|0,1:0|0:0,0:0:0:0:
280,224,132702,2,0,L|232:224,1,45,0|0,1:0|0:0,0:0:0:0:
408,224,132868,6,0,P|468:272|400:336,1,180,6|0,1:0|1:0,0:0:0:0:
316,340,133368,1,0,1:0:0:0:
152,344,133535,2,0,L|152:228,1,90,2|0,1:0|1:0,0:0:0:0:
316,252,133868,2,0,L|204:252,1,90,2|0,1:0|1:0,0:0:0:0:
388,252,134202,6,0,L|180:252,1,180,2|0,1:0|1:0,0:0:0:0:
308,252,134702,1,2,1:0:0:0:
148,256,134868,2,0,L|36:256,1,90,2|0,1:0|1:0,0:0:0:0:
220,256,135202,2,0,L|96:256,1,90,2|0,1:0|1:0,0:0:0:0:
400,256,135535,6,0,L|400:360,1,90,2|0,1:0|1:0,0:0:0:0:
236,340,135868,2,0,L|140:340,1,90,0|0,1:0|1:0,0:0:0:0:
308,332,136202,2,0,L|408:332,1,90,0|0,1:0|1:0,0:0:0:0:
236,320,136535,2,0,L|352:320,1,90,0|0,1:0|1:0,0:0:0:0:
164,316,136868,6,0,L|56:312,1,90,0|0,1:0|1:0,0:0:0:0:
184,316,137202,2,0,L|192:216,1,90,0|0,1:0|1:0,0:0:0:0:
300,228,137535,2,0,L|308:112,1,90,0|0,1:0|1:0,0:0:0:0:
144,112,137868,2,0,L|40:108,1,90,8|0,1:3|1:0,0:0:0:0:
104,108,138118,1,0,1:0:0:0:
280,112,138202,6,0,L|280:224,1,90,8|0,1:3|1:0,0:0:0:0:
232,200,138452,1,0,1:0:0:0:
144,200,138535,2,0,L|144:312,1,90,8|0,1:3|1:0,0:0:0:0:
192,292,138785,1,0,1:0:0:0:
280,288,138868,2,0,L|396:288,1,90,8|0,1:3|1:0,0:0:0:0:
320,288,139118,1,0,1:0:0:0:
208,272,139202,2,0,L|208:172,1,90,8|0,1:3|1:0,0:0:0:0:
256,184,139452,1,0,1:0:0:0:
420,184,139535,6,0,L|424:76,1,90,8|0,1:3|1:0,0:0:0:0:
372,92,139785,1,0,1:0:0:0:
284,88,139868,2,0,L|388:88,1,90,8|0,1:3|1:0,0:0:0:0:
324,180,140118,1,0,1:0:0:0:
164,180,140202,2,0,L|164:300,1,90,8|0,1:3|1:0,0:0:0:0:
212,276,140452,1,0,1:0:0:0:
300,280,140535,2,0,L|184:280,1,90,8|8,1:3|1:3,0:0:0:0:
480,276,140868,6,0,L|480:172,1,90,8|8,1:3|0:3,0:0:0:0:
316,188,141202,2,0,L|316:68,1,90,8|8,1:3|0:3,0:0:0:0:
152,96,141535,2,0,L|152:4,1,90,8|8,1:3|0:3,0:0:0:0:
404,24,141868,2,0,L|512:24,1,90,8|8,1:3|0:3,0:0:0:0:
224,36,142202,5,8,1:3:0:0:
190,64,142285,1,0,1:0:0:0:
191,107,142368,1,0,1:0:0:0:
225,134,142452,1,0,1:0:0:0:
384,140,142535,2,0,L|456:136,1,45,8|0,1:3|1:0,0:0:0:0:
384,140,142702,2,0,L|328:144,1,45,0|0,1:0|1:0,0:0:0:0:
184,148,142868,2,0,L|180:216,1,45,8|0,1:3|1:0,0:0:0:0:
340,208,143035,2,0,L|400:208,1,45,0|0,1:0|1:0,0:0:0:0:
228,212,143202,2,0,L|104:212,1,90,8|0,1:3|1:0,0:0:0:0:
428,216,143535,5,4,0:1:0:0:
256,192,143702,12,0,144868,0:0:0:0:
