osu file format v14

[General]
AudioFilename: audio.mp3
AudioLeadIn: 0
PreviewTime: 78720
Countdown: 0
SampleSet: Soft
StackLeniency: 0.7
Mode: 0
LetterboxInBreaks: 0
WidescreenStoryboard: 1

[Editor]
DistanceSpacing: 1.4
BeatDivisor: 4
GridSize: 32
TimelineZoom: 1

[Metadata]
Title:Varcolac
TitleUnicode:Varcolac
Artist:Ardolf
ArtistUnicode:Ardolf
Creator:Nymphe
Version:Pepekcz's Hard
Source:
Tags:fa featured artist mpg mappers' guild Electronic instrumental kiyoshi guarden kang sae-byeok pepekcz orkay
BeatmapID:3582062
BeatmapSetID:1750904

[Difficulty]
HPDrainRate:4.5
CircleSize:4
OverallDifficulty:7.2
ApproachRate:8
SliderMultiplier:1.4
SliderTickRate:1

[Events]
//Background and Video events
0,0,"bground.jpg",0,0
//Break Periods
2,68238,77955
//Storyboard Layer 0 (Background)
//Storyboard Layer 1 (Fail)
//Storyboard Layer 2 (Pass)
//Storyboard Layer 3 (Foreground)
//Storyboard Layer 4 (Overlay)
//Storyboard Sound Samples

[TimingPoints]
1372,333.333333333334,4,2,1,60,1,0
1372,-125,4,2,1,60,0,0
12038,-125,4,2,1,70,0,0
21372,-125,4,2,1,85,0,0
22705,-111.111111111111,4,2,2,90,0,0
32038,-111.111111111111,4,2,2,85,0,0
33372,-111.111111111111,4,2,2,80,0,0
33705,-111.111111111111,4,2,2,90,0,0
38705,-99.9999999999999,4,2,2,95,0,0
42705,-111.111111111111,4,2,2,80,0,0
43372,-111.111111111111,4,2,2,85,0,0
44038,-100,4,2,2,80,0,0
44372,-100,4,2,2,90,0,0
52038,-100,4,2,2,85,0,0
54705,-100,4,2,2,90,0,0
62705,-100,4,2,2,85,0,0
65372,-100,4,2,2,80,0,0
65705,-100,4,2,2,75,0,0
66038,-125,4,2,2,70,0,0
66372,-125,4,2,2,65,0,0
66705,-166.666666666667,4,2,2,60,0,0
67038,-166.666666666667,4,2,2,55,0,0
67372,-250,4,2,2,50,0,0
67705,-250,4,2,2,45,0,0
68038,-250,4,2,2,70,0,0
78705,-125,4,2,1,80,0,0
88038,-125,4,2,1,85,0,0
89372,-111.111111111111,4,2,1,85,0,0
98705,-111.111111111111,4,2,2,80,0,0
100038,-99.9999999999999,4,2,2,90,0,1
105372,-99.9999999999999,4,2,2,95,0,1
109372,-99.9999999999999,4,2,2,80,0,0
110038,-99.9999999999999,4,2,2,90,0,0
110705,-111.111111111111,4,2,2,80,0,0
114705,-111.111111111111,4,2,2,85,0,0
116038,-99.9999999999999,4,2,2,90,0,1
121372,-99.9999999999999,4,2,2,80,0,1
121705,-99.9999999999999,4,2,2,90,0,1
126705,-99.9999999999999,4,2,2,95,0,1
130705,-99.9999999999999,4,2,2,90,0,1
132038,-125,4,2,2,90,0,1
132288,-125,4,2,2,5,0,0

[Colours]
Combo1 : 216,165,173
Combo2 : 206,92,209
Combo3 : 221,79,82
Combo4 : 77,126,202

[HitObjects]
8,296,1372,6,0,P|66:279|137:261,1,112,2|2,0:0|0:0,0:0:0:0:
184,312,1872,1,2,0:0:0:0:
184,312,2038,2,0,P|238:326|291:341,1,112,2|2,0:0|0:0,0:0:0:0:
448,364,2705,6,0,B|429:294|429:294|434:206|434:206|412:124,1,224,2|2,0:0|0:0,0:0:0:0:
304,36,3705,2,0,B|274:36|274:36|250:51,1,56,2|2,0:0|0:0,0:0:0:0:
200,108,4038,6,0,P|214:164|232:232,1,112,2|2,0:0|0:0,0:0:0:0:
276,276,4538,1,2,0:0:0:0:
152,372,4872,1,2,0:0:0:0:
44,256,5205,6,0,P|8:188|56:96,1,168,2|2,0:0|0:0,0:0:0:0:
184,44,6038,2,0,P|213:48|248:56,1,56,2|2,0:0|0:0,0:0:0:0:
316,36,6372,2,0,P|343:30|371:25,1,56,2|2,0:0|0:0,0:0:0:0:
448,20,6705,6,0,B|475:68|475:68|465:130,1,112,2|2,0:0|0:0,0:0:0:0:
412,180,7205,1,2,0:0:0:0:
412,180,7372,2,0,B|402:235|402:235|430:283,1,112,2|2,0:0|0:0,0:0:0:0:
291,356,8038,6,0,P|209:340|126:326,1,168,2|2,0:0|0:0,0:0:0:0:
48,308,8705,1,2,0:0:0:0:
24,76,9205,5,2,0:0:0:0:
24,76,9372,2,0,P|64:44|128:48,1,112,2|2,0:0|0:0,0:0:0:0:
188,96,9872,1,2,0:0:0:0:
188,96,10038,2,0,P|228:128|292:124,1,112,2|2,0:0|0:0,0:0:0:0:
428,60,10705,6,0,B|472:108|472:108|454:158|436:220,1,168,2|2,0:0|0:0,0:0:0:0:
476,276,11372,2,0,P|456:236|328:232,1,168,2|2,0:0|0:0,0:0:0:0:
276,256,12038,6,0,P|226:273|160:300,1,112,2|2,1:2|1:2,0:0:0:0:
104,336,12538,1,2,0:0:0:0:
104,336,12705,2,0,B|87:286|87:286|80:280|80:280|58:216,1,112,10|2,0:0|0:0,0:0:0:0:
140,92,13372,6,0,P|224:88|280:144,1,168,2|0,1:2|0:0,0:0:0:0:
316,212,14038,1,10,0:0:0:0:
424,328,14372,2,0,P|457:321|488:316,1,56,2|2,0:0|0:0,0:0:0:0:
500,240,14705,6,0,P|491:184|480:112,1,112,2|2,1:2|1:2,0:0:0:0:
456,56,15205,2,0,P|424:40|400:40,1,56,2|8,0:0|0:0,0:0:0:0:
332,68,15538,2,0,P|300:84|276:84,1,56,2|0,0:0|0:0,0:0:0:0:
204,60,15872,6,0,P|148:16|52:28,1,168,2|2,0:0|1:2,0:0:0:0:
8,88,16538,1,8,0:0:0:0:
8,88,16705,2,0,B|14:111|14:111|17:115|17:115|24:141,1,56,10|2,0:0|0:0,0:0:0:0:
24,220,17038,2,0,B|30:243|30:243|33:247|33:247|40:273,1,56,10|2,0:0|0:0,0:0:0:0:
72,344,17372,6,0,B|132:352|120:316|184:324,1,112,2|2,1:2|1:2,0:0:0:0:
260,348,17872,1,2,0:0:0:0:
260,348,18038,2,0,P|316:368|384:340,1,112,10|2,0:0|0:0,0:0:0:0:
476,244,18705,6,0,P|466:188|455:133,2,112,2|2|10,1:2|1:2|0:0,0:0:0:0:
324,280,19705,2,0,P|318:246|312:212,1,56,0|2,0:0|0:0,0:0:0:0:
268,164,20038,6,0,P|273:131|280:96,1,56,2|2,1:2|0:0,0:0:0:0:
336,56,20372,2,0,P|366:61|404:68,1,56,2|2,1:2|0:0,0:0:0:0:
460,112,20705,1,10,0:0:0:0:
460,112,20872,1,2,0:0:0:0:
500,180,21038,2,0,P|495:206|490:235,1,56,2|2,0:0|0:0,0:0:0:0:
472,312,21372,6,0,P|420:324|348:344,1,112,2|2,1:2|1:2,0:0:0:0:
300,304,21872,1,0,3:0:0:0:
300,304,22038,2,0,P|245:289|191:276,1,112,10|10,0:0|0:0,0:0:0:0:
40,184,22705,6,0,P|24:132|52:80,1,94.499997116089,6|0,1:2|3:0,0:0:0:0:
48,84,23038,2,0,B|107:74|107:74|110:70|110:70|177:59,1,125.999996154785,10|2,0:0|1:2,0:0:0:0:
252,104,23538,1,2,3:2:0:0:
252,104,23705,2,0,B|298:111|298:111|300:114|300:114|346:122,1,94.499997116089,10|0,0:0|3:0,0:0:0:0:
360,124,24038,6,0,P|344:160|364:224,1,94.499997116089,2|0,1:2|3:0,0:0:0:0:
364,224,24372,2,0,P|400:288|376:340,1,125.999996154785,10|2,0:0|1:2,0:0:0:0:
304,368,24872,1,2,3:2:0:0:
304,368,25038,2,0,B|264:360|264:360|261:355|261:355|234:350|234:350|229:353|229:353|209:349,1,94.499997116089,10|0,0:0|3:2,0:0:0:0:
200,344,25372,6,0,P|155:351|88:364,1,94.499997116089,2|0,1:2|3:0,0:0:0:0:
92,364,25705,2,0,P|120:312|88:256,1,125.999996154785,10|2,0:0|1:2,0:0:0:0:
20,204,26205,1,2,3:2:0:0:
72,132,26372,1,10,0:0:0:0:
72,132,26538,1,2,3:2:0:0:
32,52,26705,6,0,P|79:39|128:28,1,94.499997116089,2|0,1:2|3:0,0:0:0:0:
140,36,27038,2,0,P|185:47|231:58,1,94.499997116089,10|0,0:0|3:0,0:0:0:0:
248,52,27372,2,0,P|283:42|330:30,1,62.9999980773926,2|2,1:2|3:2,0:0:0:0:
396,56,27705,2,0,B|404:72|404:72|403:90,3,31.4999990386963,8|8|8|8,0:0|0:0|0:0|0:0,0:0:0:0:
396,100,28038,6,0,B|376:144|376:144|396:200,1,94.499997116089,2|0,1:2|3:0,0:0:0:0:
400,200,28372,2,0,P|338:187|276:176,1,125.999996154785,10|2,0:0|1:2,0:0:0:0:
200,144,28872,1,2,3:2:0:0:
200,144,29038,2,0,B|154:151|154:151|152:154|152:154|106:162,1,94.499997116089,10|0,0:0|3:0,0:0:0:0:
96,168,29372,6,0,P|128:212|120:260,1,94.499997116089,2|0,1:2|3:0,0:0:0:0:
116,264,29705,2,0,P|177:275|239:287,1,125.999996154785,10|2,0:0|1:2,0:0:0:0:
320,332,30205,1,2,3:2:0:0:
320,332,30372,2,0,B|360:324|360:324|363:319|363:319|390:314|390:314|395:317|395:317|415:313,1,94.499997116089,10|0,0:0|3:2,0:0:0:0:
424,316,30705,6,0,P|400:276|420:228,1,94.499997116089,2|0,1:2|3:0,0:0:0:0:
424,224,31038,2,0,P|456:172|436:104,1,125.999996154785,10|2,0:0|1:2,0:0:0:0:
384,44,31538,1,2,3:2:0:0:
316,100,31705,1,10,0:0:0:0:
316,100,31872,1,2,3:2:0:0:
224,36,32038,6,0,P|181:44|120:60,1,94.499997116089,2|0,1:2|3:0,0:0:0:0:
116,48,32372,2,0,P|84:39|52:32,1,62.9999980773926,2|0,1:2|0:0,0:0:0:0:
20,112,32705,2,0,P|62:120|124:136,1,94.499997116089,2|0,1:2|3:0,0:0:0:0:
132,160,33038,2,0,P|100:151|68:144,1,62.9999980773926,2|0,1:2|0:0,0:0:0:0:
4,224,33372,6,0,P|17:282|32:356,1,125.999996154785,2|14,1:2|3:2,0:0:0:0:
116,372,33872,1,2,3:2:0:0:
116,372,34038,2,0,P|152:368|180:352,1,62.9999980773926,2|2,3:2|1:2,0:0:0:0:
240,292,34372,2,0,P|276:296|304:312,1,62.9999980773926,10|0,3:2|0:0,0:0:0:0:
376,356,34705,6,0,P|424:360|472:300,1,125.999996154785,2|10,1:2|3:2,0:0:0:0:
500,220,35205,1,2,3:2:0:0:
500,220,35372,2,0,L|484:148,1,62.9999980773926,2|2,3:2|1:2,0:0:0:0:
444,80,35705,2,0,B|418:85|418:85|416:88|416:88|398:91|398:91|395:89|395:89|382:92,1,62.9999980773926,10|0,3:2|0:0,0:0:0:0:
304,60,36038,6,0,B|245:47|245:47|242:43|242:43|175:30,1,125.999996154785,2|10,1:2|3:2,0:0:0:0:
112,84,36538,1,2,3:2:0:0:
112,84,36705,1,2,3:2:0:0:
24,80,36872,2,0,P|16:47|8:16,2,62.9999980773926,2|10|2,1:2|3:2|3:2,0:0:0:0:
24,168,37372,6,0,P|82:179|160:196,1,125.999996154785,2|10,1:2|3:2,0:0:0:0:
308,124,38038,2,0,P|337:115|368:108,1,62.9999980773926,2|2,3:2|1:2,0:0:0:0:
448,152,38372,2,0,B|453:169|453:169|449:186,3,31.4999990386963,8|8|8|8,0:0|0:0|0:0|0:0,0:0:0:0:
444,196,38705,6,0,P|381:214|300:244,1,140,10|10,1:2|1:2,0:0:0:0:
236,300,39205,1,0,1:0:0:0:
235,300,39372,2,0,P|196:292|164:288,1,70,10|0,1:2|1:0,0:0:0:0:
72,308,39705,1,10,1:2:0:0:
24,224,39872,5,8,1:2:0:0:
24,208,39955,1,8,1:2:0:0:
32,192,40038,2,0,P|48:132|72:52,1,140,10|10,1:2|1:2,0:0:0:0:
168,28,40538,1,0,1:0:0:0:
168,28,40705,2,0,P|208:16|240:24,1,70,10|0,1:2|1:0,0:0:0:0:
324,68,41038,1,10,1:2:0:0:
420,28,41205,5,8,1:2:0:0:
436,36,41288,1,8,1:2:0:0:
452,44,41372,2,0,P|459:78|468:120,1,70,10|10,1:2|0:0,0:0:0:0:
404,196,41705,1,10,0:0:0:0:
404,196,41872,1,10,0:0:0:0:
476,272,42038,1,10,0:0:0:0:
476,272,42205,1,10,0:0:0:0:
404,348,42372,1,10,0:0:0:0:
404,348,42538,1,10,0:0:0:0:
340,272,42705,6,0,P|285:288|208:312,1,125.999996154785,2|2,1:2|1:2,0:0:0:0:
144,356,43205,1,0,3:0:0:0:
56,296,43372,1,10,0:0:0:0:
56,296,43538,1,8,0:0:0:0:
112,228,43705,2,0,P|117:194|124:164,1,62.9999980773926,2|0,1:2|0:0,0:0:0:0:
160,52,44038,6,0,P|205:23|273:35,1,105,2|0,1:2|0:0,0:0:0:0:
269,35,44372,2,0,P|317:63|341:63,1,70,14|2,0:0|0:0,0:0:0:0:
424,28,44705,1,2,1:2:0:0:
424,28,44872,1,2,0:0:0:0:
488,100,45038,2,0,P|478:146|468:203,1,105,10|0,0:0|0:0,0:0:0:0:
464,220,45372,6,0,P|432:228|396:240,1,70,2|2,1:2|0:0,0:0:0:0:
320,304,45705,1,10,0:0:0:0:
320,304,45872,1,2,0:0:0:0:
240,360,46038,2,0,P|206:350|172:340,1,70,2|2,1:2|0:0,0:0:0:0:
76,352,46372,6,0,P|96:308|72:252,1,105,10|0,0:0|0:0,0:0:0:0:
68,244,46705,2,0,P|52:208|60:172,1,70,2|2,1:2|0:0,0:0:0:0:
120,104,47038,1,10,0:0:0:0:
120,104,47205,1,2,0:0:0:0:
196,40,47372,2,0,B|230:29|230:29|270:53,1,70,2|2,1:2|0:0,0:0:0:0:
340,116,47705,1,10,0:0:0:0:
340,116,47872,1,0,0:0:0:0:
428,72,48038,6,0,P|438:122|448:175,1,105,2|0,1:2|0:0,0:0:0:0:
448,192,48372,2,0,P|415:202|364:220,1,70,10|0,0:0|0:0,0:0:0:0:
292,256,48705,2,0,P|256:244|225:235,1,70,2|0,1:2|0:0,0:0:0:0:
212,224,48955,1,0,1:0:0:0:
196,216,49038,2,0,L|147:235,3,35,0|0|0|0,1:2|3:0|1:2|3:0,0:0:0:0:
148,236,49372,6,0,P|112:280|144:364,1,140,2|10,1:2|0:0,0:0:0:0:
228,340,49872,1,2,0:0:0:0:
324,364,50038,2,0,P|361:353|404:344,1,70,2|2,1:2|0:0,0:0:0:0:
492,360,50372,1,10,0:0:0:0:
492,360,50538,1,0,0:0:0:0:
496,260,50705,6,0,P|487:222|480:192,1,70,2|2,1:2|0:0,0:0:0:0:
416,124,51038,1,10,0:0:0:0:
416,124,51205,1,2,0:0:0:0:
456,36,51372,1,2,1:2:0:0:
440,27,51455,1,0,0:0:0:0:
423,20,51538,2,0,L|377:38,1,35,2|0,1:2|0:0,0:0:0:0:
376,44,51705,2,0,L|334:34,3,35,0|0|0|0,1:2|1:2|1:2|1:2,0:0:0:0:
324,40,52038,6,0,P|277:50|208:68,1,105,2|0,1:2|0:0,0:0:0:0:
207,56,52372,2,0,P|174:46|140:38,1,70,10|2,0:0|1:2,0:0:0:0:
48,72,52705,2,0,B|45:90|45:90|48:108,3,35,2|0|0|0,1:2|0:0|0:0|3:0,0:0:0:0:
56,124,53038,2,0,B|68:156|68:156|56:204,1,70,10|2,0:0|1:2,0:0:0:0:
12,276,53372,6,0,P|46:283|80:291,1,70,2|2,1:2|1:2,0:0:0:0:
92,304,53622,1,0,0:0:0:0:
104,316,53705,2,0,P|138:323|172:331,1,70,10|0,0:0|1:0,0:0:0:0:
264,292,54038,2,0,P|283:285|304:280,3,35,2|0|2|0,1:2|1:0|1:2|1:0,0:0:0:0:
316,276,54372,1,2,1:2:0:0:
504,328,54705,6,0,P|490:264|472:184,1,140,6|10,1:2|0:0,0:0:0:0:
500,96,55205,1,2,0:0:0:0:
428,28,55372,2,0,P|395:16|360:19,1,70,2|2,1:2|0:0,0:0:0:0:
300,96,55705,1,10,0:0:0:0:
300,96,55872,1,0,0:0:0:0:
212,56,56038,6,0,P|176:32|112:32,1,105,2|0,1:2|0:0,0:0:0:0:
100,40,56372,2,0,P|89:73|80:107,1,70,10|2,0:0|0:0,0:0:0:0:
24,192,56705,1,2,1:2:0:0:
24,192,56872,1,2,0:0:0:0:
108,240,57038,2,0,P|165:222|220:208,1,105,10|0,0:0|0:0,0:0:0:0:
224,216,57372,6,0,P|260:223|309:233,1,70,2|2,1:2|0:0,0:0:0:0:
376,292,57705,1,10,0:0:0:0:
376,292,57872,1,2,0:0:0:0:
296,348,58038,2,0,P|261:354|227:361,1,70,2|2,1:2|0:0,0:0:0:0:
140,328,58372,1,10,0:0:0:0:
140,328,58538,1,0,0:0:0:0:
48,368,58705,6,0,P|36:317|20:256,1,105,2|0,1:2|0:0,0:0:0:0:
28,248,59038,2,0,L|40:176,1,70,10|0,0:0|0:0,0:0:0:0:
44,80,59372,2,0,B|76:68|76:68|120:80,1,70,2|0,1:2|0:0,0:0:0:0:
200,116,59705,2,0,B|216:122|216:122|238:116,3,35,0|0|0|0,1:2|3:0|1:2|3:0,0:0:0:0:
248,112,60038,6,0,B|328:120|288:56|384:68,1,140,2|10,1:2|0:0,0:0:0:0:
460,116,60538,1,2,0:0:0:0:
496,208,60705,2,0,P|487:241|476:288,1,70,2|2,1:2|0:0,0:0:0:0:
412,348,61038,2,0,P|376:316|304:320,1,105,10|0,0:0|0:0,0:0:0:0:
308,324,61372,6,0,P|260:348|236:344,1,70,2|2,1:2|0:0,0:0:0:0:
172,292,61705,1,10,0:0:0:0:
172,292,61872,1,2,0:0:0:0:
84,332,62038,2,0,P|72:272|60:224,1,105,2|0,1:2|0:0,0:0:0:0:
72,216,62372,2,0,P|84:156|96:108,1,105,10|0,0:0|0:0,0:0:0:0:
100,96,62705,6,0,P|152:108|196:80,1,105,2|0,1:2|0:0,0:0:0:0:
204,68,63038,2,0,P|248:40|272:40,1,70,10|2,0:0|1:2,0:0:0:0:
360,64,63372,2,0,L|408:76,3,35,2|0|0|0,1:2|0:0|0:0|3:0,0:0:0:0:
412,80,63705,2,0,L|428:160,1,70,10|2,0:0|1:2,0:0:0:0:
396,244,64038,6,0,L|323:224,1,70,10|0,1:2|1:2,0:0:0:0:
314,214,64288,1,0,0:0:0:0:
301,201,64372,2,0,L|228:181,1,70,10|0,1:2|1:2,0:0:0:0:
136,160,64705,2,0,B|132:180|132:180|136:200,3,35,10|0|0|0,1:2|1:2|1:2|1:2,0:0:0:0:
140,212,65038,2,0,B|144:232|144:232|140:252,3,35,10|0|0|0,1:2|1:2|1:2|1:2,0:0:0:0:
136,260,65372,6,0,P|201:276|284:300,1,140,10|2,1:2|1:2,0:0:0:0:
392,196,66038,6,0,P|338:180|283:166,1,112,2|2,1:2|1:2,0:0:0:0:
228,64,66705,6,0,P|276:76|325:90,1,83.9999974365235,2|2,1:2|1:2,0:0:0:0:
356,24,67372,6,0,P|323:14|291:6,1,56,2|2,1:2|1:2,0:0:0:0:
228,64,68038,1,6,1:2:0:0:
16,20,78705,6,0,P|29:71|48:144,1,112,6|2,1:2|0:0,0:0:0:0:
28,208,79205,1,2,0:0:0:0:
28,208,79372,2,0,P|41:259|60:332,1,112,10|2,1:2|0:0,0:0:0:0:
204,368,80038,6,0,P|248:364|292:332,1,84,2|0,1:2|0:0,0:0:0:0:
292,336,80372,2,0,P|336:340|380:372,1,84,2|0,0:0|0:0,0:0:0:0:
380,368,80705,2,0,P|393:313|408:259,1,112,10|2,1:2|0:0,0:0:0:0:
476,120,81372,6,0,P|444:88|376:84,1,112,0|2,1:2|0:0,0:0:0:0:
328,140,81872,1,2,0:0:0:0:
328,140,82038,2,0,P|296:172|228:176,1,112,10|2,1:2|0:0,0:0:0:0:
112,76,82705,6,0,P|56:88|20:96,1,84,2|0,1:2|0:0,0:0:0:0:
16,96,83038,2,0,P|21:124|28:160,1,56,2|8,0:0|0:0,0:0:0:0:
32,228,83372,2,0,P|88:237|142:247,1,112,10|10,1:2|0:0,0:0:0:0:
280,324,84038,6,0,B|340:332|328:296|392:304,1,112,2|2,1:2|0:0,0:0:0:0:
464,340,84538,1,2,0:0:0:0:
464,340,84705,2,0,B|491:292|491:292|481:230,1,112,10|2,1:2|0:0,0:0:0:0:
456,160,85205,5,2,0:0:0:0:
456,160,85372,2,0,P|420:140|376:140,1,84,2|0,1:2|0:0,0:0:0:0:
368,148,85705,2,0,P|332:168|288:168,1,84,2|0,0:0|0:0,0:0:0:0:
280,160,86038,2,0,B|220:168|232:132|168:140,1,112,10|2,1:2|0:0,0:0:0:0:
36,220,86705,6,0,P|28:166|16:96,1,112,0|2,1:2|3:2,0:0:0:0:
56,40,87205,1,2,3:2:0:0:
56,40,87372,2,0,B|105:47|105:47|112:53|112:53|164:61,1,112,8|2,1:2|3:2,0:0:0:0:
240,40,87872,5,0,0:0:0:0:
240,40,88038,2,0,P|269:32|304:24,1,56,2|0,1:2|3:0,0:0:0:0:
368,60,88372,2,0,P|395:66|422:73,1,56,2|0,1:2|3:0,0:0:0:0:
488,128,88705,1,10,1:2:0:0:
488,128,88872,1,2,3:2:0:0:
504,204,89038,2,0,P|497:231|488:272,1,56,10|2,1:2|3:2,0:0:0:0:
436,348,89372,6,0,P|388:352|348:320,1,94.499997116089,6|2,1:2|0:0,0:0:0:0:
344,312,89705,2,0,P|320:291|290:285,1,62.9999980773926,0|2,0:0|3:2,0:0:0:0:
204,296,90038,2,0,P|162:304|100:320,1,94.499997116089,2|2,1:2|0:0,0:0:0:0:
96,320,90372,2,0,P|72:296|68:264,1,62.9999980773926,0|2,0:0|3:2,0:0:0:0:
116,192,90705,6,0,P|144:152|124:92,1,94.499997116089,2|2,1:2|0:0,0:0:0:0:
132,96,91038,2,0,L|196:80,1,62.9999980773926,0|2,0:0|3:2,0:0:0:0:
272,40,91372,1,2,1:2:0:0:
272,40,91538,1,2,3:2:0:0:
352,88,91705,1,2,1:2:0:0:
352,88,91872,1,2,3:2:0:0:
432,52,92038,6,0,P|443:98|456:160,1,94.499997116089,2|2,1:2|0:0,0:0:0:0:
448,160,92372,2,0,L|432:232,1,62.9999980773926,0|2,0:0|3:2,0:0:0:0:
464,304,92705,2,0,B|420:316|372:332,1,94.499997116089,2|2,1:2|0:0,0:0:0:0:
360,328,93038,2,0,L|280:304,1,62.9999980773926,0|2,0:0|3:2,0:0:0:0:
216,336,93372,6,0,P|196:308|200:244,1,94.499997116089,2|2,1:2|0:0,0:0:0:0:
208,240,93705,2,0,P|232:196|228:176,1,62.9999980773926,0|2,0:0|3:2,0:0:0:0:
200,108,94038,1,2,1:2:0:0:
200,108,94205,1,2,3:2:0:0:
128,68,94372,1,2,1:2:0:0:
128,68,94538,1,2,3:2:0:0:
52,116,94705,6,0,P|42:157|28:224,1,94.499997116089,2|2,1:2|0:0,0:0:0:0:
28,224,95038,2,0,L|40:292,1,62.9999980773926,0|2,1:2|3:2,0:0:0:0:
88,360,95372,2,0,P|120:336|180:332,1,94.499997116089,2|2,1:2|3:2,0:0:0:0:
188,340,95705,2,0,P|232:360|256:356,1,62.9999980773926,0|2,1:2|3:2,0:0:0:0:
324,316,96038,6,0,P|369:324|424:336,1,94.499997116089,2|2,1:2|0:0,0:0:0:0:
432,336,96372,2,0,P|464:300|460:272,1,62.9999980773926,0|2,1:2|3:2,0:0:0:0:
428,212,96705,1,2,1:2:0:0:
428,212,96872,1,2,3:2:0:0:
488,148,97038,1,2,1:2:0:0:
488,148,97205,1,2,3:2:0:0:
436,76,97372,6,0,P|391:63|344:52,1,94.499997116089,2|2,1:2|0:0,0:0:0:0:
328,56,97705,2,0,L|252:72,1,62.9999980773926,0|2,1:2|3:2,0:0:0:0:
184,36,98038,2,0,P|139:23|92:12,1,94.499997116089,0|2,1:2|0:0,0:0:0:0:
76,16,98372,2,0,L|92:80,1,62.9999980773926,0|2,1:2|3:2,0:0:0:0:
112,164,98705,6,0,P|72:188|-4:168,2,125.999996154785,2|2|2,1:2|0:0|1:2,0:0:0:0:
184,112,99538,1,0,0:0:0:0:
252,176,99705,1,10,1:2:0:0:
252,176,99872,1,2,1:2:0:0:
332,88,100038,6,0,P|366:96|408:108,1,70,6|2,1:2|3:2,0:0:0:0:
476,168,100372,2,0,P|481:199|488:248,1,70,10|2,1:2|3:2,0:0:0:0:
484,256,100622,1,2,0:0:0:0:
480,272,100705,2,0,P|445:280|404:292,1,70,2|2,1:2|3:2,0:0:0:0:
324,332,101038,1,10,1:2:0:0:
236,284,101205,1,2,3:2:0:0:
220,280,101288,1,2,0:0:0:0:
204,276,101372,6,0,P|169:284|128:296,1,70,2|2,1:2|3:2,0:0:0:0:
48,336,101705,2,0,P|32:304|32:264,1,70,10|2,1:2|3:2,0:0:0:0:
36,256,101955,1,2,0:0:0:0:
44,240,102038,2,0,P|60:208|60:168,1,70,2|2,1:2|3:2,0:0:0:0:
20,84,102372,2,0,P|4:52|4:12,1,70,10|2,1:2|3:2,0:0:0:0:
100,16,102705,6,0,P|168:30|236:45,1,140,2|10,1:2|1:2,0:0:0:0:
332,28,103205,1,2,3:2:0:0:
348,24,103288,1,2,0:0:0:0:
364,20,103372,2,0,P|400:11|444:4,1,70,2|2,1:2|3:2,0:0:0:0:
508,72,103705,2,0,P|498:106|488:152,1,70,10|2,1:2|1:2,0:0:0:0:
456,232,104038,6,0,P|420:232|388:212,1,70,10|2,1:2|0:0,0:0:0:0:
380,204,104288,1,2,0:0:0:0:
368,192,104372,2,0,P|332:192|300:212,1,70,10|2,1:2|0:0,0:0:0:0:
224,264,104705,2,0,B|203:263|203:263|185:255,3,35,10|2|2|2,1:2|0:0|0:0|0:0,0:0:0:0:
175,244,105038,2,0,B|156:235|156:235|136:235,3,35,10|2|2|2,1:2|0:0|1:2|0:0,0:0:0:0:
124,240,105372,6,0,P|84:300|116:376,1,140,10|10,1:2|1:2,0:0:0:0:
200,372,105872,1,2,1:2:0:0:
216,368,105955,1,2,0:0:0:0:
232,364,106038,2,0,L|308:344,1,70,10|2,1:2|1:2,0:0:0:0:
396,368,106372,6,0,L|416:292,1,70,10|2,1:2|1:2,0:0:0:0:
424,284,106622,1,2,0:0:0:0:
432,268,106705,2,0,P|421:200|408:124,1,140,10|10,1:2|1:2,0:0:0:0:
360,44,107205,1,2,1:2:0:0:
344,36,107288,1,2,0:0:0:0:
328,36,107372,2,0,B|252:24|268:80|192:68,1,140,10|10,1:2|1:2,0:0:0:0:
108,32,107871,5,2,1:2:0:0:
96,48,107955,1,2,1:2:0:0:
84,64,108038,2,0,P|91:98|100:144,1,70,10|2,1:2|1:2,0:0:0:0:
44,216,108372,2,0,P|36:250|30:284,1,70,10|2,1:2|1:2,0:0:0:0:
104,360,108705,1,10,1:2:0:0:
104,360,108872,1,2,1:2:0:0:
196,320,109038,1,10,1:2:0:0:
196,320,109205,1,2,1:2:0:0:
284,360,109372,5,0,1:2:0:0:
372,320,109538,2,0,L|419:333,2,35,2|2|0,0:0|0:0|1:2,0:0:0:0:
296,256,109872,2,0,L|249:269,2,35,2|2|10,0:0|0:0|1:2,0:0:0:0:
376,200,110205,1,10,1:2:0:0:
336,112,110372,2,0,P|304:76|232:72,1,105,10|0,1:2|0:0,0:0:0:0:
236,72,110705,6,0,P|176:85|104:104,1,125.999996154785,6|2,1:2|0:0,0:0:0:0:
44,156,111205,1,2,0:0:0:0:
44,156,111372,2,0,L|28:224,1,62.9999980773926,2|2,0:0|0:0,0:0:0:0:
92,280,111705,2,0,P|151:293|224:312,1,125.999996154785,2|2,0:0|0:0,0:0:0:0:
292,352,112205,5,2,0:0:0:0:
292,352,112372,2,0,L|368:332,1,62.9999980773926,2|2,0:0|0:0,0:0:0:0:
440,316,112705,1,2,0:0:0:0:
488,148,113038,2,0,P|484:108|464:76,1,62.9999980773926,6|2,1:2|0:0,0:0:0:0:
392,24,113372,6,0,B|328:16|340:60|272:52,1,125.999996154785,4|2,1:2|0:0,0:0:0:0:
188,24,113872,1,2,0:0:0:0:
188,24,114038,2,0,L|120:44,1,62.9999980773926,2|2,0:0|0:0,0:0:0:0:
44,68,114372,1,2,0:0:0:0:
48,244,114705,6,0,P|92:260|120:252,1,62.9999980773926,10|2,1:2|0:0,0:0:0:0:
180,208,115038,2,0,P|207:193|238:194,1,62.9999980773926,10|2,1:2|0:0,0:0:0:0:
324,236,115372,1,10,1:2:0:0:
324,236,115538,1,10,1:2:0:0:
396,184,115705,2,0,L|426:191,3,31.4999990386963,10|8|10|8,1:2|0:2|0:2|0:2,0:0:0:0:
444,200,116038,6,0,P|434:164|424:128,2,70,6|2|10,1:2|3:2|1:2,0:0:0:0:
428,296,116538,1,2,3:2:0:0:
336,324,116705,2,0,P|300:332|256:344,1,70,2|2,1:2|3:2,0:0:0:0:
172,364,117038,2,0,P|163:312|153:260,1,105,10|0,1:2|3:0,0:0:0:0:
164,244,117372,6,0,P|174:204|184:168,1,70,2|2,1:2|3:2,0:0:0:0:
96,128,117705,2,0,P|85:88|76:52,1,70,10|2,1:2|3:2,0:0:0:0:
164,12,118038,2,0,P|215:24|266:38,1,105,2|0,1:2|0:0,0:0:0:0:
285,44,118372,1,10,1:2:0:0:
352,120,118538,5,2,3:2:0:0:
352,120,118705,2,0,L|432:140,2,70,2|2|10,1:2|3:2|1:2,0:0:0:0:
308,208,119205,1,2,3:2:0:0:
260,292,119372,2,0,P|228:306|194:302,1,70,2|2,1:2|3:2,0:0:0:0:
140,220,119705,2,0,P|100:192|36:200,1,105,10|0,1:2|1:2,0:0:0:0:
28,200,120038,6,0,P|21:165|14:131,1,70,2|10,1:2|1:2,0:0:0:0:
84,60,120372,1,10,1:2:0:0:
84,60,120538,1,2,1:2:0:0:
180,96,120705,1,10,1:2:0:0:
180,96,120872,1,2,1:2:0:0:
276,28,121038,2,0,B|292:20|292:20|312:28,3,35,10|2|2|2,1:2|0:0|0:0|0:0,0:0:0:0:
324,35,121372,6,0,P|337:86|350:137,1,105,2|0,1:2|0:0,0:0:0:0:
348,156,121705,2,0,P|341:191|332:244,1,70,14|2,1:2|3:2,0:0:0:0:
316,320,122038,2,0,P|288:288|220:284,1,105,2|0,1:2|0:0,0:0:0:0:
216,292,122372,2,0,P|188:324|120:328,1,105,10|0,1:2|0:0,0:0:0:0:
116,320,122705,6,0,P|101:251|84:172,1,140,2|8,1:2|1:2,0:0:0:0:
152,112,123205,1,0,3:0:0:0:
152,112,123372,2,0,P|189:101|232:92,1,70,2|0,1:2|0:0,0:0:0:0:
320,96,123705,1,10,1:2:0:0:
320,96,123872,1,2,3:2:0:0:
404,48,124038,6,0,P|432:92|428:160,1,105,2|0,1:2|3:0,0:0:0:0:
428,160,124372,1,10,1:2:0:0:
364,232,124538,2,0,P|326:221|288:212,1,70,2|0,3:2|1:2,0:0:0:0:
212,164,124872,2,0,P|174:153|136:144,1,70,2|8,3:2|1:2,0:0:0:0:
48,128,125205,6,0,P|12:184|40:260,1,140,2|0,3:2|0:0,0:0:0:0:
112,304,125705,2,0,P|165:313|232:328,1,105,10|0,1:2|0:0,0:0:0:0:
231,320,126038,2,0,P|265:309|299:301,1,70,2|2,1:2|3:2,0:0:0:0:
392,348,126372,1,10,1:2:0:0:
392,348,126538,1,2,1:2:0:0:
460,280,126705,6,0,P|480:248|472:204,1,70,10|0,1:2|1:2,0:0:0:0:
440,132,127038,1,10,1:2:0:0:
440,132,127205,1,2,1:2:0:0:
368,68,127372,2,0,P|316:78|265:89,1,105,10|0,1:2|3:0,0:0:0:0:
248,96,127705,1,10,1:2:0:0:
152,68,127872,5,0,1:2:0:0:
136,60,127955,1,0,1:2:0:0:
120,52,128038,2,0,P|104:111|84:196,1,140,10|8,1:2|1:2,0:0:0:0:
20,260,128538,1,2,1:2:0:0:
84,324,128705,2,0,P|150:303|218:283,1,140,10|8,1:2|1:2,0:0:0:0:
304,316,129205,5,2,1:2:0:0:
320,324,129288,1,0,1:2:0:0:
336,332,129372,2,0,P|367:342|416:360,1,70,10|2,1:2|1:2,0:0:0:0:
484,300,129705,1,10,1:2:0:0:
484,300,129872,1,2,1:2:0:0:
404,208,130038,1,10,1:2:0:0:
404,208,130205,1,0,1:2:0:0:
492,128,130372,1,10,1:2:0:0:
492,128,130538,1,0,1:2:0:0:
420,64,130705,6,0,P|383:53|348:44,1,70,10|2,1:2|3:2,0:0:0:0:
256,68,131038,2,0,P|219:57|184:48,1,70,10|2,1:2|0:0,0:0:0:0:
80,88,131372,1,10,1:2:0:0:
80,88,131538,1,10,1:2:0:0:
16,188,131705,1,10,1:2:0:0:
16,188,131872,1,2,0:0:0:0:
76,268,132038,6,0,P|116:258|157:249,1,84,2|0,1:2|0:0,0:0:0:0:
