osu file format v14

[General]
AudioFilename: audio.mp3
AudioLeadIn: 0
PreviewTime: 78720
Countdown: 0
SampleSet: Soft
StackLeniency: 0.7
Mode: 0
LetterboxInBreaks: 0
WidescreenStoryboard: 1

[Editor]
DistanceSpacing: 1.4
BeatDivisor: 4
GridSize: 32
TimelineZoom: 1

[Metadata]
Title:Varcolac
TitleUnicode:Varcolac
Artist:Ardolf
ArtistUnicode:Ardolf
Creator:Nymphe
Version:Normal
Source:
Tags:fa featured artist mpg mappers' guild Electronic instrumental kiyoshi guarden kang sae-byeok pepekcz orkay
BeatmapID:3582061
BeatmapSetID:1750904

[Difficulty]
HPDrainRate:4
CircleSize:3.5
OverallDifficulty:4
ApproachRate:5.5
SliderMultiplier:0.999999999999999
SliderTickRate:1

[Events]
//Background and Video events
0,0,"bground.jpg",0,0
//Break Periods
2,68238,77580
//Storyboard Layer 0 (Background)
//Storyboard Layer 1 (Fail)
//Storyboard Layer 2 (Pass)
//Storyboard Layer 3 (Foreground)
//Storyboard Layer 4 (Overlay)
//Storyboard Sound Samples

[TimingPoints]
1372,333.333333333334,4,2,1,60,1,0
1372,-111.111111111111,4,2,1,60,0,0
12038,-100,4,2,1,70,0,0
21372,-100,4,2,1,85,0,0
22705,-90.9090909090909,4,2,2,90,0,0
32038,-90.9090909090909,4,2,2,85,0,0
33372,-90.9090909090909,4,2,2,80,0,0
33705,-90.9090909090909,4,2,2,90,0,0
38705,-90.9090909090909,4,2,2,95,0,0
42705,-90.9090909090909,4,2,2,80,0,0
43372,-90.9090909090909,4,2,2,85,0,0
44038,-100,4,2,2,80,0,0
44372,-100,4,2,2,90,0,0
52038,-100,4,2,2,85,0,0
54705,-100,4,2,2,90,0,0
62705,-100,4,2,2,85,0,0
65372,-100,4,2,2,80,0,0
65705,-100,4,2,2,75,0,0
66038,-100,4,2,2,70,0,0
66372,-100,4,2,2,65,0,0
66705,-100,4,2,2,60,0,0
67038,-100,4,2,2,55,0,0
67372,-100,4,2,2,50,0,0
67705,-100,4,2,2,45,0,0
68038,-100,4,2,2,70,0,0
78705,-111.111111111111,4,2,1,80,0,0
88038,-111.111111111111,4,2,1,85,0,0
97372,-99.9999999999999,4,2,1,85,0,0
98705,-99.9999999999999,4,2,2,80,0,0
100038,-90.9090909090908,4,2,2,90,0,1
105372,-90.9090909090908,4,2,2,95,0,1
109372,-90.9090909090908,4,2,2,80,0,0
110038,-90.9090909090908,4,2,2,90,0,0
110705,-100,4,2,2,80,0,0
114705,-100,4,2,2,85,0,0
116038,-90.9090909090909,4,2,2,90,0,1
121372,-90.9090909090909,4,2,2,80,0,1
121705,-90.9090909090909,4,2,2,90,0,1
126705,-90.9090909090909,4,2,2,95,0,1
130705,-90.9090909090909,4,2,2,90,0,1
132038,-90.9090909090909,4,2,2,90,0,0

[Colours]
Combo1 : 216,165,173
Combo2 : 206,92,209
Combo3 : 221,79,82
Combo4 : 77,126,202

[HitObjects]
104,26,1372,6,0,P|140:61|137:117,1,89.999997253418,2|2,0:0|0:0,0:0:0:0:
122,139,1872,1,2,0:0:0:0:
122,139,2038,2,0,L|102:246,1,89.999997253418,2|2,0:0|0:0,0:0:0:0:
109,317,2705,2,0,B|157:293|197:335|181:351|213:388|272:361,1,179.999994506836,2|2,0:0|0:0,0:0:0:0:
326,295,3705,2,0,P|357:284|386:285,1,44.999998626709,2|2,0:0|0:0,0:0:0:0:
407,305,4038,6,0,L|424:198,1,89.999997253418,2|2,0:0|0:0,0:0:0:0:
431,172,4538,1,2,0:0:0:0:
502,116,4872,1,2,0:0:0:0:
446,45,5205,2,0,P|387:36|343:31,1,89.999997253418,2|0,0:0|0:0,0:0:0:0:
314,48,5705,1,2,0:0:0:0:
240,99,6038,1,2,0:0:0:0:
163,50,6372,2,0,L|106:64,1,44.999998626709,2|2,0:0|0:0,0:0:0:0:
83,87,6705,6,0,L|66:188,1,89.999997253418,2|2,0:0|0:0,0:0:0:0:
85,222,7205,1,2,0:0:0:0:
85,222,7372,2,0,P|130:246|178:230,1,89.999997253418,2|2,0:0|0:0,0:0:0:0:
221,167,8038,2,0,L|329:184,1,89.999997253418,2|0,0:0|0:0,0:0:0:0:
357,194,8538,1,2,0:0:0:0:
357,194,8705,1,2,0:0:0:0:
343,330,9205,1,2,0:0:0:0:
343,330,9372,6,0,L|286:340,1,44.999998626709,2|2,0:0|0:0,0:0:0:0:
260,362,9705,2,0,L|203:352,1,44.999998626709,2|2,0:0|0:0,0:0:0:0:
178,328,10038,2,0,P|141:299|81:304,1,89.999997253418,2|2,0:0|0:0,0:0:0:0:
20,253,10705,2,0,L|8:150,1,89.999997253418,2|0,0:0|0:0,0:0:0:0:
16,119,11205,1,2,0:0:0:0:
16,119,11372,2,0,P|42:90|98:95,1,89.999997253418,2|0,0:0|0:0,0:0:0:0:
158,163,12038,6,0,B|201:173|201:173|263:153,1,99.9999999999999,2|2,1:2|1:2,0:0:0:0:
290,129,12538,1,2,0:0:0:0:
290,129,12705,2,0,L|410:144,1,99.9999999999999,10|2,0:0|0:0,0:0:0:0:
488,124,13372,2,0,P|499:74|516:8,2,99.9999999999999,2|0|10,1:2|1:2|0:0,0:0:0:0:
415,193,14372,2,0,L|420:253,1,50,2|2,0:0|0:0,0:0:0:0:
432,291,14705,6,0,P|387:315|342:300,1,99.9999999999999,2|2,1:2|1:2,0:0:0:0:
310,262,15205,1,2,0:0:0:0:
228,319,15538,1,2,0:0:0:0:
148,258,15872,2,0,P|130:205|157:165,1,99.9999999999999,2|0,0:0|0:0,0:0:0:0:
195,148,16372,1,2,1:2:0:0:
213,49,16705,1,10,0:0:0:0:
310,27,17038,1,10,0:0:0:0:
399,71,17372,6,0,P|386:120|374:183,1,99.9999999999999,2|2,1:2|1:2,0:0:0:0:
392,220,17872,1,2,0:0:0:0:
392,220,18038,2,0,P|337:247|285:221,1,99.9999999999999,10|2,0:0|0:0,0:0:0:0:
202,225,18705,2,0,P|188:180|229:131,2,99.9999999999999,2|2|10,1:2|1:2|0:0,0:0:0:0:
301,344,19872,1,2,0:0:0:0:
301,344,20038,6,0,P|341:364|394:342,1,99.9999999999999,2|2,1:2|1:2,0:0:0:0:
422,307,20538,1,2,0:0:0:0:
422,307,20705,1,10,0:0:0:0:
396,210,21038,2,0,L|401:158,1,50,2|2,0:0|0:0,0:0:0:0:
428,117,21372,5,2,1:2:0:0:
364,40,21705,1,2,1:2:0:0:
291,109,22038,1,10,0:0:0:0:
213,45,22372,1,10,0:0:0:0:
107,74,22705,6,0,P|71:118|84:176,1,110.000003356934,6|10,1:2|0:0,0:0:0:0:
116,214,23205,1,2,3:2:0:0:
116,214,23372,2,0,P|130:250|126:287,1,55.0000016784668,2|2,1:2|3:2,0:0:0:0:
99,311,23705,1,10,0:0:0:0:
189,372,24038,2,0,P|229:333|290:335,1,110.000003356934,2|10,1:2|0:0,0:0:0:0:
324,364,24538,1,2,3:2:0:0:
324,364,24705,2,0,P|360:373|385:360,1,55.0000016784668,2|2,1:2|3:2,0:0:0:0:
417,330,25038,1,10,0:0:0:0:
494,251,25372,6,0,P|491:195|506:136,1,110.000003356934,2|10,1:2|0:0,0:0:0:0:
479,99,25872,1,2,3:2:0:0:
479,99,26038,2,0,P|451:82|418:81,1,55.0000016784668,2|2,1:2|3:2,0:0:0:0:
383,110,26372,2,0,P|355:127|322:128,1,55.0000016784668,10|2,0:0|3:2,0:0:0:0:
282,107,26705,1,2,1:2:0:0:
181,62,27038,1,10,0:0:0:0:
91,125,27372,2,0,P|106:173|114:254,1,110.000003356934,2|8,1:2|0:0,0:0:0:0:
90,284,27872,1,8,0:0:0:0:
90,284,28038,6,0,L|208:271,1,110.000003356934,2|10,1:2|0:0,0:0:0:0:
251,251,28538,1,2,3:2:0:0:
251,251,28705,2,0,P|264:214|258:190,1,55.0000016784668,2|2,1:2|3:2,0:0:0:0:
228,155,29038,1,10,0:0:0:0:
282,59,29372,2,0,P|336:57|392:84,1,110.000003356934,2|10,1:2|0:0,0:0:0:0:
421,122,29872,1,2,3:2:0:0:
421,122,30038,2,0,P|411:160|411:192,1,55.0000016784668,2|2,1:2|3:2,0:0:0:0:
422,229,30372,1,10,0:0:0:0:
474,325,30705,6,0,P|395:332|347:344,1,110.000003356934,2|10,1:2|0:0,0:0:0:0:
318,368,31205,1,2,3:2:0:0:
318,368,31372,2,0,P|279:355|251:351,1,55.0000016784668,2|2,1:2|3:2,0:0:0:0:
215,328,31705,2,0,P|176:341|148:345,1,55.0000016784668,10|2,0:0|3:2,0:0:0:0:
117,375,32038,5,2,1:2:0:0:
27,310,32372,1,2,1:2:0:0:
106,233,32705,1,2,1:2:0:0:
26,157,33038,1,2,1:2:0:0:
106,82,33372,6,0,P|143:88|161:102,1,55.0000016784668,2|0,1:2|0:0,0:0:0:0:
174,150,33705,2,0,L|284:137,1,110.000003356934,14|2,3:2|3:2,0:0:0:0:
328,168,34205,1,2,1:2:0:0:
328,168,34372,1,10,3:2:0:0:
431,131,34705,2,0,P|455:77|422:26,1,110.000003356934,2|10,1:2|3:2,0:0:0:0:
384,10,35205,1,2,3:2:0:0:
384,10,35372,2,0,L|328:18,1,55.0000016784668,2|2,3:2|1:2,0:0:0:0:
281,45,35705,1,10,3:2:0:0:
174,16,36038,6,0,B|126:1|126:1|46:20,1,110.000003356934,2|10,1:2|3:2,0:0:0:0:
33,58,36538,1,2,3:2:0:0:
33,58,36705,2,0,L|38:116,1,55.0000016784668,2|2,3:2|1:2,0:0:0:0:
69,157,37038,2,0,L|64:215,1,55.0000016784668,10|2,3:2|3:2,0:0:0:0:
35,259,37372,1,2,1:2:0:0:
120,328,37705,2,0,B|178:341|178:341|226:326,1,110.000003356934,10|2,3:2|3:2,0:0:0:0:
265,287,38205,1,2,1:2:0:0:
265,287,38372,2,0,L|323:292,1,55.0000016784668,8|8,0:0|0:0,0:0:0:0:
371,310,38705,5,10,1:2:0:0:
464,252,39038,1,10,1:2:0:0:
398,163,39372,1,10,1:2:0:0:
484,94,39705,2,0,L|494:32,1,55.0000016784668,10|8,1:2|1:2,0:0:0:0:
451,3,40038,6,0,P|404:-12|347:7,1,110.000003356934,10|10,1:2|1:2,0:0:0:0:
263,76,40705,1,10,1:2:0:0:
175,9,41038,1,10,1:2:0:0:
94,84,41372,6,0,L|106:156,1,55.0000016784668,10|10,1:2|0:0,0:0:0:0:
139,179,41705,2,0,L|129:233,1,55.0000016784668,10|10,0:0|0:0,0:0:0:0:
134,288,42038,2,0,B|86:303|86:303|27:290,1,110.000003356934,10|10,0:0|0:0,0:0:0:0:
19,252,42538,1,10,0:0:0:0:
19,252,42705,1,2,1:2:0:0:
0,143,43038,1,2,1:2:0:0:
88,77,43372,2,0,L|143:82,1,55.0000016784668,10|8,0:0|0:0,0:0:0:0:
185,117,43705,1,2,1:2:0:0:
261,52,44038,5,2,1:2:0:0:
361,47,44372,2,0,B|377:92|377:92|363:143,1,99.9999999999999,14|2,0:0|1:2,0:0:0:0:
354,186,44872,1,2,0:0:0:0:
354,186,45038,1,10,0:0:0:0:
417,263,45372,1,2,1:2:0:0:
334,344,45705,2,0,L|282:337,1,50,10|2,0:0|0:0,0:0:0:0:
246,304,46038,1,2,1:2:0:0:
162,349,46372,1,10,0:0:0:0:
80,291,46705,6,0,L|90:234,1,50,2|2,1:2|0:0,0:0:0:0:
134,220,47038,1,10,0:0:0:0:
90,134,47372,2,0,P|73:88|101:42,1,99.9999999999999,2|10,1:2|0:0,0:0:0:0:
187,5,48038,1,2,1:2:0:0:
272,56,48372,1,10,0:0:0:0:
267,155,48705,1,2,1:2:0:0:
185,212,49038,2,0,L|194:278,1,50,0|0,1:2|1:2,0:0:0:0:
199,311,49372,5,2,1:2:0:0:
283,363,49705,2,0,B|388:345,1,99.9999999999999,10|2,0:0|1:2,0:0:0:0:
432,332,50205,1,2,0:0:0:0:
432,332,50371,1,10,0:0:0:0:
497,255,50705,1,2,1:2:0:0:
439,173,51038,1,10,0:0:0:0:
366,241,51371,2,0,L|315:235,1,50,2|2,1:2|1:2,0:0:0:0:
288,193,51705,2,0,L|237:200,1,50,0|0,1:2|1:2,0:0:0:0:
206,238,52038,5,2,1:2:0:0:
109,246,52372,1,10,0:0:0:0:
109,246,52538,2,0,B|94:198|94:198|108:149,1,99.9999999999999,2|2,1:2|3:2,0:0:0:0:
125,103,53038,1,10,0:0:0:0:
200,37,53372,1,2,1:2:0:0:
200,37,53538,2,0,P|251:24|300:59,1,99.9999999999999,2|0,1:2|1:0,0:0:0:0:
311,86,54038,2,0,P|339:100|371:100,1,50,2|2,1:2|1:2,0:0:0:0:
403,81,54372,1,2,1:2:0:0:
489,131,54705,5,6,1:2:0:0:
412,196,55039,2,0,B|392:305,1,99.9999999999999,10|2,0:0|1:2,0:0:0:0:
409,346,55539,1,2,0:0:0:0:
409,346,55705,1,10,0:0:0:0:
314,380,56039,1,2,1:2:0:0:
248,304,56372,2,0,L|199:296,1,50,10|2,0:0|0:0,0:0:0:0:
158,258,56705,1,2,1:2:0:0:
74,302,57039,1,10,0:0:0:0:
16,220,57372,6,0,L|26:172,1,50,2|2,1:2|0:0,0:0:0:0:
67,143,57705,1,10,0:0:0:0:
26,54,58038,2,0,L|124:36,1,99.9999999999999,2|10,1:2|0:0,0:0:0:0:
202,98,58705,1,2,1:2:0:0:
278,162,59039,1,10,0:0:0:0:
229,249,59372,1,2,1:2:0:0:
312,304,59705,2,0,P|343:308|369:297,1,50,0|0,1:2|1:2,0:0:0:0:
400,271,60039,5,2,1:2:0:0:
478,209,60372,2,0,B|496:160|496:160|477:102,1,99.9999999999999,10|2,0:0|1:2,0:0:0:0:
456,77,60872,1,2,0:0:0:0:
456,77,61038,1,10,0:0:0:0:
375,17,61372,1,2,1:2:0:0:
304,88,61705,1,10,0:0:0:0:
239,12,62038,2,0,L|188:19,1,50,2|0,1:2|0:0,0:0:0:0:
154,55,62372,1,10,0:0:0:0:
61,20,62705,5,2,1:2:0:0:
12,109,63039,1,10,0:0:0:0:
12,109,63205,2,0,P|17:162|23:217,1,99.9999999999999,2|2,1:2|3:2,0:0:0:0:
8,256,63705,1,10,0:0:0:0:
51,345,64038,2,0,P|94:355|145:323,1,99.9999999999999,10|10,1:2|1:2,0:0:0:0:
168,286,64538,1,0,1:2:0:0:
168,286,64705,2,0,P|206:277|226:283,1,50,10|0,1:2|1:2,0:0:0:0:
252,312,65038,1,10,1:2:0:0:
335,283,65372,6,0,L|323:162,2,99.9999999999999,10|2|2,1:2|1:2|1:2,0:0:0:0:
399,359,66372,1,2,1:2:0:0:
464,283,66705,2,0,P|496:311|501:382,2,99.9999999999999,2|2|2,1:2|1:2|1:2,0:0:0:0:
390,215,67705,1,2,1:2:0:0:
464,148,68038,5,6,1:2:0:0:
496,304,78705,6,0,P|506:257|477:216,1,89.999997253418,6|2,1:2|0:0,0:0:0:0:
442,210,79205,1,2,0:0:0:0:
442,210,79372,1,10,1:2:0:0:
367,260,79705,1,2,0:0:0:0:
296,204,80038,2,0,P|257:177|206:184,1,89.999997253418,2|2,1:2|0:0,0:0:0:0:
148,238,80705,2,0,P|103:239|68:213,1,89.999997253418,10|2,1:2|0:0,0:0:0:0:
17,138,81372,6,0,L|37:51,1,89.999997253418,0|2,1:2|0:0,0:0:0:0:
64,14,81872,1,2,0:0:0:0:
64,14,82038,1,10,1:2:0:0:
133,71,82372,1,2,0:0:0:0:
216,38,82705,2,0,P|267:34|301:63,1,89.999997253418,2|2,1:2|0:0,0:0:0:0:
314,97,83205,1,8,0:0:0:0:
314,97,83372,1,10,1:2:0:0:
399,68,83705,1,10,0:0:0:0:
452,140,84038,6,0,P|437:192|431:241,1,89.999997253418,2|2,1:2|0:0,0:0:0:0:
442,271,84538,1,2,0:0:0:0:
442,271,84705,1,10,1:2:0:0:
396,348,85038,2,0,P|366:337|344:334,1,44.999998626709,2|2,0:0|0:0,0:0:0:0:
311,353,85372,1,2,1:2:0:0:
238,299,85705,1,2,0:0:0:0:
304,238,86038,2,0,B|330:198|330:198|315:151,1,89.999997253418,10|2,1:2|0:0,0:0:0:0:
249,97,86705,6,0,L|143:102,1,89.999997253418,0|2,1:2|3:2,0:0:0:0:
114,107,87205,1,2,3:2:0:0:
114,107,87372,1,8,1:2:0:0:
42,161,87705,2,0,P|52:197|54:213,1,44.999998626709,2|2,3:2|3:2,0:0:0:0:
43,248,88038,1,2,1:2:0:0:
97,320,88372,1,2,1:2:0:0:
173,273,88705,2,0,L|224:287,1,44.999998626709,10|2,1:2|3:2,0:0:0:0:
241,322,89038,1,10,1:2:0:0:
315,271,89372,6,0,B|358:241|358:241|335:147,1,134.999995880127,6|2,1:2|3:2,0:0:0:0:
314,123,90038,2,0,L|390:106,2,67.4999979400635,2|2|2,1:2|0:0|3:2,0:0:0:0:
278,94,90705,2,0,L|202:77,2,67.4999979400635,2|2|2,1:2|0:0|3:2,0:0:0:0:
304,56,91372,1,2,1:2:0:0:
380,8,91705,2,0,L|443:20,1,44.999998626709,2|2,1:2|3:2,0:0:0:0:
463,39,92038,6,0,P|498:86|484:161,1,134.999995880127,2|2,1:2|3:2,0:0:0:0:
450,185,92705,2,0,P|412:170|374:162,2,67.4999979400635,2|2|2,1:2|0:0|3:2,0:0:0:0:
448,230,93372,2,0,P|486:237|516:248,2,67.4999979400635,2|2|2,1:2|0:0|3:2,0:0:0:0:
412,257,94038,1,2,1:2:0:0:
372,338,94372,2,0,L|322:329,1,44.999998626709,2|2,1:2|3:2,0:0:0:0:
307,290,94705,6,0,P|268:264|213:273,1,89.999997253418,2|0,1:2|1:2,0:0:0:0:
189,292,95205,1,2,3:2:0:0:
189,292,95372,2,0,P|175:333|182:362,2,67.4999979400635,2|2|2,1:2|3:2|3:2,0:0:0:0:
158,258,96038,2,0,P|152:203|139:162,1,89.999997253418,2|0,1:2|1:2,0:0:0:0:
95,92,96705,2,0,L|145:80,1,44.999998626709,2|2,1:2|3:2,0:0:0:0:
165,45,97038,2,0,L|215:57,1,44.999998626709,2|2,1:2|3:2,0:0:0:0:
235,92,97372,6,0,L|347:82,1,99.9999999999999,2|0,1:2|1:2,0:0:0:0:
387,95,97872,1,2,3:2:0:0:
387,95,98038,2,0,P|397:49|380:12,2,74.9999999999999,0|2|2,1:2|0:0|3:2,0:0:0:0:
405,141,98705,2,0,P|408:191|413:243,1,99.9999999999999,2|2,1:2|0:0,0:0:0:0:
478,316,99372,1,2,1:2:0:0:
389,362,99705,2,0,L|330:348,1,50,10|2,1:2|1:2,0:0:0:0:
299,313,100038,6,0,L|176:328,1,110.000003356934,6|10,1:2|1:2,0:0:0:0:
146,360,100538,1,2,3:2:0:0:
146,360,100705,1,2,1:2:0:0:
47,310,101038,2,0,P|42:280|54:250,1,55.0000016784668,10|2,1:2|3:2,0:0:0:0:
98,231,101372,2,0,P|112:190|85:126,1,110.000003356934,2|10,1:2|1:2,0:0:0:0:
55,86,101872,1,2,3:2:0:0:
55,86,102038,2,0,P|57:55|76:31,1,55.0000016784668,2|2,1:2|3:2,0:0:0:0:
115,3,102372,1,10,1:2:0:0:
191,81,102705,6,0,P|252:69|305:63,1,110.000003356934,2|10,1:2|1:2,0:0:0:0:
349,86,103205,1,2,3:2:0:0:
349,86,103372,1,2,1:2:0:0:
453,118,103705,2,0,L|459:176,1,55.0000016784668,10|2,1:2|1:2,0:0:0:0:
499,210,104038,2,0,L|493:268,1,55.0000016784668,10|2,1:2|0:0,0:0:0:0:
487,319,104372,1,10,1:2:0:0:
390,371,104705,2,0,L|332:365,1,55.0000016784668,10|2,1:2|0:0,0:0:0:0:
280,360,105039,1,10,1:2:0:0:
207,277,105372,6,0,P|167:243|111:251,1,110.000003356934,10|10,1:2|1:2,0:0:0:0:
79,293,105872,1,2,1:2:0:0:
79,293,106038,1,10,1:2:0:0:
15,202,106372,2,0,P|9:166|20:141,1,55.0000016784668,10|2,1:2|1:2,0:0:0:0:
56,113,106705,1,10,1:2:0:0:
124,26,107038,1,10,1:2:0:0:
196,109,107372,2,0,P|244:110|262:100,1,55.0000016784668,10|2,1:2|1:2,0:0:0:0:
283,64,107705,1,10,1:2:0:0:
384,21,108038,6,0,P|399:53|400:79,1,55.0000016784668,10|2,1:2|1:2,0:0:0:0:
419,124,108372,2,0,P|404:156|403:182,1,55.0000016784668,10|2,1:2|1:2,0:0:0:0:
428,223,108705,1,10,1:2:0:0:
493,310,109038,1,10,1:2:0:0:
389,347,109372,2,0,P|344:362|296:323,1,110.000003356934,0|0,1:2|1:2,0:0:0:0:
250,227,110038,2,0,P|213:211|185:214,1,55.0000016784668,10|10,1:2|1:2,0:0:0:0:
150,237,110372,1,10,1:2:0:0:
63,287,110705,6,0,P|27:227|73:161,1,150,6|2,1:2|0:0,0:0:0:0:
102,143,111372,2,0,P|114:112|112:81,1,50,2|2,0:0|0:0,0:0:0:0:
89,52,111705,1,2,0:0:0:0:
179,10,112038,2,0,L|238:22,1,50,2|2,0:0|0:0,0:0:0:0:
255,62,112372,2,0,L|314:50,1,50,2|2,0:0|0:0,0:0:0:0:
345,23,112705,1,2,0:0:0:0:
426,80,113038,2,0,P|441:101|449:134,1,50,6|2,1:2|0:0,0:0:0:0:
431,171,113372,6,0,B|387:152|353:184|367:206|331:233|284:213,1,150,4|2,1:2|0:0,0:0:0:0:
268,178,114038,2,0,P|232:158|201:160,1,50,2|2,0:0|0:0,0:0:0:0:
178,178,114372,1,2,0:0:0:0:
100,240,114705,1,10,1:2:0:0:
21,178,115038,1,10,1:2:0:0:
93,109,115372,2,0,P|102:69|106:49,1,50,10|10,1:2|1:2,0:0:0:0:
114,11,115705,1,10,0:2:0:0:
208,66,116038,6,0,P|250:61|342:54,1,110.000003356934,6|10,1:2|1:2,0:0:0:0:
363,25,116538,1,2,3:2:0:0:
363,25,116705,1,2,1:2:0:0:
438,104,117038,2,0,P|428:141|426:172,1,55.0000016784668,10|0,1:2|3:0,0:0:0:0:
460,200,117372,2,0,P|476:233|456:323,1,110.000003356934,2|10,1:2|1:2,0:0:0:0:
450,358,117872,1,2,3:2:0:0:
450,358,118038,2,0,L|386:347,1,55.0000016784668,2|0,1:2|3:0,0:0:0:0:
340,341,118372,1,10,1:2:0:0:
266,259,118705,6,0,P|220:235|155:256,1,110.000003356934,2|10,1:2|1:2,0:0:0:0:
138,297,119205,1,2,3:2:0:0:
138,297,119372,2,0,P|91:302|64:289,1,55.0000016784668,2|2,1:2|3:2,0:0:0:0:
36,272,119705,1,10,1:2:0:0:
77,170,120038,2,0,L|88:111,1,55.0000016784668,2|2,1:2|1:2,0:0:0:0:
41,83,120372,2,0,L|33:24,1,55.0000016784668,10|2,1:2|1:2,0:0:0:0:
75,0,120705,1,10,1:2:0:0:
161,67,121038,1,10,1:2:0:0:
254,8,121372,5,2,1:2:0:0:
348,64,121705,2,0,L|341:121,1,55.0000016784668,14|2,1:2|3:2,0:0:0:0:
347,173,122038,1,2,1:2:0:0:
420,255,122372,1,10,1:2:0:0:
353,342,122705,2,0,P|392:368|462:365,2,110.000003356934,2|8|2,1:2|1:2|1:2,0:0:0:0:
282,270,123705,2,0,L|226:251,1,55.0000016784668,10|2,1:2|3:2,0:0:0:0:
199,206,124038,6,0,P|183:162|212:106,1,110.000003356934,2|10,1:2|1:2,0:0:0:0:
260,83,124538,1,2,3:2:0:0:
260,83,124705,2,0,P|266:43|257:25,1,55.0000016784668,0|2,1:2|3:2,0:0:0:0:
211,4,125038,1,8,1:2:0:0:
109,47,125372,2,0,L|83:162,1,110.000003356934,0|10,1:2|1:2,0:0:0:0:
8,229,126038,2,0,L|18:293,1,55.0000016784668,2|2,1:2|3:2,0:0:0:0:
33,335,126372,1,10,1:2:0:0:
139,363,126705,6,0,P|175:365|199:350,1,55.0000016784668,10|0,1:2|1:2,0:0:0:0:
219,309,127038,2,0,P|244:299|271:302,1,55.0000016784668,10|2,1:2|1:2,0:0:0:0:
319,331,127372,1,10,1:2:0:0:
426,306,127705,2,0,P|438:274|436:243,1,55.0000016784668,10|0,1:2|1:2,0:0:0:0:
404,210,128038,2,0,P|387:173|411:98,1,110.000003356934,10|8,1:2|1:2,0:0:0:0:
447,76,128538,1,2,1:2:0:0:
447,76,128705,2,0,L|323:60,1,110.000003356934,10|8,1:2|1:2,0:0:0:0:
284,77,129205,1,2,1:2:0:0:
284,77,129372,5,10,1:2:0:0:
186,26,129705,1,10,1:2:0:0:
92,84,130038,2,0,P|68:131|81:196,1,110.000003356934,10|10,1:2|1:2,0:0:0:0:
140,275,130705,1,10,1:2:0:0:
242,234,131038,1,10,1:2:0:0:
300,327,131372,2,0,L|358:321,1,55.0000016784668,10|10,1:2|1:2,0:0:0:0:
396,356,131705,2,0,L|454:350,1,55.0000016784668,10|2,1:2|0:0,0:0:0:0:
496,320,132038,1,2,1:2:0:0:
