osu file format v14

[General]
AudioFilename: audio.mp3
AudioLeadIn: 0
PreviewTime: 78720
Countdown: 0
SampleSet: Soft
StackLeniency: 0.7
Mode: 0
LetterboxInBreaks: 0
WidescreenStoryboard: 1

[Editor]
DistanceSpacing: 1.4
BeatDivisor: 4
GridSize: 32
TimelineZoom: 1.7

[Metadata]
Title:Varcolac
TitleUnicode:Varcolac
Artist:Ardolf
ArtistUnicode:Ardolf
Creator:Nymphe
Version:Insane
Source:
Tags:fa featured artist mpg mappers' guild Electronic instrumental kiyoshi guarden kang sae-byeok pepekcz orkay
BeatmapID:3582060
BeatmapSetID:1750904

[Difficulty]
HPDrainRate:5
CircleSize:4
OverallDifficulty:8
ApproachRate:9
SliderMultiplier:1.7
SliderTickRate:1

[Events]
//Background and Video events
0,0,"bground.jpg",0,0
//Break Periods
2,68238,78105
//Storyboard Layer 0 (Background)
//Storyboard Layer 1 (Fail)
//Storyboard Layer 2 (Pass)
//Storyboard Layer 3 (Foreground)
//Storyboard Layer 4 (Overlay)
//Storyboard Sound Samples

[TimingPoints]
1372,333.333333333334,4,2,1,60,1,0
1372,-125,4,2,1,60,0,0
12038,-117.647058823529,4,2,1,70,0,0
21372,-117.647058823529,4,2,1,85,0,0
22705,-86.9565217391304,4,2,2,90,0,0
32038,-86.9565217391304,4,2,2,85,0,0
33372,-133.333333333333,4,2,2,80,0,0
33705,-86.9565217391304,4,2,2,90,0,0
38705,-83.3333333333333,4,2,2,95,0,0
42705,-111.111111111111,4,2,2,80,0,0
43372,-111.111111111111,4,2,2,85,0,0
43705,-166.666666666666,4,2,2,85,0,0
44038,-125,4,2,2,80,0,0
44372,-125,4,2,2,90,0,0
45038,-105.263157894737,4,2,2,90,0,0
46372,-133.333333333333,4,2,2,90,0,0
47705,-105.263157894737,4,2,2,90,0,0
48038,-74.0740740740741,4,2,2,90,0,0
48705,-80,4,2,2,90,0,0
50372,-105.263157894737,4,2,2,90,0,0
52038,-117.64705882353,4,2,2,85,0,0
52372,-86.9565217391307,4,2,2,85,0,0
52705,-117.647058823529,4,2,2,85,0,0
53038,-86.9565217391304,4,2,2,85,0,0
53705,-105.263157894737,4,2,2,85,0,0
54038,-86.9565217391306,4,2,2,85,0,0
54372,-117.647058823529,4,2,2,85,0,0
54705,-117.647058823529,4,2,2,90,0,0
55705,-105.263157894737,4,2,2,90,0,0
57038,-133.333333333333,4,2,2,90,0,0
58372,-105.263157894737,4,2,2,90,0,0
58705,-74.074074074074,4,2,2,90,0,0
59372,-80,4,2,2,90,0,0
61038,-105.263157894737,4,2,2,90,0,0
62705,-117.64705882353,4,2,2,85,0,0
63038,-86.9565217391306,4,2,2,85,0,0
63372,-117.64705882353,4,2,2,85,0,0
63705,-86.9565217391306,4,2,2,85,0,0
65372,-100,4,2,2,80,0,0
65705,-125,4,2,2,75,0,0
66038,-166.666666666667,4,2,2,70,0,0
66372,-250,4,2,2,65,0,0
66705,-333.333333333333,4,2,2,60,0,0
67038,-500,4,2,2,55,0,0
67372,-666.666666666667,4,2,2,50,0,0
67705,-1000,4,2,2,45,0,0
68038,-1000,4,2,2,70,0,0
78705,-125,4,2,1,80,0,0
88038,-125,4,2,1,85,0,0
89372,-111.111111111111,4,2,1,85,0,0
94705,-95.2380952380952,4,2,1,85,0,0
98705,-117.647058823529,4,2,2,80,0,0
100038,-74.0740740740741,4,2,2,90,0,1
104705,-105.263157894737,4,2,2,90,0,1
105372,-95.2380952380954,4,2,2,95,0,1
108038,-80,4,2,2,95,0,1
109372,-117.647058823529,4,2,2,80,0,0
110038,-68.9655172413792,4,2,2,90,0,0
110705,-125,4,2,2,80,0,0
112705,-90.9090909090909,4,2,2,80,0,0
113372,-125,4,2,2,80,0,0
114705,-125,4,2,2,85,0,0
116038,-83.3333333333333,4,2,2,90,0,1
121372,-133.333333333333,4,2,2,80,0,1
121705,-83.3333333333333,4,2,2,90,0,1
126705,-83.3333333333333,4,2,2,95,0,1
129372,-76.9230769230769,4,2,2,95,0,1
130705,-76.9230769230769,4,2,2,90,0,1
132038,-125,4,2,2,90,0,1
132288,-125,4,2,2,5,0,0

[Colours]
Combo1 : 216,165,173
Combo2 : 206,92,209
Combo3 : 221,79,82
Combo4 : 77,126,202

[HitObjects]
19,366,1372,6,0,P|45:306|109:303,1,136,2|2,0:0|0:0,0:0:0:0:
168,352,1872,1,2,0:0:0:0:
179,368,2038,2,0,P|193:292|207:219,1,136,2|2,0:0|0:0,0:0:0:0:
114,98,2705,6,0,B|90:60|47:63|47:63|104:30|148:95|118:77|167:147|229:93,1,272,2|2,0:0|0:0,0:0:0:0:
377,0,3705,2,0,P|370:34|362:74,1,68,2|2,0:0|0:0,0:0:0:0:
402,195,4038,6,0,P|455:188|476:103,1,136,2|2,0:0|0:0,0:0:0:0:
472,263,4538,2,0,P|455:200|391:185,1,136,2|2,0:0|0:0,0:0:0:0:
258,330,5205,6,0,B|244:355|204:353|204:353|249:382|313:352|311:294,1,204,2|2,0:0|0:0,0:0:0:0:
43,192,6038,6,0,P|37:239|29:277,1,68,2|2,0:0|0:0,0:0:0:0:
107,289,6372,2,0,P|113:242|121:204,1,68,2|2,0:0|0:0,0:0:0:0:
222,157,6705,6,0,P|161:159|149:81,1,136,2|2,0:0|0:0,0:0:0:0:
186,30,7205,1,2,0:0:0:0:
199,21,7372,2,0,P|268:32|351:44,1,136,2|2,0:0|0:0,0:0:0:0:
507,137,8038,6,0,B|466:119|439:149|452:165|428:199|381:188,1,136,2|0,0:0|0:0,0:0:0:0:
332,142,8538,1,2,0:0:0:0:
512,143,8705,2,0,B|471:161|444:131|457:115|433:81|386:92,1,136,2|0,0:0|0:0,0:0:0:0:
326,151,9205,1,2,0:0:0:0:
248,111,9372,6,0,P|229:78|238:45,1,68,2|2,0:0|0:0,0:0:0:0:
163,152,9705,2,0,L|150:227,1,68,2|2,0:0|0:0,0:0:0:0:
108,336,10038,2,0,P|89:276|16:273,1,136,2|2,0:0|0:0,0:0:0:0:
251,251,10705,6,0,L|385:288,1,136,2|0,0:0|0:0,0:0:0:0:
468,212,11205,1,2,0:0:0:0:
448,223,11372,2,0,L|314:186,1,136,2|0,0:0|0:0,0:0:0:0:
233,27,11872,1,2,0:0:0:0:
233,27,11955,1,2,0:0:0:0:
233,27,12038,6,0,P|288:32|316:116,1,144.500002756119,2|2,1:2|1:2,0:0:0:0:
241,178,12538,1,2,0:0:0:0:
232,167,12705,2,0,B|183:144|157:177|166:189|138:219|94:196,1,144.500002756119,10|2,0:0|0:0,0:0:0:0:
20,81,13372,6,0,P|-4:45|8:13,1,72.2500013780594,2|0,1:2|0:0,0:0:0:0:
91,0,13705,2,0,P|115:36|103:68,1,72.2500013780594,0|0,1:2|0:0,0:0:0:0:
90,150,14038,2,0,P|117:88|195:91,1,144.500002756119,10|2,0:0|0:0,0:0:0:0:
256,42,14538,1,2,0:0:0:0:
272,33,14705,6,0,P|262:104|249:185,1,144.500002756119,2|2,1:2|1:2,0:0:0:0:
165,283,15205,2,0,P|159:248|182:221,1,72.2500013780594,2|8,0:0|0:0,0:0:0:0:
285,254,15538,2,0,P|290:288|267:315,1,72.2500013780594,2|0,0:0|0:0,0:0:0:0:
199,358,15872,1,2,0:0:0:0:
321,374,16038,6,0,B|367:394|388:357|382:349|403:315|447:334,1,144.500002756119,0|2,1:2|1:2,0:0:0:0:
445,333,16538,1,8,0:0:0:0:
512,259,16705,5,10,0:0:0:0:
508,241,16872,1,2,0:0:0:0:
419,195,17038,5,10,0:0:0:0:
427,164,17205,1,2,0:0:0:0:
417,76,17372,6,0,P|410:133|332:155,1,144.500002756119,2|2,1:2|1:2,0:0:0:0:
259,130,17872,1,2,0:0:0:0:
248,143,18038,2,0,P|244:69|234:-21,1,144.500002756119,10|2,0:0|0:0,0:0:0:0:
73,179,18705,6,0,P|132:182|147:265,2,144.500002756119,2|2|10,1:2|1:2|0:0,0:0:0:0:
199,353,19705,1,0,0:0:0:0:
212,340,19872,1,2,0:0:0:0:
288,268,20038,6,0,P|330:277|371:289,1,72.2500013780594,2|2,1:2|0:0,0:0:0:0:
472,189,20372,2,0,P|437:198|401:205,1,72.2500013780594,2|2,1:2|0:0,0:0:0:0:
232,136,20705,5,10,0:0:0:0:
373,74,20872,1,2,0:0:0:0:
229,29,21038,1,2,0:0:0:0:
298,186,21205,1,2,0:0:0:0:
118,232,21372,6,0,L|126:182,3,36.1250006890297,2|0|0|0,1:2|3:0|3:0|3:0,0:0:0:0:
25,118,21705,2,0,L|30:153,3,36.1250006890297,2|0|0|0,1:2|3:0|3:0|3:0,0:0:0:0:
66,41,22038,5,10,0:0:0:0:
94,28,22122,1,0,3:0:0:0:
128,31,22205,1,0,3:0:0:0:
154,54,22288,1,0,3:0:0:0:
165,86,22372,1,10,0:0:0:0:
181,116,22455,1,0,3:0:0:0:
213,131,22538,1,0,3:0:0:0:
249,123,22622,1,0,3:0:0:0:
274,91,22705,6,0,L|98:141,1,146.62500279665,6|0,1:2|3:0,0:0:0:0:
108,130,23038,1,10,0:0:0:0:
208,229,23205,1,2,3:2:0:0:
17,302,23372,6,0,L|24:248,1,48.8750009322167,2|0,1:2|0:0,0:0:0:0:
101,250,23538,2,0,L|94:304,1,48.8750009322167,2|0,3:2|3:0,0:0:0:0:
1,318,23705,2,0,L|16:212,1,97.7500018644333,10|0,0:0|3:0,0:0:0:0:
180,332,24038,6,0,B|223:305|253:341|245:352|267:383|316:360,1,146.62500279665,2|0,1:2|3:0,0:0:0:0:
320,349,24372,1,10,0:0:0:0:
449,271,24538,1,2,3:2:0:0:
328,186,24705,6,0,L|320:243,1,48.8750009322167,2|0,1:2|0:0,0:0:0:0:
410,163,24872,2,0,L|418:106,1,48.8750009322167,2|0,3:2|3:2,0:0:0:0:
313,175,25038,2,0,L|300:280,1,97.7500018644333,10|0,0:0|3:2,0:0:0:0:
273,37,25372,6,0,P|258:98|170:99,1,146.62500279665,2|0,1:2|3:0,0:0:0:0:
163,108,25705,1,10,0:0:0:0:
19,33,25872,1,2,3:2:0:0:
81,209,26038,6,0,L|86:145,1,48.8750009322167,2|0,1:2|0:0,0:0:0:0:
8,136,26205,2,0,L|3:200,1,48.8750009322167,2|0,3:2|3:2,0:0:0:0:
44,291,26372,5,10,0:0:0:0:
58,303,26538,1,2,3:2:0:0:
57,381,26705,6,0,P|75:312|162:308,1,146.62500279665,2|0,1:2|3:0,0:0:0:0:
161,318,27038,6,0,P|193:326|224:310,1,48.8750009322167,10|0,0:0|0:0,0:0:0:0:
261,372,27205,2,0,P|283:348|285:313,1,48.8750009322167,2|0,3:2|3:0,0:0:0:0:
362,201,27372,6,0,P|330:209|299:193,1,48.8750009322167,2|0,1:2|0:0,0:0:0:0:
262,255,27539,2,0,P|239:231|237:196,1,48.8750009322167,2|0,3:2|3:0,0:0:0:0:
126,139,27705,5,8,0:0:0:0:
132,110,27788,1,8,0:0:0:0:
135,85,27872,1,8,0:0:0:0:
138,60,27955,1,8,0:0:0:0:
143,32,28038,6,0,B|148:102|148:102|151:104|151:104|157:187,1,146.62500279665,2|0,1:2|3:0,0:0:0:0:
162,201,28372,1,10,0:0:0:0:
248,124,28538,1,2,3:2:0:0:
304,253,28705,6,0,L|295:308,1,48.8750009322167,2|0,1:2|0:0,0:0:0:0:
215,331,28872,2,0,L|224:276,1,48.8750009322167,2|0,3:2|3:0,0:0:0:0:
316,248,29038,2,0,L|297:350,1,97.7500018644333,10|0,0:0|3:0,0:0:0:0:
462,213,29372,6,0,P|403:211|385:121,1,146.62500279665,2|0,1:2|3:0,0:0:0:0:
396,123,29705,1,10,0:0:0:0:
502,58,29872,1,2,3:2:0:0:
350,22,30038,6,0,L|407:11,1,48.8750009322167,2|0,1:2|0:0,0:0:0:0:
307,87,30205,2,0,L|259:77,1,48.8750009322167,2|0,3:2|3:2,0:0:0:0:
342,12,30372,2,0,L|445:-1,1,97.7500018644333,10|0,0:0|3:2,0:0:0:0:
254,174,30705,6,0,B|207:157|180:206|195:196|173:248|125:233,1,146.62500279665,2|0,1:2|3:0,0:0:0:0:
116,223,31038,1,10,0:0:0:0:
0,144,31205,1,2,3:2:0:0:
161,75,31372,6,0,B|162:100|162:100|143:121,1,48.8750009322167,2|0,1:2|0:0,0:0:0:0:
62,83,31538,2,0,B|60:57|60:57|79:36,1,48.8750009322167,2|0,3:2|3:0,0:0:0:0:
211,4,31705,5,10,0:0:0:0:
227,0,31872,1,2,3:2:0:0:
287,63,32038,5,2,1:2:0:0:
287,63,32122,2,0,P|336:74|351:127,1,97.7500018644333,0|0,0:0|3:0,0:0:0:0:
381,149,32372,1,2,1:2:0:0:
381,149,32456,2,0,P|334:157|314:200,1,97.7500018644333
314,231,32705,5,2,1:2:0:0:
314,231,32788,2,0,L|417:251,1,97.7500018644333,0|0,3:0|3:0,0:0:0:0:
310,316,33038,5,2,1:2:0:0:
310,316,33121,2,0,L|207:336,1,97.7500018644333
148,268,33372,6,0,P|120:249|143:276,1,95.6250036478044,2|0,1:2|0:0,0:0:0:0:
163,258,33705,5,14,3:2:0:0:
249,174,33872,1,2,3:2:0:0:
51,190,34038,6,0,P|36:165|38:140,1,48.8750009322167,2|0,3:2|3:2,0:0:0:0:
115,121,34205,2,0,P|129:145|127:170,1,48.8750009322167,2|0,1:2|3:2,0:0:0:0:
40,210,34372,2,0,P|14:165|26:115,1,97.7500018644333,10|0,3:2|3:2,0:0:0:0:
121,20,34705,6,0,P|180:36|276:57,1,146.62500279665,2|0,1:2|3:0,0:0:0:0:
285,44,35038,1,10,3:2:0:0:
312,167,35205,1,2,3:2:0:0:
467,78,35372,6,0,L|482:23,1,48.8750009322167,2|0,3:2|3:2,0:0:0:0:
404,5,35538,2,0,L|389:60,1,48.8750009322167,2|0,1:2|3:2,0:0:0:0:
476,95,35705,2,0,L|503:-17,1,97.7500018644333,10|0,3:2|1:2,0:0:0:0:
401,270,36038,6,0,P|437:211|506:219,1,146.62500279665,2|0,1:2|3:0,0:0:0:0:
512,243,36372,1,10,3:2:0:0:
402,137,36538,1,2,3:2:0:0:
239,260,36705,6,0,L|251:318,1,48.8750009322167,2|0,3:2|3:2,0:0:0:0:
323,311,36872,2,0,L|311:253,1,48.8750009322167,2|0,1:2|3:2,0:0:0:0:
260,169,37038,5,10,3:2:0:0:
249,156,37205,1,2,3:2:0:0:
232,75,37372,6,0,P|233:135|142:159,1,146.62500279665,2|0,1:2|3:0,0:0:0:0:
141,147,37705,6,0,P|117:122|91:116,1,48.8750009322167,10|0,3:2|3:0,0:0:0:0:
74,50,37872,2,0,P|52:60|37:79,1,48.8750009322167,2|0,3:2|3:0,0:0:0:0:
0,289,38038,6,0,P|24:264|50:258,1,48.8750009322167,2|0,3:2|3:0,0:0:0:0:
67,192,38205,2,0,P|88:202|103:221,1,48.8750009322167,2|0,1:2|3:0,0:0:0:0:
136,328,38372,5,8,0:0:0:0:
158,317,38455,1,8,0:0:0:0:
186,311,38538,1,8,0:0:0:0:
216,314,38622,1,8,0:0:0:0:
241,325,38705,6,0,P|291:334|338:304,1,101.999996887207,10|0,1:2|1:0,0:0:0:0:
297,138,39038,2,0,P|264:176|266:232,1,101.999996887207,10|0,1:2|1:0,0:0:0:0:
512,165,39372,2,0,B|455:140|431:181|442:196|417:230|359:213,1,152.999995330811,10|0,1:2|0:0,0:0:0:0:
360,210,39705,1,10,1:2:0:0:
308,45,39872,1,8,1:2:0:0:
308,45,39955,1,8,1:2:0:0:
308,45,40038,6,0,P|358:62|380:108,1,101.999996887207,10|0,1:2|1:0,0:0:0:0:
183,176,40372,2,0,L|70:154,1,101.999996887207,10|0,1:2|1:0,0:0:0:0:
210,341,40705,2,0,P|235:274|331:277,1,152.999995330811,10|0,1:2|0:0,0:0:0:0:
323,278,41038,1,10,1:2:0:0:
442,348,41205,1,8,1:2:0:0:
442,348,41288,1,8,1:2:0:0:
442,348,41372,6,0,L|461:290,1,50.9999984436036,10|0,1:2|3:0,0:0:0:0:
485,279,41538,2,0,L|477:220,1,50.9999984436036,10|0,0:0|3:0,0:0:0:0:
444,54,41705,6,0,L|425:112,1,50.9999984436036,10|0,0:0|3:0,0:0:0:0:
401,123,41871,2,0,L|409:182,1,50.9999984436036,10|0,0:0|3:0,0:0:0:0:
288,127,42038,6,0,L|307:69,1,50.9999984436036,10|0,0:0|3:0,0:0:0:0:
331,58,42204,2,0,L|323:-1,1,50.9999984436036,10|0,0:0|3:0,0:0:0:0:
196,135,42372,6,0,L|215:193,1,50.9999984436036,10|0,0:0|3:0,0:0:0:0:
239,204,42538,2,0,L|231:263,1,50.9999984436036,10|0,0:0|3:0,0:0:0:0:
115,367,42705,6,0,L|195:349,1,76.4999976654053,2|0,1:2|3:0,0:0:0:0:
214,332,42955,1,0,3:0:0:0:
214,332,43038,2,0,L|294:350,1,76.4999976654053,2|0,1:2|3:0,0:0:0:0:
320,373,43288,1,0,3:0:0:0:
320,373,43372,1,10,0:0:0:0:
431,302,43538,1,8,0:0:0:0:
339,183,43705,6,0,L|350:267,1,76.4999976654053,2|0,1:2|3:0,0:0:0:0:
418,143,44038,6,0,B|433:92|433:92|398:51,1,102,2|0,1:2|0:0,0:0:0:0:
377,42,44372,5,14,0:0:0:0:
304,14,44538,1,2,0:0:0:0:
234,76,44705,5,2,1:2:0:0:
214,87,44872,1,2,0:0:0:0:
99,78,45038,6,0,L|123:-27,1,80.7499978437424,10|0,0:0|0:0,0:0:0:0:
19,144,45372,5,2,1:2:0:0:
53,216,45538,1,2,0:0:0:0:
115,272,45705,5,10,0:0:0:0:
106,298,45872,1,2,0:0:0:0:
190,367,46038,5,2,1:2:0:0:
181,341,46205,1,2,0:0:0:0:
251,263,46372,6,0,P|280:250|251:268,1,95.6250036478044,10|0,0:0|0:0,0:0:0:0:
247,282,46705,5,2,1:2:0:0:
186,208,46872,1,2,0:0:0:0:
240,139,47038,5,10,0:0:0:0:
247,120,47205,1,2,0:0:0:0:
320,72,47372,5,2,1:2:0:0:
312,53,47539,1,2,0:0:0:0:
239,4,47705,6,0,L|135:19,1,80.7499978437424,10|0,0:0|0:0,0:0:0:0:
23,120,48038,6,0,B|72:108|104:157|75:165|91:216|151:213,1,172.125000656605,2|0,1:2|0:0,0:0:0:0:
0,204,48372,2,0,L|211:124,1,172.125000656605,10|0,0:0|0:0,0:0:0:0:
250,106,48705,6,0,P|244:139|260:166,1,53.125,2|0,1:2|0:0,0:0:0:0:
327,147,48872,2,0,P|333:114|317:87,1,53.125,0|0,0:0|1:0,0:0:0:0:
292,229,49038,6,0,L|283:284,3,53.125,0|0|0|0,1:2|3:0|1:2|3:0,0:0:0:0:
317,353,49372,5,2,1:2:0:0:
395,299,49538,1,2,0:0:0:0:
457,227,49705,5,10,0:0:0:0:
475,241,49872,1,2,0:0:0:0:
432,141,50038,5,2,1:2:0:0:
414,155,50205,1,2,0:0:0:0:
500,83,50372,6,0,P|516:39|489:-2,1,80.7499978437424,10|0,0:0|0:0,0:0:0:0:
361,55,50705,5,2,1:2:0:0:
290,22,50872,1,2,0:0:0:0:
219,86,51038,5,10,0:0:0:0:
203,100,51205,1,2,0:0:0:0:
107,61,51372,6,0,L|101:11,3,40.3749989218712,2|0|2|0,1:2|0:0|1:2|0:0,0:0:0:0:
52,122,51705,5,0,1:2:0:0:
47,140,51788,1,0,1:2:0:0:
43,161,51872,1,0,1:2:0:0:
41,181,51955,1,0,1:2:0:0:
35,202,52038,6,0,P|43:243|56:308,1,108.375002067089,2|0,1:2|0:0,0:0:0:0:
138,360,52372,6,0,L|126:299,1,48.8750009322167,10|0,0:0|3:0,0:0:0:0:
209,341,52538,2,0,L|193:282,1,48.8750009322167,2|0,1:2|3:0,0:0:0:0:
322,294,52705,6,0,P|311:240|300:187,1,108.375002067089,2|0,1:2|3:0,0:0:0:0:
219,136,53038,6,0,L|228:183,1,48.8750009322167,10|0,0:0|3:0,0:0:0:0:
148,155,53205,2,0,L|160:202,1,48.8750009322167,2|0,1:2|3:0,0:0:0:0:
287,81,53371,5,2,1:2:0:0:
323,76,53454,1,2,3:2:0:0:
348,93,53538,1,2,3:2:0:0:
459,259,53705,6,0,L|469:166,1,80.7499978437424,10|0,0:0|1:0,0:0:0:0:
504,112,53955,1,0,3:0:0:0:
512,101,54038,6,0,L|504:37,1,48.8750009322167,2|0,1:2|1:0,0:0:0:0:
421,0,54205,2,0,L|429:64,1,48.8750009322167,2|0,1:2|1:0,0:0:0:0:
355,177,54372,6,0,L|337:56,1,108.375002067089,2|0,1:2|0:0,0:0:0:0:
323,56,54705,5,6,1:2:0:0:
250,15,54872,1,2,0:0:0:0:
188,70,55038,5,10,0:0:0:0:
171,81,55205,1,2,0:0:0:0:
101,33,55372,5,2,1:2:0:0:
84,22,55539,1,2,0:0:0:0:
19,95,55705,6,0,L|34:195,1,80.7499978437424,10|0,0:0|0:0,0:0:0:0:
79,273,56038,5,2,1:2:0:0:
118,178,56205,1,2,0:0:0:0:
204,208,56372,5,10,0:0:0:0:
210,230,56538,1,2,0:0:0:0:
280,287,56705,5,2,1:2:0:0:
286,265,56871,1,2,0:0:0:0:
371,361,57038,6,0,P|355:337|369:364,1,95.6250036478044,10|0,0:0|0:0,0:0:0:0:
387,357,57372,5,2,1:2:0:0:
470,312,57538,1,2,0:0:0:0:
420,235,57705,5,10,0:0:0:0:
401,223,57872,1,2,0:0:0:0:
340,160,58038,5,2,1:2:0:0:
359,148,58205,1,2,0:0:0:0:
450,64,58372,6,0,L|440:154,1,80.7499978437424,10|0,0:0|0:0,0:0:0:0:
271,2,58705,6,0,B|239:11|239:11|199:111|199:111|158:121,1,172.125000656605,2|0,1:2|0:0,0:0:0:0:
131,27,59038,2,0,L|303:88,1,172.125000656605,10|0,0:0|0:0,0:0:0:0:
292,212,59372,6,0,B|272:188|272:188|279:150,1,53.125,2|0,1:2|0:0,0:0:0:0:
359,148,59538,2,0,B|379:172|379:172|372:210,1,53.125,0|0,0:0|1:2,0:0:0:0:
340,316,59705,6,0,L|351:259,3,53.125,0|0|0|0,1:2|3:0|1:2|3:0,0:0:0:0:
153,376,60038,5,2,1:2:0:0:
226,311,60205,1,2,0:0:0:0:
279,373,60372,5,10,0:0:0:0:
297,384,60538,1,2,0:0:0:0:
445,337,60705,5,2,1:2:0:0:
427,348,60871,1,2,0:0:0:0:
295,186,61038,6,0,L|308:281,1,80.7499978437424,10|0,0:0|0:0,0:0:0:0:
440,78,61372,5,2,1:2:0:0:
413,169,61538,1,2,0:0:0:0:
341,114,61705,5,10,0:0:0:0:
330,98,61872,1,2,0:0:0:0:
262,21,62038,6,0,L|319:11,3,40.3749989218712,2|0|0|0,1:2|0:0|0:0|0:0,0:0:0:0:
213,99,62372,5,10,0:0:0:0:
194,92,62455,1,0,0:0:0:0:
174,84,62538,1,2,1:2:0:0:
153,78,62622,1,0,0:0:0:0:
132,72,62705,6,0,L|144:182,1,108.375002067089,2|0,1:2|0:0,0:0:0:0:
76,233,63038,6,0,L|67:163,1,48.8750009322167,10|0,0:0|3:0,0:0:0:0:
8,271,63205,2,0,L|-1:201,1,48.8750009322167,2|0,1:2|3:0,0:0:0:0:
229,181,63372,6,0,L|217:291,1,108.375002067089,2|0,1:2|3:0,0:0:0:0:
285,342,63705,6,0,L|294:272,1,48.8750009322167,10|0,0:0|3:0,0:0:0:0:
353,380,63872,2,0,L|362:310,1,48.8750009322167,2|0,1:2|3:0,0:0:0:0:
444,286,64038,6,0,P|462:233|433:195,1,97.7500018644333,10|0,1:2|0:0,0:0:0:0:
416,187,64288,1,0,0:0:0:0:
416,187,64372,2,0,P|401:132|426:98,1,97.7500018644333,10|0,1:2|0:0,0:0:0:0:
448,82,64622,1,0,0:0:0:0:
448,82,64705,6,0,L|440:25,3,48.8750009322167,10|0|0|0,1:2|0:0|0:0|0:0,0:0:0:0:
341,15,65038,5,10,1:2:0:0:
296,10,65122,1,0,1:2:0:0:
267,34,65205,1,0,1:2:0:0:
260,77,65288,1,0,1:2:0:0:
268,107,65372,6,0,P|242:155|162:159,1,127.5,10|0,1:2|0:0,0:0:0:0:
193,176,65705,6,0,P|242:175|269:134,1,102,2|0,1:2|0:0,0:0:0:0:
271,161,66038,6,0,P|250:191|213:191,1,76.4999976654053,2|0,1:2|0:0,0:0:0:0:
227,203,66372,6,0,P|256:203|273:178,1,51,2|0,1:2|0:0,0:0:0:0:
271,208,66705,6,0,P|256:220|237:219,1,38.2499988327027,2|0,1:2|0:0,0:0:0:0:
250,231,67038,6,0,P|262:229|271:220,1,25.5,2|0,1:2|0:0,0:0:0:0:
276,236,67372,6,0,P|269:242|259:243,1,19.1249994163513,2|0,1:2|0:0,0:0:0:0:
268,254,67705,6,0,P|274:253|279:248,1,12.75,2|0,1:2|0:0,0:0:0:0:
306,327,68038,5,6,1:2:0:0:
366,344,78705,6,0,P|425:336|437:257,1,136,6|2,1:2|0:0,0:0:0:0:
358,197,79205,1,2,0:0:0:0:
363,209,79372,2,0,L|388:61,1,136,10|2,1:2|0:0,0:0:0:0:
277,45,80038,6,0,P|232:38|197:91,1,102,2|0,1:2|0:0,0:0:0:0:
197,100,80372,2,0,P|173:127|141:127,1,68,2|0,0:0|0:0,0:0:0:0:
0,95,80705,6,0,P|45:102|80:49,1,102,10|0,1:2|0:0,0:0:0:0:
80,40,81039,2,0,P|104:13|136:13,1,68,2|0,0:0|0:0,0:0:0:0:
259,163,81372,6,0,L|241:314,1,136,0|2,1:2|0:0,0:0:0:0:
196,369,81872,1,2,0:0:0:0:
212,384,82038,2,0,L|194:233,1,136,10|2,1:2|0:0,0:0:0:0:
391,253,82705,6,0,P|388:207|326:182,1,102,2|0,1:2|0:0,0:0:0:0:
326,155,83038,2,0,P|281:163|246:161,1,68,2|8,0:0|0:0,0:0:0:0:
177,60,83372,6,0,P|174:106|112:131,1,102,10|0,1:2|0:0,0:0:0:0:
112,158,83705,2,0,P|67:150|32:152,1,68,10|0,0:0|0:0,0:0:0:0:
48,304,84038,6,0,B|88:283|116:314|107:326|130:351|172:337,1,136,2|2,1:2|0:0,0:0:0:0:
253,279,84538,1,2,0:0:0:0:
260,264,84705,2,0,L|120:318,1,136,10|2,1:2|0:0,0:0:0:0:
248,373,85205,1,2,0:0:0:0:
349,314,85372,6,0,P|384:287|380:220,1,102,2|0,1:2|0:0,0:0:0:0:
360,213,85705,2,0,L|439:234,1,68,2|0,0:0|0:0,0:0:0:0:
464,49,86038,6,0,P|429:76|433:143,1,102,10|0,1:2|0:0,0:0:0:0:
453,150,86371,2,0,L|374:129,1,68,2|0,0:0|0:0,0:0:0:0:
244,0,86705,6,0,L|261:146,1,136,0|2,1:2|3:2,0:0:0:0:
193,212,87205,1,2,3:2:0:0:
193,212,87372,2,0,P|202:144|270:140,1,136,8|2,1:2|3:2,0:0:0:0:
332,77,87872,1,2,3:2:0:0:
472,172,88038,6,0,L|458:255,1,68,2|0,1:2|3:0,0:0:0:0:
427,259,88288,1,0,3:0:0:0:
427,259,88372,2,0,L|441:342,1,68,2|0,1:2|3:0,0:0:0:0:
443,362,88622,1,0,3:0:0:0:
444,361,88705,6,0,L|490:370,3,34,10|0|2|0,1:2|3:0|3:2|3:0,0:0:0:0:
344,338,89038,5,10,1:2:0:0:
311,324,89122,1,0,3:0:0:0:
279,324,89205,1,2,3:2:0:0:
249,336,89288,1,0,3:0:0:0:
222,353,89372,6,0,P|178:360|144:338,1,76.4999976654053,6|0,1:2|3:0,0:0:0:0:
138,306,89622,2,0,P|98:294|64:316,1,76.4999976654053,2|0,0:0|0:0,0:0:0:0:
49,335,89872,1,2,3:2:0:0:
142,219,90038,6,0,P|158:181|145:138,1,76.4999976654053,2|0,1:2|3:0,0:0:0:0:
115,137,90288,2,0,P|96:99|109:60,1,76.4999976654053,2|0,0:0|0:0,0:0:0:0:
122,44,90538,1,2,3:2:0:0:
290,71,90705,6,0,P|233:62|222:-7,2,114.749996498108,2|2|2,1:2|0:0|3:2,0:0:0:0:
402,23,91372,5,2,1:2:0:0:
415,48,91538,1,2,3:2:0:0:
490,99,91705,5,2,1:2:0:0:
477,124,91871,1,2,3:2:0:0:
440,216,92038,6,0,P|400:222|365:193,1,76.4999976654053,2|0,1:2|3:0,0:0:0:0:
352,173,92288,2,0,P|307:166|275:195,1,76.4999976654053,2|0,0:0|0:0,0:0:0:0:
266,206,92538,1,2,3:2:0:0:
298,344,92705,6,0,P|242:328|211:317,1,76.4999976654053,2|0,1:2|3:0,0:0:0:0:
200,291,92955,2,0,P|156:302|123:311,1,76.4999976654053,2|0,0:0|0:0,0:0:0:0:
110,338,93205,1,2,3:2:0:0:
20,251,93372,6,0,L|-2:382,2,114.749996498108,2|2|2,1:2|0:0|3:2,0:0:0:0:
103,188,94038,5,2,1:2:0:0:
96,162,94205,1,2,3:2:0:0:
17,109,94372,5,2,1:2:0:0:
26,84,94539,1,2,3:2:0:0:
114,14,94705,6,0,P|162:7|201:41,1,89.2499972763062,2|0,1:2|3:0,0:0:0:0:
204,54,94955,1,2,0:0:0:0:
204,54,95038,2,0,P|241:77|283:68,1,89.2499972763062,0|2,1:2|3:2,0:0:0:0:
502,55,95372,6,0,P|454:62|415:28,1,89.2499972763062,2|0,1:2|3:2,0:0:0:0:
412,15,95622,1,2,3:2:0:0:
412,15,95705,2,0,P|374:-8|332:0,1,89.2499972763062,0|2,1:2|3:2,0:0:0:0:
440,132,96038,6,0,L|451:230,1,89.2499972763062,2|0,1:2|3:2,0:0:0:0:
463,244,96288,1,2,0:0:0:0:
463,244,96372,2,0,L|453:332,1,89.2499972763062,0|2,1:2|3:2,0:0:0:0:
248,234,96705,5,2,1:2:0:0:
332,339,96872,1,2,3:2:0:0:
332,339,96955,1,0,3:2:0:0:
332,339,97038,1,2,1:2:0:0:
321,179,97205,1,2,3:2:0:0:
235,338,97372,6,0,P|186:341|154:313,1,89.2499972763062,2|0,1:2|3:0,0:0:0:0:
145,296,97622,1,2,0:0:0:0:
145,296,97705,1,0,1:2:0:0:
56,245,97872,1,2,3:2:0:0:
170,80,98038,6,0,L|158:186,1,89.2499972763062,0|0,1:2|3:0,0:0:0:0:
158,193,98288,1,2,0:0:0:0:
158,193,98372,1,0,1:2:0:0:
263,133,98538,1,2,3:2:0:0:
84,4,98705,6,0,P|102:70|185:70,1,144.500002756119,2|2,1:2|0:0,0:0:0:0:
446,14,99288,5,0,1:0:0:0:
442,31,99372,2,0,L|319:64,1,108.375002067089,2|0,1:2|0:0,0:0:0:0:
323,78,99705,1,10,1:2:0:0:
398,144,99872,1,2,1:2:0:0:
336,294,100038,6,0,P|307:254|237:264,1,114.750000437737,6|2,1:2|3:2,0:0:0:0:
222,290,100288,1,0,3:2:0:0:
222,290,100372,2,0,L|234:356,1,57.3750002188683,10|0,1:2|0:0,0:0:0:0:
63,310,100538,5,2,3:2:0:0:
63,310,100622,1,2,0:0:0:0:
63,310,100705,2,0,P|35:262|62:209,1,114.750000437737,2|2,1:2|3:2,0:0:0:0:
90,200,100955,1,0,3:2:0:0:
90,200,101038,2,0,P|102:161|93:135,1,57.3750002188683,10|0,1:2|0:0,0:0:0:0:
11,49,101205,5,2,3:2:0:0:
28,61,101288,1,2,0:0:0:0:
50,64,101372,2,0,L|183:34,1,114.750000437737,2|2,1:2|3:2,0:0:0:0:
203,25,101622,1,0,3:2:0:0:
203,25,101705,2,0,P|224:57|219:96,1,57.3750002188683,10|0,1:2|0:0,0:0:0:0:
205,178,101872,1,2,3:2:0:0:
205,178,101955,1,2,0:0:0:0:
205,178,102038,6,0,L|272:160,1,57.3750002188683,2|0,1:2|3:2,0:0:0:0:
283,134,102205,2,0,L|350:152,1,57.3750002188683,2|0,3:2|0:0,0:0:0:0:
481,215,102372,6,0,L|414:233,1,57.3750002188683,10|0,1:2|0:0,0:0:0:0:
408,258,102539,2,0,L|341:240,1,57.3750002188683,2|0,3:2|0:0,0:0:0:0:
208,373,102705,6,0,P|232:318|306:322,1,114.750000437737,2|2,1:2|3:2,0:0:0:0:
303,340,102955,1,0,3:2:0:0:
303,340,103038,2,0,P|336:352|374:339,1,57.3750002188683,10|0,1:2|0:0,0:0:0:0:
473,354,103205,5,2,3:2:0:0:
485,343,103288,1,2,0:0:0:0:
493,329,103372,2,0,L|478:193,1,114.750000437737,2|2,1:2|3:2,0:0:0:0:
472,190,103622,1,0,3:2:0:0:
472,190,103705,2,0,L|478:121,1,57.3750002188683,10|0,1:2|0:0,0:0:0:0:
408,58,103872,2,0,L|403:115,1,57.3750002188683,2|0,1:2|0:0,0:0:0:0:
272,144,104038,5,10,1:2:0:0:
241,132,104122,1,2,0:0:0:0:
209,132,104205,1,2,0:0:0:0:
182,145,104288,1,2,0:0:0:0:
168,166,104372,6,0,L|179:228,3,57.3750002188683,10|2|2|2,1:2|0:0|0:0|0:0,0:0:0:0:
292,324,104705,5,10,1:2:0:0:
320,346,104789,1,2,0:0:0:0:
357,348,104872,1,2,0:0:0:0:
386,331,104955,1,2,0:0:0:0:
402,307,105038,6,0,L|394:267,3,40.3749989218712,10|2|2|2,1:2|0:0|1:2|0:0,0:0:0:0:
481,186,105372,5,10,1:2:0:0:
377,96,105538,1,2,1:2:0:0:
443,45,105705,1,10,1:2:0:0:
385,194,105872,1,2,1:2:0:0:
385,194,105955,1,2,0:0:0:0:
385,194,106038,6,0,P|340:208|295:184,1,89.2499972763062,10|2,1:2|1:2,0:0:0:0:
179,101,106372,1,10,1:2:0:0:
251,15,106538,1,2,1:2:0:0:
251,15,106622,1,2,0:0:0:0:
251,15,106705,6,0,L|265:110,1,89.2499972763062,10|2,1:2|1:2,0:0:0:0:
221,280,107038,1,10,1:2:0:0:
60,190,107205,1,2,1:2:0:0:
60,190,107288,1,2,0:0:0:0:
60,190,107372,2,0,P|40:136|58:107,1,89.2499972763062,10|2,1:2|1:2,0:0:0:0:
176,173,107705,1,10,1:2:0:0:
24,300,107872,1,2,1:2:0:0:
24,300,107955,1,2,1:2:0:0:
24,300,108038,6,0,L|97:285,1,53.125,10|0,1:2|3:2,0:0:0:0:
98,265,108205,2,0,L|171:280,1,53.125,2|0,1:2|3:2,0:0:0:0:
300,278,108372,6,0,L|285:205,1,53.125,10|0,1:2|3:2,0:0:0:0:
265,204,108539,2,0,L|280:131,1,53.125,2|2,1:2|3:2,0:0:0:0:
306,18,108705,6,0,L|233:33,1,53.125,10|0,1:2|3:0,0:0:0:0:
232,53,108872,2,0,L|159:38,1,53.125,2|0,1:2|3:0,0:0:0:0:
34,16,109039,6,0,L|49:89,1,53.125,10|0,1:2|3:0,0:0:0:0:
69,90,109206,2,0,L|54:163,1,53.125,2|0,1:2|3:0,0:0:0:0:
23,248,109372,6,0,P|67:235|107:222,1,72.2500013780594,0|2,1:2|0:0,0:0:0:0:
109,210,109622,1,2,0:0:0:0:
109,210,109705,2,0,P|143:220|178:231,1,72.2500013780594,0|2,1:2|0:0,0:0:0:0:
217,251,109955,1,2,0:0:0:0:
217,251,110038,6,0,P|235:219|229:180,1,61.6250018806458,10|0,1:2|3:0,0:0:0:0:
274,87,110205,2,0,P|275:117|291:143,1,61.6250018806458,10|0,1:2|3:0,0:0:0:0:
427,140,110372,6,0,P|381:152|432:144,1,184.875005641937,10|0,1:2|0:0,0:0:0:0:
493,81,110705,6,0,L|482:8,3,68,6|2|2|2,1:2|0:0|0:0|0:0,0:0:0:0:
398,23,111372,1,2,0:0:0:0:
321,39,111538,1,2,0:0:0:0:
245,58,111705,2,0,L|265:136,1,68,2|0,0:0|0:0,0:0:0:0:
171,234,112038,6,0,L|181:161,3,68,2|2|2|2,0:0|0:0|0:0|0:0,0:0:0:0:
141,316,112705,2,0,P|175:259|244:266,1,140.25000428009,2|0,0:0|0:0,0:0:0:0:
245,282,113038,1,6,1:2:0:0:
292,359,113205,1,2,0:0:0:0:
387,301,113372,6,0,L|455:320,3,68,4|2|2|2,1:2|0:0|0:0|0:0,0:0:0:0:
336,231,114038,1,2,0:0:0:0:
365,157,114205,1,2,0:0:0:0:
389,79,114372,2,0,L|321:60,1,68,2|0,0:0|0:0,0:0:0:0:
129,75,114705,5,10,1:2:0:0:
206,159,114872,1,2,0:0:0:0:
188,16,115038,1,10,1:2:0:0:
77,138,115205,1,2,0:0:0:0:
216,254,115372,5,10,1:2:0:0:
233,239,115538,1,10,1:2:0:0:
81,259,115705,5,8,0:2:0:0:
66,292,115788,1,8,0:2:0:0:
76,327,115872,1,10,0:2:0:0:
106,351,115955,1,8,0:2:0:0:
139,361,116038,6,0,L|248:334,1,101.999996887207,6|2,1:2|3:2,0:0:0:0:
360,196,116372,2,0,L|260:171,1,101.999996887207,10|2,1:2|3:2,0:0:0:0:
49,82,116705,1,2,1:2:0:0:
172,236,116872,1,2,3:2:0:0:
246,0,117038,2,0,B|265:52|265:52|232:119,1,101.999996887207,10|0,1:2|3:0,0:0:0:0:
35,214,117372,5,2,1:2:0:0:
164,92,117538,1,2,3:2:0:0:
172,236,117705,5,10,1:2:0:0:
160,220,117872,1,2,3:2:0:0:
165,360,118038,6,0,P|215:367|252:326,1,101.999996887207,2|0,1:2|3:0,0:0:0:0:
267,164,118372,2,0,L|253:227,1,50.9999984436036,10|0,1:2|0:0,0:0:0:0:
333,245,118538,2,0,L|347:182,1,50.9999984436036,2|0,3:2|3:0,0:0:0:0:
341,66,118705,5,2,1:2:0:0:
182,148,118872,1,2,3:2:0:0:
82,25,119038,5,10,1:2:0:0:
106,38,119205,1,2,3:2:0:0:
14,227,119372,6,0,L|1:160,1,50.9999984436036,2|0,1:2|0:0,0:0:0:0:
81,147,119538,2,0,L|94:214,1,50.9999984436036,2|0,3:2|3:0,0:0:0:0:
58,294,119705,1,10,1:2:0:0:
179,356,119872,5,0,1:2:0:0:
179,356,119955,1,0,1:2:0:0:
179,356,120038,1,2,1:2:0:0:
281,219,120205,1,2,1:2:0:0:
379,353,120372,5,10,1:2:0:0:
390,367,120538,1,2,1:2:0:0:
418,112,120705,6,0,L|401:216,1,101.999996887207,10|2,1:2|1:2,0:0:0:0:
403,252,120955,1,0,1:2:0:0:
403,252,121038,2,0,P|425:269|464:270,3,50.9999984436036,10|2|2|2,1:2|0:0|0:0|0:0,0:0:0:0:
294,303,121372,6,0,P|282:333|298:305,1,95.6250036478044,2|0,1:2|0:0,0:0:0:0:
307,291,121705,5,14,1:2:0:0:
158,372,121872,1,2,3:2:0:0:
165,152,122038,2,0,L|190:266,1,101.999996887207,2|0,1:2|3:0,0:0:0:0:
367,376,122372,2,0,P|391:338|386:282,1,101.999996887207,10|0,1:2|3:0,0:0:0:0:
271,125,122705,6,0,B|320:139|345:99|323:87|354:54|403:69,1,152.999995330811,2|0,1:2|3:0,0:0:0:0:
415,90,123038,2,0,L|300:57,1,101.999996887207,8|0,1:2|3:0,0:0:0:0:
135,28,123372,2,0,L|250:-5,1,101.999996887207,2|0,1:2|3:0,0:0:0:0:
86,189,123705,1,10,1:2:0:0:
18,93,123872,1,2,3:2:0:0:
191,141,124038,6,0,L|210:310,1,152.999995330811,2|0,1:2|3:0,0:0:0:0:
197,323,124372,1,10,1:2:0:0:
316,364,124538,2,0,P|336:320|310:273,1,101.999996887207,2|0,3:2|1:2,0:0:0:0:
87,296,124872,2,0,P|66:339|92:386,1,101.999996887207,2|8,3:2|1:2,0:0:0:0:
280,180,125205,1,2,3:2:0:0:
48,128,125372,6,0,P|109:142|142:54,1,152.999995330811,0|0,1:2|3:0,0:0:0:0:
132,60,125705,2,0,L|154:164,1,101.999996887207,10|0,1:2|3:0,0:0:0:0:
252,348,126038,5,2,1:2:0:0:
376,170,126205,1,2,3:2:0:0:
206,225,126372,5,10,1:2:0:0:
215,247,126538,1,2,1:2:0:0:
381,365,126705,6,0,P|406:316|386:270,1,101.999996887207,10|0,1:2|1:2,0:0:0:0:
371,265,126955,1,0,1:2:0:0:
371,265,127038,1,10,1:2:0:0:
251,132,127205,1,2,1:2:0:0:
306,52,127372,2,0,L|281:223,1,152.999995330811,10|0,1:2|3:0,0:0:0:0:
287,236,127705,1,10,1:2:0:0:
181,325,127872,5,0,1:2:0:0:
181,325,127955,1,0,1:2:0:0:
181,325,128038,2,0,B|132:302|97:340|112:351|90:392|29:373,1,152.999995330811,10|0,1:2|3:0,0:0:0:0:
24,361,128372,1,8,1:2:0:0:
125,186,128538,1,2,1:2:0:0:
265,359,128705,2,0,P|317:363|347:318,1,101.999996887207,10|0,1:2|1:2,0:0:0:0:
404,130,129038,1,8,1:2:0:0:
249,255,129205,1,2,1:2:0:0:
249,255,129288,1,0,1:2:0:0:
249,255,129372,6,0,L|258:182,1,55.2499974708558,10|0,1:2|3:0,0:0:0:0:
279,184,129538,2,0,L|272:129,1,55.2499974708558,2|0,1:2|3:0,0:0:0:0:
76,174,129705,6,0,L|67:101,1,55.2499974708558,10|0,1:2|3:0,0:0:0:0:
46,103,129871,2,0,L|52:48,1,55.2499974708558,2|0,1:2|3:0,0:0:0:0:
193,18,130038,2,0,L|182:80,3,55.2499974708558,10|0|0|0,1:2|3:0|1:2|3:0,0:0:0:0:
338,39,130372,5,10,1:2:0:0:
363,46,130455,1,0,3:0:0:0:
389,50,130538,1,0,1:2:0:0:
413,55,130622,1,0,3:0:0:0:
448,72,130705,6,0,L|329:97,1,110.499994941712,10|2,1:2|3:2,0:0:0:0:
133,211,131038,2,0,L|252:236,1,110.499994941712,10|2,1:2|0:0,0:0:0:0:
437,338,131372,5,10,1:2:0:0:
325,165,131538,1,10,1:2:0:0:
310,322,131705,5,10,1:2:0:0:
326,296,131872,1,2,0:0:0:0:
442,156,132038,6,0,L|417:279,1,102,2|0,1:2|0:0,0:0:0:0:
