osu file format v14

[General]
AudioFilename: audio.mp3
AudioLeadIn: 0
PreviewTime: 78720
Countdown: 0
SampleSet: Soft
StackLeniency: 0.7
Mode: 0
LetterboxInBreaks: 0
WidescreenStoryboard: 0

[Editor]
Bookmarks: 22720,65387
DistanceSpacing: 1.4
BeatDivisor: 4
GridSize: 32
TimelineZoom: 2

[Metadata]
Title:Varcolac
TitleUnicode:Varcolac
Artist:Ardolf
ArtistUnicode:Ardolf
Creator:Nymphe
Version:Expert
Source:
Tags:fa featured artist mpg mappers' guild Electronic instrumental kiyoshi guarden kang sae-byeok pepekcz orkay
BeatmapID:3582059
BeatmapSetID:1750904

[Difficulty]
HPDrainRate:5.5
CircleSize:4.2
OverallDifficulty:8.8
ApproachRate:9.4
SliderMultiplier:1.8
SliderTickRate:1

[Events]
//Background and Video events
0,0,"bground.jpg",0,0
//Break Periods
2,68238,78165
//Storyboard Layer 0 (Background)
//Storyboard Layer 1 (Fail)
//Storyboard Layer 2 (Pass)
//Storyboard Layer 3 (Foreground)
//Storyboard Layer 4 (Overlay)
//Storyboard Sound Samples

[TimingPoints]
1372,333.333333333334,4,2,1,60,1,0
1372,-133.333333333333,4,2,1,60,0,0
2705,-166.666666666667,4,2,1,60,0,0
4038,-133.333333333333,4,2,1,60,0,0
8705,-181.818181818181,4,2,1,60,0,0
10038,-133.333333333333,4,2,1,60,0,0
10705,-117.647058823529,4,2,1,60,0,0
12038,-117.647058823529,4,2,1,70,0,0
21372,-117.647058823529,4,2,1,85,0,0
22705,-48.780487804878,4,2,2,90,0,0
23038,-57.1428571428571,4,2,2,90,0,0
23705,-57.5524679664365,4,2,2,90,0,0
24038,-57.1428571428571,4,2,2,90,0,0
25038,-44.4444444444445,4,2,2,90,0,0
25372,-57.1428571428571,4,2,2,90,0,0
30372,-53.8945205502209,4,2,2,90,0,0
30705,-57.1428571428571,4,2,2,90,0,0
31538,-54.054054054054,4,2,2,90,0,0
31705,-57.1428571428571,4,2,2,90,0,0
31872,-54.054054054054,4,2,2,90,0,0
32038,-60.6060606060606,4,2,2,85,0,0
32788,-44.4444444444445,4,2,2,85,0,0
33372,-181.818181818182,4,2,2,80,0,0
33705,-80,4,2,2,90,0,0
34372,-57.1428571428571,4,2,2,90,0,0
34705,-80,4,2,2,90,0,0
35705,-44.4444444444445,4,2,2,90,0,0
36038,-48.780487804878,4,2,2,90,0,0
36872,-57.1428571428571,4,2,2,90,0,0
38038,-80,4,2,2,90,0,0
38705,-95.2380952380952,4,2,2,95,0,0
40038,-86.9565217391304,4,2,2,95,0,0
41705,-80,4,2,2,95,0,0
42038,-74.0740740740741,4,2,2,95,0,0
42705,-64.5161290322581,4,2,2,80,0,0
43372,-64.5161290322581,4,2,2,85,0,0
43705,-181.818181818182,4,2,2,85,0,0
44038,-285.714285714287,4,2,2,80,0,0
44372,-105.263157894737,4,2,2,90,0,0
48038,-42.5531914893617,4,2,2,90,0,0
48705,-51.2820512820513,4,2,2,90,0,0
49205,-133.333333333333,4,2,2,90,0,0
52038,-133.333333333333,4,2,2,85,0,0
52372,-80,4,2,2,85,0,0
52705,-133.333333333333,4,2,2,85,0,0
53038,-80,4,2,2,85,0,0
53705,-105.263157894737,4,2,2,85,0,0
54372,-153.846153846154,4,2,2,85,0,0
54705,-133.333333333334,4,2,2,90,0,0
58705,-42.5531914893617,4,2,2,90,0,0
59372,-51.2820512820513,4,2,2,90,0,0
59872,-133.333333333333,4,2,2,90,0,0
62705,-133.333333333333,4,2,2,85,0,0
63038,-79.9999999999999,4,2,2,85,0,0
63372,-133.333333333333,4,2,2,85,0,0
63705,-80,4,2,2,85,0,0
64038,-68.9655172413793,4,2,2,85,0,0
65372,-100,4,2,2,80,0,0
65705,-125,4,2,2,75,0,0
66038,-166.666666666667,4,2,2,70,0,0
66372,-250,4,2,2,65,0,0
66705,-333.333333333333,4,2,2,60,0,0
67038,-500,4,2,2,55,0,0
67372,-666.666666666667,4,2,2,50,0,0
67705,-1000,4,2,2,45,0,0
68038,-1000,4,2,2,70,0,0
78705,-133.333333333333,4,2,1,80,0,0
88038,-133.333333333333,4,2,1,85,0,0
88705,-105.263157894737,4,2,1,85,0,0
89372,-117.64705882353,4,2,1,85,0,0
94705,-95.2380952380956,4,2,1,85,0,0
98705,-95.2380952380956,4,2,2,80,0,0
100038,-80,4,2,2,90,0,1
100372,-68.9655172413793,4,2,2,90,0,1
100705,-64.5161290322581,4,2,2,90,0,1
101372,-60.6060606060606,4,2,2,90,0,1
102372,-80,4,2,2,90,0,1
102705,-68.9655172413793,4,2,2,90,0,1
103372,-64.5161290322581,4,2,2,90,0,1
105372,-64.5161290322581,4,2,2,95,0,1
108038,-68.9655172413793,4,2,2,95,0,1
109372,-86.9565217391304,4,2,2,80,0,0
109705,-80,4,2,2,80,0,0
110038,-57.1428571428571,4,2,2,90,0,0
110372,-74.0740740740741,4,2,2,90,0,0
110705,-117.647058823529,4,2,2,80,0,0
113038,-57.1428571428571,4,2,2,80,0,0
113372,-117.647058823529,4,2,2,80,0,0
114705,-117.647058823529,4,2,2,85,0,0
116038,-117.647058823529,4,2,2,90,0,1
116705,-74.0740740740741,4,2,2,90,0,1
121038,-153.846153846154,4,2,2,90,0,1
121372,-133.333333333333,4,2,2,80,0,1
121705,-74.0740740740741,4,2,2,90,0,1
126705,-74.0740740740741,4,2,2,95,0,1
129372,-68.9655172413793,4,2,2,95,0,1
130705,-68.9655172413793,4,2,2,90,0,1
132288,-68.9655172413793,4,2,2,5,0,0

[Colours]
Combo1 : 216,165,173
Combo2 : 206,92,209
Combo3 : 221,79,82
Combo4 : 77,126,202

[HitObjects]
125,57,1372,6,0,P|145:107|151:163,1,101.250003862381,2|0,0:0|0:0,0:0:0:0:
147,182,1705,5,2,0:0:0:0:
201,236,1872,1,2,0:0:0:0:
112,337,2038,2,0,P|119:294|154:274,1,67.5000025749208,2|0,0:0|0:0,0:0:0:0:
207,317,2372,2,0,P|200:360|165:380,1,67.5000025749208,2|0,0:0|0:0,0:0:0:0:
301,229,2705,6,0,B|273:147|345:108|392:125|403:161|396:203|358:208,1,215.999993408203,2|2,0:0|0:0,0:0:0:0:
269,64,3705,5,2,0:0:0:0:
253,55,3872,1,2,0:0:0:0:
203,121,4038,6,0,P|214:45|177:-5,1,135.000005149842,2|2,0:0|0:0,0:0:0:0:
76,119,4538,2,0,L|57:257,1,135.000005149842,2|2,0:0|0:0,0:0:0:0:
174,361,5205,6,0,B|207:383|246:365|252:320|248:317|244:314|251:279|296:259|331:290,1,202.500007724762,2|2,0:0|0:0,0:0:0:0:
481,376,6038,5,2,0:0:0:0:
487,360,6205,1,2,0:0:0:0:
424,298,6372,5,2,0:0:0:0:
418,282,6538,1,2,0:0:0:0:
465,207,6705,6,0,P|465:154|495:111,1,101.250003862381,2|0,0:0|0:0,0:0:0:0:
512,109,7038,5,2,0:0:0:0:
474,41,7205,1,2,0:0:0:0:
365,114,7372,2,0,P|387:84|385:44,1,67.5000025749208,2|0,0:0|0:0,0:0:0:0:
316,27,7705,2,0,P|293:56|295:96,1,67.5000025749208,2|0,0:0|0:0,0:0:0:0:
283,181,8038,6,0,P|268:120|196:110,1,135.000005149842,2|0,0:0|0:0,0:0:0:0:
121,71,8538,1,2,0:0:0:0:
294,79,8705,6,0,P|253:131|177:123,1,148.50000453186,2|2,0:0|0:0,0:0:0:0:
99,152,9372,5,2,0:0:0:0:
102,167,9538,1,2,0:0:0:0:
158,233,9705,5,2,0:0:0:0:
155,248,9872,1,2,0:0:0:0:
86,297,10038,6,0,P|58:276|23:282,1,67.5000025749208,2|0,0:0|0:0,0:0:0:0:
8,357,10372,2,0,P|36:378|71:372,1,67.5000025749208,2|0,0:0|0:0,0:0:0:0:
167,321,10705,6,0,B|204:326|222:311|229:285|222:281|227:257|250:239|283:248,1,153.000002918243,2|0,0:0|0:0,0:0:0:0:
347,283,11205,1,2,0:0:0:0:
155,248,11372,2,0,L|302:337,1,153.000002918243,2|0,0:0|0:0,0:0:0:0:
412,364,11872,5,2,0:0:0:0:
421,358,11955,1,2,0:0:0:0:
429,354,12038,2,0,P|456:313|432:245,1,114.750002188683,2|0,1:2|0:0,0:0:0:0:
425,232,12372,5,2,1:2:0:0:
361,183,12538,1,2,0:0:0:0:
463,54,12705,2,0,B|487:49|498:25|498:25|487:34|471:35,1,76.5000014591217,10|0,0:0|0:0,0:0:0:0:
390,40,13038,2,0,B|366:45|355:69|355:69|372:56|393:58,1,76.5000014591217,2|0,0:0|0:0,0:0:0:0:
271,90,13372,6,0,P|348:106|429:127,2,153.000002918243,2|0|10,1:2|1:2|0:0,0:0:0:0:
78,22,14372,5,2,0:0:0:0:
68,12,14538,1,2,0:0:0:0:
32,105,14705,6,0,P|82:51|154:63,1,153.000002918243,2|2,1:2|1:2,0:0:0:0:
243,83,15205,2,0,P|214:106|207:146,1,76.5000014591217,2|8,0:0|0:0,0:0:0:0:
274,185,15538,2,0,P|303:161|310:124,1,76.5000014591217,2|0,0:0|0:0,0:0:0:0:
202,214,15872,1,2,0:0:0:0:
365,225,16038,6,0,P|298:219|267:298,1,153.000002918243,0|2,1:2|1:2,0:0:0:0:
324,331,16538,1,8,0:0:0:0:
219,379,16705,5,10,0:0:0:0:
201,369,16872,1,2,0:0:0:0:
137,273,17038,5,10,0:0:0:0:
41,319,17205,1,2,0:0:0:0:
92,108,17372,6,0,P|67:159|57:216,1,114.750002188683,2|0,1:2|0:0,0:0:0:0:
64,236,17705,5,2,1:2:0:0:
142,188,17872,1,2,0:0:0:0:
201,369,18038,2,0,P|229:334|219:294,1,76.5000014591217,10|0,0:0|0:0,0:0:0:0:
151,280,18372,2,0,P|123:315|133:355,1,76.5000014591217,2|0,0:0|0:0,0:0:0:0:
232,217,18705,6,0,P|251:272|316:279,1,114.750002188683,2|0,1:2|0:0,0:0:0:0:
341,265,19038,2,0,P|360:231|349:192,1,76.5000014591217,2|0,1:2|0:0,0:0:0:0:
509,48,19372,6,0,B|458:37|436:75|454:86|429:128|374:112,1,153.000002918243,10|0,0:0|0:0,0:0:0:0:
328,62,19872,1,2,0:0:0:0:
167,61,20038,5,2,1:2:0:0:
204,141,20205,1,2,0:0:0:0:
173,45,20372,1,2,1:2:0:0:
198,154,20538,1,2,0:0:0:0:
243,8,20705,5,10,0:0:0:0:
132,194,20872,1,2,0:0:0:0:
257,2,21038,1,2,0:0:0:0:
113,205,21205,1,2,0:0:0:0:
354,76,21372,6,0,L|406:87,3,38.2500007295609,2|0|0|0,1:2|3:0|3:0|3:0,0:0:0:0:
271,223,21705,2,0,L|219:234,3,38.2500007295609,2|0|0|0,1:2|3:0|3:0|3:0,0:0:0:0:
457,35,22038,5,10,0:0:0:0:
492,70,22122,1,0,3:0:0:0:
496,117,22205,1,0,3:0:0:0:
465,153,22288,1,0,3:0:0:0:
434,161,22372,5,10,0:0:0:0:
399,196,22455,1,0,3:0:0:0:
395,243,22538,1,0,3:0:0:0:
426,279,22622,1,0,3:0:0:0:
452,297,22705,6,0,B|468:327|455:359|455:359|432:299|383:270|330:278|330:278|365:291|373:333,1,276.75000422287,6|0,1:2|3:0,0:0:0:0:
297,346,23038,1,10,0:0:0:0:
138,230,23205,1,2,3:2:0:0:
323,96,23372,2,0,P|322:135|296:168,1,78.7500007510185,2|0,1:2|0:0,0:0:0:0:
160,107,23538,2,0,P|160:67|186:34,1,78.7500007510185,2|0,3:2|3:0,0:0:0:0:
477,36,23705,6,0,B|471:30|471:30|463:33|463:33|457:26|457:26|450:32|450:32|442:27|442:27|437:33|437:33|428:30|428:30|425:39|425:39|415:38|415:38|414:47|414:47|406:48|406:48|406:57|406:57|397:59|397:59|397:68|397:68|388:71|388:71|388:80|388:80|379:81|379:81|377:89|377:89|368:88|368:88|364:97|364:97|356:93|356:93|349:99|349:99|343:94|343:94|335:99|335:99|329:92|329:92|321:93|322:95,1,234.568568968604,10|0,0:0|3:0,0:0:0:0:
512,105,24038,6,0,L|269:24,1,236.250002253056,2|0,1:2|3:0,0:0:0:0:
279,0,24372,1,10,0:0:0:0:
413,185,24538,1,2,3:2:0:0:
109,300,24705,6,0,B|99:257|99:257|129:218,1,78.7500007510185,2|0,1:2|0:0,0:0:0:0:
333,271,24872,2,0,B|343:314|343:314|313:353,1,78.7500007510185,2|0,3:2|3:2,0:0:0:0:
193,384,25038,6,0,B|194:377|194:377|193:375|193:375|194:374|194:374|196:369|196:369|198:369|198:369|196:367|196:367|198:362|198:362|196:360|196:360|198:359|198:359|200:354|200:354|202:354|202:354|200:352|200:352|202:347|202:347|200:345|200:345|202:344|202:344|204:339|204:339|206:339|206:339|204:337|204:337|206:332|206:332|204:330|204:330|206:329|206:329|207:325|207:325|210:324|210:324|208:322|208:322|209:317|209:317|208:315|208:315|210:314|210:314|211:310|211:310|214:309|214:309|212:307|212:307|213:302|213:302|212:300|212:300|214:299|214:299|215:295|215:295|218:294|218:294|216:292|216:292|217:287|217:287|216:285|216:285|218:284|218:284|219:280|219:280|222:279|222:279|220:277|220:277|221:272|221:272|220:270|220:270|222:269|222:269|222:265|222:265|225:264|225:264|223:262|223:262|224:257|224:257|223:255|223:255|225:254|225:254|226:250|226:250|228:249|228:249|227:247|227:247|228:242|228:242|227:240|227:240|229:239|229:239|230:235|230:235|232:234|232:234|231:232|231:232|232:227|232:227|230:225|230:225|233:224|233:224|234:220|234:220|236:219|236:219|235:217|235:217|236:212|236:212|234:210|234:210|237:209|237:209|238:205|238:205|240:204|240:204|239:202|239:202|240:197|240:197|238:195|238:195|241:194|241:194|242:190|242:190|244:189|244:189|243:187|243:187|244:182|244:182|242:180|242:180|245:179|245:179|246:175|246:175|248:174|248:174|247:172|247:172|248:167|248:167|246:165|246:165|249:164|249:164|250:160|250:160|251:159|251:159|250:157|250:157|251:152|251:152|250:150|250:150|251:149|251:149|252:147,1,303.750011587143,10|0,0:0|3:2,0:0:0:0:
377,61,25372,6,0,B|415:54|422:13|422:13|438:72|386:131|320:118,1,236.250002253056,2|0,1:2|3:0,0:0:0:0:
269,77,25705,1,10,0:0:0:0:
413,185,25872,1,2,3:2:0:0:
132,305,26038,6,0,P|125:264|119:226,1,78.7500007510185,2|0,1:2|0:0,0:0:0:0:
212,215,26205,2,0,P|217:253|225:294,1,78.7500007510185,2|0,3:2|3:2,0:0:0:0:
33,299,26372,5,10,0:0:0:0:
314,230,26538,1,2,3:2:0:0:
69,82,26705,6,0,B|57:50|19:41|19:41|74:28|102:81|80:68|111:137|190:106,1,236.250002253056,2|0,1:2|3:0,0:0:0:0:
255,0,27038,6,0,P|225:21|220:68,1,78.7500007510185,10|0,0:0|0:0,0:0:0:0:
297,103,27205,2,0,P|327:82|332:35,1,78.7500007510185,2|0,3:2|3:0,0:0:0:0:
472,211,27372,6,0,P|503:233|509:271,1,78.7500007510185,2|0,1:2|0:0,0:0:0:0:
431,314,27538,2,0,P|399:291|393:253,1,78.7500007510185,2|0,3:2|3:0,0:0:0:0:
108,225,27705,5,8,0:0:0:0:
143,251,27788,1,8,0:0:0:0:
145,299,27872,1,8,0:0:0:0:
113,336,27955,1,8,0:0:0:0:
100,331,28038,6,0,L|329:221,1,236.250002253056,2|0,1:2|3:0,0:0:0:0:
328,239,28372,1,10,0:0:0:0:
495,372,28538,1,2,3:2:0:0:
413,81,28705,6,0,P|406:121|393:176,1,78.7500007510185,2|0,1:2|0:0,0:0:0:0:
472,211,28872,2,0,P|479:171|492:116,1,78.7500007510185,2|0,3:2|3:0,0:0:0:0:
144,28,29038,6,0,B|150:22|150:22|158:25|158:25|164:18|164:18|171:24|171:24|179:19|179:19|184:25|184:25|193:22|193:22|196:31|196:31|206:30|206:30|207:39|207:39|215:40|215:40|215:49|215:49|224:51|224:51|224:60|224:60|233:63|233:63|233:72|233:72|242:73|242:73|244:81|244:81|253:80|253:80|257:89|257:89|265:85|265:85|272:91|272:91|278:86|278:86|286:91|286:91|292:84|292:84|300:85|299:87,1,234.568568968604,10|0,0:0|3:0,0:0:0:0:
333,0,29372,6,0,L|95:123,1,236.250002253056,2|0,1:2|3:0,0:0:0:0:
99,107,29705,1,10,0:0:0:0:
270,184,29872,1,2,3:2:0:0:
38,328,30038,6,0,P|9:295|16:250,1,78.7500007510185,2|0,1:2|0:0,0:0:0:0:
151,210,30205,2,0,P|180:243|173:288,1,78.7500007510185,2|0,3:2|3:2,0:0:0:0:
148,384,30372,6,0,B|147:380|147:377|147:377|145:376|145:376|147:374|147:374|147:371|147:369|147:369|149:368|149:368|148:366|148:366|148:363|148:361|148:361|146:359|146:359|149:358|149:358|149:355|150:353|150:353|152:352|152:352|150:350|150:350|151:347|152:346|152:346|150:344|150:344|153:343|153:343|154:340|155:338|155:338|157:338|157:338|156:336|156:336|157:332|158:331|158:331|157:329|157:329|160:329|160:329|161:326|162:324|162:324|165:324|165:324|164:322|164:322|166:319|167:318|167:318|166:316|166:316|169:316|169:316|171:313|172:312|172:312|175:312|175:312|175:310|175:310|177:308|178:307|178:307|178:304|178:304|181:305|181:305|183:303|185:302|185:302|187:303|187:303|187:300|187:300|190:298|191:298|191:298|192:295|192:295|194:296|194:296|197:295|199:294|199:294|202:295|202:295|202:293|202:293|205:291|207:291|207:291|208:289|208:289|210:290|210:290|213:289|215:289|215:289|216:291|216:291|217:288|217:288|221:288|222:288|222:288|224:285|224:285|225:287|225:287|229:287|230:287|230:287|232:289|232:289|233:287|233:287|237:287|238:287|238:287|240:285|240:285|241:287|241:287|245:288|246:288|246:288|247:290|247:290|249:288|249:288|253:289|254:289|254:289|256:288|256:288|257:290|257:290|260:291|262:292|262:292|262:294|262:294|264:293|264:293|268:294|269:295|269:295|271:293|271:293|272:296|272:296|275:298|276:298|276:298|276:301|276:301|279:300|279:300|281:301|280:301,1,250.489294165026,10|0,0:0|3:2,0:0:0:0:
418,319,30705,6,0,B|431:313|431:313|421:275|445:217|445:217|399:257|354:258|354:258|356:279,1,236.250002253056,2|0,1:2|3:0,0:0:0:0:
346,355,31038,1,10,0:0:0:0:
510,280,31205,1,2,3:2:0:0:
301,141,31372,6,0,P|296:93|287:44,1,78.7500007510185,2|0,1:2|0:0,0:0:0:0:
426,0,31538,2,0,P|419:38|413:89,1,83.2499996824265,2|0,3:2|3:0,0:0:0:0:
215,245,31705,6,0,P|220:197|226:155,1,78.7500007510185,10|0,0:0|0:0,0:0:0:0:
89,103,31872,2,0,P|95:141|102:186,1,83.2499996824265,2|0,3:2|3:0,0:0:0:0:
351,253,32038,5,2,1:2:0:0:
336,245,32122,2,0,B|285:233|266:288|285:273|270:333|203:322,1,148.500001416206,0|0,0:0|3:0,0:0:0:0:
209,174,32372,5,2,1:2:0:0:
224,166,32456,2,0,B|275:154|294:209|275:194|290:254|356:243,1,148.500001416206
392,120,32705,5,2,1:2:0:0:
400,108,32788,2,0,L|191:180,1,202.500007724762,0|0,3:0|3:0,0:0:0:0:
111,66,33038,5,2,1:2:0:0:
103,54,33121,2,0,L|312:126,1,202.500007724762
19,119,33372,6,0,L|102:144,1,74.2500022659302,2|0,1:2|0:0,0:0:0:0:
160,196,33705,5,14,3:2:0:0:
56,293,33872,1,2,3:2:0:0:
44,282,34038,1,2,3:2:0:0:
265,250,34205,6,0,P|252:224|255:197,1,56.25,2|0,1:2|3:2,0:0:0:0:
341,265,34372,6,0,B|335:259|335:259|327:262|327:262|321:255|321:255|314:261|314:261|306:256|306:256|301:262|301:262|292:259|292:259|289:268|289:268|279:267|279:267|278:276|278:276|270:277|270:277|270:286|270:286|261:288|261:288|261:297|261:297|252:300|252:300|252:309|252:309|243:310|243:310|241:318|241:318|232:317|232:317|228:326|228:326|220:322|220:322|213:328|213:328|207:323|207:323|199:328|199:328|193:321|193:321|185:322|186:324,1,234.568568968604,10|0,3:2|3:2,0:0:0:0:
482,384,34705,6,0,P|498:355|494:328,1,56.25,2|0,1:2|3:0,0:0:0:0:
420,320,34872,2,0,P|404:349|408:376,1,56.25,0|0,3:0|3:0,0:0:0:0:
471,247,35038,5,10,3:2:0:0:
341,169,35205,1,2,3:2:0:0:
331,177,35372,1,2,3:2:0:0:
400,51,35538,6,0,P|398:23|413:0,1,56.25,2|0,1:2|3:2,0:0:0:0:
481,50,35705,6,0,B|481:49|481:49|480:50|480:50|478:49|478:49|473:50|473:50|471:49|471:49|470:50|470:50|466:51|466:51|465:54|465:54|463:52|463:52|458:53|458:53|456:52|456:52|455:54|455:54|451:55|451:55|450:58|450:58|448:56|448:56|443:57|443:57|441:56|441:56|440:58|440:58|436:59|436:59|435:62|435:62|433:60|433:60|428:61|428:61|426:60|426:60|425:62|425:62|421:63|421:63|420:66|420:66|418:64|418:64|413:65|413:65|411:64|411:64|410:66|410:66|406:67|406:67|405:70|405:70|403:68|403:68|398:69|398:69|396:68|396:68|395:70|395:70|391:71|391:71|390:73|390:73|388:72|388:72|383:73|383:73|381:72|381:72|380:74|380:74|376:75|376:75|375:77|375:77|373:76|373:76|368:77|368:77|366:75|366:75|365:78|365:78|361:78|361:78|360:80|360:80|358:79|358:79|353:80|353:80|351:78|351:78|350:81|350:81|346:82|346:82|345:84|345:84|343:83|343:83|338:84|338:84|336:82|336:82|335:85|335:85|331:86|331:86|330:88|330:88|328:87|328:87|323:88|323:88|321:86|321:86|320:89|320:89|316:90|316:90|315:92|315:92|313:91|313:91|308:92|308:92|306:90|306:90|305:93|305:93|301:94|301:94|300:96|300:96|298:94|298:94|293:96|293:96|291:94|291:94|291:96|291:96|286:98|286:98|285:100|285:100|283:98|283:98|278:100|278:100|276:98|276:98|276:100|276:100|271:102|271:102|270:104|270:104|268:102|268:102|263:104|263:104|261:102|261:102|261:104|261:104|256:106|256:106|255:107|255:107|253:106|253:106|246:107,1,303.750011587143,10|0,3:2|3:2,0:0:0:0:
93,56,36038,6,0,B|77:86|90:118|90:118|113:58|162:29|212:35|212:35|178:47|172:92,1,276.75000422287,2|0,1:2|3:0,0:0:0:0:
247,107,36372,5,10,3:2:0:0:
129,232,36538,1,2,3:2:0:0:
111,229,36705,1,2,3:2:0:0:
272,359,36872,6,0,P|298:325|287:281,1,78.7500007510185,2|0,1:2|3:2,0:0:0:0:
173,366,37038,1,10,3:2:0:0:
386,315,37205,1,2,3:2:0:0:
264,181,37372,6,0,B|249:215|214:220|214:220|267:240|302:180|279:195|305:135|374:160,1,236.250002253056,2|0,1:2|3:0,0:0:0:0:
371,175,37705,1,10,3:2:0:0:
220,84,37872,1,2,3:2:0:0:
47,209,38038,6,0,L|58:284,1,56.25,2|0,3:2|3:0,0:0:0:0:
132,260,38205,2,0,L|121:185,1,56.25,2|0,1:2|3:0,0:0:0:0:
47,50,38372,6,0,P|46:30|58:14,1,28.125,8|0,0:0|0:0,0:0:0:0:
36,60,38455,2,0,P|25:43|27:23,1,28.125,8|0,0:0|0:0,0:0:0:0:
34,76,38538,2,0,P|16:66|8:48,1,28.125,8|0,0:0|0:0,0:0:0:0:
27,88,38622,2,0,P|6:89|-8:77,1,28.125,8|0,0:0|0:0,0:0:0:0:
35,100,38705,6,0,P|73:130|120:123,1,94.499997116089,10|0,1:2|1:0,0:0:0:0:
256,10,39038,2,0,P|210:5|174:35,1,94.499997116089,10|0,1:2|1:0,0:0:0:0:
320,226,39372,1,10,1:2:0:0:
404,89,39538,1,0,1:0:0:0:
212,185,39705,1,10,1:2:0:0:
399,326,39872,5,8,1:2:0:0:
408,315,39955,2,0,L|439:325,1,23.6249992790222,8|0,1:2|0:0,0:0:0:0:
415,295,40038,2,0,L|301:318,1,103.500001974106,10|0,1:2|1:0,0:0:0:0:
83,356,40372,2,0,L|184:376,1,103.500001974106,10|0,1:2|1:0,0:0:0:0:
216,108,40705,5,10,1:2:0:0:
87,245,40872,1,0,1:0:0:0:
290,178,41038,1,10,1:2:0:0:
77,50,41205,1,8,1:2:0:0:
67,42,41288,1,8,1:2:0:0:
52,31,41372,6,0,L|66:90,1,51.7500009870529,10|0,1:2|3:0,0:0:0:0:
131,109,41538,2,0,L|117:168,1,51.7500009870529,10|0,0:0|3:0,0:0:0:0:
208,328,41705,6,0,L|222:269,1,56.25,10|0,0:0|3:0,0:0:0:0:
302,232,41871,2,0,L|288:173,1,56.25,10|0,0:0|3:0,0:0:0:0:
345,0,42038,6,0,L|359:59,1,60.7500002317429,10|0,0:0|3:0,0:0:0:0:
455,95,42204,2,0,L|441:154,1,60.7500002317429,10|0,0:0|3:0,0:0:0:0:
398,384,42372,6,0,L|412:325,1,60.7500002317429,10|0,0:0|3:0,0:0:0:0:
512,290,42538,2,0,L|498:231,1,60.7500002317429,10|0,0:0|3:0,0:0:0:0:
289,177,42705,6,0,L|150:215,1,139.500001064301,2|0,1:2|3:0,0:0:0:0:
92,149,42955,1,0,3:0:0:0:
79,137,43038,2,0,L|213:173,1,139.500001064301,2|0,1:2|3:0,0:0:0:0:
360,128,43288,1,0,3:0:0:0:
368,141,43372,6,0,P|393:99|384:65,1,69.7500005321503,10|0,0:0|3:0,0:0:0:0:
241,35,43538,2,0,P|216:77|225:111,1,69.7500005321503,8|0,0:0|3:0,0:0:0:0:
408,228,43705,6,0,P|433:238|413:219,1,74.2500022659302,2|0,1:2|3:0,0:0:0:0:
463,307,44038,6,0,P|490:287|496:266,1,47.2499985580445,2|0,1:2|0:0,0:0:0:0:
500,183,44372,5,14,0:0:0:0:
470,97,44538,1,2,0:0:0:0:
299,88,44705,5,2,1:2:0:0:
329,2,44871,1,2,0:0:0:0:
206,71,45038,6,0,L|222:172,1,85.4999977169037,10|0,0:0|0:0,0:0:0:0:
408,148,45372,5,2,1:2:0:0:
330,225,45538,1,2,0:0:0:0:
174,280,45705,5,10,0:0:0:0:
284,346,45871,1,2,0:0:0:0:
75,248,46038,5,2,1:2:0:0:
185,182,46204,1,2,0:0:0:0:
57,118,46372,6,0,P|20:95|51:128,1,128.249996575356,10|0,0:0|0:0,0:0:0:0:
66,134,46705,5,2,1:2:0:0:
155,58,46872,1,2,0:0:0:0:
246,123,47038,5,10,0:0:0:0:
334,198,47205,1,2,0:0:0:0:
435,24,47372,5,2,1:2:0:0:
338,101,47539,1,2,0:0:0:0:
460,150,47705,6,0,L|449:198,1,42.7499988584519,10|0,0:0|0:0,0:0:0:0:
459,203,47872,2,0,L|470:155,1,42.7499988584519
363,340,48038,6,0,B|384:278|384:278|288:311|288:311|270:346|270:346|151:384,1,317.249995159149,2|0,1:2|0:0,0:0:0:0:
61,326,48372,2,0,B|44:380|44:380|215:326,1,211.499996772766,10|0,0:0|0:0,0:0:0:0:
305,132,48705,6,0,B|317:177|317:177|269:225,1,87.7500003347397,2|0,1:2|0:0,0:0:0:0:
195,180,48872,2,0,B|182:134|182:134|230:86,1,87.7500003347397,0|0,0:0|1:0,0:0:0:0:
262,0,49038,5,0,1:2:0:0:
276,9,49122,1,0,3:0:0:0:
288,16,49205,2,0,L|277:70,1,33.7500012874604,0|0,1:2|3:0,0:0:0:0:
421,201,49372,5,2,1:2:0:0:
450,119,49538,1,2,0:0:0:0:
303,208,49705,5,10,0:0:0:0:
332,290,49871,1,2,0:0:0:0:
447,364,50038,5,2,1:2:0:0:
476,282,50204,1,2,0:0:0:0:
336,382,50372,6,0,L|271:362,1,67.5000025749208,10|0,0:0|0:0,0:0:0:0:
110,328,50705,5,2,1:2:0:0:
191,273,50872,1,2,0:0:0:0:
91,208,51038,5,10,0:0:0:0:
10,153,51205,1,2,0:0:0:0:
125,52,51372,6,0,L|113:97,1,33.7500012874604,2|0,1:2|0:0,0:0:0:0:
188,108,51538,2,0,L|200:63,1,33.7500012874604,2|0,1:2|0:0,0:0:0:0:
302,41,51705,5,0,1:2:0:0:
318,26,51788,1,0,1:2:0:0:
308,7,51872,1,0,1:2:0:0:
283,7,51955,1,0,1:2:0:0:
272,27,52038,6,0,L|380:50,1,101.250003862381,2|0,1:2|0:0,0:0:0:0:
474,202,52372,6,0,L|493:128,1,56.25,10|0,0:0|3:0,0:0:0:0:
416,121,52538,2,0,L|397:195,1,56.25,2|0,1:2|3:0,0:0:0:0:
483,217,52705,6,0,L|509:113,1,101.250003862381,2|0,1:2|3:0,0:0:0:0:
270,280,53038,6,0,L|284:335,1,56.25,10|0,0:0|3:0,0:0:0:0:
355,308,53204,2,0,L|342:254,1,56.25,2|0,1:2|3:0,0:0:0:0:
239,163,53372,5,2,1:2:0:0:
199,144,53455,1,2,3:2:0:0:
158,166,53538,1,2,1:2:0:0:
50,242,53705,6,0,P|68:198|52:158,1,85.4999977169037,10|0,0:0|1:0,0:0:0:0:
0,71,53955,1,0,3:0:0:0:
9,89,54038,5,2,1:2:0:0:
65,92,54121,1,0,1:0:0:0:
110,64,54205,1,2,1:2:0:0:
113,15,54288,1,0,1:0:0:0:
100,0,54372,6,0,L|195:23,1,87.749995983124,2|0,1:2|0:0,0:0:0:0:
209,49,54705,5,6,1:2:0:0:
296,6,54872,1,2,0:0:0:0:
377,132,55038,5,10,0:0:0:0:
290,89,55205,1,2,0:0:0:0:
361,217,55372,5,2,1:2:0:0:
448,174,55539,1,2,0:0:0:0:
276,184,55705,6,0,P|263:217|273:258,1,67.5000025749208,10|0,0:0|0:0,0:0:0:0:
388,336,56038,5,2,1:2:0:0:
305,380,56205,1,2,0:0:0:0:
240,321,56372,5,10,0:0:0:0:
157,277,56539,1,2,0:0:0:0:
132,384,56705,5,2,1:2:0:0:
215,340,56872,1,2,0:0:0:0:
48,278,57038,6,0,P|27:307|54:284,1,101.250003862381,10|0,0:0|0:0,0:0:0:0:
60,272,57372,5,2,1:2:0:0:
29,178,57538,1,2,0:0:0:0:
147,111,57705,5,10,0:0:0:0:
116,205,57871,1,2,0:0:0:0:
29,10,58038,5,2,1:2:0:0:
60,104,58204,1,2,0:0:0:0:
167,33,58372,6,0,L|174:-6,1,33.7500012874604,10|0,0:0|0:0,0:0:0:0:
187,6,58538,2,0,L|180:45,1,33.7500012874604
280,296,58705,6,0,B|338:289|338:289|411:103|411:103|479:84,1,317.249995159149,2|0,1:2|0:0,0:0:0:0:
458,231,59038,2,0,B|418:244|418:244|315:145|315:145|288:150,1,211.499996772766,10|0,0:0|0:0,0:0:0:0:
78,324,59372,6,0,B|46:294|46:294|57:243,1,87.7500003347397,2|0,1:2|0:0,0:0:0:0:
158,224,59538,2,0,B|190:254|190:254|179:305,1,87.7500003347397,0|0,0:0|1:2,0:0:0:0:
51,145,59705,5,0,1:2:0:0:
59,136,59788,1,0,3:0:0:0:
69,126,59872,2,0,L|87:185,1,33.7500012874604,0|0,1:2|3:0,0:0:0:0:
196,63,60038,5,2,1:2:0:0:
108,24,60205,1,2,0:0:0:0:
204,152,60372,5,10,0:0:0:0:
292,113,60539,1,2,0:0:0:0:
375,10,60705,5,2,1:2:0:0:
475,83,60872,1,2,0:0:0:0:
386,203,61038,6,0,L|377:120,1,67.5000025749208,10|0,0:0|0:0,0:0:0:0:
434,334,61372,5,2,1:2:0:0:
482,236,61538,1,2,0:0:0:0:
301,286,61705,5,10,0:0:0:0:
349,384,61871,1,2,0:0:0:0:
176,358,62038,5,2,1:2:0:0:
160,339,62122,1,0,0:0:0:0:
166,319,62205,1,0,0:0:0:0:
187,310,62288,1,0,0:0:0:0:
206,316,62372,6,0,L|197:259,1,33.7500012874604,10|0,0:0|0:0,0:0:0:0:
176,177,62538,2,0,L|185:234,1,33.7500012874604,2|0,1:2|0:0,0:0:0:0:
261,118,62705,6,0,P|280:68|248:18,1,101.250003862381,2|0,1:2|0:0,0:0:0:0:
68,29,63038,6,0,P|51:53|57:101,1,56.25,10|0,0:0|3:0,0:0:0:0:
135,106,63205,2,0,P|151:81|145:33,1,56.25,2|0,1:2|3:0,0:0:0:0:
47,27,63372,6,0,P|31:79|48:125,1,101.250003862381,2|0,1:2|3:0,0:0:0:0:
103,259,63705,6,0,P|100:231|83:208,1,56.25,10|0,0:0|3:0,0:0:0:0:
0,234,63872,2,0,P|2:261|19:284,1,56.25,2|0,1:2|3:0,0:0:0:0:
151,382,64038,6,0,L|291:333,1,130.500003982544,10|0,1:2|1:2,0:0:0:0:
388,305,64288,1,0,0:0:0:0:
380,290,64372,2,0,L|240:241,1,130.500003982544,10|0,1:2|1:2,0:0:0:0:
190,224,64622,1,0,0:0:0:0:
175,211,64705,5,10,1:2:0:0:
177,157,64788,1,0,1:2:0:0:
221,124,64872,1,0,1:2:0:0:
272,136,64955,1,0,1:2:0:0:
309,164,65038,5,10,1:2:0:0:
337,171,65122,1,0,1:2:0:0:
367,157,65205,1,0,1:2:0:0:
387,133,65288,1,0,1:2:0:0:
387,101,65372,6,0,L|229:147,1,135,10|0,1:2|0:0,0:0:0:0:
261,119,65705,6,0,L|370:89,1,108,2|0,1:2|0:0,0:0:0:0:
343,81,66038,6,0,L|261:105,1,80.9999975280763,2|0,1:2|0:0,0:0:0:0:
272,86,66372,6,0,L|329:73,1,54,2|0,1:2|0:0,0:0:0:0:
310,62,66705,6,0,L|270:71,1,40.4999987640381,2|0,1:2|0:0,0:0:0:0:
271,53,67038,6,0,L|304:48,1,27,2|0,1:2|0:0,0:0:0:0:
294,38,67372,6,0,L|272:42,1,20.2499993820191,2|0,1:2|0:0,0:0:0:0:
275,32,67705,6,0,L|290:27,1,13.5,2|0,1:2|0:0,0:0:0:0:
512,0,68038,5,6,1:2:0:0:
81,16,78705,6,0,P|95:61|102:133,1,101.250003862381,6|0,1:2|0:0,0:0:0:0:
86,139,79038,1,2,0:0:0:0:
28,189,79205,1,2,0:0:0:0:
121,272,79372,6,0,B|163:258|187:291|179:300|201:338|246:320,1,135.000005149842,10|2,1:2|0:0,0:0:0:0:
441,82,80038,6,0,P|398:88|366:155,1,101.250003862381,2|0,1:2|0:0,0:0:0:0:
363,155,80372,2,0,L|430:176,1,67.5000025749208,2|0,0:0|0:0,0:0:0:0:
377,346,80705,6,0,P|420:340|452:273,1,101.250003862381,10|0,1:2|0:0,0:0:0:0:
455,273,81039,2,0,L|388:252,1,67.5000025749208,2|0,0:0|0:0,0:0:0:0:
242,149,81372,6,0,L|122:177,1,101.250003862381,0|0,1:2|0:0,0:0:0:0:
128,198,81705,1,2,0:0:0:0:
94,271,81872,1,2,0:0:0:0:
19,79,82038,6,0,B|-9:112|-9:112|21:225,1,135.000005149842,10|2,1:2|0:0,0:0:0:0:
175,107,82705,6,0,L|298:78,1,101.250003862381,2|0,1:2|0:0,0:0:0:0:
288,69,83038,1,2,0:0:0:0:
353,114,83205,1,8,0:0:0:0:
480,0,83372,6,0,L|357:29,1,101.250003862381,10|0,1:2|0:0,0:0:0:0:
371,35,83705,2,0,L|445:18,1,67.5000025749208,10|0,0:0|0:0,0:0:0:0:
476,144,84038,6,0,P|504:181|479:241,1,101.250003862381,2|0,1:2|0:0,0:0:0:0:
481,232,84372,1,2,0:0:0:0:
415,283,84538,1,2,0:0:0:0:
431,382,84705,2,0,P|407:321|332:314,1,135.000005149842,10|2,1:2|0:0,0:0:0:0:
285,357,85205,1,2,0:0:0:0:
197,319,85372,6,0,P|162:277|170:217,1,101.250003862381,2|0,1:2|0:0,0:0:0:0:
176,218,85705,2,0,P|199:182|192:153,1,67.5000025749208,2|0,0:0|0:0,0:0:0:0:
84,27,86038,6,0,P|119:69|111:129,1,101.250003862381,10|0,1:2|0:0,0:0:0:0:
105,128,86371,2,0,P|82:164|89:193,1,67.5000025749208,2|0,0:0|0:0,0:0:0:0:
219,57,86705,6,0,P|277:65|334:74,1,101.250003862381,0|0,1:2|0:0,0:0:0:0:
331,84,87038,1,2,3:2:0:0:
369,155,87205,1,2,3:2:0:0:
492,132,87372,6,0,P|477:197|463:272,1,135.000005149842,8|2,1:2|3:2,0:0:0:0:
491,336,87872,1,2,3:2:0:0:
324,351,88038,6,0,P|287:368|250:358,1,67.5000025749208,2|0,1:2|3:0,0:0:0:0:
200,313,88288,1,0,3:0:0:0:
207,302,88372,2,0,P|170:285|133:295,1,67.5000025749208,2|0,1:2|3:0,0:0:0:0:
86,336,88622,1,0,3:0:0:0:
71,348,88705,5,10,1:2:0:0:
38,335,88788,1,0,3:0:0:0:
30,304,88872,1,2,3:2:0:0:
42,270,88955,1,0,3:0:0:0:
77,253,89038,5,10,1:2:0:0:
111,216,89122,1,0,3:0:0:0:
117,174,89205,1,2,3:2:0:0:
87,139,89288,1,0,3:0:0:0:
66,142,89372,6,0,L|171:121,1,76.5000014591217,6|0,1:2|3:0,0:0:0:0:
168,61,89622,2,0,L|273:82,1,76.5000014591217,2|0,0:0|0:0,0:0:0:0:
284,138,89872,1,2,3:2:0:0:
194,248,90038,6,0,L|299:269,1,76.5000014591217,2|0,1:2|3:0,0:0:0:0:
296,329,90288,2,0,L|401:308,1,76.5000014591217,2|0,0:0|0:0,0:0:0:0:
412,252,90538,1,2,3:2:0:0:
495,186,90705,6,0,P|513:142|497:114,1,76.5000014591217,2|0,1:2|3:0,0:0:0:0:
416,101,90955,2,0,P|398:57|414:29,1,76.5000014591217,2|0,0:0|0:0,0:0:0:0:
477,0,91205,1,2,3:2:0:0:
358,164,91372,5,2,1:2:0:0:
325,178,91538,1,2,3:2:0:0:
265,92,91705,5,2,1:2:0:0:
232,78,91871,1,2,3:2:0:0:
149,152,92038,6,0,P|106:168|71:143,1,76.5000014591217,2|0,1:2|3:0,0:0:0:0:
0,123,92288,2,0,P|34:110|68:126,1,76.5000014591217,2|0,0:0|0:0,0:0:0:0:
45,224,92538,1,2,3:2:0:0:
170,312,92705,6,0,P|213:328|248:303,1,76.5000014591217,2|0,1:2|3:0,0:0:0:0:
319,283,92955,2,0,P|284:270|250:286,1,76.5000014591217,2|0,0:0|0:0,0:0:0:0:
274,384,93205,1,2,3:2:0:0:
407,308,93372,6,0,L|419:228,1,76.5000014591217,2|0,1:2|3:0,0:0:0:0:
430,147,93622,2,0,L|441:222,1,76.5000014591217,2|0,0:0|0:0,0:0:0:0:
510,261,93872,1,2,3:2:0:0:
337,178,94038,5,2,1:2:0:0:
310,155,94205,1,2,3:2:0:0:
215,87,94372,5,2,1:2:0:0:
242,64,94539,1,2,3:2:0:0:
126,263,94705,6,0,L|108:149,1,94.499997116089,2|0,1:2|3:0,0:0:0:0:
91,147,94955,1,2,0:0:0:0:
91,147,95038,1,0,1:2:0:0:
26,236,95205,1,2,3:2:0:0:
212,354,95372,6,0,L|230:240,1,94.499997116089,2|0,1:2|3:2,0:0:0:0:
247,238,95622,1,2,3:2:0:0:
247,238,95705,1,0,1:2:0:0:
312,327,95872,1,2,3:2:0:0:
316,108,96038,6,0,L|334:222,1,94.499997116089,2|0,1:2|3:2,0:0:0:0:
351,224,96288,1,2,0:0:0:0:
351,224,96371,1,0,1:2:0:0:
241,153,96538,1,2,3:2:0:0:
402,80,96705,5,2,1:2:0:0:
273,22,96872,1,2,3:2:0:0:
273,22,96955,1,0,3:2:0:0:
273,22,97038,1,2,1:2:0:0:
432,157,97205,1,2,3:2:0:0:
273,251,97372,6,0,P|224:272|183:251,1,94.499997116089,2|0,1:2|3:0,0:0:0:0:
179,236,97622,1,2,0:0:0:0:
179,236,97705,1,0,1:2:0:0:
336,192,97872,1,2,3:2:0:0:
135,154,98038,6,0,P|184:133|225:154,1,94.499997116089,0|0,1:2|3:0,0:0:0:0:
229,169,98288,1,2,0:0:0:0:
229,169,98371,1,0,1:2:0:0:
72,213,98538,1,2,3:2:0:0:
186,370,98705,5,2,1:2:0:0:
412,264,99038,1,2,0:0:0:0:
224,82,99288,5,0,1:0:0:0:
232,69,99372,2,0,P|260:146|272:238,1,141.749995674133,2|0,1:2|0:0,0:0:0:0:
251,248,99705,1,10,1:2:0:0:
382,131,99872,1,2,1:2:0:0:
256,352,100038,6,0,P|185:350|160:303,1,112.5,6|2,1:2|3:2,0:0:0:0:
107,270,100288,1,0,3:2:0:0:
115,258,100372,2,0,P|130:223|120:188,1,65.250001991272,10|0,1:2|0:0,0:0:0:0:
8,74,100538,1,2,3:2:0:0:
21,107,100622,1,2,0:0:0:0:
58,123,100705,6,0,B|100:133|124:101|110:91|141:54|194:81,1,139.500001064301,2|2,1:2|3:2,0:0:0:0:
241,120,100955,1,0,3:2:0:0:
256,129,101038,2,0,P|276:95|272:55,1,69.7500005321503,10|0,1:2|0:0,0:0:0:0:
242,263,101205,1,2,3:2:0:0:
216,239,101288,1,2,0:0:0:0:
221,208,101372,6,0,P|261:154|345:171,1,148.500001416206,2|2,1:2|3:2,0:0:0:0:
393,214,101622,1,0,3:2:0:0:
401,226,101705,2,0,P|395:249|383:303,1,74.2500007081032,10|0,1:2|0:0,0:0:0:0:
503,159,101872,1,2,3:2:0:0:
512,111,101955,1,2,0:0:0:0:
478,73,102038,6,0,L|388:95,1,74.2500007081032,2|0,1:2|3:2,0:0:0:0:
148,190,102205,2,0,L|238:212,1,74.2500007081032,2|0,3:2|0:0,0:0:0:0:
263,0,102372,6,0,L|277:67,1,56.25,10|0,1:2|0:0,0:0:0:0:
289,69,102538,2,0,L|275:0,1,56.25,2|0,3:2|0:0,0:0:0:0:
63,222,102705,6,0,P|113:168|75:106,1,130.500003982544,2|2,1:2|3:2,0:0:0:0:
27,93,102955,1,0,3:2:0:0:
15,83,103038,2,0,P|-1:46|9:18,1,65.250001991272,10|0,1:2|0:0,0:0:0:0:
233,205,103205,5,2,3:2:0:0:
283,213,103288,1,2,0:0:0:0:
319,178,103372,2,0,B|368:170|383:209|373:213|393:255|447:246,1,139.500001064301,2|2,1:2|3:2,0:0:0:0:
494,206,103622,1,0,3:2:0:0:
504,191,103705,2,0,L|486:122,1,69.7500005321503,10|0,1:2|0:0,0:0:0:0:
411,14,103872,2,0,L|393:83,1,69.7500005321503,2|0,1:2|0:0,0:0:0:0:
303,326,104038,5,10,1:2:0:0:
270,349,104122,1,2,0:0:0:0:
227,344,104205,1,2,0:0:0:0:
202,318,104288,1,2,0:0:0:0:
175,271,104372,5,10,1:2:0:0:
142,231,104455,1,2,0:0:0:0:
89,223,104538,1,2,0:0:0:0:
45,255,104622,1,2,0:0:0:0:
35,289,104705,5,10,1:2:0:0:
72,278,104788,1,2,0:0:0:0:
86,234,104872,1,2,0:0:0:0:
71,190,104955,1,2,0:0:0:0:
46,169,105038,5,10,1:2:0:0:
10,126,105122,1,2,0:0:0:0:
20,75,105205,1,2,1:2:0:0:
68,44,105288,1,2,0:0:0:0:
88,48,105372,5,10,1:2:0:0:
252,181,105538,1,2,1:2:0:0:
272,0,105705,1,10,1:2:0:0:
142,131,105872,2,0,L|161:210,1,69.7500005321503,2|2,1:2|0:0,0:0:0:0:
293,294,106038,5,10,1:2:0:0:
231,94,106205,1,2,1:2:0:0:
381,222,106372,1,10,1:2:0:0:
189,296,106538,5,2,1:2:0:0:
189,296,106622,1,2,0:0:0:0:
189,296,106705,1,10,1:2:0:0:
334,127,106872,1,2,1:2:0:0:
146,32,107038,1,10,1:2:0:0:
212,197,107205,2,0,L|294:209,1,69.7500005321503,2|2,1:2|0:0,0:0:0:0:
482,334,107372,5,10,1:2:0:0:
412,121,107538,1,2,1:2:0:0:
296,289,107705,1,10,1:2:0:0:
499,211,107872,1,2,1:2:0:0:
499,211,107955,1,2,1:2:0:0:
499,211,108038,6,0,L|513:132,1,65.250001991272,10|0,1:2|3:2,0:0:0:0:
403,220,108205,2,0,L|417:299,1,65.250001991272,2|0,1:2|3:2,0:0:0:0:
218,72,108372,2,0,L|204:-7,1,65.250001991272,10|0,1:2|3:2,0:0:0:0:
303,88,108538,1,2,1:2:0:0:
310,102,108622,1,2,3:2:0:0:
318,121,108705,6,0,L|392:96,1,65.250001991272,10|0,1:2|3:0,0:0:0:0:
253,246,108872,2,0,L|179:221,1,65.250001991272,2|0,1:2|3:0,0:0:0:0:
353,365,109038,6,0,L|427:340,1,65.250001991272,10|0,1:2|3:0,0:0:0:0:
152,122,109205,2,0,L|90:142,1,65.250001991272,2|0,1:2|3:0,0:0:0:0:
2,366,109372,6,0,P|53:373|87:329,1,103.500001974106,0|2,1:2|0:0,0:0:0:0:
57,262,109622,1,2,0:0:0:0:
46,246,109705,2,0,L|182:280,1,112.5,0|2,1:2|0:0,0:0:0:0:
206,332,109955,1,2,0:0:0:0:
286,302,110038,6,0,P|311:256|300:226,1,78.7500007510185,10|0,1:2|3:0,0:0:0:0:
173,204,110205,2,0,P|148:250|159:280,1,78.7500007510185,10|0,1:2|3:0,0:0:0:0:
282,130,110372,6,0,P|300:196|401:211,1,182.250000695229,10|0,1:2|0:0,0:0:0:0:
462,159,110705,6,0,P|471:118|450:88,3,76.5000014591217,6|2|2|2,1:2|0:0|0:0|0:0,0:0:0:0:
375,66,111372,1,2,0:0:0:0:
413,0,111538,1,2,0:0:0:0:
336,0,111705,2,0,L|248:23,1,76.5000014591217,2|0,0:0|0:0,0:0:0:0:
175,137,112038,6,0,P|217:119|220:79,3,76.5000014591217,2|2|2|2,0:0|0:0|0:0|0:0,0:0:0:0:
103,79,112705,2,0,P|133:138|144:215,1,114.750002188683,2|0,0:0|0:0,0:0:0:0:
169,320,113038,6,0,P|195:283|180:236,1,78.7500007510185,6|0,1:2|0:0,0:0:0:0:
78,225,113205,2,0,P|52:262|67:309,1,78.7500007510185,2|0,0:0|0:0,0:0:0:0:
255,191,113372,6,0,P|304:196|338:211,3,76.5000014591217,4|2|2|2,1:2|0:0|0:0|0:0,0:0:0:0:
365,277,114038,1,2,0:0:0:0:
426,231,114205,1,2,0:0:0:0:
497,280,114372,2,0,L|508:188,1,76.5000014591217,2|0,0:0|0:0,0:0:0:0:
366,37,114705,5,10,1:2:0:0:
494,116,114872,1,2,0:0:0:0:
336,164,115038,5,10,1:2:0:0:
319,178,115205,1,2,0:0:0:0:
402,236,115372,5,10,1:2:0:0:
243,132,115538,1,10,1:2:0:0:
135,319,115705,5,10,1:2:0:0:
182,345,115788,1,8,0:2:0:0:
233,321,115872,1,10,0:2:0:0:
246,269,115955,1,8,0:2:0:0:
215,226,116038,5,6,1:2:0:0:
313,348,116205,1,2,3:2:0:0:
111,226,116372,1,10,1:2:0:0:
305,80,116538,1,2,3:2:0:0:
423,247,116705,6,0,P|426:217|411:191,1,60.7500002317429,2|0,1:2|0:0,0:0:0:0:
322,219,116872,2,0,P|318:248|333:274,1,60.7500002317429,2|0,3:2|3:0,0:0:0:0:
512,277,117038,6,0,P|424:281|401:366,1,182.250000695229,10|0,1:2|3:0,0:0:0:0:
416,371,117372,5,2,1:2:0:0:
226,277,117538,1,2,3:2:0:0:
353,139,117705,1,10,1:2:0:0:
271,351,117872,1,2,3:2:0:0:
143,212,118038,2,0,L|166:77,1,121.500000463486,2|0,1:2|3:0,0:0:0:0:
86,274,118372,1,10,1:2:0:0:
225,44,118538,1,2,3:2:0:0:
226,277,118705,5,2,1:2:0:0:
26,180,118872,1,2,3:2:0:0:
143,384,119038,1,10,1:2:0:0:
233,169,119205,1,2,3:2:0:0:
0,323,119372,6,0,P|6:292|13:257,1,60.7500002317429,2|0,1:2|0:0,0:0:0:0:
86,274,119538,2,0,P|80:305|73:340,1,60.7500002317429,2|0,3:2|3:0,0:0:0:0:
146,215,119705,1,10,1:2:0:0:
286,362,119872,5,0,1:2:0:0:
286,362,119955,1,0,1:2:0:0:
286,362,120038,1,2,1:2:0:0:
415,246,120205,1,2,1:2:0:0:
244,109,120372,6,0,L|231:179,1,60.7500002317429,10|0,1:2|0:0,0:0:0:0:
302,218,120538,2,0,L|315:148,1,60.7500002317429,2|0,1:2|0:0,0:0:0:0:
146,215,120705,5,10,1:2:0:0:
390,133,120872,1,2,1:2:0:0:
390,133,120955,1,0,1:2:0:0:
390,133,121038,6,0,L|426:145,3,29.2499986610413,10|2|2|2,1:2|0:0|0:0|0:0,0:0:0:0:
486,97,121372,6,0,P|508:75|480:94,1,101.250003862381,2|0,1:2|0:0,0:0:0:0:
496,177,121705,5,14,1:2:0:0:
326,53,121872,1,2,3:2:0:0:
354,335,122038,2,0,L|374:209,1,121.500000463486,2|0,1:2|3:0,0:0:0:0:
201,41,122372,2,0,L|221:180,1,121.500000463486,10|0,1:2|3:0,0:0:0:0:
34,370,122705,6,0,P|109:355|93:264,1,182.250000695229,2|0,1:2|3:0,0:0:0:0:
73,273,123038,2,0,P|27:232|46:170,1,121.500000463486,8|0,1:2|3:0,0:0:0:0:
126,0,123372,6,0,P|199:11|196:115,1,182.250000695229,2|0,1:2|3:0,0:0:0:0:
189,114,123705,1,10,1:2:0:0:
323,0,123872,1,2,3:2:0:0:
156,215,124038,6,0,P|188:136|299:163,1,182.250000695229,2|0,1:2|3:0,0:0:0:0:
280,153,124372,1,10,1:2:0:0:
432,99,124538,2,0,P|475:46|451:-7,1,121.500000463486,2|0,3:2|1:2,0:0:0:0:
345,236,124872,2,0,L|365:373,1,121.500000463486,2|8,3:2|1:2,0:0:0:0:
470,202,125205,1,2,3:2:0:0:
313,57,125372,6,0,B|255:24|217:85|242:72|204:133|149:102,1,182.250000695229,0|0,1:2|3:0,0:0:0:0:
88,59,125705,2,0,L|214:89,1,121.500000463486,10|0,1:2|3:0,0:0:0:0:
11,117,126038,5,2,1:2:0:0:
197,0,126205,1,2,3:2:0:0:
131,226,126372,5,10,1:2:0:0:
293,330,126538,1,2,1:2:0:0:
399,66,126705,5,10,1:2:0:0:
246,188,126872,5,0,1:2:0:0:
246,188,126955,1,0,1:2:0:0:
246,188,127038,2,0,P|226:161|226:128,1,60.7500002317429,10|0,1:2|0:0,0:0:0:0:
319,108,127205,2,0,P|339:135|339:168,1,60.7500002317429,2|0,1:2|3:0,0:0:0:0:
331,261,127372,6,0,P|354:177|452:183,1,182.250000695229,10|0,1:2|3:0,0:0:0:0:
460,193,127705,1,10,1:2:0:0:
382,367,127872,1,0,1:2:0:0:
382,367,127955,1,0,1:2:0:0:
382,367,128038,6,0,P|335:384|271:334,1,121.500000463486,10|0,1:2|1:2,0:0:0:0:
268,333,128288,1,0,3:0:0:0:
268,333,128372,1,8,1:2:0:0:
83,234,128538,1,2,1:2:0:0:
235,89,128705,2,0,L|214:226,1,121.500000463486,10|0,1:2|1:2,0:0:0:0:
208,233,128955,1,0,3:0:0:0:
208,233,129038,1,8,1:2:0:0:
69,99,129205,1,2,1:2:0:0:
69,99,129288,1,0,1:2:0:0:
69,99,129372,6,0,L|79:28,1,65.250001991272,10|0,1:2|3:0,0:0:0:0:
150,72,129538,2,0,L|160:1,1,65.250001991272,2|0,1:2|3:0,0:0:0:0:
397,228,129705,6,0,L|387:157,1,65.250001991272,10|0,1:2|3:0,0:0:0:0:
316,201,129871,2,0,L|306:130,1,65.250001991272,2|0,1:2|3:0,0:0:0:0:
64,324,130038,5,10,1:2:0:0:
98,287,130122,1,0,3:0:0:0:
150,275,130205,1,0,1:2:0:0:
197,304,130288,1,0,3:0:0:0:
221,342,130372,5,10,1:2:0:0:
249,363,130455,1,0,3:0:0:0:
282,365,130538,1,0,1:2:0:0:
309,343,130622,1,0,3:0:0:0:
319,309,130705,5,10,1:2:0:0:
220,192,130872,1,2,3:2:0:0:
125,364,131038,1,10,1:2:0:0:
219,286,131205,1,2,0:0:0:0:
58,199,131372,6,0,L|46:126,1,65.250001991272,10|0,1:2|3:0,0:0:0:0:
224,24,131538,2,0,L|213:88,1,65.250001991272,10|0,1:2|3:0,0:0:0:0:
320,227,131705,6,0,L|332:154,1,65.250001991272,10|0,1:2|0:0,0:0:0:0:
128,99,131872,2,0,L|138:163,1,65.250001991272,2|0,0:0|0:0,0:0:0:0:
0,384,132038,6,0,P|20:302|119:284,1,195.750005973816,2|0,1:2|0:0,0:0:0:0:
