osu file format v14

[General]
AudioFilename: audio.mp3
AudioLeadIn: 0
PreviewTime: 42016
Countdown: 0
SampleSet: Soft
StackLeniency: 0.7
Mode: 3
LetterboxInBreaks: 0
SpecialStyle: 0
WidescreenStoryboard: 1

[Editor]
Bookmarks: 43235,91235
DistanceSpacing: 1.6
BeatDivisor: 2
GridSize: 8
TimelineZoom: 1.7

[Metadata]
Title:Until the end of time
TitleUnicode:Until the end of time
Artist:Ardolf
ArtistUnicode:Ardolf
Creator:Ucitysm
Version:Johno's Easy
Source:RoBeats!
Tags:fa featured artist jkmeilinh roblox xmas christmas furry electronic future bass uk happy hardcore rock hardstyle drumstep instrumental notiijohn0 notiijohno xtrippin fvrex indoroid tigerinity monoseul himitsuhiketsu hytex
BeatmapID:3937522
BeatmapSetID:1909072

[Difficulty]
HPDrainRate:6.5
CircleSize:4
OverallDifficulty:6.5
ApproachRate:5
SliderMultiplier:1.4
SliderTickRate:1

[Events]
//Background and Video events
0,0,"until_the_end_of_time.jpg",0,0
//Break Periods
//Storyboard Layer 0 (Background)
//Storyboard Layer 1 (Fail)
//Storyboard Layer 2 (Pass)
//Storyboard Layer 3 (Foreground)
//Storyboard Layer 4 (Overlay)
//Storyboard Sound Samples
Sample,19235,0,"cymbal.wav",50
Sample,19835,0,"snare_electronic.wav",30
Sample,20435,0,"cymbal.wav",50
Sample,21035,0,"snare_electronic.wav",30
Sample,21635,0,"snare_electronic.wav",30
Sample,21635,0,"cymbal.wav",50
Sample,21935,0,"snare_electronic.wav",30
Sample,22235,0,"snare_electronic.wav",30
Sample,22535,0,"snare_electronic.wav",30
Sample,28835,0,"cymbal.wav",50
Sample,31235,0,"cymbal.wav",50
Sample,32435,0,"cymbal.wav",50
Sample,38435,0,"cymbal.wav",50
Sample,39635,0,"cymbal.wav",50
Sample,40835,0,"snare_electronic.wav",30
Sample,40835,0,"cymbal.wav",50
Sample,50435,0,"cymbal.wav",50
Sample,51635,0,"cymbal.wav",50
Sample,58835,0,"cymbal.wav",50
Sample,60035,0,"cymbal.wav",50
Sample,70835,0,"snare_electronic.wav",30
Sample,71135,0,"snare_electronic.wav",30
Sample,90035,0,"cymbal.wav",50
Sample,105635,0,"cymbal.wav",50
Sample,106835,0,"cymbal.wav",50
Sample,108035,0,"snare_electronic.wav",30
Sample,108035,0,"cymbal.wav",50
Sample,108635,0,"snare_electronic.wav",30
Sample,110135,0,"echo_snare.wav",100
Sample,117635,0,"cymbal.wav",50
Sample,118835,0,"cymbal.wav",50
Sample,124835,0,"cymbal.wav",50
Sample,126035,0,"snare.wav",100
Sample,126035,0,"cymbal.wav",50

[TimingPoints]
4835,300,4,2,1,100,1,0
24035,-100,4,2,1,100,0,1
62435,-100,4,2,1,100,0,0
110435,-100,4,2,1,100,0,1
129635,-100,4,2,1,100,0,0

[HitObjects]
64,192,4835,5,0,0:0:0:50:cymbal.wav
448,192,4835,1,0,0:0:0:70:drum.wav
192,192,5285,1,0,0:0:0:70:drum.wav
320,192,5435,1,0,0:0:0:70:drum.wav
192,192,5735,1,0,0:0:0:70:drum.wav
448,192,6185,1,0,0:0:0:70:drum.wav
64,192,6335,1,0,0:0:0:70:drum.wav
448,192,6635,1,0,0:0:0:70:drum.wav
192,192,6935,1,0,0:0:0:70:drum.wav
320,192,7235,1,0,0:0:0:70:drum.wav
64,192,7685,1,0,0:0:0:70:drum.wav
448,192,7835,1,0,0:0:0:70:drum.wav
64,192,8135,1,0,0:0:0:70:drum.wav
320,192,8585,1,0,0:0:0:70:drum.wav
192,192,8735,1,0,0:0:0:70:drum.wav
320,192,9035,1,0,0:0:0:70:drum.wav
64,192,9335,1,0,0:0:0:70:drum.wav
448,192,9635,1,0,0:0:0:70:drum.wav
192,192,10085,1,0,0:0:0:70:drum.wav
320,192,10235,1,0,0:0:0:70:drum.wav
192,192,10535,1,0,0:0:0:70:drum.wav
448,192,10985,1,0,0:0:0:70:drum.wav
64,192,11135,1,0,0:0:0:70:drum.wav
448,192,11435,1,0,0:0:0:70:drum.wav
192,192,11735,1,0,0:0:0:70:drum.wav
320,192,12035,1,0,0:0:0:70:drum.wav
64,192,12485,1,0,0:0:0:70:drum.wav
448,192,12635,1,0,0:0:0:70:drum.wav
64,192,12935,1,0,0:0:0:70:drum.wav
320,192,13385,1,0,0:0:0:70:drum.wav
192,192,13535,1,0,0:0:0:70:drum.wav
320,192,13835,1,0,0:0:0:100:kick.wav
320,192,14135,1,0,0:0:0:100:kick.wav
64,192,14435,1,0,0:0:0:100:kick.wav
448,192,14435,1,0,0:0:0:50:cymbal.wav
192,192,14735,1,0,0:0:0:0:
64,192,14885,1,0,0:0:0:100:snare.wav
448,192,15035,1,0,0:0:0:100:kick.wav
448,192,15335,1,0,0:0:0:100:snare.wav
192,192,15635,1,0,0:0:0:100:kick.wav
320,192,15935,1,0,0:0:0:0:
448,192,16085,1,0,0:0:0:100:snare.wav
64,192,16235,1,0,0:0:0:100:kick.wav
64,192,16535,1,0,0:0:0:100:snare.wav
448,192,16835,1,0,0:0:0:100:kick.wav
192,192,17135,1,0,0:0:0:0:
64,192,17285,1,0,0:0:0:100:snare.wav
320,192,17435,1,0,0:0:0:100:kick.wav
320,192,17735,1,0,0:0:0:100:snare.wav
64,192,18035,1,0,0:0:0:100:kick.wav
320,192,18335,1,0,0:0:0:0:
448,192,18485,1,0,0:0:0:100:snare.wav
192,192,18635,1,0,0:0:0:100:kick.wav
320,192,18935,1,0,0:0:0:100:snare.wav
192,192,19085,1,0,0:0:0:100:snare.wav
64,192,19235,1,0,0:0:0:100:kick.wav
448,192,19235,1,0,0:0:0:30:snare_electronic.wav
64,192,19535,1,0,0:0:0:30:snare_electronic.wav
320,192,19835,1,0,0:0:0:100:kick.wav
192,192,20135,1,0,0:0:0:30:snare_electronic.wav
320,192,20285,1,0,0:0:0:30:snare_electronic.wav
64,192,20435,1,0,0:0:0:100:kick.wav
448,192,20435,1,0,0:0:0:30:snare_electronic.wav
448,192,20735,1,0,0:0:0:30:snare_electronic.wav
192,192,21035,1,0,0:0:0:100:kick.wav
320,192,21335,1,0,0:0:0:30:snare_electronic.wav
192,192,21485,1,0,0:0:0:30:snare_electronic.wav
64,192,21635,128,0,21935:0:0:0:100:kick.wav
320,192,21935,128,0,22235:0:0:0:100:kick.wav
192,192,22235,128,0,22535:0:0:0:100:kick.wav
448,192,22535,128,0,22835:0:0:0:100:kick.wav
64,192,22835,1,0,0:0:0:100:kick.wav
192,192,22835,1,0,0:0:0:50:cymbal.wav
320,192,23435,1,0,0:0:0:0:
192,192,24035,128,0,24335:0:0:0:100:kick.wav
448,192,24035,1,0,0:0:0:50:cymbal.wav
64,192,24335,1,0,0:0:0:100:snare.wav
448,192,24635,128,0,24935:0:0:0:100:kick.wav
320,192,24935,1,0,0:0:0:100:snare.wav
64,192,25235,128,0,25535:0:0:0:100:kick.wav
448,192,25535,1,0,0:0:0:100:snare.wav
320,192,25685,1,0,0:0:0:0:
192,192,25835,1,0,0:0:0:100:kick.wav
320,192,26135,128,0,26435:0:0:0:100:snare.wav
448,192,26435,128,0,26735:0:0:0:100:kick.wav
64,192,26735,1,0,0:0:0:100:snare.wav
192,192,26885,1,0,0:0:0:0:
320,192,27035,1,0,0:0:0:100:kick.wav
192,192,27335,128,0,27635:0:0:0:100:snare.wav
64,192,27635,128,0,27935:0:0:0:100:kick.wav
448,192,27935,1,0,0:0:0:100:snare.wav
320,192,28235,128,0,28535:0:0:0:100:kick.wav
64,192,28535,1,0,0:0:0:100:snare.wav
192,192,28685,1,0,0:0:0:100:kick.wav
448,192,28835,128,0,29135:0:0:0:100:kick.wav
320,192,29135,1,0,0:0:0:100:snare.wav
64,192,29435,128,0,29735:0:0:0:100:kick.wav
192,192,29735,1,0,0:0:0:100:snare.wav
320,192,30035,128,0,30335:0:0:0:100:kick.wav
448,192,30335,1,0,0:0:0:100:snare.wav
64,192,30485,1,0,0:0:0:0:
192,192,30635,1,0,0:0:0:100:kick.wav
448,192,30935,1,0,0:0:0:100:snare.wav
320,192,31085,1,0,0:0:0:100:kick.wav
192,192,31235,128,0,31535:0:0:0:100:kick.wav
64,192,31535,128,0,31835:0:0:0:100:snare.wav
320,192,31835,128,0,32135:0:0:0:100:kick.wav
64,192,32135,1,0,0:0:0:100:snare.wav
192,192,32285,1,0,0:0:0:100:kick.wav
448,192,32435,128,0,32735:0:0:0:100:snare.wav
320,192,32735,1,0,0:0:0:100:snare.wav
64,192,33035,128,0,33335:0:0:0:100:snare.wav
320,192,33335,1,0,0:0:0:100:snare.wav
448,192,33335,1,0,0:0:0:0:
64,192,33635,1,0,0:0:0:100:kick.wav
192,192,33635,128,0,33935:0:0:0:50:cymbal.wav
448,192,33935,1,0,0:0:0:100:snare.wav
448,192,34235,128,0,34535:0:0:0:100:kick.wav
192,192,34535,1,0,0:0:0:100:snare.wav
64,192,34835,128,0,35135:0:0:0:100:kick.wav
448,192,35135,1,0,0:0:0:100:snare.wav
320,192,35285,1,0,0:0:0:0:
192,192,35435,1,0,0:0:0:100:kick.wav
320,192,35735,128,0,36035:0:0:0:100:snare.wav
448,192,36035,128,0,36335:0:0:0:100:kick.wav
64,192,36335,1,0,0:0:0:100:snare.wav
320,192,36485,1,0,0:0:0:0:
192,192,36635,1,0,0:0:0:100:kick.wav
64,192,36935,128,0,37235:0:0:0:100:snare.wav
192,192,37235,128,0,37535:0:0:0:100:kick.wav
448,192,37535,1,0,0:0:0:100:snare.wav
320,192,37835,128,0,38135:0:0:0:100:kick.wav
192,192,38135,128,0,38435:0:0:0:100:snare.wav
448,192,38435,128,0,38735:0:0:0:100:kick.wav
64,192,38735,1,0,0:0:0:100:snare.wav
192,192,39035,128,0,39335:0:0:0:100:kick.wav
448,192,39335,128,0,39635:0:0:0:100:snare.wav
320,192,39635,128,0,39935:0:0:0:100:kick.wav
64,192,39935,128,0,40235:0:0:0:100:snare.wav
192,192,40235,128,0,40535:0:0:0:100:kick.wav
448,192,40535,128,0,40835:0:0:0:100:snare.wav
64,192,40835,1,0,0:0:0:100:snare.wav
64,192,41135,1,0,0:0:0:30:snare_electronic.wav
448,192,41435,1,0,0:0:0:30:snare_electronic.wav
448,192,41735,1,0,0:0:0:30:snare_electronic.wav
192,192,42035,128,0,42335:0:0:0:30:snare_electronic.wav
64,192,42335,128,0,42635:0:0:0:30:snare_electronic.wav
448,192,42635,1,0,0:0:0:30:snare_electronic.wav
320,192,42785,1,0,0:0:0:30:snare_electronic.wav
64,192,42935,1,0,0:0:0:30:snare_electronic.wav
192,192,43085,1,0,0:0:0:30:snare_electronic.wav
320,192,43235,1,0,0:0:0:100:kick.wav
448,192,43235,1,0,0:0:0:50:cymbal.wav
448,192,43535,1,0,0:0:0:100:snare.wav
448,192,43835,1,0,0:0:0:100:kick.wav
192,192,43985,1,0,0:0:0:0:
64,192,44135,1,0,0:0:0:100:snare.wav
320,192,44285,1,0,0:0:0:0:
192,192,44435,1,0,0:0:0:100:kick.wav
448,192,44735,128,0,45035:0:0:0:100:snare.wav
64,192,45035,128,0,45335:0:0:0:100:kick.wav
320,192,45335,1,0,0:0:0:100:snare.wav
448,192,45485,1,0,0:0:0:0:
64,192,45635,1,0,0:0:0:100:kick.wav
192,192,45935,128,0,46235:0:0:0:100:snare.wav
64,192,46235,1,0,0:0:0:100:kick.wav
320,192,46385,1,0,0:0:0:0:
192,192,46535,1,0,0:0:0:100:snare.wav
448,192,46685,1,0,0:0:0:0:
64,192,46835,1,0,0:0:0:100:kick.wav
448,192,47135,128,0,47435:0:0:0:100:snare.wav
192,192,47435,128,0,47735:0:0:0:100:kick.wav
448,192,47735,1,0,0:0:0:100:snare.wav
320,192,47885,1,0,0:0:0:100:kick.wav
64,192,48035,1,0,0:0:0:100:kick.wav
192,192,48035,1,0,0:0:0:50:cymbal.wav
64,192,48335,1,0,0:0:0:100:snare.wav
64,192,48635,1,0,0:0:0:100:kick.wav
320,192,48785,1,0,0:0:0:0:
192,192,48935,1,0,0:0:0:100:snare.wav
448,192,49085,1,0,0:0:0:0:
320,192,49235,1,0,0:0:0:100:kick.wav
64,192,49535,128,0,49835:0:0:0:100:snare.wav
448,192,49835,128,0,50135:0:0:0:100:kick.wav
192,192,50135,1,0,0:0:0:100:snare.wav
320,192,50285,1,0,0:0:0:100:kick.wav
64,192,50435,1,0,0:0:0:100:kick.wav
64,192,50735,1,0,0:0:0:100:snare.wav
192,192,50885,128,0,51185:0:0:0:0:
448,192,51185,1,0,0:0:0:0:
320,192,51335,1,0,0:0:0:100:snare.wav
192,192,51485,1,0,0:0:0:100:kick.wav
448,192,51635,128,0,51935:0:0:0:100:snare.wav
64,192,51935,1,0,0:0:0:100:snare.wav
192,192,52085,1,0,0:0:0:100:kick.wav
448,192,52235,1,0,0:0:0:100:snare.wav
320,192,52385,1,0,0:0:0:100:kick.wav
64,192,52535,1,0,0:0:0:100:snare.wav
192,192,52535,1,0,0:0:0:0:
320,192,52835,1,0,0:0:0:100:kick.wav
448,192,52835,1,0,0:0:0:50:cymbal.wav
448,192,53135,1,0,0:0:0:100:snare.wav
448,192,53435,1,0,0:0:0:100:kick.wav
192,192,53585,1,0,0:0:0:0:
64,192,53735,1,0,0:0:0:100:snare.wav
320,192,53885,1,0,0:0:0:0:
192,192,54035,1,0,0:0:0:100:kick.wav
64,192,54335,128,0,54635:0:0:0:100:snare.wav
320,192,54635,128,0,54935:0:0:0:100:kick.wav
192,192,54935,128,0,55235:0:0:0:100:snare.wav
448,192,55235,128,0,55535:0:0:0:100:kick.wav
320,192,55535,128,0,55835:0:0:0:100:snare.wav
64,192,55835,1,0,0:0:0:100:kick.wav
448,192,55985,1,0,0:0:0:0:
192,192,56135,1,0,0:0:0:100:snare.wav
64,192,56285,1,0,0:0:0:0:
320,192,56435,1,0,0:0:0:100:kick.wav
448,192,56735,128,0,57035:0:0:0:100:snare.wav
192,192,57035,128,0,57335:0:0:0:100:kick.wav
448,192,57335,1,0,0:0:0:100:snare.wav
320,192,57485,1,0,0:0:0:0:
64,192,57635,1,0,0:0:0:100:kick.wav
192,192,57635,1,0,0:0:0:50:cymbal.wav
64,192,57935,1,0,0:0:0:100:snare.wav
64,192,58235,1,0,0:0:0:100:kick.wav
448,192,58385,1,0,0:0:0:0:
192,192,58535,1,0,0:0:0:100:snare.wav
320,192,58685,1,0,0:0:0:0:
448,192,58835,128,0,59135:0:0:0:100:kick.wav
64,192,59135,128,0,59435:0:0:0:100:snare.wav
192,192,59435,128,0,59735:0:0:0:100:kick.wav
320,192,59735,128,0,60035:0:0:0:100:snare.wav
448,192,60035,128,0,60335:0:0:0:100:kick.wav
64,192,60335,1,0,0:0:0:30:snare_electronic.wav
320,192,60635,1,0,0:0:0:30:snare_electronic.wav
192,192,60935,1,0,0:0:0:30:snare_electronic.wav
448,192,61235,128,0,61535:0:0:0:30:snare_electronic.wav
320,192,61535,128,0,61835:0:0:0:30:snare_electronic.wav
192,192,61835,128,0,62135:0:0:0:30:snare_electronic.wav
64,192,62135,128,0,62435:0:0:0:30:snare_electronic.wav
320,192,62435,1,0,0:0:0:100:kick.wav
448,192,62435,1,0,0:0:0:50:cymbal.wav
192,192,62885,1,0,0:0:0:70:drum.wav
320,192,63035,1,0,0:0:0:70:drum.wav
192,192,63335,1,0,0:0:0:70:drum.wav
448,192,63785,1,0,0:0:0:70:drum.wav
64,192,63935,1,0,0:0:0:70:drum.wav
448,192,64235,1,0,0:0:0:70:drum.wav
192,192,64535,1,0,0:0:0:70:drum.wav
192,192,64835,1,0,0:0:0:70:drum.wav
320,192,65285,1,0,0:0:0:70:drum.wav
192,192,65435,1,0,0:0:0:70:drum.wav
320,192,65735,1,0,0:0:0:70:drum.wav
64,192,66185,1,0,0:0:0:70:drum.wav
448,192,66335,1,0,0:0:0:70:drum.wav
192,192,66635,128,0,66935:0:0:0:70:drum.wav
64,192,66935,128,0,67235:0:0:0:70:drum.wav
320,192,67235,1,0,0:0:0:100:kick.wav
448,192,67235,1,0,0:0:0:30:snare_electronic.wav
192,192,67535,1,0,0:0:0:30:snare_electronic.wav
64,192,67685,1,0,0:0:0:0:
320,192,67835,1,0,0:0:0:30:snare_electronic.wav
320,192,68135,1,0,0:0:0:30:snare_electronic.wav
64,192,68435,1,0,0:0:0:100:kick.wav
192,192,68435,1,0,0:0:0:30:snare_electronic.wav
448,192,68585,1,0,0:0:0:0:
320,192,68735,1,0,0:0:0:30:snare_electronic.wav
192,192,69035,1,0,0:0:0:30:snare_electronic.wav
192,192,69335,1,0,0:0:0:30:snare_electronic.wav
320,192,69635,1,0,0:0:0:100:kick.wav
448,192,69635,1,0,0:0:0:30:snare_electronic.wav
448,192,69935,1,0,0:0:0:30:snare_electronic.wav
64,192,70235,1,0,0:0:0:100:kick.wav
192,192,70235,1,0,0:0:0:30:snare_electronic.wav
64,192,70535,1,0,0:0:0:30:snare_electronic.wav
320,192,70835,128,0,71135:0:0:0:100:kick.wav
448,192,71135,128,0,71435:0:0:0:100:kick.wav
64,192,71435,1,0,0:0:0:100:kick.wav
320,192,71735,1,0,0:0:0:100:snare.wav
448,192,71735,1,0,0:0:0:100:echo_snare.wav
64,192,72035,128,0,72335:0:0:0:100:kick.wav
192,192,72035,1,0,0:0:0:50:cymbal.wav
448,192,72335,128,0,72635:0:0:0:0:
64,192,72635,1,0,0:0:0:100:snare.wav
448,192,72935,128,0,73235:0:0:0:100:kick.wav
192,192,73235,128,0,73535:0:0:0:0:
448,192,73535,128,0,73835:0:0:0:100:kick.wav
64,192,73835,1,0,0:0:0:100:snare.wav
320,192,74435,128,0,74735:0:0:0:100:kick.wav
192,192,74735,128,0,75035:0:0:0:0:
448,192,75035,1,0,0:0:0:100:snare.wav
192,192,75335,128,0,75635:0:0:0:100:kick.wav
448,192,75635,1,0,0:0:0:0:
320,192,75785,1,0,0:0:0:100:kick.wav
192,192,75935,128,0,76235:0:0:0:100:kick.wav
448,192,76235,1,0,0:0:0:100:snare.wav
320,192,76835,1,0,0:0:0:100:kick.wav
448,192,76835,128,0,77135:0:0:0:50:cymbal.wav
64,192,77135,128,0,77435:0:0:0:0:
448,192,77435,1,0,0:0:0:100:snare.wav
64,192,77735,128,0,78035:0:0:0:100:kick.wav
320,192,78035,128,0,78335:0:0:0:0:
64,192,78335,128,0,78635:0:0:0:100:kick.wav
448,192,78635,1,0,0:0:0:100:snare.wav
192,192,79235,128,0,79535:0:0:0:100:kick.wav
320,192,79535,128,0,79835:0:0:0:0:
64,192,79835,1,0,0:0:0:100:snare.wav
320,192,80135,128,0,80435:0:0:0:100:kick.wav
64,192,80435,1,0,0:0:0:0:
192,192,80585,1,0,0:0:0:100:kick.wav
320,192,80735,128,0,81035:0:0:0:100:kick.wav
64,192,81035,1,0,0:0:0:100:snare.wav
64,192,81635,128,0,81935:0:0:0:100:kick.wav
192,192,81635,1,0,0:0:0:50:cymbal.wav
448,192,81935,128,0,82235:0:0:0:0:
64,192,82235,1,0,0:0:0:100:snare.wav
448,192,82535,128,0,82835:0:0:0:100:kick.wav
192,192,82835,128,0,83135:0:0:0:0:
448,192,83135,128,0,83435:0:0:0:100:kick.wav
64,192,83435,1,0,0:0:0:100:snare.wav
320,192,84035,128,0,84335:0:0:0:100:kick.wav
192,192,84335,128,0,84635:0:0:0:0:
448,192,84635,1,0,0:0:0:100:snare.wav
192,192,84935,128,0,85235:0:0:0:100:kick.wav
448,192,85235,1,0,0:0:0:0:
320,192,85385,1,0,0:0:0:100:kick.wav
192,192,85535,128,0,85835:0:0:0:100:kick.wav
448,192,85835,1,0,0:0:0:100:snare.wav
320,192,86435,1,0,0:0:0:100:kick.wav
448,192,86435,128,0,86735:0:0:0:50:cymbal.wav
64,192,86735,128,0,87035:0:0:0:0:
448,192,87035,1,0,0:0:0:100:snare.wav
64,192,87335,128,0,87635:0:0:0:100:kick.wav
448,192,87635,128,0,87935:0:0:0:0:
64,192,87935,128,0,88235:0:0:0:100:kick.wav
320,192,88235,1,0,0:0:0:100:snare.wav
192,192,88835,128,0,89135:0:0:0:100:kick.wav
320,192,89135,128,0,89435:0:0:0:100:kick.wav
64,192,89435,1,0,0:0:0:100:snare.wav
320,192,89735,128,0,90035:0:0:0:100:kick.wav
448,192,90035,1,0,0:0:0:100:kick.wav
192,192,90635,1,0,0:0:0:0:
64,192,91235,128,0,91535:0:0:0:50:cymbal.wav
320,192,91235,1,0,0:0:0:0:
448,192,91835,128,0,92435:0:0:0:0:
192,192,92435,1,0,0:0:0:0:
320,192,92735,1,0,0:0:0:0:
192,192,92885,128,0,93185:0:0:0:0:
448,192,93335,128,0,93635:0:0:0:0:
64,192,93635,1,0,0:0:0:0:
192,192,93935,1,0,0:0:0:0:
64,192,94085,128,0,94385:0:0:0:0:
320,192,94535,128,0,94835:0:0:0:0:
192,192,94835,128,0,95135:0:0:0:0:
192,192,95435,128,0,95735:0:0:0:0:
448,192,95735,128,0,96035:0:0:0:0:
320,192,96035,128,0,96335:0:0:0:0:
64,192,96635,128,0,96935:0:0:0:0:
320,192,97235,1,0,0:0:0:0:
192,192,97535,1,0,0:0:0:0:
320,192,97685,128,0,97985:0:0:0:0:
64,192,98135,128,0,98435:0:0:0:0:
448,192,98435,128,0,98735:0:0:0:0:
64,192,98735,128,0,99035:0:0:0:0:
320,192,99035,128,0,99335:0:0:0:0:
448,192,99335,128,0,99635:0:0:0:0:
192,192,99635,128,0,99935:0:0:0:0:
320,192,100235,128,0,100535:0:0:0:0:
64,192,100835,128,0,101135:0:0:0:50:cymbal.wav
192,192,100835,1,0,0:0:0:0:
448,192,101135,1,0,0:0:0:100:snare.wav
448,192,101435,128,0,101735:0:0:0:0:
64,192,101735,1,0,0:0:0:100:snare.wav
320,192,102035,1,0,0:0:0:0:
192,192,102335,1,0,0:0:0:100:snare.wav
320,192,102485,128,0,102785:0:0:0:0:
64,192,102785,1,0,0:0:0:0:
192,192,102935,128,0,103235:0:0:0:100:snare.wav
448,192,103235,1,0,0:0:0:0:
320,192,103535,1,0,0:0:0:100:snare.wav
448,192,103685,128,0,103985:0:0:0:0:
192,192,103985,1,0,0:0:0:0:
64,192,104135,128,0,104435:0:0:0:100:snare.wav
320,192,104435,128,0,104735:0:0:0:0:
448,192,104735,1,0,0:0:0:100:snare.wav
64,192,105035,128,0,105335:0:0:0:0:
320,192,105335,1,0,0:0:0:100:snare.wav
192,192,105485,1,0,0:0:0:0:
64,192,105635,1,0,0:0:0:100:kick.wav
448,192,105635,1,0,0:0:0:30:snare_electronic.wav
64,192,105935,1,0,0:0:0:30:snare_electronic.wav
320,192,106235,128,0,106535:0:0:0:30:snare_electronic.wav
192,192,106535,128,0,106835:0:0:0:30:snare_electronic.wav
64,192,106835,1,0,0:0:0:100:kick.wav
448,192,106835,128,0,107135:0:0:0:30:snare_electronic.wav
320,192,107135,128,0,107435:0:0:0:30:snare_electronic.wav
64,192,107435,128,0,107735:0:0:0:30:snare_electronic.wav
448,192,107735,128,0,108035:0:0:0:30:snare_electronic.wav
192,192,108035,1,0,0:0:0:100:kick.wav
192,192,108335,1,0,0:0:0:30:snare_electronic.wav
320,192,108635,1,0,0:0:0:100:kick.wav
320,192,108935,1,0,0:0:0:30:snare_electronic.wav
64,192,109235,1,0,0:0:0:100:kick.wav
192,192,109235,1,0,0:0:0:50:cymbal.wav
320,192,109835,128,0,110135:0:0:0:0:
64,192,110135,128,0,110435:0:0:0:100:snare.wav
320,192,110435,1,0,0:0:0:100:kick.wav
448,192,110435,1,0,0:0:0:50:cymbal.wav
448,192,110735,1,0,0:0:0:100:snare.wav
448,192,111035,1,0,0:0:0:100:kick.wav
192,192,111185,1,0,0:0:0:0:
64,192,111335,1,0,0:0:0:100:snare.wav
320,192,111485,1,0,0:0:0:0:
192,192,111635,1,0,0:0:0:100:kick.wav
448,192,111935,128,0,112235:0:0:0:100:snare.wav
64,192,112235,128,0,112535:0:0:0:100:kick.wav
320,192,112535,1,0,0:0:0:100:snare.wav
448,192,112685,1,0,0:0:0:0:
64,192,112835,1,0,0:0:0:100:kick.wav
192,192,113135,128,0,113435:0:0:0:100:snare.wav
64,192,113435,1,0,0:0:0:100:kick.wav
320,192,113585,1,0,0:0:0:0:
192,192,113735,1,0,0:0:0:100:snare.wav
448,192,113885,1,0,0:0:0:0:
64,192,114035,1,0,0:0:0:100:kick.wav
448,192,114335,128,0,114635:0:0:0:100:snare.wav
192,192,114635,128,0,114935:0:0:0:100:kick.wav
448,192,114935,1,0,0:0:0:100:snare.wav
320,192,115085,1,0,0:0:0:100:kick.wav
64,192,115235,1,0,0:0:0:100:kick.wav
192,192,115235,1,0,0:0:0:50:cymbal.wav
64,192,115535,1,0,0:0:0:100:snare.wav
64,192,115835,1,0,0:0:0:100:kick.wav
320,192,115985,1,0,0:0:0:0:
192,192,116135,1,0,0:0:0:100:snare.wav
448,192,116285,1,0,0:0:0:0:
320,192,116435,1,0,0:0:0:100:kick.wav
64,192,116735,128,0,117035:0:0:0:100:snare.wav
448,192,117035,128,0,117335:0:0:0:100:kick.wav
192,192,117335,1,0,0:0:0:100:snare.wav
320,192,117485,1,0,0:0:0:100:kick.wav
64,192,117635,1,0,0:0:0:100:kick.wav
64,192,117935,1,0,0:0:0:100:snare.wav
192,192,118085,128,0,118385:0:0:0:0:
448,192,118385,1,0,0:0:0:0:
320,192,118535,1,0,0:0:0:100:snare.wav
192,192,118685,1,0,0:0:0:100:kick.wav
448,192,118835,128,0,119135:0:0:0:100:snare.wav
64,192,119135,1,0,0:0:0:100:snare.wav
192,192,119285,1,0,0:0:0:100:kick.wav
448,192,119435,1,0,0:0:0:100:snare.wav
320,192,119585,1,0,0:0:0:100:kick.wav
64,192,119735,1,0,0:0:0:100:snare.wav
192,192,119735,1,0,0:0:0:0:
320,192,120035,1,0,0:0:0:100:kick.wav
448,192,120035,1,0,0:0:0:50:cymbal.wav
448,192,120335,1,0,0:0:0:100:snare.wav
448,192,120635,1,0,0:0:0:100:kick.wav
192,192,120785,1,0,0:0:0:0:
64,192,120935,1,0,0:0:0:100:snare.wav
320,192,121085,1,0,0:0:0:0:
192,192,121235,1,0,0:0:0:100:kick.wav
64,192,121535,128,0,121835:0:0:0:100:snare.wav
320,192,121835,128,0,122135:0:0:0:100:kick.wav
192,192,122135,128,0,122435:0:0:0:100:snare.wav
448,192,122435,128,0,122735:0:0:0:100:kick.wav
320,192,122735,128,0,123035:0:0:0:100:snare.wav
64,192,123035,1,0,0:0:0:100:kick.wav
448,192,123185,1,0,0:0:0:0:
192,192,123335,1,0,0:0:0:100:snare.wav
64,192,123485,1,0,0:0:0:0:
320,192,123635,1,0,0:0:0:100:kick.wav
448,192,123935,128,0,124235:0:0:0:100:snare.wav
192,192,124235,128,0,124535:0:0:0:100:snare.wav
448,192,124535,1,0,0:0:0:100:snare.wav
320,192,124685,1,0,0:0:0:100:snare.wav
64,192,124835,1,0,0:0:0:100:kick.wav
192,192,124835,1,0,0:0:0:100:snare.wav
448,192,125035,1,0,0:0:0:100:snare.wav
192,192,125235,1,0,0:0:0:100:snare.wav
320,192,125435,1,0,0:0:0:100:snare.wav
192,192,125635,1,0,0:0:0:100:snare.wav
320,192,125835,1,0,0:0:0:100:snare.wav
64,192,126035,1,0,0:0:0:100:kick.wav
448,192,126235,1,0,0:0:0:100:snare.wav
64,192,126435,1,0,0:0:0:100:snare.wav
448,192,126635,1,0,0:0:0:100:snare.wav
192,192,126835,1,0,0:0:0:30:snare_electronic.wav
192,192,127035,1,0,0:0:0:30:snare_electronic.wav
320,192,127235,1,0,0:0:0:100:kick.wav
448,192,127235,128,0,127535:0:0:0:50:cymbal.wav
64,192,127535,1,0,0:0:0:30:snare_electronic.wav
192,192,127835,1,0,0:0:0:30:snare_electronic.wav
320,192,128135,1,0,0:0:0:30:snare_electronic.wav
448,192,128435,128,0,128735:0:0:0:30:snare_electronic.wav
320,192,128735,128,0,129035:0:0:0:30:snare_electronic.wav
192,192,129035,128,0,129335:0:0:0:30:snare_electronic.wav
64,192,129335,128,0,129635:0:0:0:30:snare_electronic.wav
320,192,129635,1,0,0:0:0:100:kick.wav
448,192,129635,128,0,130835:0:0:0:50:cymbal.wav
64,192,130835,128,0,131135:0:0:0:100:kick.wav
192,192,130835,128,0,131135:0:0:0:50:cymbal.wav
192,192,131285,128,0,131585:0:0:0:100:kick.wav
320,192,131285,128,0,131585:0:0:0:50:cymbal.wav
320,192,131735,128,0,132035:0:0:0:100:kick.wav
448,192,131735,128,0,132035:0:0:0:50:cymbal.wav
64,192,132035,1,0,0:0:0:100:kick.wav
192,192,132035,1,0,0:0:0:50:cymbal.wav
