osu file format v14

[General]
AudioFilename: audio.mp3
AudioLeadIn: 0
PreviewTime: 42016
Countdown: 0
SampleSet: Soft
StackLeniency: 0.7
Mode: 3
LetterboxInBreaks: 0
SpecialStyle: 0
WidescreenStoryboard: 1

[Editor]
Bookmarks: 43235,91235
DistanceSpacing: 1.6
BeatDivisor: 4
GridSize: 8
TimelineZoom: 1.9

[Metadata]
Title:Until the end of time
TitleUnicode:Until the end of time
Artist:Ardolf
ArtistUnicode:Ardolf
Creator:Ucitysm
Version:Himitsu's Hyper
Source:RoBeats!
Tags:fa featured artist jkmeilinh roblox xmas christmas furry electronic future bass uk happy hardcore rock hardstyle drumstep instrumental notiijohn0 notiijohno xtrippin fvrex indoroid tigerinity monoseul himitsuhiketsu hytex
BeatmapID:3937519
BeatmapSetID:1909072

[Difficulty]
HPDrainRate:7.7
CircleSize:4
OverallDifficulty:7.7
ApproachRate:5
SliderMultiplier:1.4
SliderTickRate:1

[Events]
//Background and Video events
0,0,"until_the_end_of_time.jpg",0,0
//Break Periods
//Storyboard Layer 0 (Background)
//Storyboard Layer 1 (Fail)
//Storyboard Layer 2 (Pass)
//Storyboard Layer 3 (Foreground)
//Storyboard Layer 4 (Overlay)
//Storyboard Sound Samples
Sample,40835,0,"cymbal.wav",50

[TimingPoints]
4835,300.0,4,2,1,100,1,0
24035,-100.0,4,2,1,100,0,1
62435,-100.0,4,2,1,100,0,0
110435,-100.0,4,2,1,100,0,1
129635,-100.0,4,2,1,100,0,0

[HitObjects]
64,192,4835,1,0,0:0:0:50:cymbal.wav
320,192,4835,1,0,0:0:0:70:drum.wav
448,192,4835,128,0,5135:0:0:0:0:
64,192,5135,1,0,0:0:0:0:
192,192,5285,128,0,5435:0:0:0:70:drum.wav
448,192,5285,1,0,0:0:0:0:
64,192,5435,128,0,5735:0:0:0:70:drum.wav
320,192,5435,1,0,0:0:0:0:
320,192,5735,128,0,6035:0:0:0:70:drum.wav
448,192,5735,1,0,0:0:0:0:
64,192,6035,128,0,6335:0:0:0:0:
192,192,6185,1,0,0:0:0:70:drum.wav
320,192,6185,1,0,0:0:0:0:
320,192,6335,1,0,0:0:0:70:drum.wav
448,192,6335,128,0,6485:0:0:0:0:
192,192,6485,128,0,6635:0:0:0:0:
320,192,6635,128,0,6935:0:0:0:70:drum.wav
448,192,6635,1,0,0:0:0:0:
64,192,6935,1,0,0:0:0:70:drum.wav
192,192,6935,1,0,0:0:0:0:
64,192,7235,1,0,0:0:0:70:drum.wav
320,192,7235,128,0,7535:0:0:0:0:
64,192,7535,1,0,0:0:0:0:
192,192,7685,128,0,7835:0:0:0:70:drum.wav
448,192,7685,1,0,0:0:0:0:
64,192,7835,1,0,0:0:0:70:drum.wav
320,192,7835,128,0,8135:0:0:0:0:
64,192,8135,1,0,0:0:0:70:drum.wav
448,192,8135,128,0,8285:0:0:0:0:
320,192,8285,128,0,8435:0:0:0:0:
64,192,8435,128,0,8735:0:0:0:0:
192,192,8585,1,0,0:0:0:70:drum.wav
448,192,8585,1,0,0:0:0:0:
320,192,8735,1,0,0:0:0:70:drum.wav
448,192,8735,1,0,0:0:0:0:
64,192,9035,1,0,0:0:0:70:drum.wav
192,192,9035,128,0,9335:0:0:0:0:
320,192,9335,128,0,9485:0:0:0:70:drum.wav
448,192,9335,1,0,0:0:0:0:
192,192,9485,128,0,9635:0:0:0:0:
64,192,9635,1,0,0:0:0:70:drum.wav
448,192,9635,128,0,9935:0:0:0:0:
64,192,9935,1,0,0:0:0:0:
192,192,10085,128,0,10235:0:0:0:70:drum.wav
320,192,10085,1,0,0:0:0:0:
64,192,10235,128,0,10535:0:0:0:70:drum.wav
448,192,10235,1,0,0:0:0:0:
192,192,10535,1,0,0:0:0:70:drum.wav
320,192,10535,128,0,10835:0:0:0:0:
64,192,10835,128,0,11135:0:0:0:0:
192,192,10985,1,0,0:0:0:70:drum.wav
320,192,10985,1,0,0:0:0:0:
320,192,11135,1,0,0:0:0:70:drum.wav
448,192,11135,128,0,11285:0:0:0:0:
192,192,11285,128,0,11435:0:0:0:0:
64,192,11435,1,0,0:0:0:70:drum.wav
320,192,11435,128,0,11735:0:0:0:0:
192,192,11735,1,0,0:0:0:70:drum.wav
448,192,11735,1,0,0:0:0:0:
64,192,12035,128,0,12335:0:0:0:70:drum.wav
448,192,12035,1,0,0:0:0:0:
192,192,12335,128,0,12635:0:0:0:0:
320,192,12485,1,0,0:0:0:70:drum.wav
448,192,12485,1,0,0:0:0:0:
64,192,12635,1,0,0:0:0:70:drum.wav
320,192,12635,128,0,12935:0:0:0:0:
64,192,12935,1,0,0:0:0:70:drum.wav
448,192,12935,128,0,13235:0:0:0:0:
192,192,13235,128,0,13535:0:0:0:0:
320,192,13385,1,0,0:0:0:70:drum.wav
448,192,13385,1,0,0:0:0:0:
64,192,13535,1,0,0:0:0:70:drum.wav
320,192,13535,1,0,0:0:0:0:
64,192,13835,1,0,0:0:0:100:kick.wav
320,192,13835,128,0,14135:0:0:0:0:
192,192,14135,128,0,14435:0:0:0:100:kick.wav
448,192,14135,1,0,0:0:0:0:
64,192,14435,1,0,0:0:0:100:kick.wav
320,192,14435,1,0,0:0:0:50:cymbal.wav
448,192,14435,128,0,14735:0:0:0:0:
192,192,14585,1,0,0:0:0:0:
320,192,14735,1,0,0:0:0:0:
192,192,14885,128,0,15035:0:0:0:100:snare.wav
448,192,14885,1,0,0:0:0:0:
64,192,15035,128,0,15335:0:0:0:100:kick.wav
320,192,15035,1,0,0:0:0:0:
448,192,15110,1,0,0:0:0:0:
192,192,15185,1,0,0:0:0:0:
320,192,15335,128,0,15635:0:0:0:100:snare.wav
448,192,15335,1,0,0:0:0:0:
64,192,15635,128,0,15935:0:0:0:100:kick.wav
448,192,15635,1,0,0:0:0:0:
192,192,15785,1,0,0:0:0:0:
320,192,15935,1,0,0:0:0:0:
448,192,15935,128,0,16085:0:0:0:0:
64,192,16085,1,0,0:0:0:100:snare.wav
192,192,16085,128,0,16235:0:0:0:0:
320,192,16235,128,0,16535:0:0:0:100:kick.wav
448,192,16235,1,0,0:0:0:0:
192,192,16385,1,0,0:0:0:0:
64,192,16535,1,0,0:0:0:100:snare.wav
448,192,16535,1,0,0:0:0:0:
192,192,16685,1,0,0:0:0:0:
64,192,16760,1,0,0:0:0:0:
320,192,16835,128,0,17135:0:0:0:100:kick.wav
448,192,16835,1,0,0:0:0:0:
192,192,16985,1,0,0:0:0:0:
448,192,17135,1,0,0:0:0:0:
64,192,17285,1,0,0:0:0:100:snare.wav
192,192,17285,128,0,17435:0:0:0:0:
320,192,17435,128,0,17735:0:0:0:100:kick.wav
448,192,17435,1,0,0:0:0:0:
64,192,17510,1,0,0:0:0:0:
192,192,17585,1,0,0:0:0:0:
64,192,17735,1,0,0:0:0:100:snare.wav
448,192,17735,128,0,17885:0:0:0:0:
192,192,17885,1,0,0:0:0:0:
320,192,17885,128,0,18035:0:0:0:0:
64,192,18035,128,0,18335:0:0:0:100:kick.wav
192,192,18035,1,0,0:0:0:0:
448,192,18185,1,0,0:0:0:0:
192,192,18260,1,0,0:0:0:0:
320,192,18335,1,0,0:0:0:0:
64,192,18485,1,0,0:0:0:100:snare.wav
448,192,18485,1,0,0:0:0:0:
192,192,18635,128,0,18935:0:0:0:100:kick.wav
320,192,18635,1,0,0:0:0:0:
448,192,18785,1,0,0:0:0:0:
64,192,18935,1,0,0:0:0:100:snare.wav
320,192,18935,128,0,19085:0:0:0:0:
192,192,19085,128,0,19235:0:0:0:100:snare.wav
448,192,19085,1,0,0:0:0:0:
64,192,19235,1,0,0:0:0:100:kick.wav
320,192,19235,1,0,0:0:0:30:snare_electronic.wav
448,192,19235,128,0,19535:0:0:0:50:cymbal.wav
64,192,19535,1,0,0:0:0:30:snare_electronic.wav
320,192,19535,1,0,0:0:0:0:
192,192,19685,128,0,19835:0:0:0:0:
64,192,19835,128,0,20135:0:0:0:100:kick.wav
320,192,19835,1,0,0:0:0:30:snare_electronic.wav
448,192,19835,1,0,0:0:0:0:
192,192,20135,1,0,0:0:0:30:snare_electronic.wav
320,192,20135,128,0,20435:0:0:0:0:
64,192,20285,1,0,0:0:0:30:snare_electronic.wav
448,192,20285,1,0,0:0:0:0:
64,192,20435,128,0,20735:0:0:0:100:kick.wav
192,192,20435,1,0,0:0:0:30:snare_electronic.wav
448,192,20435,1,0,0:0:0:50:cymbal.wav
320,192,20585,1,0,0:0:0:0:
192,192,20735,128,0,21035:0:0:0:30:snare_electronic.wav
448,192,20735,1,0,0:0:0:0:
64,192,21035,1,0,0:0:0:100:kick.wav
320,192,21035,128,0,21335:0:0:0:30:snare_electronic.wav
192,192,21185,1,0,0:0:0:0:
64,192,21335,1,0,0:0:0:30:snare_electronic.wav
448,192,21335,128,0,21635:0:0:0:0:
192,192,21485,1,0,0:0:0:30:snare_electronic.wav
320,192,21485,1,0,0:0:0:0:
64,192,21635,1,0,0:0:0:100:kick.wav
192,192,21635,1,0,0:0:0:30:snare_electronic.wav
320,192,21635,1,0,0:0:0:50:cymbal.wav
64,192,21785,1,0,0:0:0:30:snare_electronic.wav
448,192,21785,1,0,0:0:0:0:
320,192,21935,1,0,0:0:0:100:kick.wav
448,192,21935,1,0,0:0:0:30:snare_electronic.wav
64,192,22085,1,0,0:0:0:30:snare_electronic.wav
192,192,22085,1,0,0:0:0:0:
64,192,22235,1,0,0:0:0:100:kick.wav
448,192,22235,1,0,0:0:0:30:snare_electronic.wav
320,192,22310,1,0,0:0:0:30:snare_electronic.wav
192,192,22385,1,0,0:0:0:30:snare_electronic.wav
320,192,22460,1,0,0:0:0:30:snare_electronic.wav
64,192,22535,1,0,0:0:0:100:kick.wav
448,192,22535,1,0,0:0:0:30:snare_electronic.wav
192,192,22610,1,0,0:0:0:30:snare_electronic.wav
320,192,22685,1,0,0:0:0:30:snare_electronic.wav
192,192,22760,1,0,0:0:0:30:snare_electronic.wav
64,192,22835,128,0,23435:0:0:0:100:kick.wav
448,192,22835,1,0,0:0:0:50:cymbal.wav
320,192,23435,128,0,23885:0:0:0:0:
448,192,23735,128,0,23885:0:0:0:0:
192,192,23885,128,0,24035:0:0:0:0:
64,192,24035,128,0,24260:0:0:0:100:kick.wav
320,192,24035,1,0,0:0:0:50:cymbal.wav
448,192,24035,1,0,0:0:0:0:
320,192,24185,128,0,24260:0:0:0:0:
64,192,24335,128,0,24560:0:0:0:100:snare.wav
192,192,24335,1,0,0:0:0:0:
448,192,24335,1,0,0:0:0:0:
192,192,24485,128,0,24560:0:0:0:0:
320,192,24635,1,0,0:0:0:100:kick.wav
448,192,24635,128,0,24860:0:0:0:0:
320,192,24785,128,0,24860:0:0:0:0:
64,192,24935,1,0,0:0:0:100:snare.wav
192,192,24935,1,0,0:0:0:0:
448,192,24935,128,0,25160:0:0:0:0:
192,192,25085,128,0,25160:0:0:0:0:
64,192,25235,128,0,25460:0:0:0:100:kick.wav
448,192,25235,1,0,0:0:0:0:
320,192,25385,128,0,25460:0:0:0:0:
64,192,25535,1,0,0:0:0:100:snare.wav
192,192,25535,1,0,0:0:0:0:
448,192,25535,128,0,25685:0:0:0:0:
192,192,25685,128,0,26060:0:0:0:0:
320,192,25835,128,0,25985:0:0:0:100:kick.wav
448,192,25835,1,0,0:0:0:0:
64,192,25985,128,0,26060:0:0:0:0:
64,192,26135,1,0,0:0:0:100:snare.wav
320,192,26135,1,0,0:0:0:0:
448,192,26135,128,0,26210:0:0:0:0:
448,192,26285,128,0,26360:0:0:0:0:
64,192,26435,1,0,0:0:0:100:kick.wav
320,192,26435,128,0,26660:0:0:0:0:
192,192,26585,128,0,26660:0:0:0:0:
64,192,26735,1,0,0:0:0:100:snare.wav
320,192,26735,1,0,0:0:0:0:
448,192,26735,128,0,26885:0:0:0:0:
64,192,26885,128,0,27260:0:0:0:0:
192,192,27035,128,0,27185:0:0:0:100:kick.wav
320,192,27035,1,0,0:0:0:0:
448,192,27185,128,0,27260:0:0:0:0:
64,192,27335,128,0,27410:0:0:0:100:snare.wav
320,192,27335,1,0,0:0:0:0:
448,192,27335,1,0,0:0:0:0:
64,192,27485,128,0,27560:0:0:0:0:
192,192,27635,1,0,0:0:0:100:kick.wav
448,192,27635,128,0,27860:0:0:0:0:
192,192,27785,128,0,27860:0:0:0:0:
64,192,27935,1,0,0:0:0:100:snare.wav
320,192,27935,1,0,0:0:0:0:
448,192,27935,128,0,28160:0:0:0:0:
320,192,28085,128,0,28160:0:0:0:0:
64,192,28235,128,0,28460:0:0:0:100:kick.wav
448,192,28235,1,0,0:0:0:0:
192,192,28385,128,0,28460:0:0:0:0:
64,192,28535,128,0,28610:0:0:0:100:snare.wav
320,192,28535,1,0,0:0:0:0:
448,192,28535,128,0,28760:0:0:0:0:
64,192,28685,128,0,28760:0:0:0:100:kick.wav
192,192,28685,1,0,0:0:0:0:
320,192,28835,128,0,29060:0:0:0:100:kick.wav
448,192,28835,1,0,0:0:0:50:cymbal.wav
192,192,28985,128,0,29060:0:0:0:0:
64,192,29135,1,0,0:0:0:100:snare.wav
320,192,29135,128,0,29360:0:0:0:0:
448,192,29135,1,0,0:0:0:0:
448,192,29285,128,0,29360:0:0:0:0:
64,192,29435,1,0,0:0:0:100:kick.wav
192,192,29435,128,0,29660:0:0:0:0:
320,192,29585,128,0,29660:0:0:0:0:
64,192,29735,1,0,0:0:0:100:snare.wav
192,192,29735,128,0,29960:0:0:0:0:
448,192,29735,1,0,0:0:0:0:
64,192,29885,128,0,29960:0:0:0:0:
320,192,30035,128,0,30260:0:0:0:100:kick.wav
448,192,30035,1,0,0:0:0:0:
192,192,30185,128,0,30260:0:0:0:0:
64,192,30335,1,0,0:0:0:100:snare.wav
320,192,30335,1,0,0:0:0:0:
448,192,30335,128,0,30485:0:0:0:0:
192,192,30485,128,0,30860:0:0:0:0:
64,192,30635,128,0,30785:0:0:0:100:kick.wav
320,192,30635,1,0,0:0:0:0:
448,192,30785,128,0,30860:0:0:0:0:
64,192,30935,128,0,31010:0:0:0:100:snare.wav
320,192,30935,128,0,31160:0:0:0:0:
448,192,30935,1,0,0:0:0:0:
64,192,31085,128,0,31160:0:0:0:100:kick.wav
192,192,31085,1,0,0:0:0:0:
192,192,31235,128,0,31535:0:0:0:100:kick.wav
448,192,31235,1,0,0:0:0:50:cymbal.wav
320,192,31385,128,0,31460:0:0:0:0:
64,192,31535,1,0,0:0:0:100:snare.wav
320,192,31535,1,0,0:0:0:0:
448,192,31535,128,0,31760:0:0:0:0:
64,192,31685,128,0,31760:0:0:0:0:
320,192,31835,128,0,32135:0:0:0:100:kick.wav
448,192,31835,1,0,0:0:0:0:
192,192,31985,128,0,32060:0:0:0:0:
64,192,32135,128,0,32360:0:0:0:100:snare.wav
192,192,32135,1,0,0:0:0:0:
448,192,32135,128,0,32210:0:0:0:0:
320,192,32285,1,0,0:0:0:100:kick.wav
448,192,32285,128,0,32360:0:0:0:0:
64,192,32435,1,0,0:0:0:100:snare.wav
192,192,32435,128,0,32810:0:0:0:50:cymbal.wav
320,192,32585,128,0,32660:0:0:0:0:
320,192,32735,128,0,32810:0:0:0:100:snare.wav
448,192,32735,1,0,0:0:0:0:
192,192,32885,1,0,0:0:0:100:kick.wav
320,192,32885,128,0,32960:0:0:0:0:
64,192,33035,128,0,33110:0:0:0:100:snare.wav
448,192,33035,1,0,0:0:0:0:
64,192,33185,128,0,33260:0:0:0:100:kick.wav
192,192,33185,1,0,0:0:0:0:
64,192,33335,128,0,33410:0:0:0:100:snare.wav
448,192,33335,1,0,0:0:0:0:
320,192,33485,1,0,0:0:0:100:kick.wav
448,192,33485,1,0,0:0:0:0:
192,192,33560,1,0,0:0:0:100:kick.wav
64,192,33635,128,0,33860:0:0:0:100:kick.wav
448,192,33635,1,0,0:0:0:50:cymbal.wav
320,192,33785,128,0,33860:0:0:0:0:
64,192,33935,128,0,34160:0:0:0:100:snare.wav
192,192,33935,1,0,0:0:0:0:
448,192,33935,1,0,0:0:0:0:
192,192,34085,128,0,34160:0:0:0:0:
320,192,34235,1,0,0:0:0:100:kick.wav
448,192,34235,128,0,34460:0:0:0:0:
320,192,34385,128,0,34460:0:0:0:0:
64,192,34535,1,0,0:0:0:100:snare.wav
192,192,34535,1,0,0:0:0:0:
448,192,34535,128,0,34760:0:0:0:0:
192,192,34685,128,0,34760:0:0:0:0:
64,192,34835,128,0,35060:0:0:0:100:kick.wav
320,192,34835,1,0,0:0:0:0:
448,192,34985,128,0,35060:0:0:0:0:
64,192,35135,1,0,0:0:0:100:snare.wav
320,192,35135,128,0,35285:0:0:0:0:
448,192,35135,1,0,0:0:0:0:
64,192,35285,128,0,35660:0:0:0:0:
320,192,35435,1,0,0:0:0:100:kick.wav
448,192,35435,128,0,35585:0:0:0:0:
192,192,35585,128,0,35660:0:0:0:0:
64,192,35735,1,0,0:0:0:100:snare.wav
320,192,35735,1,0,0:0:0:0:
448,192,35735,128,0,35810:0:0:0:0:
448,192,35885,128,0,35960:0:0:0:0:
64,192,36035,128,0,36260:0:0:0:100:kick.wav
192,192,36035,1,0,0:0:0:0:
320,192,36185,128,0,36260:0:0:0:0:
192,192,36335,128,0,36485:0:0:0:100:snare.wav
320,192,36335,1,0,0:0:0:0:
448,192,36335,1,0,0:0:0:0:
448,192,36485,128,0,36860:0:0:0:0:
64,192,36635,128,0,36785:0:0:0:100:kick.wav
192,192,36635,1,0,0:0:0:0:
320,192,36785,128,0,36860:0:0:0:0:
64,192,36935,1,0,0:0:0:100:snare.wav
192,192,36935,128,0,37010:0:0:0:0:
448,192,36935,1,0,0:0:0:0:
192,192,37085,128,0,37160:0:0:0:0:
64,192,37235,1,0,0:0:0:100:kick.wav
448,192,37235,128,0,37460:0:0:0:0:
64,192,37385,128,0,37460:0:0:0:0:
192,192,37535,1,0,0:0:0:100:snare.wav
320,192,37535,128,0,37760:0:0:0:0:
448,192,37535,1,0,0:0:0:0:
192,192,37685,128,0,37760:0:0:0:0:
64,192,37835,128,0,38060:0:0:0:100:kick.wav
448,192,37835,1,0,0:0:0:0:
192,192,37985,128,0,38060:0:0:0:0:
64,192,38135,1,0,0:0:0:100:snare.wav
320,192,38135,128,0,38360:0:0:0:0:
448,192,38135,1,0,0:0:0:0:
192,192,38285,128,0,38360:0:0:0:0:
64,192,38435,1,0,0:0:0:100:kick.wav
448,192,38435,128,0,38510:0:0:0:50:cymbal.wav
448,192,38585,128,0,38660:0:0:0:0:
64,192,38735,1,0,0:0:0:100:snare.wav
192,192,38735,128,0,38810:0:0:0:0:
320,192,38735,1,0,0:0:0:0:
192,192,38885,128,0,38960:0:0:0:0:
64,192,39035,1,0,0:0:0:100:kick.wav
448,192,39035,128,0,39260:0:0:0:0:
320,192,39185,128,0,39260:0:0:0:0:
64,192,39335,1,0,0:0:0:100:snare.wav
192,192,39335,128,0,39560:0:0:0:0:
448,192,39335,1,0,0:0:0:0:
320,192,39485,128,0,39560:0:0:0:0:
64,192,39635,1,0,0:0:0:100:kick.wav
448,192,39635,128,0,39935:0:0:0:50:cymbal.wav
192,192,39785,128,0,39860:0:0:0:0:
64,192,39935,128,0,40010:0:0:0:100:snare.wav
192,192,39935,1,0,0:0:0:0:
320,192,39935,1,0,0:0:0:0:
64,192,40085,128,0,40160:0:0:0:0:
192,192,40235,128,0,40535:0:0:0:100:kick.wav
448,192,40235,1,0,0:0:0:0:
320,192,40385,128,0,40460:0:0:0:0:
64,192,40535,1,0,0:0:0:100:snare.wav
320,192,40535,1,0,0:0:0:0:
448,192,40535,128,0,40610:0:0:0:0:
448,192,40685,128,0,40760:0:0:0:0:
64,192,40835,1,0,0:0:0:100:snare.wav
192,192,40835,1,0,0:0:0:30:snare_electronic.wav
320,192,40910,1,0,0:0:0:0:
192,192,40985,1,0,0:0:0:30:snare_electronic.wav
320,192,41060,1,0,0:0:0:0:
64,192,41135,1,0,0:0:0:30:snare_electronic.wav
448,192,41210,1,0,0:0:0:0:
320,192,41285,1,0,0:0:0:30:snare_electronic.wav
192,192,41360,1,0,0:0:0:0:
64,192,41435,1,0,0:0:0:30:snare_electronic.wav
448,192,41435,1,0,0:0:0:0:
64,192,41585,1,0,0:0:0:30:snare_electronic.wav
320,192,41735,1,0,0:0:0:30:snare_electronic.wav
448,192,41735,128,0,41810:0:0:0:0:
192,192,41810,128,0,41960:0:0:0:0:
320,192,41885,128,0,41960:0:0:0:30:snare_electronic.wav
448,192,41960,1,0,0:0:0:0:
64,192,42035,1,0,0:0:0:30:snare_electronic.wav
192,192,42035,1,0,0:0:0:0:
320,192,42110,1,0,0:0:0:30:snare_electronic.wav
64,192,42185,1,0,0:0:0:30:snare_electronic.wav
192,192,42260,1,0,0:0:0:30:snare_electronic.wav
320,192,42335,1,0,0:0:0:30:snare_electronic.wav
448,192,42335,1,0,0:0:0:0:
192,192,42410,1,0,0:0:0:30:snare_electronic.wav
448,192,42485,1,0,0:0:0:30:snare_electronic.wav
320,192,42560,1,0,0:0:0:30:snare_electronic.wav
64,192,42635,1,0,0:0:0:30:snare_electronic.wav
192,192,42635,1,0,0:0:0:0:
64,192,42785,1,0,0:0:0:30:snare_electronic.wav
448,192,42785,1,0,0:0:0:0:
192,192,42935,1,0,0:0:0:30:snare_electronic.wav
320,192,42935,1,0,0:0:0:0:
448,192,42935,1,0,0:0:0:0:
64,192,43085,1,0,0:0:0:30:snare_electronic.wav
320,192,43085,1,0,0:0:0:0:
64,192,43235,1,0,0:0:0:100:kick.wav
192,192,43235,1,0,0:0:0:50:cymbal.wav
448,192,43235,128,0,43460:0:0:0:0:
192,192,43385,128,0,43460:0:0:0:0:
64,192,43535,1,0,0:0:0:100:snare.wav
320,192,43535,1,0,0:0:0:0:
448,192,43535,128,0,43760:0:0:0:0:
64,192,43685,128,0,43760:0:0:0:0:
320,192,43835,1,0,0:0:0:100:kick.wav
448,192,43835,128,0,43985:0:0:0:0:
192,192,43985,128,0,44285:0:0:0:0:
64,192,44135,128,0,44285:0:0:0:100:snare.wav
320,192,44135,1,0,0:0:0:0:
448,192,44135,1,0,0:0:0:0:
320,192,44285,128,0,44660:0:0:0:0:
64,192,44360,128,0,44435:0:0:0:0:
192,192,44435,128,0,44660:0:0:0:100:kick.wav
448,192,44435,1,0,0:0:0:0:
448,192,44585,128,0,44660:0:0:0:0:
64,192,44735,128,0,45035:0:0:0:100:snare.wav
192,192,44735,1,0,0:0:0:0:
448,192,44735,1,0,0:0:0:0:
320,192,44885,128,0,45035:0:0:0:0:
192,192,45035,128,0,45260:0:0:0:100:kick.wav
448,192,45035,1,0,0:0:0:0:
64,192,45185,128,0,45260:0:0:0:0:
64,192,45335,1,0,0:0:0:100:snare.wav
192,192,45335,1,0,0:0:0:0:
320,192,45335,128,0,45485:0:0:0:0:
448,192,45485,128,0,45860:0:0:0:0:
192,192,45560,128,0,45635:0:0:0:0:
64,192,45635,128,0,45860:0:0:0:100:kick.wav
320,192,45635,1,0,0:0:0:0:
320,192,45785,128,0,45860:0:0:0:0:
64,192,45935,1,0,0:0:0:100:snare.wav
192,192,45935,128,0,46160:0:0:0:0:
448,192,45935,1,0,0:0:0:0:
320,192,46085,128,0,46160:0:0:0:0:
64,192,46235,128,0,46385:0:0:0:100:kick.wav
448,192,46235,1,0,0:0:0:0:
320,192,46385,128,0,46685:0:0:0:0:
64,192,46535,128,0,46685:0:0:0:100:snare.wav
192,192,46535,1,0,0:0:0:0:
448,192,46535,1,0,0:0:0:0:
192,192,46685,128,0,47060:0:0:0:0:
320,192,46835,1,0,0:0:0:100:kick.wav
448,192,46835,128,0,47060:0:0:0:0:
64,192,46985,128,0,47060:0:0:0:0:
64,192,47135,1,0,0:0:0:100:snare.wav
192,192,47135,128,0,47360:0:0:0:0:
448,192,47135,1,0,0:0:0:0:
64,192,47285,128,0,47360:0:0:0:0:
320,192,47435,128,0,47660:0:0:0:100:kick.wav
448,192,47435,1,0,0:0:0:0:
192,192,47585,128,0,47660:0:0:0:0:
64,192,47735,128,0,47960:0:0:0:100:snare.wav
192,192,47735,1,0,0:0:0:0:
448,192,47735,128,0,47810:0:0:0:0:
320,192,47885,1,0,0:0:0:100:kick.wav
448,192,47885,128,0,47960:0:0:0:0:
192,192,48035,128,0,48110:0:0:0:100:kick.wav
448,192,48035,1,0,0:0:0:50:cymbal.wav
192,192,48185,128,0,48260:0:0:0:0:
64,192,48335,1,0,0:0:0:100:snare.wav
320,192,48335,128,0,48410:0:0:0:0:
448,192,48335,1,0,0:0:0:0:
320,192,48485,128,0,48560:0:0:0:0:
64,192,48635,1,0,0:0:0:100:kick.wav
192,192,48635,128,0,48785:0:0:0:0:
448,192,48785,128,0,49085:0:0:0:0:
64,192,48935,1,0,0:0:0:100:snare.wav
192,192,48935,1,0,0:0:0:0:
320,192,48935,128,0,49085:0:0:0:0:
64,192,49085,128,0,49460:0:0:0:0:
192,192,49160,128,0,49235:0:0:0:0:
320,192,49235,128,0,49460:0:0:0:100:kick.wav
448,192,49235,1,0,0:0:0:0:
192,192,49385,128,0,49460:0:0:0:0:
192,192,49535,1,0,0:0:0:100:snare.wav
320,192,49535,1,0,0:0:0:0:
448,192,49535,128,0,49610:0:0:0:0:
448,192,49685,128,0,49760:0:0:0:0:
64,192,49835,128,0,49910:0:0:0:100:kick.wav
192,192,49835,1,0,0:0:0:0:
64,192,49985,128,0,50060:0:0:0:0:
192,192,50135,1,0,0:0:0:100:snare.wav
320,192,50135,128,0,50285:0:0:0:0:
448,192,50135,1,0,0:0:0:0:
64,192,50285,1,0,0:0:0:100:kick.wav
192,192,50285,128,0,50660:0:0:0:0:
320,192,50435,1,0,0:0:0:100:kick.wav
448,192,50435,128,0,50660:0:0:0:50:cymbal.wav
64,192,50585,128,0,50660:0:0:0:0:
64,192,50735,1,0,0:0:0:100:snare.wav
320,192,50735,128,0,50885:0:0:0:0:
448,192,50735,1,0,0:0:0:0:
192,192,50885,128,0,51185:0:0:0:0:
64,192,51035,128,0,51185:0:0:0:100:kick.wav
320,192,51035,1,0,0:0:0:0:
448,192,51185,128,0,51485:0:0:0:0:
64,192,51335,128,0,51410:0:0:0:100:snare.wav
192,192,51335,1,0,0:0:0:0:
320,192,51335,1,0,0:0:0:0:
64,192,51485,128,0,51560:0:0:0:100:kick.wav
192,192,51485,1,0,0:0:0:0:
320,192,51635,128,0,51935:0:0:0:100:snare.wav
448,192,51635,1,0,0:0:0:50:cymbal.wav
64,192,51785,128,0,51860:0:0:0:0:
64,192,51935,1,0,0:0:0:100:snare.wav
448,192,51935,1,0,0:0:0:0:
320,192,52085,1,0,0:0:0:100:kick.wav
448,192,52085,1,0,0:0:0:0:
64,192,52235,1,0,0:0:0:100:snare.wav
320,192,52235,1,0,0:0:0:0:
64,192,52385,1,0,0:0:0:100:kick.wav
192,192,52385,1,0,0:0:0:0:
192,192,52535,1,0,0:0:0:100:snare.wav
320,192,52535,1,0,0:0:0:0:
448,192,52535,1,0,0:0:0:0:
64,192,52685,1,0,0:0:0:100:kick.wav
448,192,52685,1,0,0:0:0:0:
320,192,52760,1,0,0:0:0:100:kick.wav
64,192,52835,128,0,53060:0:0:0:100:kick.wav
192,192,52835,1,0,0:0:0:50:cymbal.wav
448,192,52835,1,0,0:0:0:0:
320,192,52985,128,0,53060:0:0:0:0:
64,192,53135,128,0,53360:0:0:0:100:snare.wav
192,192,53135,1,0,0:0:0:0:
448,192,53135,1,0,0:0:0:0:
448,192,53285,128,0,53360:0:0:0:0:
64,192,53435,128,0,53585:0:0:0:100:kick.wav
192,192,53435,1,0,0:0:0:0:
320,192,53585,128,0,53885:0:0:0:0:
64,192,53735,1,0,0:0:0:100:snare.wav
192,192,53735,1,0,0:0:0:0:
448,192,53735,128,0,53885:0:0:0:0:
192,192,53885,128,0,54260:0:0:0:0:
448,192,53960,128,0,54035:0:0:0:0:
64,192,54035,1,0,0:0:0:100:kick.wav
320,192,54035,128,0,54185:0:0:0:0:
64,192,54185,128,0,54260:0:0:0:0:
64,192,54335,1,0,0:0:0:100:snare.wav
192,192,54335,1,0,0:0:0:0:
320,192,54335,128,0,54560:0:0:0:0:
448,192,54485,128,0,54560:0:0:0:0:
64,192,54635,128,0,54860:0:0:0:100:kick.wav
448,192,54635,1,0,0:0:0:0:
192,192,54785,128,0,54860:0:0:0:0:
320,192,54935,1,0,0:0:0:100:snare.wav
448,192,54935,128,0,55160:0:0:0:0:
192,192,55085,128,0,55160:0:0:0:0:
320,192,55235,128,0,55460:0:0:0:100:kick.wav
448,192,55235,1,0,0:0:0:0:
64,192,55385,128,0,55460:0:0:0:0:
64,192,55535,1,0,0:0:0:100:snare.wav
192,192,55535,128,0,55760:0:0:0:0:
448,192,55535,1,0,0:0:0:0:
320,192,55685,128,0,55760:0:0:0:0:
64,192,55835,128,0,55985:0:0:0:100:kick.wav
448,192,55835,1,0,0:0:0:0:
320,192,55985,128,0,56285:0:0:0:0:
64,192,56135,128,0,56285:0:0:0:100:snare.wav
192,192,56135,1,0,0:0:0:0:
448,192,56135,1,0,0:0:0:0:
192,192,56285,128,0,56660:0:0:0:0:
320,192,56435,1,0,0:0:0:100:kick.wav
448,192,56435,128,0,56660:0:0:0:0:
64,192,56585,128,0,56660:0:0:0:0:
192,192,56735,1,0,0:0:0:100:snare.wav
320,192,56735,128,0,56960:0:0:0:0:
448,192,56735,1,0,0:0:0:0:
448,192,56885,128,0,56960:0:0:0:0:
64,192,57035,1,0,0:0:0:100:kick.wav
192,192,57035,128,0,57260:0:0:0:0:
320,192,57185,128,0,57260:0:0:0:0:
64,192,57335,128,0,57560:0:0:0:100:snare.wav
320,192,57335,1,0,0:0:0:0:
448,192,57335,1,0,0:0:0:0:
192,192,57485,128,0,57560:0:0:0:0:
64,192,57635,1,0,0:0:0:100:kick.wav
448,192,57635,128,0,57710:0:0:0:50:cymbal.wav
448,192,57785,128,0,57860:0:0:0:0:
64,192,57935,1,0,0:0:0:100:snare.wav
192,192,57935,128,0,58010:0:0:0:0:
320,192,57935,1,0,0:0:0:0:
192,192,58085,128,0,58160:0:0:0:0:
64,192,58235,128,0,58385:0:0:0:100:kick.wav
448,192,58235,1,0,0:0:0:0:
192,192,58385,128,0,58685:0:0:0:0:
64,192,58535,1,0,0:0:0:100:snare.wav
320,192,58535,1,0,0:0:0:0:
448,192,58535,1,0,0:0:0:0:
320,192,58685,128,0,59060:0:0:0:0:
64,192,58760,128,0,58835:0:0:0:0:
192,192,58835,1,0,0:0:0:100:kick.wav
448,192,58835,1,0,0:0:0:50:cymbal.wav
448,192,58985,128,0,59060:0:0:0:0:
64,192,59135,128,0,59210:0:0:0:100:snare.wav
320,192,59135,1,0,0:0:0:0:
448,192,59135,1,0,0:0:0:0:
64,192,59285,128,0,59360:0:0:0:0:
320,192,59435,128,0,59510:0:0:0:100:kick.wav
448,192,59435,1,0,0:0:0:0:
320,192,59585,128,0,59660:0:0:0:0:
64,192,59735,1,0,0:0:0:100:snare.wav
192,192,59735,128,0,59810:0:0:0:0:
448,192,59735,1,0,0:0:0:0:
192,192,59885,128,0,59960:0:0:0:0:
64,192,60035,128,0,60335:0:0:0:100:kick.wav
320,192,60035,1,0,0:0:0:50:cymbal.wav
448,192,60035,128,0,60335:0:0:0:0:
192,192,60335,128,0,60485:0:0:0:30:snare_electronic.wav
320,192,60335,1,0,0:0:0:0:
448,192,60485,128,0,60785:0:0:0:0:
192,192,60635,1,0,0:0:0:30:snare_electronic.wav
320,192,60635,1,0,0:0:0:0:
64,192,60785,128,0,60935:0:0:0:0:
192,192,60935,128,0,61085:0:0:0:30:snare_electronic.wav
320,192,60935,1,0,0:0:0:0:
448,192,61085,128,0,61235:0:0:0:0:
64,192,61235,1,0,0:0:0:30:snare_electronic.wav
192,192,61235,1,0,0:0:0:0:
320,192,61310,1,0,0:0:0:30:snare_electronic.wav
64,192,61385,1,0,0:0:0:30:snare_electronic.wav
192,192,61460,1,0,0:0:0:30:snare_electronic.wav
320,192,61535,1,0,0:0:0:30:snare_electronic.wav
448,192,61535,1,0,0:0:0:0:
64,192,61610,1,0,0:0:0:30:snare_electronic.wav
448,192,61685,1,0,0:0:0:30:snare_electronic.wav
192,192,61760,1,0,0:0:0:30:snare_electronic.wav
64,192,61835,1,0,0:0:0:30:snare_electronic.wav
448,192,61835,1,0,0:0:0:0:
320,192,61910,1,0,0:0:0:30:snare_electronic.wav
192,192,61985,1,0,0:0:0:30:snare_electronic.wav
320,192,62060,1,0,0:0:0:30:snare_electronic.wav
64,192,62135,1,0,0:0:0:30:snare_electronic.wav
448,192,62135,1,0,0:0:0:0:
192,192,62210,1,0,0:0:0:30:snare_electronic.wav
320,192,62285,1,0,0:0:0:30:snare_electronic.wav
192,192,62360,1,0,0:0:0:30:snare_electronic.wav
64,192,62435,1,0,0:0:0:100:kick.wav
320,192,62435,128,0,63335:0:0:0:50:cymbal.wav
448,192,62435,128,0,63635:0:0:0:0:
64,192,62885,1,0,0:0:0:70:drum.wav
64,192,63035,1,0,0:0:0:70:drum.wav
64,192,63335,128,0,63635:0:0:0:70:drum.wav
320,192,63785,1,0,0:0:0:70:drum.wav
320,192,63935,1,0,0:0:0:70:drum.wav
320,192,64235,1,0,0:0:0:70:drum.wav
320,192,64535,1,0,0:0:0:70:drum.wav
192,192,64835,1,0,0:0:0:70:drum.wav
192,192,65285,1,0,0:0:0:70:drum.wav
192,192,65435,1,0,0:0:0:70:drum.wav
192,192,65735,1,0,0:0:0:70:drum.wav
448,192,66185,1,0,0:0:0:70:drum.wav
448,192,66335,1,0,0:0:0:70:drum.wav
448,192,66635,1,0,0:0:0:70:drum.wav
320,192,66710,1,0,0:0:0:0:
192,192,66785,1,0,0:0:0:0:
448,192,66935,1,0,0:0:0:70:drum.wav
64,192,67010,1,0,0:0:0:0:
320,192,67085,1,0,0:0:0:0:
192,192,67160,1,0,0:0:0:0:
64,192,67235,1,0,0:0:0:100:kick.wav
320,192,67235,1,0,0:0:0:30:snare_electronic.wav
448,192,67235,1,0,0:0:0:0:
192,192,67535,1,0,0:0:0:30:snare_electronic.wav
320,192,67535,1,0,0:0:0:0:
64,192,67835,1,0,0:0:0:30:snare_electronic.wav
192,192,67835,1,0,0:0:0:0:
320,192,68135,1,0,0:0:0:30:snare_electronic.wav
448,192,68135,1,0,0:0:0:0:
64,192,68435,1,0,0:0:0:100:kick.wav
192,192,68435,1,0,0:0:0:30:snare_electronic.wav
448,192,68435,1,0,0:0:0:0:
192,192,68735,1,0,0:0:0:30:snare_electronic.wav
320,192,68735,1,0,0:0:0:0:
320,192,69035,1,0,0:0:0:30:snare_electronic.wav
448,192,69035,1,0,0:0:0:0:
64,192,69335,1,0,0:0:0:30:snare_electronic.wav
192,192,69335,1,0,0:0:0:0:
320,192,69635,1,0,0:0:0:100:kick.wav
448,192,69635,1,0,0:0:0:30:snare_electronic.wav
192,192,69785,1,0,0:0:0:30:snare_electronic.wav
448,192,69785,1,0,0:0:0:0:
64,192,69935,1,0,0:0:0:30:snare_electronic.wav
192,192,69935,1,0,0:0:0:0:
64,192,70085,1,0,0:0:0:30:snare_electronic.wav
320,192,70085,1,0,0:0:0:0:
320,192,70235,1,0,0:0:0:100:kick.wav
448,192,70235,1,0,0:0:0:30:snare_electronic.wav
64,192,70385,1,0,0:0:0:30:snare_electronic.wav
192,192,70385,1,0,0:0:0:0:
64,192,70535,1,0,0:0:0:30:snare_electronic.wav
448,192,70535,1,0,0:0:0:0:
192,192,70685,1,0,0:0:0:30:snare_electronic.wav
320,192,70685,1,0,0:0:0:0:
64,192,70835,1,0,0:0:0:100:kick.wav
448,192,70835,1,0,0:0:0:30:snare_electronic.wav
320,192,70910,1,0,0:0:0:30:snare_electronic.wav
192,192,70985,1,0,0:0:0:30:snare_electronic.wav
64,192,71060,1,0,0:0:0:30:snare_electronic.wav
320,192,71135,1,0,0:0:0:100:kick.wav
448,192,71135,1,0,0:0:0:30:snare_electronic.wav
64,192,71210,1,0,0:0:0:30:snare_electronic.wav
192,192,71285,1,0,0:0:0:30:snare_electronic.wav
320,192,71360,1,0,0:0:0:30:snare_electronic.wav
192,192,71435,128,0,71585:0:0:0:100:kick.wav
448,192,71435,128,0,71735:0:0:0:0:
64,192,71585,128,0,71735:0:0:0:0:
192,192,71735,1,0,0:0:0:100:snare.wav
320,192,71735,1,0,0:0:0:100:echo_snare.wav
192,192,72035,128,0,72635:0:0:0:100:kick.wav
320,192,72035,1,0,0:0:0:50:cymbal.wav
448,192,72035,128,0,72110:0:0:0:0:
448,192,72185,128,0,72260:0:0:0:0:
448,192,72335,128,0,72410:0:0:0:0:
448,192,72485,128,0,72560:0:0:0:0:
64,192,72635,1,0,0:0:0:100:snare.wav
320,192,72635,128,0,72935:0:0:0:0:
448,192,72635,1,0,0:0:0:0:
192,192,72935,128,0,73010:0:0:0:100:kick.wav
448,192,72935,128,0,73235:0:0:0:0:
192,192,73085,128,0,73160:0:0:0:0:
64,192,73235,128,0,73835:0:0:0:0:
320,192,73235,128,0,73310:0:0:0:0:
320,192,73385,128,0,73460:0:0:0:0:
320,192,73535,128,0,73610:0:0:0:100:kick.wav
448,192,73535,1,0,0:0:0:0:
320,192,73685,128,0,73760:0:0:0:0:
192,192,73835,1,0,0:0:0:100:snare.wav
320,192,73835,1,0,0:0:0:0:
448,192,73835,128,0,74435:0:0:0:0:
192,192,73985,128,0,74135:0:0:0:0:
64,192,74135,128,0,74435:0:0:0:0:
192,192,74435,128,0,74510:0:0:0:100:kick.wav
320,192,74435,128,0,75035:0:0:0:0:
192,192,74585,128,0,74660:0:0:0:0:
192,192,74735,128,0,74810:0:0:0:0:
192,192,74885,128,0,74960:0:0:0:0:
64,192,75035,1,0,0:0:0:100:snare.wav
192,192,75035,128,0,75335:0:0:0:0:
448,192,75035,1,0,0:0:0:0:
64,192,75335,128,0,75410:0:0:0:100:kick.wav
320,192,75335,128,0,75635:0:0:0:0:
64,192,75485,128,0,75560:0:0:0:0:
192,192,75635,128,0,75710:0:0:0:0:
448,192,75635,128,0,76235:0:0:0:0:
64,192,75785,1,0,0:0:0:100:kick.wav
192,192,75785,128,0,75860:0:0:0:0:
64,192,75935,1,0,0:0:0:100:kick.wav
192,192,75935,128,0,76010:0:0:0:0:
192,192,76085,128,0,76160:0:0:0:0:
64,192,76235,128,0,76835:0:0:0:100:snare.wav
192,192,76235,1,0,0:0:0:0:
320,192,76235,1,0,0:0:0:0:
448,192,76535,128,0,76835:0:0:0:0:
192,192,76835,128,0,77435:0:0:0:100:kick.wav
320,192,76835,128,0,76910:0:0:0:50:cymbal.wav
320,192,76985,128,0,77060:0:0:0:0:
320,192,77135,128,0,77210:0:0:0:0:
320,192,77285,128,0,77360:0:0:0:0:
64,192,77435,1,0,0:0:0:100:snare.wav
320,192,77435,1,0,0:0:0:0:
448,192,77435,128,0,77735:0:0:0:0:
64,192,77735,128,0,77810:0:0:0:100:kick.wav
320,192,77735,128,0,78035:0:0:0:0:
64,192,77885,128,0,77960:0:0:0:0:
192,192,78035,128,0,78110:0:0:0:0:
448,192,78035,128,0,78635:0:0:0:0:
192,192,78185,128,0,78260:0:0:0:0:
64,192,78335,1,0,0:0:0:100:kick.wav
192,192,78335,128,0,78410:0:0:0:0:
192,192,78485,128,0,78560:0:0:0:0:
64,192,78635,128,0,79235:0:0:0:100:snare.wav
192,192,78635,1,0,0:0:0:0:
320,192,78635,1,0,0:0:0:0:
192,192,78785,128,0,78935:0:0:0:0:
320,192,78935,128,0,79235:0:0:0:0:
192,192,79235,128,0,79310:0:0:0:100:kick.wav
448,192,79235,128,0,79835:0:0:0:0:
192,192,79385,128,0,79460:0:0:0:0:
192,192,79535,128,0,79610:0:0:0:0:
192,192,79685,128,0,79760:0:0:0:0:
64,192,79835,1,0,0:0:0:100:snare.wav
192,192,79835,1,0,0:0:0:0:
320,192,79835,128,0,80135:0:0:0:0:
192,192,80135,128,0,80435:0:0:0:100:kick.wav
448,192,80135,128,0,80210:0:0:0:0:
448,192,80285,128,0,80360:0:0:0:0:
64,192,80435,128,0,81035:0:0:0:0:
320,192,80435,128,0,80510:0:0:0:0:
320,192,80585,128,0,80660:0:0:0:100:kick.wav
448,192,80585,1,0,0:0:0:0:
320,192,80735,128,0,80810:0:0:0:100:kick.wav
448,192,80735,1,0,0:0:0:0:
320,192,80885,128,0,80960:0:0:0:0:
192,192,81035,1,0,0:0:0:100:snare.wav
320,192,81035,1,0,0:0:0:0:
448,192,81035,128,0,81635:0:0:0:0:
64,192,81185,128,0,81335:0:0:0:0:
192,192,81335,128,0,81635:0:0:0:0:
64,192,81635,128,0,81710:0:0:0:100:kick.wav
320,192,81635,128,0,82235:0:0:0:50:cymbal.wav
64,192,81785,128,0,81860:0:0:0:0:
64,192,81935,128,0,82010:0:0:0:0:
64,192,82085,128,0,82160:0:0:0:0:
64,192,82235,1,0,0:0:0:100:snare.wav
192,192,82235,128,0,82535:0:0:0:0:
448,192,82235,1,0,0:0:0:0:
64,192,82535,128,0,82610:0:0:0:100:kick.wav
320,192,82535,128,0,82835:0:0:0:0:
64,192,82685,128,0,82760:0:0:0:0:
192,192,82835,128,0,82910:0:0:0:0:
448,192,82835,128,0,83435:0:0:0:0:
192,192,82985,128,0,83060:0:0:0:0:
64,192,83135,1,0,0:0:0:100:kick.wav
192,192,83135,128,0,83210:0:0:0:0:
192,192,83285,128,0,83360:0:0:0:0:
64,192,83435,128,0,84035:0:0:0:100:snare.wav
192,192,83435,1,0,0:0:0:0:
320,192,83435,1,0,0:0:0:0:
192,192,83585,128,0,83735:0:0:0:0:
448,192,83735,128,0,84035:0:0:0:0:
192,192,84035,128,0,84635:0:0:0:100:kick.wav
320,192,84035,128,0,84110:0:0:0:0:
320,192,84185,128,0,84260:0:0:0:0:
320,192,84335,128,0,84410:0:0:0:0:
320,192,84485,128,0,84560:0:0:0:0:
64,192,84635,1,0,0:0:0:100:snare.wav
320,192,84635,128,0,84935:0:0:0:0:
448,192,84635,1,0,0:0:0:0:
192,192,84935,128,0,85235:0:0:0:100:kick.wav
448,192,84935,128,0,85010:0:0:0:0:
448,192,85085,128,0,85160:0:0:0:0:
64,192,85235,128,0,85835:0:0:0:0:
320,192,85235,128,0,85310:0:0:0:0:
320,192,85385,128,0,85460:0:0:0:100:kick.wav
448,192,85385,1,0,0:0:0:0:
320,192,85535,128,0,85610:0:0:0:100:kick.wav
448,192,85535,1,0,0:0:0:0:
320,192,85685,128,0,85760:0:0:0:0:
192,192,85835,1,0,0:0:0:100:snare.wav
320,192,85835,1,0,0:0:0:0:
448,192,85835,128,0,86435:0:0:0:0:
64,192,86135,128,0,86435:0:0:0:0:
192,192,86435,128,0,86510:0:0:0:100:kick.wav
320,192,86435,128,0,87035:0:0:0:50:cymbal.wav
192,192,86585,128,0,86660:0:0:0:0:
192,192,86735,128,0,86810:0:0:0:0:
192,192,86885,128,0,86960:0:0:0:0:
64,192,87035,128,0,87335:0:0:0:100:snare.wav
192,192,87035,1,0,0:0:0:0:
448,192,87035,1,0,0:0:0:0:
192,192,87335,128,0,87635:0:0:0:100:kick.wav
448,192,87335,128,0,87410:0:0:0:0:
448,192,87485,128,0,87560:0:0:0:0:
64,192,87635,128,0,88235:0:0:0:0:
320,192,87635,128,0,87710:0:0:0:0:
320,192,87785,128,0,87860:0:0:0:0:
320,192,87935,128,0,88010:0:0:0:100:kick.wav
448,192,87935,1,0,0:0:0:0:
320,192,88085,128,0,88160:0:0:0:0:
192,192,88235,1,0,0:0:0:100:snare.wav
320,192,88235,1,0,0:0:0:0:
448,192,88235,128,0,88835:0:0:0:0:
320,192,88385,128,0,88535:0:0:0:0:
192,192,88535,128,0,88835:0:0:0:0:
64,192,88835,128,0,89435:0:0:0:100:kick.wav
320,192,88835,128,0,88910:0:0:0:0:
320,192,88985,128,0,89060:0:0:0:0:
192,192,89135,1,0,0:0:0:100:kick.wav
320,192,89135,128,0,89210:0:0:0:0:
320,192,89285,128,0,89360:0:0:0:0:
192,192,89435,1,0,0:0:0:100:snare.wav
320,192,89435,128,0,89735:0:0:0:0:
448,192,89435,1,0,0:0:0:0:
192,192,89735,128,0,90035:0:0:0:100:kick.wav
448,192,89735,128,0,89810:0:0:0:0:
448,192,89885,128,0,89960:0:0:0:0:
64,192,90035,128,0,90110:0:0:0:100:kick.wav
320,192,90035,128,0,90260:0:0:0:50:cymbal.wav
64,192,90185,128,0,90260:0:0:0:0:
320,192,90635,128,0,91085:0:0:0:0:
192,192,90785,128,0,91235:0:0:0:0:
64,192,91235,128,0,91835:0:0:0:50:cymbal.wav
320,192,91235,1,0,0:0:0:0:
448,192,91235,1,0,0:0:0:0:
448,192,91835,128,0,92435:0:0:0:0:
192,192,92435,128,0,92735:0:0:0:0:
320,192,92735,128,0,92885:0:0:0:0:
192,192,92885,128,0,93335:0:0:0:0:
320,192,93335,128,0,93635:0:0:0:0:
64,192,93635,128,0,93935:0:0:0:0:
320,192,93935,128,0,94085:0:0:0:0:
64,192,94085,128,0,94535:0:0:0:0:
192,192,94535,128,0,94835:0:0:0:0:
320,192,94835,128,0,95435:0:0:0:0:
64,192,95435,128,0,95735:0:0:0:0:
192,192,95735,128,0,96035:0:0:0:0:
448,192,96035,128,0,96635:0:0:0:0:
64,192,96635,128,0,97235:0:0:0:0:
320,192,97235,128,0,97535:0:0:0:0:
448,192,97535,128,0,97685:0:0:0:0:
320,192,97685,128,0,98135:0:0:0:0:
64,192,98135,128,0,98435:0:0:0:0:
192,192,98435,128,0,98735:0:0:0:0:
64,192,98735,128,0,99035:0:0:0:0:
192,192,99035,128,0,99335:0:0:0:0:
320,192,99335,128,0,99635:0:0:0:0:
192,192,99635,128,0,100235:0:0:0:0:
448,192,100235,128,0,100835:0:0:0:0:
64,192,100835,128,0,101435:0:0:0:50:cymbal.wav
192,192,100835,1,0,0:0:0:0:
192,192,100985,1,0,0:0:0:0:
320,192,101135,1,0,0:0:0:100:snare.wav
448,192,101135,1,0,0:0:0:0:
192,192,101285,1,0,0:0:0:0:
320,192,101360,1,0,0:0:0:0:
448,192,101435,128,0,102035:0:0:0:0:
320,192,101585,1,0,0:0:0:0:
64,192,101735,1,0,0:0:0:100:snare.wav
192,192,101735,1,0,0:0:0:0:
320,192,101885,1,0,0:0:0:0:
192,192,102035,128,0,102335:0:0:0:0:
64,192,102185,1,0,0:0:0:0:
320,192,102335,128,0,102485:0:0:0:100:snare.wav
448,192,102335,1,0,0:0:0:0:
192,192,102485,128,0,102935:0:0:0:0:
448,192,102560,1,0,0:0:0:0:
320,192,102635,1,0,0:0:0:0:
64,192,102785,1,0,0:0:0:0:
320,192,102935,128,0,103235:0:0:0:100:snare.wav
448,192,102935,1,0,0:0:0:0:
192,192,103085,1,0,0:0:0:0:
64,192,103235,128,0,103535:0:0:0:0:
192,192,103385,1,0,0:0:0:0:
320,192,103535,128,0,103685:0:0:0:100:snare.wav
448,192,103535,1,0,0:0:0:0:
64,192,103685,128,0,104135:0:0:0:0:
192,192,103760,1,0,0:0:0:0:
448,192,103835,1,0,0:0:0:0:
320,192,103985,1,0,0:0:0:0:
192,192,104135,128,0,104435:0:0:0:100:snare.wav
448,192,104135,1,0,0:0:0:0:
64,192,104285,1,0,0:0:0:0:
320,192,104435,128,0,105035:0:0:0:0:
448,192,104510,1,0,0:0:0:0:
64,192,104585,1,0,0:0:0:0:
448,192,104660,1,0,0:0:0:0:
64,192,104735,1,0,0:0:0:100:snare.wav
192,192,104735,1,0,0:0:0:0:
448,192,104885,1,0,0:0:0:0:
192,192,104960,1,0,0:0:0:0:
64,192,105035,128,0,105335:0:0:0:0:
448,192,105185,1,0,0:0:0:0:
192,192,105335,128,0,105635:0:0:0:100:snare.wav
320,192,105335,1,0,0:0:0:0:
64,192,105485,1,0,0:0:0:0:
64,192,105635,1,0,0:0:0:100:kick.wav
320,192,105635,1,0,0:0:0:30:snare_electronic.wav
448,192,105635,128,0,106235:0:0:0:50:cymbal.wav
64,192,105935,1,0,0:0:0:30:snare_electronic.wav
192,192,105935,1,0,0:0:0:0:
64,192,106235,128,0,106835:0:0:0:30:snare_electronic.wav
320,192,106235,1,0,0:0:0:0:
320,192,106535,1,0,0:0:0:30:snare_electronic.wav
448,192,106535,1,0,0:0:0:0:
192,192,106835,1,0,0:0:0:100:kick.wav
320,192,106835,128,0,107135:0:0:0:30:snare_electronic.wav
448,192,106835,1,0,0:0:0:50:cymbal.wav
64,192,107135,1,0,0:0:0:30:snare_electronic.wav
448,192,107135,128,0,107285:0:0:0:0:
320,192,107285,128,0,107735:0:0:0:0:
64,192,107435,1,0,0:0:0:30:snare_electronic.wav
192,192,107435,1,0,0:0:0:0:
64,192,107735,128,0,108035:0:0:0:30:snare_electronic.wav
448,192,107735,1,0,0:0:0:0:
192,192,108035,1,0,0:0:0:100:kick.wav
320,192,108035,1,0,0:0:0:30:snare_electronic.wav
448,192,108035,1,0,0:0:0:50:cymbal.wav
320,192,108185,1,0,0:0:0:30:snare_electronic.wav
448,192,108185,1,0,0:0:0:0:
64,192,108335,1,0,0:0:0:30:snare_electronic.wav
192,192,108335,1,0,0:0:0:0:
64,192,108485,1,0,0:0:0:30:snare_electronic.wav
320,192,108485,1,0,0:0:0:0:
192,192,108635,1,0,0:0:0:100:kick.wav
448,192,108635,1,0,0:0:0:30:snare_electronic.wav
320,192,108785,1,0,0:0:0:30:snare_electronic.wav
448,192,108785,1,0,0:0:0:0:
64,192,108935,1,0,0:0:0:30:snare_electronic.wav
320,192,108935,1,0,0:0:0:0:
64,192,109085,1,0,0:0:0:30:snare_electronic.wav
192,192,109085,1,0,0:0:0:0:
192,192,109235,128,0,109385:0:0:0:100:kick.wav
320,192,109235,1,0,0:0:0:50:cymbal.wav
448,192,109235,128,0,109535:0:0:0:0:
448,192,109835,1,0,0:0:0:0:
320,192,109910,1,0,0:0:0:0:
192,192,109985,1,0,0:0:0:0:
320,192,110060,1,0,0:0:0:0:
64,192,110135,1,0,0:0:0:100:snare.wav
448,192,110135,1,0,0:0:0:100:echo_snare.wav
192,192,110210,1,0,0:0:0:0:
320,192,110285,1,0,0:0:0:0:
192,192,110360,1,0,0:0:0:0:
64,192,110435,1,0,0:0:0:100:kick.wav
320,192,110435,1,0,0:0:0:50:cymbal.wav
448,192,110435,128,0,110660:0:0:0:0:
320,192,110585,128,0,110660:0:0:0:0:
64,192,110735,1,0,0:0:0:100:snare.wav
192,192,110735,1,0,0:0:0:0:
448,192,110735,128,0,110960:0:0:0:0:
64,192,110885,128,0,110960:0:0:0:0:
320,192,111035,1,0,0:0:0:100:kick.wav
448,192,111035,128,0,111185:0:0:0:0:
192,192,111185,128,0,111485:0:0:0:0:
64,192,111335,128,0,111485:0:0:0:100:snare.wav
320,192,111335,1,0,0:0:0:0:
448,192,111335,1,0,0:0:0:0:
320,192,111485,128,0,111860:0:0:0:0:
64,192,111560,128,0,111635:0:0:0:0:
192,192,111635,128,0,111860:0:0:0:100:kick.wav
448,192,111635,1,0,0:0:0:0:
448,192,111785,128,0,111860:0:0:0:0:
64,192,111935,128,0,112235:0:0:0:100:snare.wav
192,192,111935,1,0,0:0:0:0:
448,192,111935,1,0,0:0:0:0:
320,192,112085,128,0,112235:0:0:0:0:
192,192,112235,128,0,112460:0:0:0:100:kick.wav
448,192,112235,1,0,0:0:0:0:
64,192,112385,128,0,112460:0:0:0:0:
64,192,112535,1,0,0:0:0:100:snare.wav
192,192,112535,1,0,0:0:0:0:
320,192,112535,128,0,112685:0:0:0:0:
448,192,112685,128,0,113060:0:0:0:0:
192,192,112760,128,0,112835:0:0:0:0:
64,192,112835,128,0,113060:0:0:0:100:kick.wav
320,192,112835,1,0,0:0:0:0:
320,192,112985,128,0,113060:0:0:0:0:
64,192,113135,1,0,0:0:0:100:snare.wav
192,192,113135,128,0,113360:0:0:0:0:
448,192,113135,1,0,0:0:0:0:
320,192,113285,128,0,113360:0:0:0:0:
64,192,113435,128,0,113585:0:0:0:100:kick.wav
448,192,113435,1,0,0:0:0:0:
320,192,113585,128,0,113885:0:0:0:0:
64,192,113735,128,0,113885:0:0:0:100:snare.wav
192,192,113735,1,0,0:0:0:0:
448,192,113735,1,0,0:0:0:0:
192,192,113885,128,0,114260:0:0:0:0:
320,192,114035,1,0,0:0:0:100:kick.wav
448,192,114035,128,0,114260:0:0:0:0:
64,192,114185,128,0,114260:0:0:0:0:
64,192,114335,1,0,0:0:0:100:snare.wav
192,192,114335,128,0,114560:0:0:0:0:
448,192,114335,1,0,0:0:0:0:
64,192,114485,128,0,114560:0:0:0:0:
320,192,114635,128,0,114860:0:0:0:100:kick.wav
448,192,114635,1,0,0:0:0:0:
192,192,114785,128,0,114860:0:0:0:0:
64,192,114935,128,0,115160:0:0:0:100:snare.wav
192,192,114935,1,0,0:0:0:0:
448,192,114935,128,0,115010:0:0:0:0:
320,192,115085,1,0,0:0:0:100:kick.wav
448,192,115085,128,0,115160:0:0:0:0:
192,192,115235,128,0,115310:0:0:0:100:kick.wav
448,192,115235,1,0,0:0:0:50:cymbal.wav
192,192,115385,128,0,115460:0:0:0:0:
64,192,115535,1,0,0:0:0:100:snare.wav
320,192,115535,128,0,115610:0:0:0:0:
448,192,115535,1,0,0:0:0:0:
320,192,115685,128,0,115760:0:0:0:0:
64,192,115835,1,0,0:0:0:100:kick.wav
192,192,115835,128,0,115985:0:0:0:0:
448,192,115985,128,0,116285:0:0:0:0:
64,192,116135,1,0,0:0:0:100:snare.wav
192,192,116135,1,0,0:0:0:0:
320,192,116135,128,0,116285:0:0:0:0:
64,192,116285,128,0,116660:0:0:0:0:
192,192,116360,128,0,116435:0:0:0:0:
320,192,116435,128,0,116660:0:0:0:100:kick.wav
448,192,116435,1,0,0:0:0:0:
192,192,116585,128,0,116660:0:0:0:0:
192,192,116735,1,0,0:0:0:100:snare.wav
320,192,116735,1,0,0:0:0:0:
448,192,116735,128,0,116810:0:0:0:0:
448,192,116885,128,0,116960:0:0:0:0:
64,192,117035,128,0,117110:0:0:0:100:kick.wav
192,192,117035,1,0,0:0:0:0:
64,192,117185,128,0,117260:0:0:0:0:
192,192,117335,1,0,0:0:0:100:snare.wav
320,192,117335,128,0,117485:0:0:0:0:
448,192,117335,1,0,0:0:0:0:
64,192,117485,1,0,0:0:0:100:kick.wav
192,192,117485,128,0,117860:0:0:0:0:
320,192,117635,1,0,0:0:0:100:kick.wav
448,192,117635,128,0,117860:0:0:0:50:cymbal.wav
64,192,117785,128,0,117860:0:0:0:0:
64,192,117935,1,0,0:0:0:100:snare.wav
320,192,117935,128,0,118085:0:0:0:0:
448,192,117935,1,0,0:0:0:0:
192,192,118085,128,0,118385:0:0:0:0:
64,192,118235,128,0,118385:0:0:0:100:kick.wav
320,192,118235,1,0,0:0:0:0:
448,192,118385,128,0,118685:0:0:0:0:
64,192,118535,128,0,118610:0:0:0:100:snare.wav
192,192,118535,1,0,0:0:0:0:
320,192,118535,1,0,0:0:0:0:
64,192,118685,128,0,118760:0:0:0:100:kick.wav
192,192,118685,1,0,0:0:0:0:
320,192,118835,128,0,119135:0:0:0:100:snare.wav
448,192,118835,1,0,0:0:0:50:cymbal.wav
64,192,118985,128,0,119060:0:0:0:0:
64,192,119135,1,0,0:0:0:100:snare.wav
448,192,119135,1,0,0:0:0:0:
320,192,119285,1,0,0:0:0:100:kick.wav
448,192,119285,1,0,0:0:0:0:
64,192,119435,1,0,0:0:0:100:snare.wav
320,192,119435,1,0,0:0:0:0:
64,192,119585,1,0,0:0:0:100:kick.wav
192,192,119585,1,0,0:0:0:0:
192,192,119735,1,0,0:0:0:100:snare.wav
320,192,119735,1,0,0:0:0:0:
448,192,119735,1,0,0:0:0:0:
64,192,119885,1,0,0:0:0:100:kick.wav
448,192,119885,1,0,0:0:0:0:
320,192,119960,1,0,0:0:0:100:kick.wav
64,192,120035,128,0,120260:0:0:0:100:kick.wav
192,192,120035,1,0,0:0:0:50:cymbal.wav
448,192,120035,1,0,0:0:0:0:
320,192,120185,128,0,120260:0:0:0:0:
64,192,120335,128,0,120560:0:0:0:100:snare.wav
192,192,120335,1,0,0:0:0:0:
448,192,120335,1,0,0:0:0:0:
448,192,120485,128,0,120560:0:0:0:0:
64,192,120635,128,0,120785:0:0:0:100:kick.wav
192,192,120635,1,0,0:0:0:0:
320,192,120785,128,0,121085:0:0:0:0:
64,192,120935,1,0,0:0:0:100:snare.wav
192,192,120935,1,0,0:0:0:0:
448,192,120935,128,0,121085:0:0:0:0:
192,192,121085,128,0,121460:0:0:0:0:
448,192,121160,128,0,121235:0:0:0:0:
64,192,121235,1,0,0:0:0:100:kick.wav
320,192,121235,128,0,121385:0:0:0:0:
64,192,121385,128,0,121460:0:0:0:0:
64,192,121535,1,0,0:0:0:100:snare.wav
192,192,121535,1,0,0:0:0:0:
320,192,121535,128,0,121760:0:0:0:0:
448,192,121685,128,0,121760:0:0:0:0:
64,192,121835,128,0,122060:0:0:0:100:kick.wav
448,192,121835,1,0,0:0:0:0:
192,192,121985,128,0,122060:0:0:0:0:
320,192,122135,1,0,0:0:0:100:snare.wav
448,192,122135,128,0,122360:0:0:0:0:
192,192,122285,128,0,122360:0:0:0:0:
320,192,122435,128,0,122660:0:0:0:100:kick.wav
448,192,122435,1,0,0:0:0:0:
64,192,122585,128,0,122660:0:0:0:0:
64,192,122735,1,0,0:0:0:100:snare.wav
192,192,122735,128,0,122960:0:0:0:0:
448,192,122735,1,0,0:0:0:0:
320,192,122885,128,0,122960:0:0:0:0:
64,192,123035,128,0,123185:0:0:0:100:kick.wav
448,192,123035,1,0,0:0:0:0:
320,192,123185,128,0,123485:0:0:0:0:
64,192,123335,128,0,123485:0:0:0:100:snare.wav
192,192,123335,1,0,0:0:0:0:
448,192,123335,1,0,0:0:0:0:
192,192,123485,128,0,123860:0:0:0:0:
320,192,123635,1,0,0:0:0:100:kick.wav
448,192,123635,128,0,123860:0:0:0:0:
64,192,123785,128,0,123860:0:0:0:0:
64,192,123935,1,0,0:0:0:100:snare.wav
192,192,123935,128,0,124010:0:0:0:0:
448,192,123935,128,0,124160:0:0:0:0:
192,192,124085,128,0,124160:0:0:0:100:kick.wav
320,192,124085,1,0,0:0:0:0:
64,192,124235,128,0,124460:0:0:0:100:snare.wav
320,192,124235,128,0,124310:0:0:0:0:
448,192,124235,1,0,0:0:0:0:
192,192,124385,1,0,0:0:0:100:kick.wav
320,192,124385,128,0,124460:0:0:0:0:
64,192,124535,1,0,0:0:0:100:snare.wav
192,192,124535,1,0,0:0:0:0:
320,192,124610,1,0,0:0:0:100:snare.wav
448,192,124610,1,0,0:0:0:0:
64,192,124685,1,0,0:0:0:100:snare.wav
192,192,124685,1,0,0:0:0:0:
320,192,124760,1,0,0:0:0:100:snare.wav
64,192,124835,1,0,0:0:0:100:kick.wav
192,192,124835,128,0,124935:0:0:0:100:snare.wav
448,192,124835,128,0,124935:0:0:0:50:cymbal.wav
64,192,125035,1,0,0:0:0:100:snare.wav
192,192,125035,128,0,125135:0:0:0:0:
320,192,125035,128,0,125135:0:0:0:0:
64,192,125235,128,0,125335:0:0:0:100:snare.wav
320,192,125235,128,0,125335:0:0:0:0:
448,192,125235,1,0,0:0:0:0:
64,192,125435,128,0,125535:0:0:0:100:snare.wav
192,192,125435,128,0,125535:0:0:0:0:
448,192,125435,1,0,0:0:0:0:
64,192,125635,1,0,0:0:0:100:snare.wav
192,192,125635,128,0,125735:0:0:0:0:
320,192,125635,128,0,125735:0:0:0:0:
192,192,125835,1,0,0:0:0:100:snare.wav
320,192,125835,128,0,125935:0:0:0:0:
448,192,125835,128,0,125935:0:0:0:0:
64,192,126035,1,0,0:0:0:100:kick.wav
192,192,126035,128,0,126135:0:0:0:100:snare.wav
448,192,126035,128,0,126135:0:0:0:50:cymbal.wav
192,192,126235,128,0,126335:0:0:0:100:snare.wav
320,192,126235,128,0,126335:0:0:0:0:
448,192,126235,1,0,0:0:0:0:
64,192,126435,128,0,126535:0:0:0:100:snare.wav
320,192,126435,128,0,126535:0:0:0:0:
448,192,126435,1,0,0:0:0:0:
64,192,126635,128,0,126735:0:0:0:100:snare.wav
192,192,126635,128,0,126735:0:0:0:0:
320,192,126635,1,0,0:0:0:0:
192,192,126835,128,0,126935:0:0:0:30:snare_electronic.wav
448,192,126835,128,0,126935:0:0:0:0:
64,192,126935,1,0,0:0:0:30:snare_electronic.wav
320,192,127035,128,0,127135:0:0:0:30:snare_electronic.wav
448,192,127035,128,0,127135:0:0:0:0:
192,192,127135,1,0,0:0:0:30:snare_electronic.wav
64,192,127235,128,0,127535:0:0:0:100:kick.wav
320,192,127235,1,0,0:0:0:50:cymbal.wav
448,192,127235,128,0,127535:0:0:0:0:
192,192,127535,128,0,127685:0:0:0:30:snare_electronic.wav
320,192,127535,1,0,0:0:0:0:
448,192,127685,128,0,127985:0:0:0:0:
192,192,127835,1,0,0:0:0:30:snare_electronic.wav
320,192,127835,1,0,0:0:0:0:
64,192,127985,128,0,128135:0:0:0:0:
192,192,128135,128,0,128285:0:0:0:30:snare_electronic.wav
320,192,128135,1,0,0:0:0:0:
448,192,128285,128,0,128435:0:0:0:0:
64,192,128435,1,0,0:0:0:30:snare_electronic.wav
192,192,128435,1,0,0:0:0:0:
320,192,128510,1,0,0:0:0:30:snare_electronic.wav
64,192,128585,1,0,0:0:0:30:snare_electronic.wav
192,192,128660,1,0,0:0:0:30:snare_electronic.wav
320,192,128735,1,0,0:0:0:30:snare_electronic.wav
448,192,128735,1,0,0:0:0:0:
192,192,128810,1,0,0:0:0:30:snare_electronic.wav
448,192,128885,1,0,0:0:0:30:snare_electronic.wav
320,192,128960,1,0,0:0:0:30:snare_electronic.wav
64,192,129035,1,0,0:0:0:30:snare_electronic.wav
192,192,129035,1,0,0:0:0:0:
320,192,129110,1,0,0:0:0:30:snare_electronic.wav
192,192,129185,1,0,0:0:0:30:snare_electronic.wav
64,192,129260,1,0,0:0:0:30:snare_electronic.wav
320,192,129335,1,0,0:0:0:30:snare_electronic.wav
448,192,129335,1,0,0:0:0:0:
192,192,129410,1,0,0:0:0:30:snare_electronic.wav
320,192,129485,1,0,0:0:0:30:snare_electronic.wav
448,192,129560,1,0,0:0:0:30:snare_electronic.wav
64,192,129635,128,0,130835:0:0:0:100:kick.wav
192,192,129635,128,0,130835:0:0:0:50:cymbal.wav
320,192,129785,1,0,0:0:0:0:
448,192,129935,1,0,0:0:0:0:
320,192,130385,1,0,0:0:0:0:
448,192,130535,1,0,0:0:0:0:
320,192,130835,128,0,130985:0:0:0:100:kick.wav
448,192,130835,128,0,130985:0:0:0:50:cymbal.wav
64,192,130985,1,0,0:0:0:100:snare.wav
192,192,131060,1,0,0:0:0:100:snare.wav
320,192,131135,1,0,0:0:0:100:snare.wav
192,192,131210,1,0,0:0:0:100:snare.wav
64,192,131285,128,0,131435:0:0:0:100:kick.wav
448,192,131285,128,0,131435:0:0:0:50:cymbal.wav
192,192,131435,1,0,0:0:0:100:snare.wav
320,192,131510,1,0,0:0:0:100:snare.wav
448,192,131585,1,0,0:0:0:100:snare.wav
192,192,131660,1,0,0:0:0:100:snare.wav
64,192,131735,128,0,132035:0:0:0:100:kick.wav
448,192,131735,1,0,0:0:0:50:cymbal.wav
320,192,131810,1,0,0:0:0:0:
192,192,131885,1,0,0:0:0:0:
448,192,131960,1,0,0:0:0:0:
192,192,132035,128,0,132260:0:0:0:100:kick.wav
320,192,132035,128,0,132260:0:0:0:50:cymbal.wav
