osu file format v14

[General]
AudioFilename: audio.mp3
AudioLeadIn: 0
PreviewTime: 70733
Countdown: 0
SampleSet: Soft
StackLeniency: 0.7
Mode: 3
LetterboxInBreaks: 0
SpecialStyle: 0
WidescreenStoryboard: 0

[Editor]
DistanceSpacing: 2.4
BeatDivisor: 4
GridSize: 32
TimelineZoom: 2.759997

[Metadata]
Title:Split
TitleUnicode:Split
Artist:Ardolf
ArtistUnicode:Ardolf
Creator:fvrex
Version:Malevolent Ultimatum
Source:
Tags:fnf friday night funkin' electronic instrumental featured artist fa uk hardcore video game ost official soundtrack sound track mappers' mapper's guild mpg mg ucitysm indoroid tigerinity ntkz natsukaze nasucase
BeatmapID:4034255
BeatmapSetID:1948972

[Difficulty]
HPDrainRate:8
CircleSize:4
OverallDifficulty:8
ApproachRate:5
SliderMultiplier:1.4
SliderTickRate:1

[Events]
//Background and Video events
0,0,"nope.jpg",0,0
//Break Periods
//Storyboard Layer 0 (Background)
//Storyboard Layer 1 (Fail)
//Storyboard Layer 2 (Pass)
//Storyboard Layer 3 (Foreground)
//Storyboard Layer 4 (Overlay)
//Storyboard Sound Samples

[TimingPoints]
257,375,4,2,1,80,1,0
36257,-100,4,2,1,80,0,1
48257,-100,4,2,1,80,0,0
48632,-100,4,2,1,80,0,1
60257,-100,4,2,1,80,0,0
72257,-100,4,2,1,80,0,1
84257,-100,4,2,1,80,0,0
84632,-100,4,2,1,80,0,1
96257,-100,4,2,1,80,0,0
120257,-100,4,2,1,80,0,1
132257,-100,4,2,1,80,0,0
132632,-100,4,2,1,80,0,1
144257,-100,4,2,1,80,0,0

[HitObjects]
320,192,444,128,0,632:0:0:0:0:
320,192,819,128,0,1007:0:0:0:0:
192,192,1007,1,0,0:0:0:0:
448,192,1194,1,0,0:0:0:0:
192,192,1382,1,0,0:0:0:0:
64,192,1569,1,0,0:0:0:0:
320,192,1757,1,0,0:0:0:0:
448,192,1944,128,0,2132:0:0:0:0:
320,192,2319,1,0,0:0:0:0:
192,192,2507,1,0,0:0:0:0:
448,192,2694,1,0,0:0:0:0:
320,192,2882,1,0,0:0:0:0:
64,192,3069,128,0,3257:0:0:0:0:
320,192,3444,128,0,3632:0:0:0:0:
320,192,3819,128,0,4007:0:0:0:0:
192,192,4007,1,0,0:0:0:0:
64,192,4194,1,0,0:0:0:0:
320,192,4382,1,0,0:0:0:0:
192,192,4569,1,0,0:0:0:0:
448,192,4757,1,0,0:0:0:0:
64,192,4944,128,0,5132:0:0:0:0:
320,192,5319,1,0,0:0:0:0:
192,192,5507,1,0,0:0:0:0:
64,192,5694,1,0,0:0:0:0:
448,192,5882,1,0,0:0:0:0:
192,192,6069,128,0,6257:0:0:0:0:
320,192,6444,128,0,6632:0:0:0:0:
320,192,6819,128,0,7007:0:0:0:0:
192,192,7007,1,0,0:0:0:0:
448,192,7194,1,0,0:0:0:0:
64,192,7382,1,0,0:0:0:0:
320,192,7569,1,0,0:0:0:0:
192,192,7757,1,0,0:0:0:0:
448,192,7944,128,0,8132:0:0:0:0:
320,192,8319,1,0,0:0:0:0:
192,192,8507,1,0,0:0:0:0:
192,192,8694,1,0,0:0:0:0:
448,192,8882,1,0,0:0:0:0:
64,192,9069,128,0,9257:0:0:0:0:
320,192,9444,128,0,9632:0:0:0:0:
320,192,9819,128,0,10007:0:0:0:0:
64,192,10007,1,0,0:0:0:0:
448,192,10194,1,0,0:0:0:0:
192,192,10382,1,0,0:0:0:0:
320,192,10569,128,0,10757:0:0:0:0:
64,192,10944,1,0,0:0:0:0:
320,192,11132,1,0,0:0:0:0:
192,192,11319,1,0,0:0:0:0:
448,192,11507,1,0,0:0:0:0:
64,192,11694,1,0,0:0:0:0:
320,192,11882,1,0,0:0:0:0:
448,192,11882,1,0,0:0:0:0:
448,192,12069,1,0,0:0:0:0:
320,192,12069,1,0,0:0:0:0:
192,192,12257,1,0,0:0:0:0:
64,192,12257,1,0,0:0:0:0:
320,192,12444,128,0,12632:0:0:0:0:
448,192,12632,1,0,0:0:0:0:
64,192,12632,1,0,0:0:0:0:
320,192,12819,128,0,13007:0:0:0:0:
192,192,13007,1,0,0:0:0:0:
64,192,13007,1,0,0:0:0:0:
448,192,13194,1,0,0:0:0:0:
320,192,13382,1,0,0:0:0:0:
192,192,13382,1,0,0:0:0:0:
64,192,13569,1,0,0:0:0:0:
320,192,13757,1,0,0:0:0:0:
448,192,13757,1,0,0:0:0:0:
192,192,13944,128,0,14132:0:0:0:0:
64,192,14132,1,0,0:0:0:0:
448,192,14132,1,0,0:0:0:0:
320,192,14319,1,0,0:0:0:0:
192,192,14507,1,0,0:0:0:0:
64,192,14507,1,0,0:0:0:0:
320,192,14694,1,0,0:0:0:0:
192,192,14882,1,0,0:0:0:0:
448,192,14882,1,0,0:0:0:0:
64,192,15069,128,0,15257:0:0:0:0:
320,192,15257,1,0,0:0:0:0:
448,192,15257,1,0,0:0:0:0:
192,192,15444,128,0,15632:0:0:0:0:
64,192,15632,1,0,0:0:0:0:
448,192,15632,1,0,0:0:0:0:
192,192,15819,128,0,16007:0:0:0:0:
320,192,16007,1,0,0:0:0:0:
448,192,16007,1,0,0:0:0:0:
64,192,16194,1,0,0:0:0:0:
192,192,16382,1,0,0:0:0:0:
320,192,16382,1,0,0:0:0:0:
448,192,16569,1,0,0:0:0:0:
192,192,16757,1,0,0:0:0:0:
64,192,16757,1,0,0:0:0:0:
320,192,16944,128,0,17132:0:0:0:0:
448,192,17132,1,0,0:0:0:0:
64,192,17132,1,0,0:0:0:0:
192,192,17319,1,0,0:0:0:0:
320,192,17507,1,0,0:0:0:0:
448,192,17507,1,0,0:0:0:0:
64,192,17694,1,0,0:0:0:0:
192,192,17882,1,0,0:0:0:0:
320,192,17882,1,0,0:0:0:0:
448,192,18069,128,0,18257:0:0:0:0:
64,192,18257,1,0,0:0:0:0:
192,192,18257,1,0,0:0:0:0:
320,192,18444,128,0,18632:0:0:0:0:
448,192,18632,1,0,0:0:0:0:
64,192,18632,1,0,0:0:0:0:
320,192,18819,128,0,19007:0:0:0:0:
192,192,19007,1,0,0:0:0:0:
64,192,19007,1,0,0:0:0:0:
448,192,19194,1,0,0:0:0:0:
320,192,19382,1,0,0:0:0:0:
192,192,19382,1,0,0:0:0:0:
64,192,19569,1,0,0:0:0:0:
448,192,19757,1,0,0:0:0:0:
320,192,19757,1,0,0:0:0:0:
192,192,19944,128,0,20132:0:0:0:0:
64,192,20132,1,0,0:0:0:0:
448,192,20132,1,0,0:0:0:0:
320,192,20319,1,0,0:0:0:0:
64,192,20507,1,0,0:0:0:0:
192,192,20507,1,0,0:0:0:0:
64,192,20694,1,0,0:0:0:0:
448,192,20882,1,0,0:0:0:0:
320,192,20882,1,0,0:0:0:0:
192,192,21069,128,0,21257:0:0:0:0:
448,192,21257,1,0,0:0:0:0:
64,192,21257,1,0,0:0:0:0:
320,192,21444,128,0,21632:0:0:0:0:
448,192,21632,1,0,0:0:0:0:
64,192,21632,1,0,0:0:0:0:
320,192,21819,128,0,22007:0:0:0:0:
192,192,22007,1,0,0:0:0:0:
64,192,22007,1,0,0:0:0:0:
448,192,22194,1,0,0:0:0:0:
320,192,22382,1,0,0:0:0:0:
192,192,22382,1,0,0:0:0:0:
64,192,22569,1,0,0:0:0:0:
320,192,22757,1,0,0:0:0:0:
448,192,22757,1,0,0:0:0:0:
192,192,22944,1,0,0:0:0:0:
64,192,23132,1,0,0:0:0:0:
448,192,23132,1,0,0:0:0:0:
320,192,23319,1,0,0:0:0:0:
448,192,23413,1,0,0:0:0:0:
192,192,23507,1,0,0:0:0:0:
64,192,23507,1,0,0:0:0:0:
192,192,23694,1,0,0:0:0:0:
448,192,23694,1,0,0:0:0:0:
64,192,23788,1,0,0:0:0:0:
448,192,23882,1,0,0:0:0:0:
320,192,23882,1,0,0:0:0:0:
192,192,24069,1,0,0:0:0:0:
320,192,24069,1,0,0:0:0:0:
192,192,24257,1,0,0:0:0:0:
64,192,24257,1,0,0:0:0:0:
448,192,24257,1,0,0:0:0:0:
320,192,24444,1,0,0:0:0:0:
448,192,24632,1,0,0:0:0:0:
192,192,24632,1,0,0:0:0:0:
64,192,24819,1,0,0:0:0:0:
320,192,25007,1,0,0:0:0:0:
448,192,25007,1,0,0:0:0:0:
192,192,25194,1,0,0:0:0:0:
320,192,25382,1,0,0:0:0:0:
64,192,25382,1,0,0:0:0:0:
64,192,25569,1,0,0:0:0:0:
192,192,25663,1,0,0:0:0:0:
320,192,25757,1,0,0:0:0:0:
448,192,25757,1,0,0:0:0:0:
192,192,25944,1,0,0:0:0:0:
448,192,26132,1,0,0:0:0:0:
64,192,26132,1,0,0:0:0:0:
320,192,26319,1,0,0:0:0:0:
192,192,26507,1,0,0:0:0:0:
64,192,26507,1,0,0:0:0:0:
448,192,26694,1,0,0:0:0:0:
320,192,26882,1,0,0:0:0:0:
192,192,26882,1,0,0:0:0:0:
320,192,27069,1,0,0:0:0:0:
448,192,27163,1,0,0:0:0:0:
64,192,27257,1,0,0:0:0:0:
192,192,27257,1,0,0:0:0:0:
448,192,27444,1,0,0:0:0:0:
192,192,27632,1,0,0:0:0:0:
320,192,27632,1,0,0:0:0:0:
64,192,27819,1,0,0:0:0:0:
320,192,28007,1,0,0:0:0:0:
448,192,28007,1,0,0:0:0:0:
192,192,28194,1,0,0:0:0:0:
448,192,28382,1,0,0:0:0:0:
64,192,28382,1,0,0:0:0:0:
64,192,28569,1,0,0:0:0:0:
192,192,28663,1,0,0:0:0:0:
320,192,28757,1,0,0:0:0:0:
448,192,28757,1,0,0:0:0:0:
448,192,28944,1,0,0:0:0:0:
192,192,29132,1,0,0:0:0:0:
64,192,29132,1,0,0:0:0:0:
192,192,29319,1,0,0:0:0:0:
320,192,29507,1,0,0:0:0:0:
448,192,29507,1,0,0:0:0:0:
192,192,29694,1,0,0:0:0:0:
64,192,29882,1,0,0:0:0:0:
448,192,29882,1,0,0:0:0:0:
320,192,30069,1,0,0:0:0:0:
192,192,30163,1,0,0:0:0:0:
64,192,30257,1,0,0:0:0:0:
448,192,30257,1,0,0:0:0:0:
64,192,30444,1,0,0:0:0:0:
192,192,30538,1,0,0:0:0:0:
320,192,30632,1,0,0:0:0:0:
448,192,30632,1,0,0:0:0:0:
320,192,30819,1,0,0:0:0:0:
192,192,30913,1,0,0:0:0:0:
448,192,31007,1,0,0:0:0:0:
64,192,31007,1,0,0:0:0:0:
448,192,31194,1,0,0:0:0:0:
320,192,31288,1,0,0:0:0:0:
192,192,31382,1,0,0:0:0:0:
64,192,31382,1,0,0:0:0:0:
64,192,31569,1,0,0:0:0:0:
192,192,31663,1,0,0:0:0:0:
448,192,31757,1,0,0:0:0:0:
320,192,31757,1,0,0:0:0:0:
320,192,31944,1,0,0:0:0:0:
192,192,32038,1,0,0:0:0:0:
448,192,32132,1,0,0:0:0:0:
64,192,32132,1,0,0:0:0:0:
448,192,32319,1,0,0:0:0:0:
320,192,32413,1,0,0:0:0:0:
192,192,32507,1,0,0:0:0:0:
64,192,32507,1,0,0:0:0:0:
192,192,32694,1,0,0:0:0:0:
64,192,32788,1,0,0:0:0:0:
448,192,32882,1,0,0:0:0:0:
320,192,32882,1,0,0:0:0:0:
192,192,33069,1,0,0:0:0:0:
320,192,33163,1,0,0:0:0:0:
192,192,33257,5,0,0:0:0:0:
64,192,33257,1,0,0:0:0:0:
320,192,33350,1,0,0:0:0:0:
448,192,33350,1,0,0:0:0:0:
192,192,33444,1,0,0:0:0:0:
64,192,33444,1,0,0:0:0:0:
320,192,33538,1,0,0:0:0:0:
448,192,33538,1,0,0:0:0:0:
192,192,33632,1,0,0:0:0:0:
64,192,33632,1,0,0:0:0:0:
448,192,33819,1,0,0:0:0:0:
64,192,33819,1,0,0:0:0:0:
320,192,34007,1,0,0:0:0:0:
448,192,34007,1,0,0:0:0:0:
64,192,34100,1,0,0:0:0:0:
192,192,34100,1,0,0:0:0:0:
320,192,34194,1,0,0:0:0:0:
448,192,34194,1,0,0:0:0:0:
192,192,34288,1,0,0:0:0:0:
64,192,34288,1,0,0:0:0:0:
320,192,34382,1,0,0:0:0:0:
448,192,34382,1,0,0:0:0:0:
320,192,34569,1,0,0:0:0:0:
192,192,34569,1,0,0:0:0:0:
192,192,34757,128,0,34944:0:0:0:0:
64,192,34757,128,0,34944:0:0:0:0:
320,192,35132,128,0,35319:0:0:0:0:
448,192,35132,128,0,35319:0:0:0:0:
64,192,35319,1,0,0:0:0:0:
192,192,35319,1,0,0:0:0:0:
320,192,35413,1,0,0:0:0:0:
448,192,35507,128,0,35694:0:0:0:0:
64,192,35507,128,0,35694:0:0:0:0:
192,192,35694,1,0,0:0:0:0:
320,192,35694,1,0,0:0:0:0:
64,192,35788,1,0,0:0:0:0:
320,192,35882,128,0,36163:0:0:0:0:
448,192,35882,128,0,36163:0:0:0:0:
448,192,36257,1,0,0:0:0:0:
192,192,36257,1,0,0:0:0:0:
64,192,36257,1,0,0:0:0:0:
192,192,36444,1,0,0:0:0:0:
64,192,36632,1,0,0:0:0:0:
448,192,36632,1,0,0:0:0:0:
448,192,36819,1,0,0:0:0:0:
320,192,37007,1,0,0:0:0:0:
64,192,37007,1,0,0:0:0:0:
192,192,37194,1,0,0:0:0:0:
64,192,37194,1,0,0:0:0:0:
320,192,37382,1,0,0:0:0:0:
448,192,37382,1,0,0:0:0:0:
192,192,37569,1,0,0:0:0:0:
320,192,37663,1,0,0:0:0:0:
448,192,37757,1,0,0:0:0:0:
64,192,37757,1,0,0:0:0:0:
448,192,37944,1,0,0:0:0:0:
192,192,38132,1,0,0:0:0:0:
64,192,38132,1,0,0:0:0:0:
192,192,38319,1,0,0:0:0:0:
320,192,38507,1,0,0:0:0:0:
448,192,38507,1,0,0:0:0:0:
192,192,38694,1,0,0:0:0:0:
320,192,38694,1,0,0:0:0:0:
192,192,38882,1,0,0:0:0:0:
64,192,38882,1,0,0:0:0:0:
448,192,39069,1,0,0:0:0:0:
64,192,39163,1,0,0:0:0:0:
320,192,39257,1,0,0:0:0:0:
192,192,39257,1,0,0:0:0:0:
320,192,39444,1,0,0:0:0:0:
448,192,39632,1,0,0:0:0:0:
64,192,39632,1,0,0:0:0:0:
64,192,39819,1,0,0:0:0:0:
320,192,40007,1,0,0:0:0:0:
448,192,40007,1,0,0:0:0:0:
320,192,40194,1,0,0:0:0:0:
64,192,40194,1,0,0:0:0:0:
192,192,40382,1,0,0:0:0:0:
64,192,40382,1,0,0:0:0:0:
320,192,40569,1,0,0:0:0:0:
192,192,40663,1,0,0:0:0:0:
448,192,40757,1,0,0:0:0:0:
320,192,40757,1,0,0:0:0:0:
448,192,40944,1,0,0:0:0:0:
64,192,40944,1,0,0:0:0:0:
192,192,41132,1,0,0:0:0:0:
64,192,41132,1,0,0:0:0:0:
192,192,41319,1,0,0:0:0:0:
64,192,41507,1,0,0:0:0:0:
448,192,41507,1,0,0:0:0:0:
192,192,41694,1,0,0:0:0:0:
320,192,41694,1,0,0:0:0:0:
320,192,41882,1,0,0:0:0:0:
448,192,41882,1,0,0:0:0:0:
64,192,42069,1,0,0:0:0:0:
192,192,42069,1,0,0:0:0:0:
320,192,42257,1,0,0:0:0:0:
448,192,42257,1,0,0:0:0:0:
448,192,42444,1,0,0:0:0:0:
192,192,42632,1,0,0:0:0:0:
64,192,42632,1,0,0:0:0:0:
64,192,42819,1,0,0:0:0:0:
192,192,43007,1,0,0:0:0:0:
320,192,43007,1,0,0:0:0:0:
64,192,43194,1,0,0:0:0:0:
448,192,43194,1,0,0:0:0:0:
320,192,43382,1,0,0:0:0:0:
448,192,43382,1,0,0:0:0:0:
192,192,43569,1,0,0:0:0:0:
320,192,43663,1,0,0:0:0:0:
64,192,43757,1,0,0:0:0:0:
448,192,43757,1,0,0:0:0:0:
64,192,43944,1,0,0:0:0:0:
320,192,44132,1,0,0:0:0:0:
192,192,44132,1,0,0:0:0:0:
320,192,44319,1,0,0:0:0:0:
64,192,44507,1,0,0:0:0:0:
448,192,44507,1,0,0:0:0:0:
64,192,44694,1,0,0:0:0:0:
192,192,44694,1,0,0:0:0:0:
320,192,44882,1,0,0:0:0:0:
448,192,44882,1,0,0:0:0:0:
192,192,45069,1,0,0:0:0:0:
448,192,45163,1,0,0:0:0:0:
320,192,45257,1,0,0:0:0:0:
64,192,45257,1,0,0:0:0:0:
320,192,45444,1,0,0:0:0:0:
192,192,45632,1,0,0:0:0:0:
64,192,45632,1,0,0:0:0:0:
192,192,45819,1,0,0:0:0:0:
448,192,46007,1,0,0:0:0:0:
320,192,46007,1,0,0:0:0:0:
64,192,46194,1,0,0:0:0:0:
448,192,46194,1,0,0:0:0:0:
192,192,46382,1,0,0:0:0:0:
64,192,46382,1,0,0:0:0:0:
320,192,46569,1,0,0:0:0:0:
448,192,46663,1,0,0:0:0:0:
192,192,46757,1,0,0:0:0:0:
64,192,46757,1,0,0:0:0:0:
320,192,46944,1,0,0:0:0:0:
192,192,47132,1,0,0:0:0:0:
448,192,47132,1,0,0:0:0:0:
64,192,47319,1,0,0:0:0:0:
320,192,47507,1,0,0:0:0:0:
448,192,47507,1,0,0:0:0:0:
192,192,47600,1,0,0:0:0:0:
448,192,47694,1,0,0:0:0:0:
64,192,47694,1,0,0:0:0:0:
320,192,47788,1,0,0:0:0:0:
192,192,47882,1,0,0:0:0:0:
64,192,47882,1,0,0:0:0:0:
192,192,48069,1,0,0:0:0:0:
320,192,48069,1,0,0:0:0:0:
320,192,48257,128,0,48538:0:0:0:0:
448,192,48257,128,0,48538:0:0:0:0:
64,192,48632,1,0,0:0:0:0:
448,192,48632,1,0,0:0:0:0:
192,192,48632,1,0,0:0:0:0:
448,192,48819,1,0,0:0:0:0:
192,192,49007,1,0,0:0:0:0:
64,192,49007,1,0,0:0:0:0:
192,192,49194,1,0,0:0:0:0:
320,192,49194,1,0,0:0:0:0:
320,192,49382,1,0,0:0:0:0:
448,192,49382,1,0,0:0:0:0:
192,192,49569,1,0,0:0:0:0:
64,192,49757,1,0,0:0:0:0:
448,192,49757,1,0,0:0:0:0:
64,192,49944,1,0,0:0:0:0:
448,192,50132,1,0,0:0:0:0:
320,192,50132,1,0,0:0:0:0:
320,192,50319,1,0,0:0:0:0:
192,192,50507,1,0,0:0:0:0:
64,192,50507,1,0,0:0:0:0:
192,192,50694,1,0,0:0:0:0:
448,192,50694,1,0,0:0:0:0:
320,192,50882,1,0,0:0:0:0:
448,192,50882,1,0,0:0:0:0:
320,192,51069,1,0,0:0:0:0:
192,192,51163,1,0,0:0:0:0:
64,192,51257,1,0,0:0:0:0:
448,192,51257,1,0,0:0:0:0:
448,192,51444,1,0,0:0:0:0:
192,192,51632,1,0,0:0:0:0:
320,192,51632,1,0,0:0:0:0:
192,192,51819,1,0,0:0:0:0:
448,192,52007,1,0,0:0:0:0:
64,192,52007,1,0,0:0:0:0:
320,192,52194,1,0,0:0:0:0:
448,192,52194,1,0,0:0:0:0:
192,192,52382,1,0,0:0:0:0:
64,192,52382,1,0,0:0:0:0:
320,192,52569,1,0,0:0:0:0:
64,192,52757,1,0,0:0:0:0:
448,192,52757,1,0,0:0:0:0:
320,192,52944,1,0,0:0:0:0:
448,192,52944,1,0,0:0:0:0:
192,192,53132,1,0,0:0:0:0:
64,192,53132,1,0,0:0:0:0:
320,192,53319,1,0,0:0:0:0:
64,192,53507,1,0,0:0:0:0:
448,192,53507,1,0,0:0:0:0:
192,192,53694,1,0,0:0:0:0:
64,192,53694,1,0,0:0:0:0:
320,192,53882,1,0,0:0:0:0:
448,192,53882,1,0,0:0:0:0:
192,192,54069,1,0,0:0:0:0:
320,192,54069,1,0,0:0:0:0:
448,192,54257,1,0,0:0:0:0:
64,192,54257,1,0,0:0:0:0:
64,192,54444,1,0,0:0:0:0:
448,192,54444,1,0,0:0:0:0:
320,192,54632,1,0,0:0:0:0:
192,192,54632,1,0,0:0:0:0:
192,192,54819,1,0,0:0:0:0:
320,192,55007,1,0,0:0:0:0:
448,192,55007,1,0,0:0:0:0:
320,192,55194,1,0,0:0:0:0:
448,192,55194,1,0,0:0:0:0:
192,192,55382,1,0,0:0:0:0:
64,192,55382,1,0,0:0:0:0:
448,192,55569,1,0,0:0:0:0:
192,192,55757,1,0,0:0:0:0:
64,192,55757,1,0,0:0:0:0:
64,192,55944,1,0,0:0:0:0:
192,192,55944,1,0,0:0:0:0:
320,192,56132,1,0,0:0:0:0:
448,192,56132,1,0,0:0:0:0:
320,192,56319,1,0,0:0:0:0:
448,192,56507,1,0,0:0:0:0:
64,192,56507,1,0,0:0:0:0:
64,192,56694,1,0,0:0:0:0:
448,192,56694,1,0,0:0:0:0:
192,192,56882,1,0,0:0:0:0:
320,192,56882,1,0,0:0:0:0:
64,192,57069,1,0,0:0:0:0:
192,192,57163,1,0,0:0:0:0:
320,192,57257,1,0,0:0:0:0:
448,192,57257,1,0,0:0:0:0:
192,192,57444,1,0,0:0:0:0:
320,192,57444,1,0,0:0:0:0:
64,192,57632,1,0,0:0:0:0:
192,192,57632,1,0,0:0:0:0:
320,192,57819,1,0,0:0:0:0:
448,192,57819,1,0,0:0:0:0:
192,192,58007,1,0,0:0:0:0:
64,192,58007,1,0,0:0:0:0:
320,192,58100,1,0,0:0:0:0:
448,192,58100,1,0,0:0:0:0:
192,192,58194,1,0,0:0:0:0:
64,192,58194,1,0,0:0:0:0:
320,192,58288,1,0,0:0:0:0:
448,192,58288,1,0,0:0:0:0:
192,192,58382,1,0,0:0:0:0:
64,192,58382,1,0,0:0:0:0:
64,192,58569,1,0,0:0:0:0:
448,192,58569,1,0,0:0:0:0:
192,192,58663,1,0,0:0:0:0:
320,192,58757,1,0,0:0:0:0:
448,192,58757,1,0,0:0:0:0:
64,192,58944,1,0,0:0:0:0:
320,192,59132,1,0,0:0:0:0:
192,192,59132,1,0,0:0:0:0:
448,192,59319,1,0,0:0:0:0:
192,192,59507,1,0,0:0:0:0:
64,192,59507,1,0,0:0:0:0:
320,192,59600,1,0,0:0:0:0:
192,192,59694,1,0,0:0:0:0:
64,192,59788,1,0,0:0:0:0:
320,192,59882,1,0,0:0:0:0:
448,192,59882,1,0,0:0:0:0:
320,192,60069,1,0,0:0:0:0:
64,192,60257,1,0,0:0:0:0:
192,192,60257,1,0,0:0:0:0:
448,192,60257,1,0,0:0:0:0:
192,192,60444,1,0,0:0:0:0:
64,192,60538,1,0,0:0:0:0:
448,192,60538,1,0,0:0:0:0:
320,192,60632,1,0,0:0:0:0:
320,192,60819,1,0,0:0:0:0:
448,192,60819,1,0,0:0:0:0:
64,192,61007,128,0,61194:0:0:0:0:
448,192,61194,128,0,61382:0:0:0:0:
192,192,61382,128,0,61569:0:0:0:0:
320,192,61569,128,0,61757:0:0:0:0:
448,192,61757,1,0,0:0:0:0:
64,192,61757,1,0,0:0:0:0:
448,192,61944,1,0,0:0:0:0:
320,192,62038,1,0,0:0:0:0:
192,192,62038,1,0,0:0:0:0:
64,192,62132,1,0,0:0:0:0:
64,192,62319,1,0,0:0:0:0:
448,192,62319,1,0,0:0:0:0:
320,192,62507,128,0,62694:0:0:0:0:
448,192,62694,128,0,62882:0:0:0:0:
192,192,62882,128,0,63069:0:0:0:0:
64,192,63069,128,0,63257:0:0:0:0:
320,192,63257,1,0,0:0:0:0:
448,192,63257,1,0,0:0:0:0:
320,192,63444,1,0,0:0:0:0:
448,192,63538,1,0,0:0:0:0:
64,192,63538,1,0,0:0:0:0:
192,192,63632,1,0,0:0:0:0:
192,192,63819,1,0,0:0:0:0:
64,192,63819,1,0,0:0:0:0:
320,192,64007,128,0,64194:0:0:0:0:
192,192,64194,128,0,64382:0:0:0:0:
64,192,64382,128,0,64569:0:0:0:0:
448,192,64569,128,0,64757:0:0:0:0:
192,192,64757,1,0,0:0:0:0:
64,192,64757,1,0,0:0:0:0:
64,192,64944,1,0,0:0:0:0:
320,192,65038,1,0,0:0:0:0:
192,192,65038,1,0,0:0:0:0:
448,192,65132,1,0,0:0:0:0:
448,192,65319,1,0,0:0:0:0:
320,192,65319,1,0,0:0:0:0:
192,192,65507,128,0,65882:0:0:0:0:
320,192,65694,128,0,65882:0:0:0:0:
64,192,65882,128,0,66069:0:0:0:0:
448,192,66069,128,0,66257:0:0:0:0:
192,192,66257,1,0,0:0:0:0:
64,192,66257,1,0,0:0:0:0:
448,192,66444,1,0,0:0:0:0:
64,192,66538,1,0,0:0:0:0:
192,192,66538,1,0,0:0:0:0:
320,192,66632,1,0,0:0:0:0:
448,192,66819,1,0,0:0:0:0:
64,192,66819,1,0,0:0:0:0:
192,192,67007,1,0,0:0:0:0:
320,192,67007,1,0,0:0:0:0:
64,192,67194,1,0,0:0:0:0:
192,192,67288,1,0,0:0:0:0:
320,192,67288,1,0,0:0:0:0:
448,192,67382,1,0,0:0:0:0:
192,192,67569,1,0,0:0:0:0:
64,192,67569,1,0,0:0:0:0:
320,192,67757,1,0,0:0:0:0:
448,192,67757,1,0,0:0:0:0:
192,192,67944,1,0,0:0:0:0:
448,192,68038,1,0,0:0:0:0:
320,192,68038,1,0,0:0:0:0:
64,192,68132,1,0,0:0:0:0:
192,192,68319,1,0,0:0:0:0:
320,192,68319,1,0,0:0:0:0:
448,192,68507,1,0,0:0:0:0:
64,192,68507,1,0,0:0:0:0:
192,192,68694,1,0,0:0:0:0:
448,192,68788,1,0,0:0:0:0:
64,192,68788,1,0,0:0:0:0:
320,192,68882,1,0,0:0:0:0:
192,192,69069,1,0,0:0:0:0:
64,192,69069,1,0,0:0:0:0:
320,192,69163,1,0,0:0:0:0:
448,192,69163,1,0,0:0:0:0:
192,192,69257,5,0,0:0:0:0:
64,192,69257,1,0,0:0:0:0:
448,192,69350,1,0,0:0:0:0:
320,192,69444,1,0,0:0:0:0:
64,192,69444,1,0,0:0:0:0:
320,192,69632,1,0,0:0:0:0:
448,192,69632,1,0,0:0:0:0:
64,192,69725,1,0,0:0:0:0:
448,192,69819,1,0,0:0:0:0:
192,192,69819,1,0,0:0:0:0:
192,192,70007,5,0,0:0:0:0:
64,192,70007,1,0,0:0:0:0:
320,192,70100,1,0,0:0:0:0:
448,192,70100,1,0,0:0:0:0:
192,192,70194,1,0,0:0:0:0:
64,192,70194,1,0,0:0:0:0:
320,192,70288,1,0,0:0:0:0:
448,192,70288,1,0,0:0:0:0:
192,192,70382,1,0,0:0:0:0:
64,192,70382,1,0,0:0:0:0:
320,192,70475,1,0,0:0:0:0:
448,192,70475,1,0,0:0:0:0:
192,192,70569,1,0,0:0:0:0:
64,192,70569,1,0,0:0:0:0:
320,192,70663,1,0,0:0:0:0:
448,192,70663,1,0,0:0:0:0:
192,192,70757,1,0,0:0:0:0:
64,192,70757,1,0,0:0:0:0:
448,192,71132,1,0,0:0:0:0:
64,192,71132,1,0,0:0:0:0:
320,192,71319,1,0,0:0:0:0:
448,192,71319,1,0,0:0:0:0:
192,192,71413,1,0,0:0:0:0:
64,192,71413,1,0,0:0:0:0:
320,192,71507,5,0,0:0:0:0:
448,192,71507,1,0,0:0:0:0:
320,192,71694,1,0,0:0:0:0:
192,192,71694,1,0,0:0:0:0:
448,192,71788,1,0,0:0:0:0:
192,192,71882,128,0,72163:0:0:0:0:
64,192,71882,128,0,72163:0:0:0:0:
320,192,72257,1,0,0:0:0:0:
448,192,72257,1,0,0:0:0:0:
64,192,72257,1,0,0:0:0:0:
192,192,72444,1,0,0:0:0:0:
64,192,72538,1,0,0:0:0:0:
320,192,72632,1,0,0:0:0:0:
448,192,72632,1,0,0:0:0:0:
192,192,72819,1,0,0:0:0:0:
320,192,72913,1,0,0:0:0:0:
64,192,73007,1,0,0:0:0:0:
192,192,73007,1,0,0:0:0:0:
64,192,73194,1,0,0:0:0:0:
448,192,73194,1,0,0:0:0:0:
448,192,73382,1,0,0:0:0:0:
320,192,73382,1,0,0:0:0:0:
64,192,73569,1,0,0:0:0:0:
448,192,73663,1,0,0:0:0:0:
192,192,73757,1,0,0:0:0:0:
64,192,73757,1,0,0:0:0:0:
320,192,73944,1,0,0:0:0:0:
448,192,74038,1,0,0:0:0:0:
64,192,74132,1,0,0:0:0:0:
192,192,74132,1,0,0:0:0:0:
320,192,74319,1,0,0:0:0:0:
192,192,74413,1,0,0:0:0:0:
320,192,74507,1,0,0:0:0:0:
448,192,74507,1,0,0:0:0:0:
448,192,74694,1,0,0:0:0:0:
64,192,74694,1,0,0:0:0:0:
192,192,74882,1,0,0:0:0:0:
64,192,74882,1,0,0:0:0:0:
320,192,75069,1,0,0:0:0:0:
192,192,75069,1,0,0:0:0:0:
448,192,75257,1,0,0:0:0:0:
64,192,75257,1,0,0:0:0:0:
320,192,75350,1,0,0:0:0:0:
192,192,75444,1,0,0:0:0:0:
448,192,75538,1,0,0:0:0:0:
64,192,75632,1,0,0:0:0:0:
192,192,75632,1,0,0:0:0:0:
320,192,75725,1,0,0:0:0:0:
448,192,75819,1,0,0:0:0:0:
64,192,75913,1,0,0:0:0:0:
320,192,76007,1,0,0:0:0:0:
448,192,76007,1,0,0:0:0:0:
192,192,76100,1,0,0:0:0:0:
64,192,76194,1,0,0:0:0:0:
448,192,76288,1,0,0:0:0:0:
192,192,76382,1,0,0:0:0:0:
320,192,76382,1,0,0:0:0:0:
64,192,76475,1,0,0:0:0:0:
448,192,76569,1,0,0:0:0:0:
192,192,76663,1,0,0:0:0:0:
320,192,76757,1,0,0:0:0:0:
448,192,76757,1,0,0:0:0:0:
64,192,76850,1,0,0:0:0:0:
320,192,76944,1,0,0:0:0:0:
192,192,77038,1,0,0:0:0:0:
64,192,77132,1,0,0:0:0:0:
448,192,77132,1,0,0:0:0:0:
192,192,77225,1,0,0:0:0:0:
320,192,77319,1,0,0:0:0:0:
64,192,77413,1,0,0:0:0:0:
320,192,77507,1,0,0:0:0:0:
448,192,77507,1,0,0:0:0:0:
192,192,77600,1,0,0:0:0:0:
448,192,77694,1,0,0:0:0:0:
320,192,77788,1,0,0:0:0:0:
192,192,77882,1,0,0:0:0:0:
64,192,77882,1,0,0:0:0:0:
320,192,77975,1,0,0:0:0:0:
448,192,78069,1,0,0:0:0:0:
192,192,78257,1,0,0:0:0:0:
320,192,78257,1,0,0:0:0:0:
64,192,78444,1,0,0:0:0:0:
448,192,78538,1,0,0:0:0:0:
320,192,78632,1,0,0:0:0:0:
192,192,78632,1,0,0:0:0:0:
192,192,78819,1,0,0:0:0:0:
64,192,78913,1,0,0:0:0:0:
320,192,79007,1,0,0:0:0:0:
448,192,79007,1,0,0:0:0:0:
320,192,79194,1,0,0:0:0:0:
64,192,79194,1,0,0:0:0:0:
192,192,79382,1,0,0:0:0:0:
64,192,79382,1,0,0:0:0:0:
192,192,79569,1,0,0:0:0:0:
320,192,79663,1,0,0:0:0:0:
64,192,79757,1,0,0:0:0:0:
448,192,79757,1,0,0:0:0:0:
320,192,79944,1,0,0:0:0:0:
192,192,80038,1,0,0:0:0:0:
448,192,80132,1,0,0:0:0:0:
64,192,80132,1,0,0:0:0:0:
320,192,80319,1,0,0:0:0:0:
448,192,80413,1,0,0:0:0:0:
192,192,80507,1,0,0:0:0:0:
64,192,80507,1,0,0:0:0:0:
192,192,80694,1,0,0:0:0:0:
448,192,80694,1,0,0:0:0:0:
448,192,80882,1,0,0:0:0:0:
320,192,80882,1,0,0:0:0:0:
320,192,81069,1,0,0:0:0:0:
192,192,81069,1,0,0:0:0:0:
448,192,81257,1,0,0:0:0:0:
64,192,81257,1,0,0:0:0:0:
320,192,81350,1,0,0:0:0:0:
192,192,81444,1,0,0:0:0:0:
448,192,81538,1,0,0:0:0:0:
64,192,81632,1,0,0:0:0:0:
192,192,81632,1,0,0:0:0:0:
320,192,81725,1,0,0:0:0:0:
448,192,81819,1,0,0:0:0:0:
64,192,81913,1,0,0:0:0:0:
320,192,82007,1,0,0:0:0:0:
448,192,82007,1,0,0:0:0:0:
192,192,82100,1,0,0:0:0:0:
64,192,82194,1,0,0:0:0:0:
448,192,82288,1,0,0:0:0:0:
192,192,82382,1,0,0:0:0:0:
320,192,82382,1,0,0:0:0:0:
64,192,82475,1,0,0:0:0:0:
448,192,82569,1,0,0:0:0:0:
192,192,82663,1,0,0:0:0:0:
320,192,82757,1,0,0:0:0:0:
448,192,82757,1,0,0:0:0:0:
64,192,82850,1,0,0:0:0:0:
320,192,82944,1,0,0:0:0:0:
192,192,83038,1,0,0:0:0:0:
448,192,83132,1,0,0:0:0:0:
64,192,83132,1,0,0:0:0:0:
320,192,83225,1,0,0:0:0:0:
192,192,83319,1,0,0:0:0:0:
448,192,83413,1,0,0:0:0:0:
192,192,83507,1,0,0:0:0:0:
64,192,83507,1,0,0:0:0:0:
320,192,83600,1,0,0:0:0:0:
448,192,83694,1,0,0:0:0:0:
192,192,83694,1,0,0:0:0:0:
64,192,83788,1,0,0:0:0:0:
320,192,83882,1,0,0:0:0:0:
448,192,83882,1,0,0:0:0:0:
192,192,83975,1,0,0:0:0:0:
64,192,84069,1,0,0:0:0:0:
320,192,84069,1,0,0:0:0:0:
64,192,84257,128,0,84538:0:0:0:0:
320,192,84257,128,0,84538:0:0:0:0:
192,192,84632,1,0,0:0:0:0:
64,192,84632,1,0,0:0:0:0:
448,192,84632,1,0,0:0:0:0:
320,192,84819,1,0,0:0:0:0:
448,192,84819,1,0,0:0:0:0:
192,192,84913,1,0,0:0:0:0:
64,192,84913,1,0,0:0:0:0:
448,192,85007,1,0,0:0:0:0:
320,192,85007,1,0,0:0:0:0:
64,192,85194,1,0,0:0:0:0:
448,192,85194,1,0,0:0:0:0:
192,192,85382,1,0,0:0:0:0:
64,192,85382,1,0,0:0:0:0:
320,192,85569,1,0,0:0:0:0:
448,192,85569,1,0,0:0:0:0:
192,192,85663,1,0,0:0:0:0:
64,192,85757,1,0,0:0:0:0:
448,192,85757,1,0,0:0:0:0:
192,192,85944,1,0,0:0:0:0:
64,192,85944,1,0,0:0:0:0:
448,192,86038,1,0,0:0:0:0:
320,192,86038,1,0,0:0:0:0:
192,192,86132,1,0,0:0:0:0:
64,192,86132,1,0,0:0:0:0:
320,192,86319,1,0,0:0:0:0:
192,192,86319,1,0,0:0:0:0:
64,192,86413,1,0,0:0:0:0:
320,192,86507,1,0,0:0:0:0:
448,192,86507,1,0,0:0:0:0:
64,192,86694,1,0,0:0:0:0:
448,192,86694,1,0,0:0:0:0:
192,192,86882,1,0,0:0:0:0:
64,192,86882,1,0,0:0:0:0:
320,192,87069,1,0,0:0:0:0:
448,192,87069,1,0,0:0:0:0:
192,192,87163,1,0,0:0:0:0:
64,192,87163,1,0,0:0:0:0:
320,192,87257,1,0,0:0:0:0:
448,192,87257,1,0,0:0:0:0:
64,192,87350,1,0,0:0:0:0:
192,192,87444,1,0,0:0:0:0:
448,192,87444,1,0,0:0:0:0:
320,192,87538,1,0,0:0:0:0:
192,192,87632,1,0,0:0:0:0:
64,192,87632,1,0,0:0:0:0:
448,192,87725,1,0,0:0:0:0:
320,192,87819,1,0,0:0:0:0:
64,192,87819,1,0,0:0:0:0:
192,192,87913,1,0,0:0:0:0:
320,192,88007,1,0,0:0:0:0:
448,192,88007,1,0,0:0:0:0:
64,192,88100,1,0,0:0:0:0:
192,192,88194,1,0,0:0:0:0:
320,192,88194,1,0,0:0:0:0:
448,192,88288,1,0,0:0:0:0:
192,192,88382,1,0,0:0:0:0:
64,192,88382,1,0,0:0:0:0:
320,192,88475,1,0,0:0:0:0:
448,192,88569,1,0,0:0:0:0:
192,192,88569,1,0,0:0:0:0:
64,192,88663,1,0,0:0:0:0:
320,192,88757,1,0,0:0:0:0:
448,192,88757,1,0,0:0:0:0:
192,192,88850,1,0,0:0:0:0:
64,192,88944,1,0,0:0:0:0:
320,192,88944,1,0,0:0:0:0:
448,192,89038,1,0,0:0:0:0:
64,192,89132,1,0,0:0:0:0:
192,192,89132,1,0,0:0:0:0:
320,192,89225,1,0,0:0:0:0:
64,192,89319,1,0,0:0:0:0:
448,192,89319,1,0,0:0:0:0:
192,192,89413,1,0,0:0:0:0:
320,192,89507,1,0,0:0:0:0:
448,192,89507,1,0,0:0:0:0:
192,192,89600,1,0,0:0:0:0:
64,192,89694,1,0,0:0:0:0:
448,192,89694,1,0,0:0:0:0:
320,192,89788,1,0,0:0:0:0:
192,192,89882,1,0,0:0:0:0:
64,192,89882,1,0,0:0:0:0:
448,192,89975,1,0,0:0:0:0:
192,192,90069,1,0,0:0:0:0:
320,192,90069,1,0,0:0:0:0:
64,192,90163,1,0,0:0:0:0:
448,192,90163,1,0,0:0:0:0:
320,192,90257,1,0,0:0:0:0:
192,192,90257,1,0,0:0:0:0:
448,192,90444,1,0,0:0:0:0:
64,192,90444,1,0,0:0:0:0:
192,192,90538,1,0,0:0:0:0:
320,192,90538,1,0,0:0:0:0:
64,192,90632,1,0,0:0:0:0:
448,192,90632,1,0,0:0:0:0:
320,192,90819,1,0,0:0:0:0:
192,192,90819,1,0,0:0:0:0:
448,192,90913,1,0,0:0:0:0:
192,192,91007,1,0,0:0:0:0:
64,192,91007,1,0,0:0:0:0:
192,192,91194,1,0,0:0:0:0:
448,192,91194,1,0,0:0:0:0:
448,192,91382,1,0,0:0:0:0:
320,192,91382,1,0,0:0:0:0:
64,192,91569,1,0,0:0:0:0:
192,192,91569,1,0,0:0:0:0:
448,192,91663,1,0,0:0:0:0:
64,192,91757,1,0,0:0:0:0:
320,192,91757,1,0,0:0:0:0:
192,192,91944,1,0,0:0:0:0:
448,192,91944,1,0,0:0:0:0:
64,192,92038,1,0,0:0:0:0:
320,192,92038,1,0,0:0:0:0:
192,192,92132,1,0,0:0:0:0:
448,192,92132,1,0,0:0:0:0:
448,192,92319,1,0,0:0:0:0:
320,192,92319,1,0,0:0:0:0:
192,192,92413,1,0,0:0:0:0:
320,192,92507,1,0,0:0:0:0:
64,192,92507,1,0,0:0:0:0:
448,192,92694,1,0,0:0:0:0:
64,192,92694,1,0,0:0:0:0:
320,192,92882,1,0,0:0:0:0:
192,192,92882,1,0,0:0:0:0:
320,192,93069,1,0,0:0:0:0:
448,192,93069,1,0,0:0:0:0:
192,192,93163,1,0,0:0:0:0:
64,192,93163,1,0,0:0:0:0:
320,192,93257,1,0,0:0:0:0:
448,192,93257,1,0,0:0:0:0:
192,192,93350,1,0,0:0:0:0:
320,192,93444,1,0,0:0:0:0:
64,192,93444,1,0,0:0:0:0:
448,192,93538,1,0,0:0:0:0:
192,192,93632,1,0,0:0:0:0:
64,192,93632,1,0,0:0:0:0:
320,192,93725,1,0,0:0:0:0:
448,192,93819,1,0,0:0:0:0:
192,192,93819,1,0,0:0:0:0:
64,192,93913,1,0,0:0:0:0:
320,192,94007,1,0,0:0:0:0:
448,192,94007,1,0,0:0:0:0:
192,192,94100,1,0,0:0:0:0:
64,192,94194,1,0,0:0:0:0:
448,192,94194,1,0,0:0:0:0:
320,192,94288,1,0,0:0:0:0:
192,192,94382,1,0,0:0:0:0:
64,192,94382,1,0,0:0:0:0:
320,192,94475,1,0,0:0:0:0:
448,192,94569,1,0,0:0:0:0:
64,192,94569,1,0,0:0:0:0:
192,192,94663,1,0,0:0:0:0:
320,192,94757,1,0,0:0:0:0:
448,192,94757,1,0,0:0:0:0:
192,192,94850,1,0,0:0:0:0:
64,192,94850,1,0,0:0:0:0:
320,192,94944,1,0,0:0:0:0:
448,192,94944,1,0,0:0:0:0:
192,192,95038,1,0,0:0:0:0:
64,192,95038,1,0,0:0:0:0:
320,192,95132,1,0,0:0:0:0:
448,192,95132,1,0,0:0:0:0:
192,192,95225,1,0,0:0:0:0:
64,192,95319,1,0,0:0:0:0:
320,192,95319,1,0,0:0:0:0:
448,192,95413,1,0,0:0:0:0:
192,192,95507,1,0,0:0:0:0:
64,192,95507,1,0,0:0:0:0:
448,192,95600,1,0,0:0:0:0:
320,192,95694,1,0,0:0:0:0:
192,192,95694,1,0,0:0:0:0:
64,192,95788,1,0,0:0:0:0:
448,192,95882,1,0,0:0:0:0:
320,192,95882,1,0,0:0:0:0:
192,192,95975,1,0,0:0:0:0:
320,192,96069,1,0,0:0:0:0:
192,192,96163,1,0,0:0:0:0:
448,192,96257,1,0,0:0:0:0:
64,192,96257,1,0,0:0:0:0:
320,192,96444,128,0,96632:0:0:0:0:
320,192,96819,128,0,97007:0:0:0:0:
192,192,97007,1,0,0:0:0:0:
64,192,97194,1,0,0:0:0:0:
320,192,97382,1,0,0:0:0:0:
192,192,97569,1,0,0:0:0:0:
448,192,97663,1,0,0:0:0:0:
64,192,97757,1,0,0:0:0:0:
448,192,97944,128,0,98132:0:0:0:0:
192,192,98319,1,0,0:0:0:0:
64,192,98413,1,0,0:0:0:0:
192,192,98507,1,0,0:0:0:0:
320,192,98694,1,0,0:0:0:0:
192,192,98788,1,0,0:0:0:0:
320,192,98882,1,0,0:0:0:0:
448,192,99069,1,0,0:0:0:0:
320,192,99163,1,0,0:0:0:0:
448,192,99257,1,0,0:0:0:0:
64,192,99257,1,0,0:0:0:0:
320,192,99444,128,0,99632:0:0:0:0:
320,192,99819,128,0,100007:0:0:0:0:
192,192,100007,1,0,0:0:0:0:
64,192,100194,1,0,0:0:0:0:
320,192,100382,1,0,0:0:0:0:
448,192,100569,1,0,0:0:0:0:
64,192,100663,1,0,0:0:0:0:
320,192,100757,1,0,0:0:0:0:
192,192,100944,128,0,101132:0:0:0:0:
192,192,101319,1,0,0:0:0:0:
448,192,101413,1,0,0:0:0:0:
192,192,101507,1,0,0:0:0:0:
64,192,101694,1,0,0:0:0:0:
320,192,101788,1,0,0:0:0:0:
64,192,101882,1,0,0:0:0:0:
192,192,102069,1,0,0:0:0:0:
448,192,102163,1,0,0:0:0:0:
64,192,102257,1,0,0:0:0:0:
192,192,102257,1,0,0:0:0:0:
320,192,102444,128,0,102632:0:0:0:0:
320,192,102819,128,0,103007:0:0:0:0:
192,192,103007,1,0,0:0:0:0:
64,192,103194,1,0,0:0:0:0:
320,192,103382,1,0,0:0:0:0:
192,192,103569,1,0,0:0:0:0:
448,192,103663,1,0,0:0:0:0:
64,192,103757,1,0,0:0:0:0:
320,192,103757,1,0,0:0:0:0:
448,192,103944,128,0,104132:0:0:0:0:
64,192,104319,1,0,0:0:0:0:
448,192,104413,1,0,0:0:0:0:
64,192,104507,1,0,0:0:0:0:
320,192,104694,1,0,0:0:0:0:
192,192,104788,1,0,0:0:0:0:
320,192,104882,1,0,0:0:0:0:
64,192,105069,1,0,0:0:0:0:
448,192,105163,1,0,0:0:0:0:
64,192,105257,1,0,0:0:0:0:
192,192,105257,1,0,0:0:0:0:
320,192,105444,128,0,105632:0:0:0:0:
320,192,105819,128,0,106007:0:0:0:0:
192,192,106007,1,0,0:0:0:0:
448,192,106007,1,0,0:0:0:0:
64,192,106194,1,0,0:0:0:0:
320,192,106382,1,0,0:0:0:0:
448,192,106569,1,0,0:0:0:0:
64,192,106663,1,0,0:0:0:0:
320,192,106757,1,0,0:0:0:0:
448,192,106757,1,0,0:0:0:0:
192,192,106944,128,0,107132:0:0:0:0:
192,192,107507,1,0,0:0:0:0:
64,192,107507,1,0,0:0:0:0:
448,192,107600,1,0,0:0:0:0:
320,192,107694,1,0,0:0:0:0:
64,192,107788,1,0,0:0:0:0:
448,192,107788,1,0,0:0:0:0:
192,192,107882,1,0,0:0:0:0:
64,192,107975,1,0,0:0:0:0:
448,192,108069,1,0,0:0:0:0:
320,192,108069,1,0,0:0:0:0:
192,192,108163,1,0,0:0:0:0:
64,192,108163,1,0,0:0:0:0:
448,192,108257,1,0,0:0:0:0:
320,192,108257,1,0,0:0:0:0:
192,192,108444,1,0,0:0:0:0:
64,192,108632,1,0,0:0:0:0:
320,192,108632,1,0,0:0:0:0:
448,192,108819,1,0,0:0:0:0:
192,192,109007,1,0,0:0:0:0:
64,192,109007,1,0,0:0:0:0:
320,192,109194,1,0,0:0:0:0:
192,192,109382,1,0,0:0:0:0:
448,192,109382,1,0,0:0:0:0:
448,192,109569,1,0,0:0:0:0:
320,192,109663,1,0,0:0:0:0:
192,192,109757,1,0,0:0:0:0:
64,192,109757,1,0,0:0:0:0:
320,192,109944,1,0,0:0:0:0:
64,192,110132,1,0,0:0:0:0:
448,192,110132,1,0,0:0:0:0:
192,192,110319,1,0,0:0:0:0:
320,192,110507,1,0,0:0:0:0:
448,192,110507,1,0,0:0:0:0:
64,192,110694,1,0,0:0:0:0:
192,192,110882,1,0,0:0:0:0:
320,192,110882,1,0,0:0:0:0:
192,192,111069,1,0,0:0:0:0:
64,192,111163,1,0,0:0:0:0:
448,192,111257,1,0,0:0:0:0:
320,192,111257,1,0,0:0:0:0:
64,192,111444,1,0,0:0:0:0:
320,192,111632,1,0,0:0:0:0:
192,192,111632,1,0,0:0:0:0:
448,192,111819,1,0,0:0:0:0:
192,192,112007,1,0,0:0:0:0:
64,192,112007,1,0,0:0:0:0:
320,192,112194,1,0,0:0:0:0:
64,192,112382,1,0,0:0:0:0:
448,192,112382,1,0,0:0:0:0:
448,192,112569,1,0,0:0:0:0:
320,192,112663,1,0,0:0:0:0:
192,192,112757,1,0,0:0:0:0:
64,192,112757,1,0,0:0:0:0:
64,192,112944,1,0,0:0:0:0:
320,192,113132,1,0,0:0:0:0:
448,192,113132,1,0,0:0:0:0:
320,192,113319,1,0,0:0:0:0:
192,192,113507,1,0,0:0:0:0:
64,192,113507,1,0,0:0:0:0:
320,192,113694,1,0,0:0:0:0:
448,192,113882,1,0,0:0:0:0:
64,192,113882,1,0,0:0:0:0:
192,192,114069,1,0,0:0:0:0:
320,192,114163,1,0,0:0:0:0:
448,192,114257,1,0,0:0:0:0:
64,192,114257,1,0,0:0:0:0:
320,192,114444,1,0,0:0:0:0:
448,192,114538,1,0,0:0:0:0:
192,192,114632,1,0,0:0:0:0:
64,192,114632,1,0,0:0:0:0:
192,192,114819,1,0,0:0:0:0:
320,192,114913,1,0,0:0:0:0:
64,192,115007,1,0,0:0:0:0:
448,192,115007,1,0,0:0:0:0:
64,192,115194,1,0,0:0:0:0:
192,192,115288,1,0,0:0:0:0:
320,192,115382,1,0,0:0:0:0:
448,192,115382,1,0,0:0:0:0:
448,192,115569,1,0,0:0:0:0:
320,192,115663,1,0,0:0:0:0:
64,192,115757,1,0,0:0:0:0:
192,192,115757,1,0,0:0:0:0:
320,192,115944,1,0,0:0:0:0:
192,192,116038,1,0,0:0:0:0:
64,192,116132,1,0,0:0:0:0:
448,192,116132,1,0,0:0:0:0:
192,192,116319,1,0,0:0:0:0:
64,192,116413,1,0,0:0:0:0:
320,192,116507,1,0,0:0:0:0:
448,192,116507,1,0,0:0:0:0:
64,192,116694,1,0,0:0:0:0:
448,192,116788,1,0,0:0:0:0:
64,192,116882,1,0,0:0:0:0:
192,192,116882,1,0,0:0:0:0:
320,192,117069,1,0,0:0:0:0:
192,192,117163,1,0,0:0:0:0:
320,192,117257,5,0,0:0:0:0:
448,192,117257,1,0,0:0:0:0:
192,192,117350,1,0,0:0:0:0:
64,192,117350,1,0,0:0:0:0:
320,192,117444,1,0,0:0:0:0:
448,192,117444,1,0,0:0:0:0:
192,192,117538,1,0,0:0:0:0:
64,192,117538,1,0,0:0:0:0:
320,192,117632,1,0,0:0:0:0:
448,192,117632,1,0,0:0:0:0:
64,192,117819,1,0,0:0:0:0:
448,192,117819,1,0,0:0:0:0:
192,192,118007,1,0,0:0:0:0:
64,192,118007,1,0,0:0:0:0:
448,192,118100,1,0,0:0:0:0:
320,192,118100,1,0,0:0:0:0:
192,192,118194,1,0,0:0:0:0:
64,192,118194,1,0,0:0:0:0:
320,192,118288,1,0,0:0:0:0:
448,192,118288,1,0,0:0:0:0:
192,192,118382,1,0,0:0:0:0:
64,192,118382,1,0,0:0:0:0:
192,192,118569,1,0,0:0:0:0:
320,192,118569,1,0,0:0:0:0:
320,192,118757,1,0,0:0:0:0:
448,192,118757,1,0,0:0:0:0:
448,192,118944,1,0,0:0:0:0:
192,192,119132,1,0,0:0:0:0:
64,192,119132,1,0,0:0:0:0:
64,192,119319,1,0,0:0:0:0:
448,192,119319,1,0,0:0:0:0:
192,192,119413,1,0,0:0:0:0:
320,192,119507,1,0,0:0:0:0:
448,192,119507,1,0,0:0:0:0:
320,192,119694,1,0,0:0:0:0:
192,192,119788,1,0,0:0:0:0:
64,192,119882,1,0,0:0:0:0:
448,192,119882,1,0,0:0:0:0:
320,192,120069,1,0,0:0:0:0:
192,192,120069,1,0,0:0:0:0:
192,192,120257,1,0,0:0:0:0:
64,192,120257,1,0,0:0:0:0:
448,192,120257,1,0,0:0:0:0:
64,192,120444,1,0,0:0:0:0:
320,192,120632,1,0,0:0:0:0:
448,192,120632,1,0,0:0:0:0:
448,192,120819,1,0,0:0:0:0:
192,192,121007,1,0,0:0:0:0:
320,192,121007,1,0,0:0:0:0:
64,192,121194,1,0,0:0:0:0:
448,192,121194,1,0,0:0:0:0:
192,192,121382,1,0,0:0:0:0:
64,192,121382,1,0,0:0:0:0:
320,192,121569,1,0,0:0:0:0:
192,192,121663,1,0,0:0:0:0:
64,192,121757,1,0,0:0:0:0:
448,192,121757,1,0,0:0:0:0:
448,192,121944,1,0,0:0:0:0:
320,192,121944,1,0,0:0:0:0:
192,192,122132,1,0,0:0:0:0:
64,192,122132,1,0,0:0:0:0:
320,192,122225,1,0,0:0:0:0:
192,192,122319,1,0,0:0:0:0:
64,192,122413,1,0,0:0:0:0:
320,192,122507,1,0,0:0:0:0:
448,192,122507,1,0,0:0:0:0:
192,192,122600,1,0,0:0:0:0:
320,192,122694,1,0,0:0:0:0:
448,192,122788,1,0,0:0:0:0:
192,192,122882,1,0,0:0:0:0:
64,192,122882,1,0,0:0:0:0:
192,192,123069,1,0,0:0:0:0:
448,192,123069,1,0,0:0:0:0:
448,192,123257,1,0,0:0:0:0:
320,192,123257,1,0,0:0:0:0:
320,192,123444,1,0,0:0:0:0:
192,192,123632,1,0,0:0:0:0:
64,192,123632,1,0,0:0:0:0:
192,192,123819,1,0,0:0:0:0:
448,192,124007,1,0,0:0:0:0:
64,192,124007,1,0,0:0:0:0:
192,192,124194,1,0,0:0:0:0:
64,192,124194,1,0,0:0:0:0:
320,192,124382,1,0,0:0:0:0:
448,192,124382,1,0,0:0:0:0:
192,192,124569,1,0,0:0:0:0:
320,192,124663,1,0,0:0:0:0:
448,192,124757,1,0,0:0:0:0:
64,192,124757,1,0,0:0:0:0:
192,192,124944,1,0,0:0:0:0:
64,192,124944,1,0,0:0:0:0:
320,192,125132,1,0,0:0:0:0:
448,192,125132,1,0,0:0:0:0:
64,192,125225,1,0,0:0:0:0:
320,192,125319,1,0,0:0:0:0:
448,192,125413,1,0,0:0:0:0:
192,192,125507,1,0,0:0:0:0:
64,192,125507,1,0,0:0:0:0:
448,192,125600,1,0,0:0:0:0:
192,192,125694,1,0,0:0:0:0:
64,192,125788,1,0,0:0:0:0:
320,192,125882,1,0,0:0:0:0:
448,192,125882,1,0,0:0:0:0:
320,192,126069,1,0,0:0:0:0:
192,192,126069,1,0,0:0:0:0:
448,192,126163,1,0,0:0:0:0:
192,192,126257,1,0,0:0:0:0:
64,192,126257,1,0,0:0:0:0:
64,192,126444,1,0,0:0:0:0:
320,192,126632,1,0,0:0:0:0:
448,192,126632,1,0,0:0:0:0:
448,192,126819,1,0,0:0:0:0:
192,192,127007,1,0,0:0:0:0:
320,192,127007,1,0,0:0:0:0:
64,192,127194,1,0,0:0:0:0:
448,192,127194,1,0,0:0:0:0:
192,192,127382,1,0,0:0:0:0:
64,192,127382,1,0,0:0:0:0:
320,192,127569,1,0,0:0:0:0:
192,192,127663,1,0,0:0:0:0:
64,192,127757,1,0,0:0:0:0:
448,192,127757,1,0,0:0:0:0:
448,192,127944,1,0,0:0:0:0:
320,192,127944,1,0,0:0:0:0:
192,192,128132,1,0,0:0:0:0:
64,192,128132,1,0,0:0:0:0:
320,192,128225,1,0,0:0:0:0:
192,192,128319,1,0,0:0:0:0:
64,192,128413,1,0,0:0:0:0:
320,192,128507,1,0,0:0:0:0:
448,192,128507,1,0,0:0:0:0:
192,192,128600,1,0,0:0:0:0:
320,192,128694,1,0,0:0:0:0:
448,192,128788,1,0,0:0:0:0:
192,192,128882,1,0,0:0:0:0:
64,192,128882,1,0,0:0:0:0:
64,192,129069,1,0,0:0:0:0:
448,192,129069,1,0,0:0:0:0:
448,192,129257,1,0,0:0:0:0:
320,192,129257,1,0,0:0:0:0:
320,192,129444,1,0,0:0:0:0:
192,192,129632,1,0,0:0:0:0:
64,192,129632,1,0,0:0:0:0:
192,192,129819,1,0,0:0:0:0:
448,192,130007,1,0,0:0:0:0:
64,192,130007,1,0,0:0:0:0:
192,192,130194,1,0,0:0:0:0:
64,192,130194,1,0,0:0:0:0:
320,192,130382,1,0,0:0:0:0:
448,192,130382,1,0,0:0:0:0:
192,192,130569,1,0,0:0:0:0:
320,192,130663,1,0,0:0:0:0:
448,192,130757,1,0,0:0:0:0:
64,192,130757,1,0,0:0:0:0:
64,192,130944,1,0,0:0:0:0:
320,192,131132,1,0,0:0:0:0:
448,192,131132,1,0,0:0:0:0:
320,192,131319,1,0,0:0:0:0:
192,192,131413,1,0,0:0:0:0:
64,192,131507,1,0,0:0:0:0:
448,192,131507,1,0,0:0:0:0:
448,192,131694,1,0,0:0:0:0:
320,192,131694,1,0,0:0:0:0:
64,192,131882,1,0,0:0:0:0:
192,192,131882,1,0,0:0:0:0:
64,192,132069,1,0,0:0:0:0:
448,192,132069,1,0,0:0:0:0:
192,192,132163,1,0,0:0:0:0:
320,192,132257,128,0,132538:0:0:0:0:
448,192,132257,128,0,132538:0:0:0:0:
448,192,132632,1,0,0:0:0:0:
192,192,132632,1,0,0:0:0:0:
64,192,132632,1,0,0:0:0:0:
64,192,132819,1,0,0:0:0:0:
320,192,133007,1,0,0:0:0:0:
448,192,133007,1,0,0:0:0:0:
320,192,133194,1,0,0:0:0:0:
192,192,133194,1,0,0:0:0:0:
192,192,133382,1,0,0:0:0:0:
64,192,133382,1,0,0:0:0:0:
320,192,133569,1,0,0:0:0:0:
448,192,133757,1,0,0:0:0:0:
64,192,133757,1,0,0:0:0:0:
448,192,133944,1,0,0:0:0:0:
64,192,134132,1,0,0:0:0:0:
192,192,134132,1,0,0:0:0:0:
192,192,134319,1,0,0:0:0:0:
320,192,134507,1,0,0:0:0:0:
448,192,134507,1,0,0:0:0:0:
320,192,134694,1,0,0:0:0:0:
64,192,134694,1,0,0:0:0:0:
192,192,134882,1,0,0:0:0:0:
64,192,134882,1,0,0:0:0:0:
192,192,135069,1,0,0:0:0:0:
320,192,135163,1,0,0:0:0:0:
448,192,135257,1,0,0:0:0:0:
64,192,135257,1,0,0:0:0:0:
64,192,135444,1,0,0:0:0:0:
320,192,135632,1,0,0:0:0:0:
192,192,135632,1,0,0:0:0:0:
320,192,135819,1,0,0:0:0:0:
64,192,136007,1,0,0:0:0:0:
448,192,136007,1,0,0:0:0:0:
192,192,136194,1,0,0:0:0:0:
64,192,136194,1,0,0:0:0:0:
320,192,136382,1,0,0:0:0:0:
448,192,136382,1,0,0:0:0:0:
192,192,136569,1,0,0:0:0:0:
320,192,136663,1,0,0:0:0:0:
448,192,136757,1,0,0:0:0:0:
64,192,136757,1,0,0:0:0:0:
192,192,136944,1,0,0:0:0:0:
64,192,136944,1,0,0:0:0:0:
320,192,137132,1,0,0:0:0:0:
448,192,137132,1,0,0:0:0:0:
192,192,137319,1,0,0:0:0:0:
448,192,137507,1,0,0:0:0:0:
64,192,137507,1,0,0:0:0:0:
320,192,137694,1,0,0:0:0:0:
448,192,137694,1,0,0:0:0:0:
192,192,137882,1,0,0:0:0:0:
64,192,137882,1,0,0:0:0:0:
320,192,138069,1,0,0:0:0:0:
64,192,138257,1,0,0:0:0:0:
448,192,138257,1,0,0:0:0:0:
448,192,138444,1,0,0:0:0:0:
64,192,138444,1,0,0:0:0:0:
192,192,138632,1,0,0:0:0:0:
320,192,138632,1,0,0:0:0:0:
320,192,138819,1,0,0:0:0:0:
192,192,139007,1,0,0:0:0:0:
64,192,139007,1,0,0:0:0:0:
192,192,139194,1,0,0:0:0:0:
64,192,139194,1,0,0:0:0:0:
320,192,139382,1,0,0:0:0:0:
448,192,139382,1,0,0:0:0:0:
64,192,139569,1,0,0:0:0:0:
192,192,139663,1,0,0:0:0:0:
320,192,139757,1,0,0:0:0:0:
448,192,139757,1,0,0:0:0:0:
448,192,139944,1,0,0:0:0:0:
320,192,139944,1,0,0:0:0:0:
192,192,140132,1,0,0:0:0:0:
64,192,140132,1,0,0:0:0:0:
320,192,140319,1,0,0:0:0:0:
64,192,140507,1,0,0:0:0:0:
448,192,140507,1,0,0:0:0:0:
448,192,140694,1,0,0:0:0:0:
64,192,140694,1,0,0:0:0:0:
320,192,140882,1,0,0:0:0:0:
192,192,140882,1,0,0:0:0:0:
320,192,141069,1,0,0:0:0:0:
448,192,141163,1,0,0:0:0:0:
192,192,141257,1,0,0:0:0:0:
64,192,141257,1,0,0:0:0:0:
320,192,141444,1,0,0:0:0:0:
192,192,141444,1,0,0:0:0:0:
448,192,141632,1,0,0:0:0:0:
320,192,141632,1,0,0:0:0:0:
192,192,141819,1,0,0:0:0:0:
64,192,141819,1,0,0:0:0:0:
320,192,142007,1,0,0:0:0:0:
448,192,142007,1,0,0:0:0:0:
192,192,142100,1,0,0:0:0:0:
64,192,142100,1,0,0:0:0:0:
320,192,142194,1,0,0:0:0:0:
448,192,142194,1,0,0:0:0:0:
192,192,142288,1,0,0:0:0:0:
64,192,142288,1,0,0:0:0:0:
320,192,142382,1,0,0:0:0:0:
448,192,142382,1,0,0:0:0:0:
448,192,142569,1,0,0:0:0:0:
64,192,142569,1,0,0:0:0:0:
320,192,142663,1,0,0:0:0:0:
192,192,142757,1,0,0:0:0:0:
64,192,142757,1,0,0:0:0:0:
448,192,142944,1,0,0:0:0:0:
192,192,143132,1,0,0:0:0:0:
64,192,143319,1,0,0:0:0:0:
320,192,143507,1,0,0:0:0:0:
448,192,143507,1,0,0:0:0:0:
192,192,143600,1,0,0:0:0:0:
320,192,143694,1,0,0:0:0:0:
448,192,143788,1,0,0:0:0:0:
192,192,143882,1,0,0:0:0:0:
64,192,143882,1,0,0:0:0:0:
320,192,143975,1,0,0:0:0:0:
448,192,143975,1,0,0:0:0:0:
192,192,144069,1,0,0:0:0:0:
64,192,144069,1,0,0:0:0:0:
320,192,144163,1,0,0:0:0:0:
448,192,144163,1,0,0:0:0:0:
64,192,144257,128,0,144632:0:0:0:0:
192,192,144257,128,0,144444:0:0:0:0:
448,192,144444,128,0,144632:0:0:0:0:
