osu file format v14

[General]
AudioFilename: audio.ogg
AudioLeadIn: 0
PreviewTime: 33852
Countdown: 0
SampleSet: Soft
StackLeniency: 0.7
Mode: 3
LetterboxInBreaks: 0
SpecialStyle: 0
WidescreenStoryboard: 0

[Editor]
DistanceSpacing: 0.8
BeatDivisor: 4
GridSize: 8
TimelineZoom: 2.780002

[Metadata]
Title:Eternally Onward
TitleUnicode:Eternally Onward
Artist:Ardolf
ArtistUnicode:Ardolf
Creator:Ucitysm
Version:Until the end of time
Source:
Tags:fa featured artist ln long notes arcaea第3回公募 落選供養 electronic future bass artcore drumstep instrumental indoroid tigerinity hytex himitsuhiketsu 雷欧 leoo furry Ardolf Project
BeatmapID:3986581
BeatmapSetID:1929932

[Difficulty]
HPDrainRate:8.3
CircleSize:4
OverallDifficulty:7.6
ApproachRate:5
SliderMultiplier:1.4
SliderTickRate:1

[Events]
//Background and Video events
0,0,"ardolf_violin.jpg",0,0
//Break Periods
//Storyboard Layer 0 (Background)
//Storyboard Layer 1 (Fail)
//Storyboard Layer 2 (Pass)
//Storyboard Layer 3 (Foreground)
//Storyboard Layer 4 (Overlay)
//Storyboard Sound Samples
Sample,29427,0,"snare2_f4.wav",70
Sample,29727,0,"snare2_f4.wav",70
Sample,30327,0,"snare2_f#4.wav",70
Sample,30627,0,"snare2_g4.wav",70
Sample,30927,0,"snare2_g4.wav",70
Sample,31527,0,"snare2_g#4.wav",70
Sample,31827,0,"snare2_g#4.wav",70
Sample,32427,0,"snare2_a4.wav",70
Sample,33027,0,"snare.wav",30
Sample,33027,0,"snare2.wav",30
Sample,33102,0,"snare2.wav",30
Sample,33177,0,"snare2.wav",30
Sample,33252,0,"snare2.wav",30
Sample,33327,0,"snare2.wav",30
Sample,33402,0,"snare2.wav",30
Sample,33477,0,"snare2.wav",30
Sample,33552,0,"snare2.wav",30
Sample,51702,0,"snare2_g#4.wav",70
Sample,51852,0,"snare2_a4.wav",70
Sample,52002,0,"snare2_a#4.wav",70
Sample,52152,0,"snare2_b4.wav",50
Sample,60702,0,"snare2_a4.wav",70
Sample,60852,0,"snare2_a4.wav",70
Sample,61002,0,"snare2_a4.wav",70
Sample,61152,0,"snare2_a4.wav",70
Sample,99102,0,"snare2_a4.wav",70
Sample,99252,0,"snare2_a4.wav",70
Sample,99402,0,"snare2_a4.wav",70
Sample,99552,0,"snare2_a4.wav",70
Sample,99702,0,"snare2_a#4.wav",70
Sample,99852,0,"snare2_a#4.wav",70
Sample,100002,0,"snare2_a#4.wav",70
Sample,100152,0,"snare2_a#4.wav",70
Sample,100752,0,"snare2.wav",30
Sample,101502,0,"snare2_a4.wav",70
Sample,101652,0,"snare2_a4.wav",70
Sample,101802,0,"snare2_a4.wav",70
Sample,101952,0,"snare2_a4.wav",70
Sample,102102,0,"snare2_a#4.wav",70
Sample,102252,0,"snare2_a#4.wav",70
Sample,102402,0,"snare2_a#4.wav",70
Sample,102552,0,"snare2_a#4.wav",70
Sample,102627,0,"snare2.wav",40
Sample,102627,0,"snare3.wav",50
Sample,102927,0,"snare2.wav",40
Sample,102927,0,"snare3.wav",50
Sample,103227,0,"snare3.wav",50
Sample,103377,0,"snare3.wav",50
Sample,121302,0,"snare2_g#4.wav",70
Sample,121452,0,"snare2_a4.wav",70
Sample,121602,0,"snare2_a#4.wav",70
Sample,121752,0,"snare2_b4.wav",50
Sample,131427,0,"snare3.wav",50
Sample,131727,0,"snare3.wav",50
Sample,132027,0,"snare3.wav",50
Sample,132327,0,"snare3.wav",50

[TimingPoints]
2494,300.0,4,2,1,70,1,0
9694,333.333333333333,4,2,1,70,1,0
9694,-90.0900900900901,4,2,1,70,0,0
11027,400.0,4,2,1,70,1,0
11027,-75.187969924812,4,2,1,70,0,0
12627,300.0,4,2,1,70,1,0
34227,-100.0,4,2,1,70,0,1
48589,-100.0,4,2,1,70,0,0
48627,-100.0,4,2,1,70,0,1
48889,-100.0,4,2,1,70,0,0
49827,-100.0,4,2,1,70,0,1
50089,-100.0,4,2,1,70,0,0
51027,-100.0,4,2,1,70,0,1
52227,-100.0,4,2,1,70,0,0
63027,-100.0,4,2,1,70,0,1
81027,-100.0,4,2,1,70,0,0
103827,-100.0,4,2,1,70,0,1
118189,-100.0,4,2,1,70,0,0
118227,-100.0,4,2,1,70,0,1
118489,-100.0,4,2,1,70,0,0
119427,-100.0,4,2,1,70,0,1
119689,-100.0,4,2,1,70,0,0
120627,-100.0,4,2,1,70,0,1
121827,-100.0,4,2,1,70,0,0
126627,-100.0,4,2,1,70,0,1
133827,-100.0,4,2,1,70,0,0

[HitObjects]
64,192,1894,128,0,1969:0:0:0:0:
448,192,1894,128,0,2419:0:0:0:0:
192,192,2194,128,0,2269:0:0:0:0:
64,192,2394,1,0,0:0:0:0:
192,192,2444,1,0,0:0:0:0:
320,192,2494,128,0,2794:0:0:0:50:crash.wav
448,192,2494,128,0,2569:0:0:0:0:
64,192,2794,128,0,2869:0:0:0:0:
192,192,2944,128,0,3019:0:0:0:0:
320,192,3094,1,0,0:0:0:0:
448,192,3394,128,0,3469:0:0:0:0:
64,192,3694,128,0,3919:0:0:0:0:
320,192,3694,128,0,3769:0:0:0:0:
192,192,3994,128,0,4069:0:0:0:0:
64,192,4144,128,0,4219:0:0:0:0:
448,192,4294,1,0,0:0:0:0:
192,192,4444,128,0,4519:0:0:0:0:
320,192,4594,128,0,4669:0:0:0:0:
64,192,4894,128,0,4969:0:0:0:0:
448,192,4894,128,0,5044:0:0:0:0:
192,192,5194,128,0,5269:0:0:0:0:
448,192,5494,128,0,5569:0:0:0:0:
64,192,5794,128,0,5869:0:0:0:0:
192,192,6094,1,0,0:0:0:0:
320,192,6094,128,0,6169:0:0:0:0:
448,192,6144,1,0,0:0:0:0:
64,192,6194,1,0,0:0:0:0:
192,192,6394,128,0,6844:0:0:0:0:
320,192,6694,128,0,6994:0:0:0:0:
64,192,6994,128,0,7069:0:0:0:0:
448,192,7144,1,0,0:0:0:0:
192,192,7194,1,0,0:0:0:0:
64,192,7244,1,0,0:0:0:0:
320,192,7294,1,0,0:0:0:50:kick.wav
448,192,7294,128,0,7669:0:0:0:0:
192,192,7594,128,0,7969:0:0:0:0:
64,192,7744,1,0,0:0:0:0:
320,192,7894,128,0,8269:0:0:0:0:
448,192,7894,128,0,7969:0:0:0:0:
64,192,8194,128,0,8569:0:0:0:0:
192,192,8344,1,0,0:0:0:0:
320,192,8494,1,0,0:0:0:0:
448,192,8494,128,0,8869:0:0:0:0:
192,192,8719,128,0,8794:0:0:0:0:
64,192,8794,128,0,9169:0:0:0:0:
320,192,8794,128,0,8869:0:0:0:0:
448,192,8944,1,0,0:0:0:0:
192,192,9094,128,0,9169:0:0:0:0:
320,192,9334,1,0,0:0:0:0:
448,192,9394,128,0,9469:0:0:0:0:
64,192,9454,1,0,0:0:0:0:
192,192,9574,1,0,0:0:0:0:
64,192,9634,1,0,0:0:0:0:
320,192,9694,128,0,9777:0:0:0:50:crash.wav
448,192,9694,128,0,9777:0:0:0:0:
192,192,9777,128,0,9944:0:0:0:0:
448,192,9860,128,0,10943:0:0:0:0:
64,192,9944,1,0,0:0:0:0:
320,192,10027,1,0,0:0:0:0:
192,192,10110,1,0,0:0:0:0:
64,192,10194,1,0,0:0:0:0:
320,192,10277,1,0,0:0:0:0:
64,192,10360,1,0,0:0:0:0:
192,192,10444,1,0,0:0:0:0:
320,192,10527,1,0,0:0:0:0:
64,192,10610,1,0,0:0:0:0:
320,192,10693,1,0,0:0:0:0:
192,192,10777,1,0,0:0:0:0:
320,192,10860,1,0,0:0:0:0:
192,192,10943,1,0,0:0:0:0:
64,192,11027,128,0,11327:0:0:0:0:
448,192,11027,128,0,11127:0:0:0:0:
320,192,11227,128,0,12527:0:0:0:0:
192,192,11427,1,0,0:0:0:0:
448,192,11827,1,0,0:0:0:0:
64,192,11927,1,0,0:0:0:0:
192,192,12027,1,0,0:0:0:0:
448,192,12127,1,0,0:0:0:0:
64,192,12227,1,0,0:0:0:0:
192,192,12327,1,0,0:0:0:0:
448,192,12427,1,0,0:0:0:0:
192,192,12527,1,0,0:0:0:0:
64,192,12627,128,0,12777:0:0:0:50:crash.wav
320,192,12627,1,0,0:0:0:0:
448,192,12627,128,0,13752:0:0:0:0:
192,192,12927,128,0,13002:0:0:0:0:
320,192,13227,128,0,13302:0:0:0:0:
192,192,13527,128,0,13602:0:0:0:0:
64,192,13827,128,0,13902:0:0:0:50:snare3.wav
448,192,13827,1,0,0:0:0:0:
320,192,13902,1,0,0:0:0:0:
192,192,13977,1,0,0:0:0:0:
448,192,14052,1,0,0:0:0:0:
64,192,14127,1,0,0:0:0:50:snare3.wav
192,192,14127,1,0,0:0:0:0:
320,192,14202,1,0,0:0:0:0:
192,192,14277,1,0,0:0:0:0:
448,192,14352,1,0,0:0:0:0:
64,192,14427,1,0,0:0:0:50:snare3.wav
320,192,14464,1,0,0:0:0:0:
448,192,14502,1,0,0:0:0:0:
192,192,14539,1,0,0:0:0:0:
64,192,14577,1,0,0:0:0:50:snare3.wav
320,192,14652,1,0,0:0:0:0:
64,192,14727,1,0,0:0:0:50:snare3.wav
192,192,14727,1,0,0:0:0:30:snare5.wav
448,192,14727,1,0,0:0:0:0:
320,192,14877,1,0,0:0:0:50:snare3.wav
448,192,14877,1,0,0:0:0:0:
64,192,15027,1,0,0:0:0:50:crash.wav
192,192,15027,128,0,15327:0:0:0:50:kick.wav
448,192,15027,128,0,15102:0:0:0:0:
64,192,15327,128,0,15477:0:0:0:0:
448,192,15327,128,0,15402:0:0:0:0:
192,192,15477,128,0,15927:0:0:0:50:kick.wav
320,192,15477,1,0,0:0:0:0:
64,192,15627,1,0,0:0:0:30:snare4.wav
448,192,15627,128,0,15702:0:0:0:0:
320,192,15645,1,0,0:0:0:0:
320,192,15927,128,0,16227:0:0:0:0:
448,192,15927,128,0,16002:0:0:0:0:
64,192,16227,128,0,16977:0:0:0:50:kick.wav
192,192,16227,128,0,16302:0:0:0:0:
192,192,16527,128,0,16602:0:0:0:0:
320,192,16677,1,0,0:0:0:50:kick.wav
448,192,16677,1,0,0:0:0:0:
192,192,16827,128,0,16902:0:0:0:30:snare4.wav
320,192,16827,1,0,0:0:0:0:
448,192,16845,1,0,0:0:0:0:
320,192,16977,128,0,17127:0:0:0:0:
192,192,17127,128,0,17202:0:0:0:0:
448,192,17127,128,0,17277:0:0:0:0:
64,192,17277,128,0,17427:0:0:0:50:kick.wav
320,192,17277,1,0,0:0:0:0:
320,192,17427,128,0,17502:0:0:0:50:kick.wav
448,192,17427,128,0,17727:0:0:0:0:
64,192,17727,128,0,17877:0:0:0:0:
320,192,17727,128,0,17802:0:0:0:0:
192,192,17877,1,0,0:0:0:50:kick.wav
448,192,17877,128,0,18327:0:0:0:0:
192,192,18027,1,0,0:0:0:30:snare4.wav
320,192,18027,128,0,18102:0:0:0:0:
64,192,18045,1,0,0:0:0:0:
192,192,18327,128,0,18627:0:0:0:0:
320,192,18327,128,0,18402:0:0:0:0:
64,192,18627,128,0,18702:0:0:0:50:kick.wav
320,192,18627,128,0,19227:0:0:0:0:
64,192,18927,128,0,19002:0:0:0:0:
192,192,19077,1,0,0:0:0:50:kick.wav
448,192,19077,1,0,0:0:0:0:
64,192,19227,128,0,19302:0:0:0:30:snare4.wav
192,192,19227,128,0,19527:0:0:0:0:
448,192,19245,1,0,0:0:0:0:
64,192,19527,128,0,19602:0:0:0:0:
320,192,19527,128,0,19827:0:0:0:0:
192,192,19677,1,0,0:0:0:50:kick.wav
448,192,19677,1,0,0:0:0:0:
64,192,19827,128,0,20127:0:0:0:50:kick.wav
448,192,19827,128,0,19902:0:0:0:0:
192,192,20127,128,0,20277:0:0:0:0:
448,192,20127,128,0,20202:0:0:0:0:
64,192,20277,1,0,0:0:0:50:kick.wav
320,192,20277,128,0,20727:0:0:0:0:
192,192,20427,1,0,0:0:0:30:snare4.wav
448,192,20427,128,0,20502:0:0:0:0:
64,192,20445,1,0,0:0:0:0:
192,192,20727,128,0,21027:0:0:0:0:
448,192,20727,128,0,20802:0:0:0:0:
64,192,21027,128,0,21102:0:0:0:50:kick.wav
448,192,21027,128,0,21477:0:0:0:0:
64,192,21327,128,0,21402:0:0:0:0:
192,192,21477,1,0,0:0:0:50:kick.wav
320,192,21477,1,0,0:0:0:0:
64,192,21627,128,0,21777:0:0:0:30:snare4.wav
448,192,21627,128,0,21814:0:0:0:0:
320,192,21645,128,0,21720:0:0:0:0:
64,192,21927,128,0,22039:0:0:0:30:snare4.wav
192,192,21927,128,0,22077:0:0:0:0:
448,192,21945,128,0,22020:0:0:0:0:
64,192,22227,128,0,22377:0:0:0:50:kick.wav
448,192,22227,128,0,22414:0:0:0:30:snare4.wav
320,192,22245,128,0,22320:0:0:0:0:
192,192,22377,1,0,0:0:0:50:kick.wav
320,192,22377,1,0,0:0:0:0:
64,192,22527,128,0,22752:0:0:0:30:snare4.wav
448,192,22527,128,0,22602:0:0:0:0:
192,192,22545,128,0,22620:0:0:0:0:
320,192,22677,128,0,22864:0:0:0:50:kick.wav
448,192,22677,128,0,22827:0:0:0:0:
64,192,22827,1,0,0:0:0:50:kick.wav
192,192,22827,1,0,0:0:0:0:
192,192,22977,1,0,0:0:0:50:kick.wav
320,192,22977,1,0,0:0:0:0:
320,192,23127,128,0,23277:0:0:0:30:snare4.wav
448,192,23127,128,0,23239:0:0:0:0:
64,192,23145,128,0,23220:0:0:0:0:
64,192,23277,1,0,0:0:0:50:kick.wav
192,192,23277,1,0,0:0:0:0:
64,192,23427,128,0,23577:0:0:0:50:kick.wav
448,192,23427,128,0,23502:0:0:0:30:snare4.wav
192,192,23445,128,0,23520:0:0:0:0:
320,192,23502,1,0,0:0:0:50:kick.wav
192,192,23577,1,0,0:0:0:50:kick.wav
448,192,23577,1,0,0:0:0:0:
320,192,23652,1,0,0:0:0:50:kick.wav
64,192,23727,1,0,0:0:0:50:kick.wav
448,192,23727,1,0,0:0:0:30:snare4.wav
192,192,23802,1,0,0:0:0:50:kick.wav
64,192,23877,1,0,0:0:0:50:kick.wav
448,192,23877,1,0,0:0:0:0:
320,192,23952,1,0,0:0:0:50:kick.wav
64,192,24027,1,0,0:0:0:50:kick.wav
192,192,24027,1,0,0:0:0:30:snare4.wav
320,192,24102,1,0,0:0:0:50:kick.wav
192,192,24177,1,0,0:0:0:50:kick.wav
448,192,24177,1,0,0:0:0:0:
320,192,24252,1,0,0:0:0:50:kick.wav
64,192,24327,128,0,24552:0:0:0:50:kick.wav
192,192,24327,128,0,24402:0:0:0:30:snare4.wav
448,192,24345,1,0,0:0:0:0:
192,192,24477,1,0,0:0:0:50:kick.wav
320,192,24477,1,0,0:0:0:0:
64,192,24627,1,0,0:0:0:50:crash.wav
192,192,24627,128,0,24927:0:0:0:50:kick.wav
448,192,24627,128,0,24702:0:0:0:0:
64,192,24927,128,0,25077:0:0:0:30:snare4.wav
448,192,24927,128,0,25002:0:0:0:0:
320,192,24945,1,0,0:0:0:0:
192,192,25077,128,0,25527:0:0:0:50:kick.wav
320,192,25077,1,0,0:0:0:0:
448,192,25227,128,0,25302:0:0:0:0:
64,192,25377,1,0,0:0:0:50:kick.wav
320,192,25377,1,0,0:0:0:0:
320,192,25527,128,0,25827:0:0:0:30:snare4.wav
448,192,25527,128,0,25602:0:0:0:0:
64,192,25545,1,0,0:0:0:0:
64,192,25827,128,0,26577:0:0:0:50:kick.wav
192,192,25827,128,0,25902:0:0:0:0:
192,192,26127,128,0,26202:0:0:0:30:snare4.wav
448,192,26127,1,0,0:0:0:0:
320,192,26145,1,0,0:0:0:0:
320,192,26277,1,0,0:0:0:50:kick.wav
448,192,26277,1,0,0:0:0:0:
192,192,26427,128,0,26502:0:0:0:0:
320,192,26577,128,0,26727:0:0:0:50:kick.wav
448,192,26577,1,0,0:0:0:0:
192,192,26727,128,0,26802:0:0:0:30:snare4.wav
448,192,26727,128,0,26877:0:0:0:0:
64,192,26745,1,0,0:0:0:0:
64,192,26877,128,0,27027:0:0:0:50:kick.wav
320,192,26877,1,0,0:0:0:0:
320,192,27027,128,0,27102:0:0:0:50:kick.wav
448,192,27027,128,0,27327:0:0:0:0:
64,192,27327,128,0,27477:0:0:0:30:snare4.wav
320,192,27327,128,0,27402:0:0:0:0:
192,192,27345,1,0,0:0:0:0:
192,192,27477,1,0,0:0:0:50:kick.wav
448,192,27477,128,0,27927:0:0:0:0:
320,192,27627,128,0,27702:0:0:0:0:
64,192,27777,1,0,0:0:0:50:kick.wav
192,192,27777,1,0,0:0:0:0:
192,192,27927,128,0,28152:0:0:0:50:kick.wav
320,192,27927,128,0,28002:0:0:0:30:snare4.wav
64,192,27945,128,0,28058:0:0:0:0:
64,192,28377,128,0,28452:0:0:0:50:kick.wav
192,192,28377,128,0,28527:0:0:0:0:
448,192,28377,128,0,28452:0:0:0:0:
64,192,28527,128,0,28602:0:0:0:50:kick.wav
320,192,28527,128,0,28677:0:0:0:30:snare.wav
448,192,28527,128,0,28602:0:0:0:70:snare2_f4.wav
64,192,28677,128,0,28827:0:0:0:50:kick.wav
192,192,28677,128,0,28752:0:0:0:0:
448,192,28677,128,0,28752:0:0:0:0:
192,192,28827,128,0,28902:0:0:0:50:kick.wav
320,192,28827,128,0,28902:0:0:0:30:snare.wav
448,192,28827,128,0,28977:0:0:0:70:snare2_f4.wav
64,192,28977,128,0,29052:0:0:0:50:kick.wav
192,192,28977,128,0,29127:0:0:0:0:
320,192,28977,128,0,29052:0:0:0:0:
64,192,29127,128,0,29202:0:0:0:50:kick.wav
320,192,29127,128,0,29277:0:0:0:30:snare.wav
448,192,29127,128,0,29202:0:0:0:70:snare2_f4.wav
64,192,29277,128,0,29352:0:0:0:50:kick.wav
192,192,29277,128,0,29427:0:0:0:0:
448,192,29277,128,0,29352:0:0:0:0:
320,192,29427,128,0,29652:0:0:0:50:crash.wav
448,192,29427,128,0,29502:0:0:0:50:kick.wav
64,192,29502,1,0,0:0:0:50:kick.wav
448,192,29577,1,0,0:0:0:50:kick.wav
192,192,29652,1,0,0:0:0:50:kick.wav
64,192,29727,128,0,29802:0:0:0:50:kick.wav
448,192,29727,128,0,29802:0:0:0:30:snare.wav
64,192,29877,128,0,30102:0:0:0:50:kick.wav
192,192,29877,128,0,29952:0:0:0:70:snare2_f4.wav
320,192,29952,1,0,0:0:0:50:kick.wav
192,192,30027,1,0,0:0:0:50:kick.wav
448,192,30102,1,0,0:0:0:50:kick.wav
64,192,30177,1,0,0:0:0:50:kick.wav
192,192,30177,1,0,0:0:0:70:snare2_f#4.wav
64,192,30327,128,0,30402:0:0:0:50:kick.wav
448,192,30327,128,0,30477:0:0:0:30:snare.wav
192,192,30477,128,0,30552:0:0:0:50:kick.wav
320,192,30477,128,0,30552:0:0:0:0:
320,192,30627,128,0,30777:0:0:0:50:crash.wav
448,192,30627,128,0,30852:0:0:0:50:kick.wav
64,192,30702,1,0,0:0:0:50:kick.wav
192,192,30777,1,0,0:0:0:50:kick.wav
320,192,30852,1,0,0:0:0:50:kick.wav
64,192,30927,128,0,31002:0:0:0:50:kick.wav
192,192,30927,128,0,31002:0:0:0:30:snare.wav
64,192,31077,128,0,31227:0:0:0:50:kick.wav
448,192,31077,128,0,31302:0:0:0:70:snare2_g4.wav
192,192,31152,1,0,0:0:0:50:kick.wav
320,192,31227,1,0,0:0:0:50:kick.wav
64,192,31302,1,0,0:0:0:50:kick.wav
320,192,31377,1,0,0:0:0:50:kick.wav
448,192,31377,1,0,0:0:0:70:snare2_g#4.wav
64,192,31527,128,0,31602:0:0:0:50:kick.wav
448,192,31527,128,0,31677:0:0:0:30:snare.wav
64,192,31677,1,0,0:0:0:50:kick.wav
192,192,31677,1,0,0:0:0:70:snare2_g#4.wav
64,192,31827,128,0,32089:0:0:0:50:crash.wav
320,192,31827,128,0,31977:0:0:0:50:kick.wav
448,192,31827,128,0,31939:0:0:0:30:snare.wav
192,192,32052,128,0,32127:0:0:0:50:kick.wav
320,192,32052,128,0,32164:0:0:0:30:snare.wav
448,192,32052,128,0,32352:0:0:0:70:snare2_g#4.wav
64,192,32277,128,0,32502:0:0:0:50:kick.wav
192,192,32277,128,0,32352:0:0:0:30:snare.wav
320,192,32277,128,0,32352:0:0:0:70:snare2_g#4.wav
192,192,32427,128,0,32539:0:0:0:50:crash.wav
320,192,32427,128,0,32764:0:0:0:50:kick.wav
448,192,32427,128,0,32577:0:0:0:30:snare.wav
64,192,32652,128,0,32802:0:0:0:50:kick.wav
192,192,32652,128,0,32952:0:0:0:30:snare.wav
448,192,32652,128,0,32727:0:0:0:70:snare2_a4.wav
64,192,32877,128,0,32952:0:0:0:50:kick.wav
320,192,32877,128,0,33102:0:0:0:30:snare.wav
448,192,32877,128,0,32952:0:0:0:70:snare2_a#4.wav
64,192,33027,128,0,33252:0:0:0:50:crash.wav
448,192,33027,128,0,33252:0:0:0:50:kick.wav
192,192,33102,1,0,0:0:0:50:kick.wav
320,192,33177,128,0,33402:0:0:0:50:kick.wav
192,192,33252,1,0,0:0:0:50:kick.wav
448,192,33327,128,0,33552:0:0:0:50:kick.wav
64,192,33402,1,0,0:0:0:50:kick.wav
320,192,33477,1,0,0:0:0:50:kick.wav
192,192,33552,1,0,0:0:0:50:kick.wav
64,192,33627,128,0,33814:0:0:0:50:crash.wav
320,192,33627,128,0,33814:0:0:0:50:kick.wav
448,192,33627,128,0,33814:0:0:0:30:snare2.wav
64,192,33927,1,0,0:0:0:50:kick.wav
192,192,33927,128,0,34002:0:0:0:30:snare5.wav
320,192,34002,128,0,34152:0:0:0:0:
192,192,34077,128,0,34227:0:0:0:0:
64,192,34227,128,0,34452:0:0:0:50:crash.wav
320,192,34227,1,0,0:0:0:50:kick.wav
448,192,34227,128,0,34302:0:0:0:0:
192,192,34302,128,0,34377:0:0:0:0:
320,192,34377,128,0,34527:0:0:0:0:
448,192,34452,128,0,34602:0:0:0:0:
64,192,34527,128,0,34602:0:0:0:50:kick.wav
192,192,34527,128,0,34602:0:0:0:30:snare.wav
192,192,34677,128,0,34827:0:0:0:0:
320,192,34677,128,0,34752:0:0:0:0:
64,192,34752,128,0,34902:0:0:0:0:
320,192,34827,1,0,0:0:0:50:kick.wav
448,192,34827,128,0,34902:0:0:0:0:
192,192,34977,1,0,0:0:0:0:
64,192,35127,128,0,35202:0:0:0:50:kick.wav
192,192,35127,128,0,35202:0:0:0:30:snare.wav
448,192,35127,128,0,35239:0:0:0:0:
320,192,35277,128,0,35352:0:0:0:0:
448,192,35352,128,0,35427:0:0:0:0:
64,192,35427,128,0,35502:0:0:0:50:kick.wav
192,192,35427,128,0,35652:0:0:0:0:
320,192,35502,128,0,35577:0:0:0:0:
64,192,35577,128,0,35727:0:0:0:0:
448,192,35652,128,0,35727:0:0:0:0:
192,192,35727,128,0,35802:0:0:0:50:kick.wav
320,192,35727,128,0,35802:0:0:0:30:snare.wav
64,192,35877,128,0,35952:0:0:0:0:
320,192,35877,128,0,36027:0:0:0:0:
448,192,35952,128,0,36027:0:0:0:0:
192,192,36027,128,0,36102:0:0:0:50:kick.wav
64,192,36102,1,0,0:0:0:0:
320,192,36177,128,0,36402:0:0:0:0:
448,192,36177,128,0,36252:0:0:0:0:
64,192,36327,128,0,36402:0:0:0:50:kick.wav
448,192,36327,128,0,36552:0:0:0:30:snare.wav
192,192,36477,128,0,36627:0:0:0:0:
320,192,36552,128,0,36627:0:0:0:0:
64,192,36627,128,0,36852:0:0:0:50:kick.wav
448,192,36627,128,0,36702:0:0:0:0:
320,192,36777,128,0,36927:0:0:0:0:
448,192,36852,128,0,36927:0:0:0:0:
64,192,36927,128,0,37077:0:0:0:50:kick.wav
192,192,36927,128,0,37002:0:0:0:30:snare.wav
320,192,37077,128,0,37152:0:0:0:0:
192,192,37152,128,0,37302:0:0:0:0:
64,192,37227,128,0,37302:0:0:0:50:kick.wav
448,192,37227,128,0,37302:0:0:0:0:
192,192,37377,128,0,37527:0:0:0:0:
320,192,37452,128,0,37527:0:0:0:0:
64,192,37527,128,0,37677:0:0:0:50:kick.wav
448,192,37527,128,0,37602:0:0:0:30:snare.wav
192,192,37677,128,0,37752:0:0:0:0:
448,192,37752,128,0,37902:0:0:0:0:
64,192,37827,1,0,0:0:0:50:kick.wav
320,192,37827,128,0,38127:0:0:0:0:
192,192,37902,128,0,37977:0:0:0:0:
448,192,37977,128,0,38052:0:0:0:0:
192,192,38052,128,0,38202:0:0:0:0:
64,192,38127,128,0,38352:0:0:0:50:kick.wav
448,192,38127,128,0,38202:0:0:0:30:snare.wav
320,192,38277,128,0,38427:0:0:0:0:
192,192,38427,128,0,38502:0:0:0:50:kick.wav
448,192,38427,128,0,38652:0:0:0:0:
64,192,38577,128,0,38652:0:0:0:0:
320,192,38577,128,0,38802:0:0:0:0:
192,192,38652,1,0,0:0:0:50:kick.wav
64,192,38727,128,0,38952:0:0:0:50:kick.wav
448,192,38727,128,0,38877:0:0:0:30:snare.wav
192,192,38877,128,0,39102:0:0:0:50:kick.wav
320,192,38877,128,0,38952:0:0:0:0:
64,192,39027,128,0,39102:0:0:0:50:kick.wav
448,192,39027,128,0,39252:0:0:0:0:
320,192,39102,128,0,39177:0:0:0:0:
192,192,39177,128,0,39252:0:0:0:0:
64,192,39252,128,0,39402:0:0:0:0:
320,192,39327,128,0,39402:0:0:0:50:kick.wav
448,192,39327,128,0,39402:0:0:0:30:snare.wav
192,192,39477,128,0,39627:0:0:0:0:
320,192,39477,128,0,39552:0:0:0:0:
64,192,39627,1,0,0:0:0:50:kick.wav
448,192,39627,1,0,0:0:0:0:
320,192,39777,1,0,0:0:0:0:
192,192,39852,1,0,0:0:0:0:
64,192,39927,128,0,40039:0:0:0:50:kick.wav
320,192,39927,128,0,40002:0:0:0:30:snare.wav
448,192,39927,128,0,40002:0:0:0:0:
192,192,40077,128,0,40152:0:0:0:0:
64,192,40152,128,0,40227:0:0:0:0:
320,192,40227,128,0,40452:0:0:0:50:kick.wav
448,192,40227,128,0,40302:0:0:0:0:
192,192,40302,128,0,40377:0:0:0:0:
448,192,40377,128,0,40527:0:0:0:0:
64,192,40452,128,0,40527:0:0:0:0:
192,192,40527,128,0,40602:0:0:0:50:kick.wav
320,192,40527,128,0,40602:0:0:0:30:snare.wav
64,192,40677,128,0,40752:0:0:0:0:
448,192,40677,128,0,40752:0:0:0:0:
192,192,40827,1,0,0:0:0:50:kick.wav
320,192,40827,1,0,0:0:0:0:
448,192,40977,128,0,41052:0:0:0:0:
64,192,41127,128,0,41202:0:0:0:50:kick.wav
192,192,41127,128,0,41202:0:0:0:30:snare.wav
192,192,41277,128,0,41352:0:0:0:50:kick.wav
320,192,41277,128,0,41352:0:0:0:0:
64,192,41427,128,0,41502:0:0:0:50:kick.wav
320,192,41427,128,0,41502:0:0:0:30:snare.wav
448,192,41427,128,0,41577:0:0:0:0:
64,192,41577,128,0,41652:0:0:0:50:kick.wav
192,192,41577,128,0,41652:0:0:0:30:snare.wav
320,192,41577,128,0,41727:0:0:0:0:
64,192,41727,128,0,41877:0:0:0:50:kick.wav
192,192,41727,128,0,41802:0:0:0:30:snare.wav
448,192,41727,128,0,41802:0:0:0:0:
192,192,41877,128,0,42027:0:0:0:50:kick.wav
320,192,41877,128,0,41952:0:0:0:30:snare.wav
448,192,41877,128,0,41952:0:0:0:0:
64,192,42027,128,0,42177:0:0:0:50:kick.wav
320,192,42027,128,0,42139:0:0:0:30:snare.wav
448,192,42027,128,0,42177:0:0:0:0:
64,192,42327,128,0,42477:0:0:0:50:kick.wav
192,192,42327,128,0,42402:0:0:0:30:snare.wav
448,192,42327,128,0,42402:0:0:0:0:
320,192,42477,128,0,42552:0:0:0:50:kick.wav
448,192,42477,128,0,42552:0:0:0:30:snare.wav
64,192,42552,128,0,42627:0:0:0:50:kick.wav
192,192,42552,128,0,42627:0:0:0:30:snare.wav
320,192,42627,128,0,42777:0:0:0:50:kick.wav
448,192,42627,128,0,42852:0:0:0:70:snare2_g4.wav
64,192,42702,128,0,42852:0:0:0:70:snare2_g#4.wav
192,192,42777,128,0,42852:0:0:0:70:snare2_a4.wav
320,192,42852,128,0,42927:0:0:0:70:snare2_a#4.wav
64,192,42927,128,0,43152:0:0:0:50:kick.wav
192,192,42927,128,0,43002:0:0:0:70:snare2_a#4.wav
320,192,43002,128,0,43152:0:0:0:70:snare2_a#4.wav
448,192,43077,128,0,43152:0:0:0:70:snare2_b4.wav
192,192,43152,128,0,43227:0:0:0:30:snare2.wav
64,192,43227,128,0,43677:0:0:0:50:kick.wav
320,192,43227,128,0,43377:0:0:0:30:snare.wav
448,192,43227,128,0,43377:0:0:0:30:snare2.wav
192,192,43527,128,0,43677:0:0:0:50:kick.wav
320,192,43527,128,0,43677:0:0:0:30:snare.wav
448,192,43527,128,0,43677:0:0:0:0:
64,192,43827,128,0,44052:0:0:0:50:crash.wav
320,192,43827,1,0,0:0:0:50:kick.wav
448,192,43827,128,0,43902:0:0:0:0:
192,192,43902,128,0,43977:0:0:0:0:
320,192,43977,128,0,44127:0:0:0:0:
448,192,44052,128,0,44202:0:0:0:0:
64,192,44127,128,0,44202:0:0:0:50:kick.wav
192,192,44127,128,0,44202:0:0:0:30:snare.wav
192,192,44277,128,0,44427:0:0:0:0:
320,192,44277,128,0,44352:0:0:0:0:
64,192,44352,128,0,44502:0:0:0:0:
320,192,44427,1,0,0:0:0:50:kick.wav
448,192,44427,128,0,44502:0:0:0:0:
192,192,44577,1,0,0:0:0:0:
64,192,44727,128,0,44802:0:0:0:50:kick.wav
192,192,44727,128,0,44802:0:0:0:30:snare.wav
448,192,44727,128,0,44839:0:0:0:0:
320,192,44877,128,0,44952:0:0:0:0:
448,192,44952,128,0,45027:0:0:0:0:
64,192,45027,128,0,45102:0:0:0:50:kick.wav
192,192,45027,128,0,45252:0:0:0:0:
320,192,45102,128,0,45177:0:0:0:0:
64,192,45177,128,0,45327:0:0:0:0:
448,192,45252,128,0,45327:0:0:0:0:
192,192,45327,128,0,45402:0:0:0:50:kick.wav
320,192,45327,128,0,45402:0:0:0:30:snare.wav
64,192,45477,128,0,45552:0:0:0:0:
320,192,45477,128,0,45627:0:0:0:0:
448,192,45552,128,0,45627:0:0:0:0:
192,192,45627,128,0,45702:0:0:0:50:kick.wav
64,192,45702,1,0,0:0:0:0:
320,192,45777,128,0,46002:0:0:0:0:
448,192,45777,128,0,45852:0:0:0:0:
64,192,45927,128,0,46002:0:0:0:50:kick.wav
448,192,45927,128,0,46152:0:0:0:30:snare.wav
192,192,46077,128,0,46227:0:0:0:0:
320,192,46152,128,0,46227:0:0:0:0:
64,192,46227,128,0,46377:0:0:0:50:kick.wav
448,192,46227,128,0,46302:0:0:0:0:
192,192,46377,128,0,46452:0:0:0:50:kick.wav
320,192,46377,128,0,46452:0:0:0:0:
64,192,46452,128,0,46527:0:0:0:50:kick.wav
448,192,46452,128,0,46527:0:0:0:0:
192,192,46527,128,0,46677:0:0:0:50:kick.wav
320,192,46527,128,0,46602:0:0:0:30:snare.wav
320,192,46677,128,0,46752:0:0:0:50:kick.wav
448,192,46677,128,0,46752:0:0:0:0:
64,192,46752,128,0,46827:0:0:0:50:kick.wav
192,192,46752,128,0,46827:0:0:0:0:
320,192,46827,128,0,46902:0:0:0:50:kick.wav
448,192,46827,128,0,46977:0:0:0:0:
192,192,46977,128,0,47202:0:0:0:0:
320,192,47052,128,0,47127:0:0:0:0:
64,192,47127,128,0,47202:0:0:0:50:kick.wav
448,192,47127,128,0,47277:0:0:0:30:snare.wav
192,192,47277,128,0,47352:0:0:0:50:kick.wav
320,192,47277,128,0,47352:0:0:0:0:
64,192,47352,128,0,47427:0:0:0:50:kick.wav
448,192,47352,128,0,47502:0:0:0:0:
192,192,47427,128,0,47577:0:0:0:50:kick.wav
320,192,47427,128,0,47727:0:0:0:0:
64,192,47502,128,0,47577:0:0:0:0:
448,192,47577,128,0,47652:0:0:0:0:
192,192,47652,128,0,47802:0:0:0:0:
64,192,47727,128,0,47802:0:0:0:50:kick.wav
448,192,47727,128,0,48027:0:0:0:30:snare.wav
320,192,47802,128,0,47877:0:0:0:0:
192,192,47877,1,0,0:0:0:0:
320,192,47952,1,0,0:0:0:0:
64,192,48027,128,0,48252:0:0:0:50:kick.wav
192,192,48027,128,0,48102:0:0:0:0:
448,192,48102,128,0,48177:0:0:0:0:
320,192,48177,128,0,48327:0:0:0:0:
64,192,48327,128,0,48439:0:0:0:50:kick.wav
448,192,48327,128,0,48552:0:0:0:30:snare.wav
192,192,48402,128,0,48552:0:0:0:0:
320,192,48477,128,0,48627:0:0:0:0:
64,192,48627,128,0,48927:0:0:0:50:kick.wav
192,192,48627,128,0,48852:0:0:0:0:
448,192,48627,128,0,48777:0:0:0:0:
448,192,48927,128,0,49077:0:0:0:30:snare2.wav
192,192,49002,128,0,49227:0:0:0:50:snare2_b4.wav
64,192,49077,128,0,49152:0:0:0:50:snare2_a#4.wav
448,192,49152,128,0,49302:0:0:0:50:snare2_a4.wav
64,192,49227,128,0,49377:0:0:0:50:snare2_g#4.wav
192,192,49302,128,0,49377:0:0:0:50:snare2_g4.wav
448,192,49377,128,0,49452:0:0:0:50:snare2_f#4.wav
192,192,49452,128,0,49527:0:0:0:50:snare2_f4.wav
64,192,49527,128,0,49602:0:0:0:50:kick.wav
320,192,49527,128,0,49752:0:0:0:0:
448,192,49527,128,0,49602:0:0:0:0:
64,192,49677,128,0,49752:0:0:0:50:kick.wav
192,192,49677,128,0,49902:0:0:0:0:
448,192,49677,128,0,49752:0:0:0:0:
64,192,49827,128,0,49977:0:0:0:50:kick.wav
320,192,49827,128,0,50052:0:0:0:0:
448,192,49827,128,0,50127:0:0:0:0:
64,192,50127,128,0,50277:0:0:0:30:snare2.wav
320,192,50202,128,0,50427:0:0:0:50:snare2_b4.wav
448,192,50277,128,0,50352:0:0:0:50:snare2_a#4.wav
64,192,50352,128,0,50502:0:0:0:50:snare2_a4.wav
448,192,50427,128,0,50577:0:0:0:50:snare2_g#4.wav
320,192,50502,128,0,50577:0:0:0:50:snare2_g4.wav
64,192,50577,128,0,50652:0:0:0:50:snare2_f#4.wav
320,192,50652,128,0,50727:0:0:0:50:snare2_f4.wav
64,192,50727,128,0,50802:0:0:0:50:kick.wav
192,192,50727,128,0,50802:0:0:0:0:
448,192,50727,128,0,50952:0:0:0:0:
64,192,50877,128,0,50952:0:0:0:50:kick.wav
192,192,50877,128,0,51102:0:0:0:0:
320,192,50877,128,0,50952:0:0:0:0:
64,192,51027,128,0,51252:0:0:0:50:kick.wav
320,192,51027,128,0,51102:0:0:0:50:snare2_f4.wav
448,192,51027,128,0,51102:0:0:0:0:
192,192,51177,1,0,0:0:0:50:kick.wav
320,192,51177,128,0,51252:0:0:0:50:snare2_f4.wav
64,192,51327,128,0,51402:0:0:0:50:kick.wav
448,192,51327,128,0,51552:0:0:0:50:snare2_f4.wav
192,192,51477,128,0,51552:0:0:0:50:kick.wav
320,192,51477,1,0,0:0:0:50:snare2_f4.wav
64,192,51627,1,0,0:0:0:50:kick.wav
448,192,51627,128,0,51702:0:0:0:70:snare2_g#4.wav
192,192,51702,1,0,0:0:0:50:kick.wav
64,192,51777,1,0,0:0:0:50:kick.wav
320,192,51777,1,0,0:0:0:70:snare2_g#4.wav
192,192,51852,1,0,0:0:0:50:kick.wav
320,192,51927,1,0,0:0:0:50:kick.wav
448,192,51927,1,0,0:0:0:70:snare2_a4.wav
64,192,52002,1,0,0:0:0:50:kick.wav
192,192,52077,1,0,0:0:0:50:kick.wav
448,192,52077,1,0,0:0:0:50:snare2_a#4.wav
320,192,52152,1,0,0:0:0:50:kick.wav
64,192,52227,128,0,52302:0:0:0:30:snare2.wav
448,192,52227,128,0,52827:0:0:0:0:
64,192,52827,128,0,52977:0:0:0:30:snare2.wav
448,192,52902,128,0,53052:0:0:0:50:snare2_b4.wav
192,192,52977,128,0,53127:0:0:0:50:snare2_a#4.wav
64,192,53052,128,0,53127:0:0:0:50:snare2_a4.wav
320,192,53127,128,0,53277:0:0:0:50:snare2_g#4.wav
448,192,53202,128,0,53277:0:0:0:50:snare2_g4.wav
64,192,53277,128,0,53352:0:0:0:50:snare2_f#4.wav
320,192,53352,128,0,53427:0:0:0:50:snare2_f4.wav
64,192,53427,128,0,53577:0:0:0:50:crash.wav
192,192,53427,128,0,53727:0:0:0:50:kick.wav
448,192,53427,1,0,0:0:0:0:
64,192,53727,128,0,53802:0:0:0:0:
192,192,53877,128,0,53952:0:0:0:0:
320,192,54177,1,0,0:0:0:0:
448,192,54327,128,0,54402:0:0:0:0:
192,192,54477,1,0,0:0:0:0:
64,192,54627,128,0,54852:0:0:0:0:
320,192,54627,128,0,54702:0:0:0:0:
192,192,54927,128,0,55002:0:0:0:0:
64,192,55077,128,0,55152:0:0:0:0:
448,192,55227,1,0,0:0:0:0:
192,192,55377,128,0,55452:0:0:0:0:
320,192,55527,128,0,55602:0:0:0:0:
192,192,55677,1,0,0:0:0:0:
64,192,55827,128,0,55902:0:0:0:0:
448,192,55827,128,0,55977:0:0:0:0:
192,192,56127,128,0,56202:0:0:0:0:
64,192,56277,1,0,0:0:0:0:
320,192,56427,128,0,56502:0:0:0:0:
192,192,56577,1,0,0:0:0:0:
448,192,56727,128,0,56802:0:0:0:0:
320,192,56877,1,0,0:0:0:0:
192,192,57027,128,0,57102:0:0:0:0:
448,192,57027,1,0,0:0:0:0:
64,192,57064,1,0,0:0:0:0:
320,192,57120,1,0,0:0:0:0:
320,192,57327,128,0,58077:0:0:0:0:
192,192,57477,1,0,0:0:0:0:
64,192,57627,1,0,0:0:0:0:
448,192,57777,128,0,58077:0:0:0:0:
64,192,57927,128,0,58077:0:0:0:0:
192,192,58077,128,0,58227:0:0:0:0:
64,192,58227,1,0,0:0:0:50:crash.wav
320,192,58227,128,0,58527:0:0:0:50:kick.wav
448,192,58227,128,0,58377:0:0:0:30:snare.wav
64,192,58377,1,0,0:0:0:50:kick.wav
192,192,58377,1,0,0:0:0:0:
192,192,58527,128,0,58602:0:0:0:50:kick.wav
448,192,58527,1,0,0:0:0:0:
64,192,58677,128,0,59127:0:0:0:50:kick.wav
448,192,58677,128,0,58752:0:0:0:30:snare.wav
320,192,58827,1,0,0:0:0:50:kick.wav
448,192,58827,1,0,0:0:0:0:
192,192,58977,1,0,0:0:0:50:kick.wav
320,192,58977,1,0,0:0:0:0:
320,192,59127,128,0,59202:0:0:0:50:kick.wav
448,192,59127,1,0,0:0:0:70:snare2_f4.wav
64,192,59202,1,0,0:0:0:70:snare2_f4.wav
192,192,59277,1,0,0:0:0:50:kick.wav
448,192,59277,1,0,0:0:0:70:snare2_f4.wav
64,192,59352,1,0,0:0:0:70:snare2_f4.wav
320,192,59427,128,0,59652:0:0:0:50:kick.wav
448,192,59427,128,0,59727:0:0:0:30:snare.wav
64,192,59577,1,0,0:0:0:50:kick.wav
192,192,59577,1,0,0:0:0:0:
64,192,59727,128,0,59877:0:0:0:50:kick.wav
320,192,59727,1,0,0:0:0:0:
320,192,59877,128,0,60102:0:0:0:50:kick.wav
448,192,59877,128,0,60177:0:0:0:30:snare.wav
64,192,60027,1,0,0:0:0:50:kick.wav
192,192,60027,1,0,0:0:0:0:
192,192,60177,1,0,0:0:0:50:kick.wav
320,192,60177,1,0,0:0:0:0:
64,192,60327,128,0,60552:0:0:0:50:kick.wav
448,192,60327,1,0,0:0:0:70:snare2_g#4.wav
320,192,60402,1,0,0:0:0:70:snare2_g#4.wav
192,192,60477,1,0,0:0:0:50:kick.wav
448,192,60477,1,0,0:0:0:70:snare2_g#4.wav
320,192,60552,1,0,0:0:0:70:snare2_g#4.wav
64,192,60627,128,0,60702:0:0:0:50:kick.wav
192,192,60627,1,0,0:0:0:70:snare2_a4.wav
448,192,60702,1,0,0:0:0:50:kick.wav
64,192,60777,1,0,0:0:0:50:kick.wav
320,192,60777,1,0,0:0:0:70:snare2_a4.wav
192,192,60852,1,0,0:0:0:50:kick.wav
64,192,60927,1,0,0:0:0:50:kick.wav
448,192,60927,1,0,0:0:0:70:snare2_a4.wav
320,192,61002,1,0,0:0:0:50:kick.wav
192,192,61077,1,0,0:0:0:50:kick.wav
448,192,61077,1,0,0:0:0:70:snare2_a4.wav
320,192,61152,1,0,0:0:0:50:kick.wav
64,192,61227,1,0,0:0:0:70:snare2_a#4.wav
192,192,61227,128,0,61302:0:0:0:0:
448,192,61302,1,0,0:0:0:70:snare2_a#4.wav
64,192,61377,1,0,0:0:0:70:snare2_a#4.wav
192,192,61452,1,0,0:0:0:70:snare2_a#4.wav
320,192,61527,1,0,0:0:0:70:snare2_a#4.wav
448,192,61527,1,0,0:0:0:0:
64,192,61602,1,0,0:0:0:70:snare2_a#4.wav
320,192,61677,1,0,0:0:0:70:snare2_a#4.wav
192,192,61752,1,0,0:0:0:70:snare2_a#4.wav
64,192,61827,128,0,61902:0:0:0:30:snare2.wav
448,192,61827,128,0,62427:0:0:0:0:
64,192,62427,1,0,0:0:0:70:snare6.wav
192,192,62477,1,0,0:0:0:70:kick2.wav
320,192,62527,1,0,0:0:0:70:kick2.wav
64,192,62577,1,0,0:0:0:70:kick2.wav
448,192,62627,1,0,0:0:0:70:kick2.wav
320,192,62677,1,0,0:0:0:70:kick2.wav
192,192,62727,1,0,0:0:0:70:kick2.wav
448,192,62777,1,0,0:0:0:70:kick2.wav
64,192,62827,1,0,0:0:0:70:kick2.wav
320,192,62877,1,0,0:0:0:70:kick2.wav
192,192,62927,1,0,0:0:0:70:kick2.wav
448,192,62977,1,0,0:0:0:70:kick2.wav
64,192,63027,128,0,63477:0:0:0:50:crash.wav
192,192,63027,1,0,0:0:0:70:kick2.wav
320,192,63027,1,0,0:0:0:0:
448,192,63177,128,0,63402:0:0:0:0:
192,192,63327,1,0,0:0:0:70:snare6.wav
320,192,63327,1,0,0:0:0:0:
320,192,63477,128,0,63627:0:0:0:0:
64,192,63552,1,0,0:0:0:0:
448,192,63627,128,0,63702:0:0:0:70:kick2.wav
320,192,63702,128,0,63852:0:0:0:0:
448,192,63777,128,0,64002:0:0:0:0:
64,192,63927,1,0,0:0:0:70:snare6.wav
192,192,63927,128,0,64152:0:0:0:0:
320,192,64077,128,0,64302:0:0:0:0:
64,192,64227,128,0,64377:0:0:0:70:kick2.wav
448,192,64302,1,0,0:0:0:0:
192,192,64377,128,0,64527:0:0:0:0:
64,192,64452,128,0,64827:0:0:0:0:
320,192,64527,1,0,0:0:0:70:snare6.wav
448,192,64527,1,0,0:0:0:0:
192,192,64677,1,0,0:0:0:0:
320,192,64827,128,0,65277:0:0:0:70:kick2.wav
448,192,64864,128,0,65089:0:0:0:0:
64,192,65127,1,0,0:0:0:70:snare6.wav
192,192,65127,128,0,65202:0:0:0:0:
192,192,65277,128,0,65577:0:0:0:0:
320,192,65427,128,0,65802:0:0:0:70:kick2.wav
448,192,65427,128,0,65577:0:0:0:0:
64,192,65727,128,0,65877:0:0:0:70:snare6.wav
448,192,65727,128,0,66177:0:0:0:0:
64,192,66027,128,0,66402:0:0:0:70:kick2.wav
320,192,66027,128,0,66177:0:0:0:0:
192,192,66327,128,0,66477:0:0:0:70:snare6.wav
320,192,66327,128,0,66777:0:0:0:0:
192,192,66627,128,0,66702:0:0:0:70:kick2.wav
448,192,66702,128,0,66852:0:0:0:0:
64,192,66777,128,0,66852:0:0:0:0:
192,192,66852,128,0,67002:0:0:0:0:
64,192,66927,128,0,67227:0:0:0:70:snare6.wav
448,192,66927,1,0,0:0:0:0:
320,192,67227,128,0,67377:0:0:0:70:kick2.wav
192,192,67302,128,0,67452:0:0:0:0:
448,192,67377,128,0,67452:0:0:0:0:
320,192,67452,128,0,67602:0:0:0:0:
64,192,67527,1,0,0:0:0:70:snare6.wav
448,192,67527,128,0,67752:0:0:0:0:
192,192,67677,128,0,67902:0:0:0:0:
64,192,67827,128,0,68014:0:0:0:50:crash.wav
448,192,67827,128,0,68052:0:0:0:70:kick2.wav
320,192,67864,128,0,67977:0:0:0:0:
320,192,68127,128,0,68314:0:0:0:70:snare6.wav
448,192,68127,1,0,0:0:0:0:
64,192,68164,128,0,68277:0:0:0:0:
192,192,68202,1,0,0:0:0:0:
448,192,68427,128,0,68614:0:0:0:70:kick2.wav
192,192,68464,128,0,68577:0:0:0:0:
320,192,68502,1,0,0:0:0:0:
192,192,68727,128,0,68802:0:0:0:70:snare6.wav
320,192,68727,128,0,68877:0:0:0:0:
192,192,68877,128,0,69102:0:0:0:0:
64,192,69027,128,0,69327:0:0:0:50:crash.wav
320,192,69027,1,0,0:0:0:70:kick2.wav
448,192,69027,128,0,69102:0:0:0:0:
448,192,69177,128,0,69477:0:0:0:0:
192,192,69327,1,0,0:0:0:70:snare6.wav
320,192,69327,1,0,0:0:0:0:
64,192,69477,128,0,69702:0:0:0:0:
320,192,69552,1,0,0:0:0:0:
192,192,69627,128,0,69777:0:0:0:70:kick2.wav
448,192,69702,1,0,0:0:0:0:
64,192,69777,128,0,69852:0:0:0:0:
320,192,69927,128,0,70302:0:0:0:70:snare6.wav
448,192,69927,1,0,0:0:0:0:
64,192,70227,128,0,70452:0:0:0:50:crash.wav
192,192,70227,1,0,0:0:0:70:kick2.wav
448,192,70227,128,0,70602:0:0:0:0:
64,192,70527,1,0,0:0:0:70:snare6.wav
192,192,70527,128,0,70602:0:0:0:0:
192,192,70677,128,0,70902:0:0:0:0:
64,192,70827,128,0,71277:0:0:0:50:crash.wav
320,192,70827,1,0,0:0:0:70:kick2.wav
448,192,70827,128,0,71052:0:0:0:0:
320,192,71127,128,0,71502:0:0:0:70:snare6.wav
448,192,71127,1,0,0:0:0:0:
192,192,71427,1,0,0:0:0:50:crash.wav
448,192,71427,128,0,71577:0:0:0:70:kick2.wav
64,192,71502,128,0,71652:0:0:0:0:
192,192,71577,128,0,71802:0:0:0:0:
320,192,71652,1,0,0:0:0:0:
64,192,71727,128,0,71952:0:0:0:70:snare6.wav
448,192,71727,128,0,71877:0:0:0:0:
320,192,72027,1,0,0:0:0:70:kick2.wav
448,192,72027,1,0,0:0:0:70:snare6.wav
64,192,72102,1,0,0:0:0:0:
192,192,72177,1,0,0:0:0:0:
448,192,72252,1,0,0:0:0:0:
64,192,72327,1,0,0:0:0:0:
448,192,72402,1,0,0:0:0:0:
192,192,72477,1,0,0:0:0:0:
320,192,72552,1,0,0:0:0:0:
64,192,72627,128,0,73077:0:0:0:50:crash.wav
192,192,72627,1,0,0:0:0:70:kick2.wav
448,192,72627,1,0,0:0:0:0:
448,192,72777,128,0,73002:0:0:0:0:
192,192,72927,1,0,0:0:0:70:snare6.wav
320,192,72927,1,0,0:0:0:0:
320,192,73077,128,0,73227:0:0:0:0:
192,192,73152,1,0,0:0:0:0:
64,192,73227,1,0,0:0:0:70:kick2.wav
448,192,73227,128,0,73302:0:0:0:0:
320,192,73302,128,0,73452:0:0:0:0:
448,192,73377,128,0,73602:0:0:0:0:
64,192,73527,1,0,0:0:0:70:snare6.wav
192,192,73527,128,0,73752:0:0:0:0:
320,192,73677,128,0,73902:0:0:0:0:
64,192,73827,128,0,73977:0:0:0:70:kick2.wav
192,192,73827,1,0,0:0:0:0:
448,192,73902,1,0,0:0:0:0:
192,192,73977,128,0,74127:0:0:0:0:
64,192,74052,128,0,74427:0:0:0:0:
320,192,74127,1,0,0:0:0:70:snare6.wav
448,192,74127,1,0,0:0:0:0:
448,192,74277,1,0,0:0:0:0:
192,192,74427,1,0,0:0:0:70:kick2.wav
320,192,74427,128,0,74877:0:0:0:0:
448,192,74464,128,0,74689:0:0:0:0:
64,192,74577,1,0,0:0:0:0:
64,192,74727,1,0,0:0:0:70:snare6.wav
192,192,74727,128,0,74802:0:0:0:0:
192,192,74877,128,0,75177:0:0:0:0:
320,192,75027,128,0,75402:0:0:0:70:kick2.wav
448,192,75027,128,0,75177:0:0:0:0:
64,192,75177,1,0,0:0:0:0:
64,192,75327,128,0,75477:0:0:0:70:snare6.wav
448,192,75327,128,0,75777:0:0:0:0:
192,192,75477,1,0,0:0:0:0:
64,192,75627,128,0,76002:0:0:0:70:kick2.wav
320,192,75627,128,0,75777:0:0:0:0:
192,192,75777,1,0,0:0:0:0:
192,192,75927,128,0,76077:0:0:0:70:snare6.wav
320,192,75927,128,0,76377:0:0:0:0:
448,192,76077,1,0,0:0:0:0:
64,192,76227,1,0,0:0:0:70:kick2.wav
192,192,76227,128,0,76302:0:0:0:0:
448,192,76302,128,0,76452:0:0:0:0:
64,192,76377,128,0,76452:0:0:0:0:
192,192,76452,128,0,76602:0:0:0:0:
64,192,76527,128,0,76827:0:0:0:70:snare6.wav
448,192,76527,1,0,0:0:0:0:
448,192,76677,1,0,0:0:0:0:
192,192,76827,1,0,0:0:0:70:kick2.wav
320,192,76827,128,0,77202:0:0:0:0:
192,192,76977,1,0,0:0:0:0:
64,192,77127,128,0,77202:0:0:0:50:kick.wav
448,192,77127,128,0,77202:0:0:0:70:snare6.wav
320,192,77277,128,0,77352:0:0:0:50:kick.wav
448,192,77277,128,0,77427:0:0:0:0:
64,192,77427,128,0,77502:0:0:0:50:kick.wav
192,192,77427,1,0,0:0:0:0:
320,192,77502,1,0,0:0:0:50:kick.wav
64,192,77577,1,0,0:0:0:50:kick.wav
448,192,77577,1,0,0:0:0:0:
320,192,77652,1,0,0:0:0:50:kick.wav
64,192,77727,128,0,77802:0:0:0:50:kick.wav
192,192,77727,1,0,0:0:0:0:
448,192,77802,1,0,0:0:0:50:kick.wav
64,192,77877,1,0,0:0:0:50:kick.wav
320,192,77877,1,0,0:0:0:0:
192,192,77952,1,0,0:0:0:50:kick.wav
64,192,78027,128,0,78102:0:0:0:50:kick.wav
448,192,78027,1,0,0:0:0:0:
192,192,78102,1,0,0:0:0:50:kick.wav
320,192,78177,1,0,0:0:0:50:kick.wav
448,192,78177,1,0,0:0:0:0:
192,192,78252,1,0,0:0:0:50:kick.wav
64,192,78327,128,0,78402:0:0:0:30:snare.wav
320,192,78327,1,0,0:0:0:0:
448,192,78327,128,0,78552:0:0:0:0:
320,192,78627,1,0,0:0:0:50:kick.wav
448,192,78627,128,0,78702:0:0:0:0:
64,192,78702,1,0,0:0:0:50:kick.wav
192,192,78777,1,0,0:0:0:50:kick.wav
448,192,78777,1,0,0:0:0:0:
64,192,78852,1,0,0:0:0:50:kick.wav
320,192,78927,1,0,0:0:0:50:kick.wav
448,192,78927,128,0,79002:0:0:0:0:
192,192,79002,1,0,0:0:0:50:kick.wav
320,192,79077,1,0,0:0:0:50:kick.wav
448,192,79077,1,0,0:0:0:0:
192,192,79152,1,0,0:0:0:50:kick.wav
64,192,79227,1,0,0:0:0:50:kick.wav
448,192,79227,128,0,79302:0:0:0:70:snare2_a4.wav
64,192,79377,1,0,0:0:0:50:kick.wav
320,192,79377,1,0,0:0:0:70:snare2_a4.wav
192,192,79527,1,0,0:0:0:50:kick.wav
448,192,79527,1,0,0:0:0:70:snare2_a4.wav
64,192,79602,1,0,0:0:0:0:
320,192,79677,1,0,0:0:0:50:kick.wav
448,192,79677,1,0,0:0:0:70:snare2_a4.wav
192,192,79727,1,0,0:0:0:0:
64,192,79777,1,0,0:0:0:0:
320,192,79827,1,0,0:0:0:50:kick.wav
448,192,79827,128,0,79902:0:0:0:70:snare2_a#4.wav
64,192,79977,1,0,0:0:0:70:snare2_a#4.wav
192,192,79977,1,0,0:0:0:0:
192,192,80127,128,0,80202:0:0:0:70:snare2_a#4.wav
448,192,80127,1,0,0:0:0:0:
192,192,80277,1,0,0:0:0:70:snare2_a#4.wav
320,192,80277,1,0,0:0:0:0:
64,192,80427,1,0,0:0:0:50:kick.wav
448,192,80427,128,0,80502:0:0:0:70:snare2_b4.wav
192,192,80502,1,0,0:0:0:70:snare2_b4.wav
64,192,80577,1,0,0:0:0:70:snare2_b4.wav
320,192,80577,1,0,0:0:0:0:
448,192,80652,1,0,0:0:0:70:snare2_b4.wav
64,192,80727,128,0,80802:0:0:0:70:snare2_b4.wav
192,192,80727,1,0,0:0:0:0:
448,192,80802,1,0,0:0:0:70:snare2_b4.wav
192,192,80877,1,0,0:0:0:70:snare2_b4.wav
320,192,80877,1,0,0:0:0:0:
448,192,80952,1,0,0:0:0:70:snare2_b4.wav
64,192,81027,1,0,0:0:0:50:kick.wav
192,192,81027,128,0,81102:0:0:0:70:snare2_b4.wav
320,192,81102,128,0,81252:0:0:0:0:
192,192,81177,128,0,82077:0:0:0:0:
320,192,81927,128,0,82227:0:0:0:0:
64,192,82227,128,0,82527:0:0:0:50:crash.wav
192,192,82227,128,0,82302:0:0:0:0:
448,192,82227,128,0,82977:0:0:0:0:
192,192,82527,128,0,82602:0:0:0:0:
64,192,82677,128,0,82752:0:0:0:0:
448,192,83127,128,0,83202:0:0:0:0:
192,192,83427,128,0,83502:0:0:0:0:
320,192,83427,128,0,83652:0:0:0:0:
64,192,84177,128,0,84252:0:0:0:0:
192,192,84327,128,0,84402:0:0:0:0:
320,192,84477,128,0,84552:0:0:0:0:
64,192,84627,128,0,84777:0:0:0:0:
448,192,84627,128,0,84702:0:0:0:0:
64,192,84927,128,0,85152:0:0:0:0:
320,192,84927,128,0,85002:0:0:0:0:
448,192,85077,128,0,85152:0:0:0:0:
192,192,85527,128,0,85602:0:0:0:0:
64,192,85827,128,0,85902:0:0:0:0:
448,192,85827,128,0,86052:0:0:0:0:
320,192,85902,128,0,86014:0:0:0:0:
448,192,86427,128,0,86577:0:0:0:0:
64,192,86727,128,0,86802:0:0:0:0:
320,192,87027,128,0,87102:0:0:0:0:
448,192,87027,128,0,87777:0:0:0:0:
192,192,87327,128,0,87402:0:0:0:0:
64,192,87477,128,0,87552:0:0:0:0:
320,192,87627,128,0,87814:0:0:0:0:
448,192,87927,128,0,88002:0:0:0:0:
64,192,88227,128,0,88302:0:0:0:0:
192,192,88227,128,0,88939:0:0:0:0:
448,192,88527,128,0,88602:0:0:0:0:
320,192,88677,128,0,88752:0:0:0:0:
64,192,88827,128,0,88977:0:0:0:0:
192,192,89127,128,0,89202:0:0:0:0:
64,192,89427,128,0,89877:0:0:0:0:
320,192,89427,128,0,89502:0:0:0:0:
448,192,89727,128,0,89802:0:0:0:0:
64,192,90027,128,0,90102:0:0:0:0:
320,192,90027,128,0,90139:0:0:0:0:
192,192,90327,128,0,90402:0:0:0:0:
320,192,90627,128,0,91527:0:0:0:0:
448,192,90627,128,0,90702:0:0:0:0:
64,192,91227,128,0,91302:0:0:0:0:
192,192,91467,1,0,0:0:0:0:
448,192,91527,128,0,91602:0:0:0:0:
64,192,91587,1,0,0:0:0:0:
192,192,91707,1,0,0:0:0:0:
320,192,91767,1,0,0:0:0:0:
64,192,91827,128,0,91977:0:0:0:50:crash.wav
192,192,91827,128,0,92127:0:0:0:0:
448,192,91827,1,0,0:0:0:0:
64,192,92127,128,0,92202:0:0:0:0:
192,192,92277,128,0,92352:0:0:0:0:
320,192,92577,1,0,0:0:0:0:
448,192,92727,128,0,92802:0:0:0:0:
192,192,92877,1,0,0:0:0:0:
64,192,93027,128,0,93252:0:0:0:0:
320,192,93027,128,0,93102:0:0:0:0:
192,192,93327,128,0,93402:0:0:0:0:
64,192,93477,128,0,93552:0:0:0:0:
448,192,93627,1,0,0:0:0:0:
192,192,93777,128,0,93852:0:0:0:0:
320,192,93927,128,0,94002:0:0:0:0:
192,192,94077,1,0,0:0:0:0:
64,192,94227,128,0,94302:0:0:0:0:
448,192,94227,128,0,94377:0:0:0:0:
192,192,94527,128,0,94602:0:0:0:0:
64,192,94677,1,0,0:0:0:0:
320,192,94827,128,0,94902:0:0:0:0:
192,192,94977,1,0,0:0:0:0:
64,192,95127,128,0,95202:0:0:0:0:
448,192,95277,1,0,0:0:0:0:
192,192,95427,1,0,0:0:0:0:
320,192,95427,128,0,95502:0:0:0:0:
448,192,95477,1,0,0:0:0:0:
64,192,95527,1,0,0:0:0:0:
320,192,95727,1,0,0:0:0:0:
192,192,95877,1,0,0:0:0:0:
64,192,96027,1,0,0:0:0:0:
448,192,96177,128,0,96477:0:0:0:0:
64,192,96327,128,0,96477:0:0:0:0:
192,192,96477,128,0,96627:0:0:0:0:
64,192,96627,1,0,0:0:0:50:crash.wav
320,192,96627,128,0,96927:0:0:0:50:kick.wav
448,192,96627,128,0,96777:0:0:0:30:snare.wav
64,192,96777,1,0,0:0:0:50:kick.wav
192,192,96777,1,0,0:0:0:0:
192,192,96927,128,0,97002:0:0:0:50:kick.wav
448,192,96927,1,0,0:0:0:0:
64,192,97077,128,0,97527:0:0:0:50:kick.wav
448,192,97077,128,0,97152:0:0:0:30:snare.wav
320,192,97227,1,0,0:0:0:50:kick.wav
448,192,97227,1,0,0:0:0:0:
192,192,97377,1,0,0:0:0:50:kick.wav
320,192,97377,1,0,0:0:0:0:
320,192,97527,128,0,97602:0:0:0:50:kick.wav
448,192,97527,1,0,0:0:0:70:snare2_f4.wav
64,192,97602,1,0,0:0:0:70:snare2_f4.wav
192,192,97677,1,0,0:0:0:50:kick.wav
448,192,97677,1,0,0:0:0:70:snare2_f4.wav
64,192,97752,1,0,0:0:0:70:snare2_f4.wav
320,192,97827,128,0,98052:0:0:0:50:kick.wav
448,192,97827,128,0,98127:0:0:0:30:snare.wav
64,192,97977,1,0,0:0:0:50:kick.wav
192,192,97977,1,0,0:0:0:0:
64,192,98127,128,0,98277:0:0:0:50:kick.wav
320,192,98127,1,0,0:0:0:0:
320,192,98277,128,0,98502:0:0:0:50:kick.wav
448,192,98277,128,0,98577:0:0:0:30:snare.wav
64,192,98427,1,0,0:0:0:50:kick.wav
192,192,98427,1,0,0:0:0:0:
192,192,98577,1,0,0:0:0:50:kick.wav
320,192,98577,1,0,0:0:0:0:
64,192,98727,128,0,98952:0:0:0:50:kick.wav
320,192,98727,128,0,98802:0:0:0:70:snare2_g#4.wav
448,192,98802,1,0,0:0:0:70:snare2_g#4.wav
192,192,98877,1,0,0:0:0:50:kick.wav
320,192,98877,1,0,0:0:0:70:snare2_g#4.wav
448,192,98952,1,0,0:0:0:70:snare2_g#4.wav
64,192,99027,1,0,0:0:0:50:kick.wav
192,192,99027,128,0,99102:0:0:0:70:snare2_a4.wav
448,192,99102,1,0,0:0:0:50:kick.wav
64,192,99177,1,0,0:0:0:50:kick.wav
320,192,99177,1,0,0:0:0:70:snare2_a4.wav
192,192,99252,1,0,0:0:0:50:kick.wav
64,192,99327,1,0,0:0:0:50:kick.wav
448,192,99327,1,0,0:0:0:70:snare2_a4.wav
320,192,99402,1,0,0:0:0:50:kick.wav
192,192,99477,1,0,0:0:0:50:kick.wav
448,192,99477,1,0,0:0:0:70:snare2_a4.wav
64,192,99552,1,0,0:0:0:50:kick.wav
320,192,99627,1,0,0:0:0:50:kick.wav
448,192,99627,1,0,0:0:0:70:snare2_a#4.wav
192,192,99702,1,0,0:0:0:50:kick.wav
64,192,99777,1,0,0:0:0:50:kick.wav
320,192,99777,1,0,0:0:0:70:snare2_a#4.wav
192,192,99852,1,0,0:0:0:50:kick.wav
64,192,99927,1,0,0:0:0:50:kick.wav
448,192,99927,128,0,100002:0:0:0:70:snare2_a#4.wav
320,192,100002,1,0,0:0:0:50:kick.wav
192,192,100077,128,0,100152:0:0:0:50:kick.wav
448,192,100077,1,0,0:0:0:70:snare2_a#4.wav
64,192,100152,1,0,0:0:0:50:kick.wav
320,192,100227,1,0,0:0:0:50:kick.wav
448,192,100227,1,0,0:0:0:30:snare2.wav
320,192,100302,1,0,0:0:0:50:kick.wav
448,192,100302,1,0,0:0:0:30:snare2.wav
64,192,100377,1,0,0:0:0:50:kick.wav
192,192,100377,1,0,0:0:0:30:snare2.wav
320,192,100452,1,0,0:0:0:50:kick.wav
448,192,100452,1,0,0:0:0:30:snare2.wav
64,192,100527,1,0,0:0:0:50:kick.wav
192,192,100527,1,0,0:0:0:30:snare2.wav
64,192,100602,1,0,0:0:0:50:kick.wav
192,192,100602,1,0,0:0:0:30:snare2.wav
320,192,100677,1,0,0:0:0:50:kick.wav
448,192,100677,1,0,0:0:0:30:snare2.wav
192,192,100752,1,0,0:0:0:50:kick.wav
64,192,100827,128,0,101427:0:0:0:30:snare.wav
320,192,100827,1,0,0:0:0:0:
448,192,100827,128,0,100902:0:0:0:0:
192,192,100977,128,0,101127:0:0:0:0:
448,192,101127,128,0,101277:0:0:0:50:kick.wav
320,192,101427,1,0,0:0:0:50:kick.wav
448,192,101427,128,0,101502:0:0:0:70:snare2_a4.wav
64,192,101502,1,0,0:0:0:50:kick.wav
192,192,101577,1,0,0:0:0:50:kick.wav
448,192,101577,1,0,0:0:0:70:snare2_a4.wav
64,192,101652,1,0,0:0:0:50:kick.wav
320,192,101727,1,0,0:0:0:50:kick.wav
448,192,101727,1,0,0:0:0:70:snare2_a4.wav
64,192,101802,1,0,0:0:0:50:kick.wav
192,192,101877,1,0,0:0:0:50:kick.wav
320,192,101877,1,0,0:0:0:70:snare2_a4.wav
448,192,101952,1,0,0:0:0:50:kick.wav
192,192,102027,1,0,0:0:0:50:kick.wav
320,192,102027,1,0,0:0:0:70:snare2_a#4.wav
64,192,102102,1,0,0:0:0:50:kick.wav
192,192,102177,1,0,0:0:0:50:kick.wav
448,192,102177,1,0,0:0:0:70:snare2_a#4.wav
320,192,102252,1,0,0:0:0:50:kick.wav
64,192,102327,128,0,102402:0:0:0:50:kick.wav
448,192,102327,1,0,0:0:0:70:snare2_a#4.wav
192,192,102402,1,0,0:0:0:50:kick.wav
64,192,102477,1,0,0:0:0:50:kick.wav
320,192,102477,128,0,102552:0:0:0:70:snare2_a#4.wav
192,192,102552,1,0,0:0:0:50:kick.wav
448,192,102627,128,0,102702:0:0:0:50:kick.wav
64,192,102677,1,0,0:0:0:30:snare2.wav
192,192,102727,1,0,0:0:0:30:snare2.wav
320,192,102777,1,0,0:0:0:40:snare2.wav
64,192,102827,1,0,0:0:0:30:snare2.wav
448,192,102877,1,0,0:0:0:30:snare2.wav
192,192,102927,1,0,0:0:0:50:kick.wav
320,192,102977,1,0,0:0:0:30:snare2.wav
64,192,103027,1,0,0:0:0:30:snare2.wav
448,192,103077,1,0,0:0:0:40:snare2.wav
192,192,103127,1,0,0:0:0:30:snare2.wav
64,192,103177,1,0,0:0:0:30:snare2.wav
320,192,103227,1,0,0:0:0:50:kick.wav
448,192,103227,1,0,0:0:0:40:snare2.wav
64,192,103377,1,0,0:0:0:50:kick.wav
320,192,103377,1,0,0:0:0:40:snare2.wav
64,192,103527,128,0,103714:0:0:0:50:kick.wav
192,192,103527,128,0,103602:0:0:0:40:snare2.wav
448,192,103527,128,0,103714:0:0:0:30:snare5.wav
320,192,103602,1,0,0:0:0:0:
192,192,103677,1,0,0:0:0:0:
64,192,103827,128,0,104052:0:0:0:50:crash.wav
320,192,103827,1,0,0:0:0:50:kick.wav
448,192,103827,128,0,103902:0:0:0:0:
192,192,103902,128,0,103977:0:0:0:0:
320,192,103977,128,0,104202:0:0:0:0:
448,192,104052,128,0,104202:0:0:0:0:
64,192,104127,128,0,104202:0:0:0:50:kick.wav
192,192,104127,128,0,104202:0:0:0:30:snare.wav
192,192,104277,128,0,104502:0:0:0:0:
320,192,104277,128,0,104352:0:0:0:0:
64,192,104352,128,0,104502:0:0:0:0:
320,192,104427,1,0,0:0:0:50:kick.wav
448,192,104427,128,0,104502:0:0:0:0:
192,192,104577,1,0,0:0:0:0:
320,192,104652,1,0,0:0:0:0:
64,192,104727,128,0,104839:0:0:0:50:kick.wav
192,192,104727,128,0,104802:0:0:0:30:snare.wav
448,192,104727,128,0,104839:0:0:0:0:
320,192,104877,128,0,104952:0:0:0:0:
448,192,104952,128,0,105027:0:0:0:0:
64,192,105027,128,0,105102:0:0:0:50:kick.wav
192,192,105027,128,0,105252:0:0:0:0:
320,192,105102,128,0,105177:0:0:0:0:
64,192,105177,128,0,105402:0:0:0:0:
448,192,105252,128,0,105402:0:0:0:0:
192,192,105327,128,0,105402:0:0:0:50:kick.wav
320,192,105327,128,0,105402:0:0:0:30:snare.wav
64,192,105477,128,0,105552:0:0:0:0:
320,192,105477,128,0,105702:0:0:0:0:
448,192,105552,128,0,105627:0:0:0:0:
192,192,105627,128,0,105702:0:0:0:50:kick.wav
64,192,105702,1,0,0:0:0:0:
320,192,105777,128,0,106002:0:0:0:0:
448,192,105777,128,0,105852:0:0:0:0:
64,192,105927,128,0,106002:0:0:0:50:kick.wav
448,192,105927,128,0,106152:0:0:0:30:snare.wav
192,192,106077,128,0,106227:0:0:0:0:
320,192,106152,128,0,106227:0:0:0:0:
64,192,106227,128,0,106452:0:0:0:50:kick.wav
448,192,106227,128,0,106302:0:0:0:0:
192,192,106302,1,0,0:0:0:0:
320,192,106377,128,0,106527:0:0:0:0:
448,192,106452,128,0,106602:0:0:0:0:
64,192,106527,128,0,106677:0:0:0:50:kick.wav
192,192,106527,128,0,106602:0:0:0:30:snare.wav
320,192,106677,128,0,106752:0:0:0:0:
192,192,106752,128,0,106902:0:0:0:0:
64,192,106827,128,0,106902:0:0:0:50:kick.wav
448,192,106827,128,0,106902:0:0:0:0:
320,192,106902,1,0,0:0:0:0:
192,192,106977,128,0,107127:0:0:0:0:
320,192,107052,128,0,107127:0:0:0:0:
64,192,107127,128,0,107277:0:0:0:50:kick.wav
448,192,107127,128,0,107202:0:0:0:30:snare.wav
192,192,107277,128,0,107352:0:0:0:0:
448,192,107352,128,0,107502:0:0:0:0:
64,192,107427,1,0,0:0:0:50:kick.wav
320,192,107427,128,0,107727:0:0:0:0:
192,192,107502,128,0,107577:0:0:0:0:
448,192,107577,128,0,107652:0:0:0:0:
192,192,107652,128,0,107952:0:0:0:0:
64,192,107727,128,0,107952:0:0:0:50:kick.wav
448,192,107727,128,0,107802:0:0:0:30:snare.wav
320,192,107877,128,0,108027:0:0:0:0:
192,192,108027,128,0,108102:0:0:0:50:kick.wav
448,192,108027,128,0,108252:0:0:0:0:
64,192,108177,128,0,108252:0:0:0:0:
320,192,108177,128,0,108402:0:0:0:0:
192,192,108252,1,0,0:0:0:50:kick.wav
64,192,108327,128,0,108552:0:0:0:50:kick.wav
448,192,108327,128,0,108477:0:0:0:30:snare.wav
192,192,108477,128,0,108702:0:0:0:50:kick.wav
320,192,108477,128,0,108552:0:0:0:0:
64,192,108627,128,0,108702:0:0:0:50:kick.wav
448,192,108627,128,0,108852:0:0:0:0:
320,192,108702,128,0,108777:0:0:0:0:
192,192,108777,128,0,109002:0:0:0:0:
64,192,108852,128,0,109002:0:0:0:0:
320,192,108927,128,0,109002:0:0:0:50:kick.wav
448,192,108927,128,0,109002:0:0:0:30:snare.wav
192,192,109077,128,0,109227:0:0:0:0:
320,192,109077,128,0,109227:0:0:0:0:
64,192,109227,1,0,0:0:0:50:kick.wav
448,192,109227,1,0,0:0:0:0:
320,192,109377,1,0,0:0:0:0:
192,192,109452,1,0,0:0:0:0:
64,192,109527,128,0,109639:0:0:0:50:kick.wav
320,192,109527,128,0,109602:0:0:0:30:snare.wav
448,192,109527,128,0,109602:0:0:0:0:
192,192,109677,128,0,109752:0:0:0:0:
64,192,109752,128,0,109827:0:0:0:0:
320,192,109827,128,0,110052:0:0:0:50:kick.wav
448,192,109827,128,0,109902:0:0:0:0:
192,192,109902,128,0,109977:0:0:0:0:
448,192,109977,128,0,110202:0:0:0:0:
64,192,110052,128,0,110202:0:0:0:0:
192,192,110127,128,0,110202:0:0:0:50:kick.wav
320,192,110127,128,0,110202:0:0:0:30:snare.wav
64,192,110277,128,0,110427:0:0:0:0:
448,192,110277,128,0,110352:0:0:0:0:
192,192,110427,1,0,0:0:0:50:kick.wav
320,192,110427,1,0,0:0:0:0:
448,192,110577,128,0,110652:0:0:0:0:
320,192,110652,1,0,0:0:0:0:
64,192,110727,128,0,110802:0:0:0:50:kick.wav
192,192,110727,128,0,110802:0:0:0:30:snare.wav
192,192,110877,128,0,110952:0:0:0:50:kick.wav
320,192,110877,128,0,110952:0:0:0:0:
64,192,111027,128,0,111102:0:0:0:50:kick.wav
320,192,111027,128,0,111102:0:0:0:30:snare.wav
448,192,111027,128,0,111177:0:0:0:0:
64,192,111177,128,0,111252:0:0:0:50:kick.wav
192,192,111177,128,0,111252:0:0:0:30:snare.wav
320,192,111177,128,0,111327:0:0:0:0:
64,192,111327,128,0,111477:0:0:0:50:kick.wav
192,192,111327,128,0,111402:0:0:0:30:snare.wav
448,192,111327,128,0,111402:0:0:0:0:
192,192,111477,128,0,111627:0:0:0:50:kick.wav
320,192,111477,128,0,111552:0:0:0:30:snare.wav
448,192,111477,128,0,111552:0:0:0:0:
64,192,111627,128,0,111814:0:0:0:50:kick.wav
320,192,111627,128,0,111777:0:0:0:30:snare.wav
448,192,111627,128,0,111814:0:0:0:0:
64,192,111927,128,0,112077:0:0:0:50:kick.wav
192,192,111927,128,0,112077:0:0:0:30:snare.wav
448,192,111927,128,0,112002:0:0:0:0:
320,192,112077,128,0,112152:0:0:0:50:kick.wav
448,192,112077,128,0,112152:0:0:0:30:snare.wav
64,192,112152,128,0,112227:0:0:0:50:kick.wav
192,192,112152,128,0,112227:0:0:0:30:snare.wav
320,192,112227,128,0,112377:0:0:0:50:kick.wav
448,192,112227,128,0,112527:0:0:0:70:snare2_g4.wav
64,192,112302,128,0,112452:0:0:0:70:snare2_g#4.wav
192,192,112377,128,0,112452:0:0:0:70:snare2_a4.wav
320,192,112452,128,0,112527:0:0:0:70:snare2_a#4.wav
64,192,112527,128,0,112752:0:0:0:50:kick.wav
192,192,112527,128,0,112602:0:0:0:70:snare2_a#4.wav
320,192,112602,128,0,112752:0:0:0:70:snare2_a#4.wav
448,192,112677,128,0,112752:0:0:0:70:snare2_b4.wav
192,192,112752,128,0,112827:0:0:0:30:snare2.wav
64,192,112827,128,0,113277:0:0:0:50:kick.wav
320,192,112827,128,0,112977:0:0:0:30:snare.wav
448,192,112827,128,0,112977:0:0:0:30:snare2.wav
192,192,113127,128,0,113277:0:0:0:50:kick.wav
320,192,113127,128,0,113277:0:0:0:30:snare.wav
448,192,113127,128,0,113277:0:0:0:0:
64,192,113427,128,0,113652:0:0:0:50:crash.wav
320,192,113427,1,0,0:0:0:50:kick.wav
448,192,113427,128,0,113502:0:0:0:0:
192,192,113502,128,0,113577:0:0:0:0:
320,192,113577,128,0,113802:0:0:0:0:
448,192,113652,128,0,113802:0:0:0:0:
64,192,113727,128,0,113802:0:0:0:50:kick.wav
192,192,113727,128,0,113802:0:0:0:30:snare.wav
192,192,113877,128,0,114102:0:0:0:0:
320,192,113877,128,0,113952:0:0:0:0:
64,192,113952,128,0,114102:0:0:0:0:
320,192,114027,1,0,0:0:0:50:kick.wav
448,192,114027,128,0,114102:0:0:0:0:
192,192,114177,1,0,0:0:0:0:
320,192,114252,1,0,0:0:0:0:
64,192,114327,128,0,114439:0:0:0:50:kick.wav
192,192,114327,128,0,114402:0:0:0:30:snare.wav
448,192,114327,128,0,114439:0:0:0:0:
320,192,114477,128,0,114552:0:0:0:0:
448,192,114552,128,0,114627:0:0:0:0:
64,192,114627,128,0,114702:0:0:0:50:kick.wav
192,192,114627,128,0,114852:0:0:0:0:
320,192,114702,128,0,114777:0:0:0:0:
64,192,114777,128,0,115002:0:0:0:0:
448,192,114852,128,0,115002:0:0:0:0:
192,192,114927,128,0,115002:0:0:0:50:kick.wav
320,192,114927,128,0,115002:0:0:0:30:snare.wav
64,192,115077,128,0,115152:0:0:0:50:kick.wav
320,192,115077,128,0,115302:0:0:0:0:
64,192,115227,128,0,115377:0:0:0:50:kick.wav
192,192,115227,128,0,115302:0:0:0:0:
192,192,115377,128,0,115452:0:0:0:50:kick.wav
448,192,115377,128,0,115527:0:0:0:0:
64,192,115527,128,0,115677:0:0:0:50:kick.wav
320,192,115527,128,0,115602:0:0:0:30:snare.wav
448,192,115677,128,0,115752:0:0:0:0:
192,192,115752,128,0,115827:0:0:0:0:
64,192,115827,128,0,115939:0:0:0:50:kick.wav
320,192,115827,128,0,115977:0:0:0:30:snare.wav
448,192,115827,128,0,116089:0:0:0:0:
64,192,116052,128,0,116352:0:0:0:50:kick.wav
192,192,116052,128,0,116164:0:0:0:30:snare.wav
320,192,116052,128,0,116127:0:0:0:0:
192,192,116277,128,0,116352:0:0:0:50:kick.wav
320,192,116277,128,0,116577:0:0:0:30:snare.wav
448,192,116277,128,0,116352:0:0:0:0:
64,192,116427,128,0,116577:0:0:0:50:kick.wav
192,192,116427,128,0,116764:0:0:0:30:snare.wav
448,192,116427,128,0,116539:0:0:0:0:
64,192,116652,128,0,116727:0:0:0:50:kick.wav
320,192,116652,128,0,116802:0:0:0:30:snare.wav
448,192,116652,128,0,116952:0:0:0:0:
64,192,116877,128,0,116952:0:0:0:50:kick.wav
192,192,116877,128,0,116952:0:0:0:30:snare.wav
320,192,116877,128,0,116952:0:0:0:0:
192,192,117027,128,0,117177:0:0:0:50:kick.wav
320,192,117027,128,0,117327:0:0:0:0:
64,192,117102,128,0,117177:0:0:0:0:
448,192,117177,128,0,117252:0:0:0:0:
192,192,117252,128,0,117402:0:0:0:0:
64,192,117327,128,0,117477:0:0:0:50:kick.wav
448,192,117327,128,0,117627:0:0:0:30:snare.wav
320,192,117402,128,0,117477:0:0:0:0:
192,192,117477,128,0,117552:0:0:0:0:
320,192,117552,1,0,0:0:0:0:
64,192,117627,128,0,117852:0:0:0:50:kick.wav
192,192,117627,128,0,117702:0:0:0:0:
448,192,117702,128,0,117852:0:0:0:0:
320,192,117777,128,0,117927:0:0:0:0:
64,192,117927,128,0,118152:0:0:0:50:kick.wav
448,192,117927,128,0,118152:0:0:0:30:snare.wav
192,192,118002,128,0,118152:0:0:0:0:
320,192,118077,128,0,118227:0:0:0:0:
64,192,118227,128,0,118564:0:0:0:50:kick.wav
192,192,118227,128,0,118489:0:0:0:0:
448,192,118227,128,0,118414:0:0:0:0:
448,192,118527,128,0,118677:0:0:0:30:snare2.wav
192,192,118602,128,0,118827:0:0:0:50:snare2_b4.wav
64,192,118677,128,0,118752:0:0:0:50:snare2_a#4.wav
448,192,118752,128,0,118902:0:0:0:50:snare2_a4.wav
64,192,118827,128,0,118977:0:0:0:50:snare2_g#4.wav
192,192,118902,128,0,118977:0:0:0:50:snare2_g4.wav
448,192,118977,128,0,119052:0:0:0:50:snare2_f#4.wav
192,192,119052,128,0,119127:0:0:0:50:snare2_f4.wav
64,192,119127,128,0,119202:0:0:0:50:kick.wav
320,192,119127,128,0,119352:0:0:0:0:
448,192,119127,128,0,119202:0:0:0:0:
64,192,119277,128,0,119352:0:0:0:50:kick.wav
192,192,119277,128,0,119539:0:0:0:0:
448,192,119277,128,0,119352:0:0:0:0:
64,192,119427,128,0,119614:0:0:0:50:kick.wav
320,192,119427,128,0,119689:0:0:0:0:
448,192,119427,128,0,119764:0:0:0:0:
64,192,119727,128,0,119877:0:0:0:30:snare2.wav
320,192,119802,128,0,120027:0:0:0:50:snare2_b4.wav
448,192,119877,128,0,119952:0:0:0:50:snare2_a#4.wav
64,192,119952,128,0,120102:0:0:0:50:snare2_a4.wav
448,192,120027,128,0,120177:0:0:0:50:snare2_g#4.wav
320,192,120102,128,0,120177:0:0:0:50:snare2_g4.wav
64,192,120177,128,0,120252:0:0:0:50:snare2_f#4.wav
320,192,120252,128,0,120327:0:0:0:50:snare2_f4.wav
64,192,120327,128,0,120402:0:0:0:50:kick.wav
192,192,120327,128,0,120402:0:0:0:0:
448,192,120327,128,0,120552:0:0:0:0:
64,192,120477,128,0,120552:0:0:0:50:kick.wav
192,192,120477,128,0,120702:0:0:0:0:
320,192,120477,128,0,120552:0:0:0:0:
64,192,120627,128,0,120852:0:0:0:50:kick.wav
320,192,120627,128,0,120702:0:0:0:50:snare2_f4.wav
448,192,120627,128,0,120777:0:0:0:0:
192,192,120777,1,0,0:0:0:50:kick.wav
320,192,120777,128,0,120852:0:0:0:50:snare2_f4.wav
64,192,120927,128,0,121002:0:0:0:50:kick.wav
448,192,120927,128,0,121152:0:0:0:50:snare2_f4.wav
192,192,121077,128,0,121152:0:0:0:50:kick.wav
320,192,121077,1,0,0:0:0:50:snare2_f4.wav
64,192,121227,1,0,0:0:0:50:kick.wav
448,192,121227,128,0,121302:0:0:0:70:snare2_g#4.wav
192,192,121302,1,0,0:0:0:50:kick.wav
64,192,121377,1,0,0:0:0:50:kick.wav
320,192,121377,1,0,0:0:0:70:snare2_g#4.wav
192,192,121452,1,0,0:0:0:50:kick.wav
320,192,121527,1,0,0:0:0:50:kick.wav
448,192,121527,1,0,0:0:0:70:snare2_a4.wav
64,192,121602,1,0,0:0:0:50:kick.wav
192,192,121677,1,0,0:0:0:50:kick.wav
448,192,121677,1,0,0:0:0:50:snare2_a#4.wav
320,192,121752,1,0,0:0:0:50:kick.wav
64,192,121827,128,0,121902:0:0:0:30:snare2.wav
448,192,121827,128,0,122427:0:0:0:0:
64,192,122427,128,0,122577:0:0:0:30:snare2.wav
448,192,122502,128,0,122577:0:0:0:50:snare2_b4.wav
192,192,122577,128,0,122652:0:0:0:50:snare2_a#4.wav
64,192,122652,128,0,122727:0:0:0:50:snare2_a4.wav
320,192,122727,128,0,122877:0:0:0:50:snare2_g#4.wav
448,192,122802,128,0,122952:0:0:0:50:snare2_g4.wav
64,192,122877,128,0,122952:0:0:0:50:snare2_f#4.wav
320,192,122952,128,0,123027:0:0:0:50:snare2_f4.wav
64,192,123027,128,0,123177:0:0:0:50:crash.wav
192,192,123027,128,0,123327:0:0:0:50:kick.wav
448,192,123027,1,0,0:0:0:0:
64,192,123327,128,0,123402:0:0:0:0:
320,192,123477,128,0,123552:0:0:0:0:
192,192,123777,1,0,0:0:0:0:
448,192,123927,128,0,124002:0:0:0:0:
192,192,124077,1,0,0:0:0:0:
64,192,124227,128,0,124302:0:0:0:0:
320,192,124227,128,0,124827:0:0:0:0:
64,192,124827,128,0,124977:0:0:0:50:kick.wav
192,192,124827,128,0,125427:0:0:0:0:
448,192,124827,1,0,0:0:0:0:
64,192,125427,128,0,125502:0:0:0:50:kick.wav
320,192,125427,128,0,125652:0:0:0:30:snare.wav
448,192,125427,128,0,125502:0:0:0:0:
64,192,125577,128,0,125652:0:0:0:50:kick.wav
192,192,125577,128,0,125802:0:0:0:30:snare.wav
448,192,125577,128,0,125652:0:0:0:0:
64,192,125727,128,0,125802:0:0:0:50:kick.wav
320,192,125727,128,0,125802:0:0:0:30:snare.wav
448,192,125727,128,0,125952:0:0:0:0:
64,192,125877,128,0,126102:0:0:0:50:kick.wav
192,192,125877,128,0,125952:0:0:0:30:snare.wav
320,192,125877,128,0,125952:0:0:0:0:
192,192,126027,128,0,126102:0:0:0:50:kick.wav
320,192,126027,128,0,126364:0:0:0:30:snare.wav
448,192,126027,128,0,126102:0:0:0:0:
64,192,126177,128,0,126289:0:0:0:50:kick.wav
192,192,126177,128,0,126327:0:0:0:30:snare.wav
448,192,126177,128,0,126402:0:0:0:0:
64,192,126477,128,0,126552:0:0:0:50:kick.wav
320,192,126477,128,0,126702:0:0:0:30:snare.wav
448,192,126477,128,0,126552:0:0:0:0:
64,192,126627,128,0,126777:0:0:0:50:crash.wav
192,192,126627,128,0,127377:0:0:0:50:kick.wav
448,192,126627,128,0,126739:0:0:0:30:snare.wav
320,192,126927,1,0,0:0:0:50:kick.wav
448,192,126927,1,0,0:0:0:30:snare.wav
64,192,127227,128,0,127677:0:0:0:50:kick.wav
320,192,127227,128,0,127377:0:0:0:30:snare.wav
448,192,127227,128,0,127377:0:0:0:0:
192,192,127527,128,0,127677:0:0:0:50:kick.wav
320,192,127527,128,0,127677:0:0:0:30:snare.wav
448,192,127527,128,0,127677:0:0:0:0:
64,192,127827,1,0,0:0:0:50:crash.wav
320,192,127827,128,0,128052:0:0:0:30:kick.wav
448,192,127827,128,0,127902:0:0:0:30:snare.wav
192,192,127902,1,0,0:0:0:30:kick.wav
448,192,127977,1,0,0:0:0:30:kick.wav
192,192,128052,1,0,0:0:0:30:kick.wav
64,192,128127,1,0,0:0:0:30:kick.wav
448,192,128127,128,0,128202:0:0:0:0:
320,192,128202,1,0,0:0:0:30:kick.wav
64,192,128277,1,0,0:0:0:30:kick.wav
192,192,128352,1,0,0:0:0:30:kick.wav
64,192,128427,128,0,128652:0:0:0:30:kick.wav
320,192,128427,1,0,0:0:0:30:snare.wav
448,192,128427,128,0,128502:0:0:0:0:
192,192,128502,1,0,0:0:0:30:kick.wav
320,192,128577,1,0,0:0:0:30:kick.wav
448,192,128652,1,0,0:0:0:30:kick.wav
192,192,128727,128,0,128802:0:0:0:30:kick.wav
64,192,128802,1,0,0:0:0:30:kick.wav
320,192,128877,128,0,128952:0:0:0:30:kick.wav
192,192,128952,1,0,0:0:0:30:kick.wav
64,192,129027,128,0,129252:0:0:0:30:kick.wav
320,192,129027,1,0,0:0:0:30:snare.wav
448,192,129027,128,0,129102:0:0:0:0:
192,192,129102,1,0,0:0:0:30:kick.wav
448,192,129177,1,0,0:0:0:30:kick.wav
320,192,129252,1,0,0:0:0:30:kick.wav
192,192,129327,128,0,129402:0:0:0:30:kick.wav
448,192,129402,1,0,0:0:0:30:kick.wav
64,192,129477,128,0,129552:0:0:0:30:kick.wav
320,192,129552,1,0,0:0:0:30:kick.wav
64,192,129627,128,0,129852:0:0:0:30:kick.wav
192,192,129627,1,0,0:0:0:30:snare.wav
448,192,129627,128,0,129702:0:0:0:0:
320,192,129702,1,0,0:0:0:30:kick.wav
448,192,129777,1,0,0:0:0:30:kick.wav
192,192,129852,1,0,0:0:0:30:kick.wav
64,192,129927,128,0,130002:0:0:0:30:kick.wav
448,192,130002,1,0,0:0:0:30:kick.wav
192,192,130077,128,0,130152:0:0:0:30:kick.wav
320,192,130152,1,0,0:0:0:30:kick.wav
64,192,130227,128,0,130302:0:0:0:50:kick.wav
192,192,130227,128,0,130489:0:0:0:30:snare.wav
448,192,130227,128,0,130302:0:0:0:0:
64,192,130377,128,0,130527:0:0:0:50:kick.wav
320,192,130377,128,0,130452:0:0:0:30:snare.wav
448,192,130377,128,0,130452:0:0:0:0:
320,192,130527,1,0,0:0:0:30:kick.wav
192,192,130602,1,0,0:0:0:30:kick.wav
448,192,130677,1,0,0:0:0:30:kick.wav
192,192,130752,1,0,0:0:0:30:kick.wav
64,192,130827,128,0,130902:0:0:0:50:kick.wav
320,192,130827,128,0,131089:0:0:0:30:snare.wav
448,192,130827,128,0,130902:0:0:0:0:
64,192,130977,128,0,131127:0:0:0:50:kick.wav
192,192,130977,128,0,131052:0:0:0:30:snare.wav
448,192,130977,128,0,131127:0:0:0:0:
192,192,131127,1,0,0:0:0:30:kick.wav
448,192,131202,1,0,0:0:0:30:kick.wav
64,192,131277,1,0,0:0:0:30:kick.wav
192,192,131352,1,0,0:0:0:30:kick.wav
64,192,131427,128,0,131652:0:0:0:30:kick.wav
320,192,131427,1,0,0:0:0:30:snare.wav
448,192,131427,128,0,131502:0:0:0:70:snare2_a4.wav
192,192,131502,1,0,0:0:0:30:kick.wav
448,192,131577,1,0,0:0:0:30:kick.wav
320,192,131652,1,0,0:0:0:30:kick.wav
64,192,131727,1,0,0:0:0:30:kick.wav
192,192,131727,1,0,0:0:0:70:snare2_a4.wav
448,192,131802,1,0,0:0:0:30:kick.wav
64,192,131877,1,0,0:0:0:30:kick.wav
192,192,131952,1,0,0:0:0:30:kick.wav
320,192,132027,1,0,0:0:0:30:kick.wav
448,192,132027,1,0,0:0:0:70:snare2_a4.wav
64,192,132102,1,0,0:0:0:30:kick.wav
320,192,132177,1,0,0:0:0:30:kick.wav
192,192,132252,1,0,0:0:0:30:kick.wav
64,192,132327,1,0,0:0:0:30:kick.wav
448,192,132327,1,0,0:0:0:70:snare2_a4.wav
320,192,132402,1,0,0:0:0:30:kick.wav
64,192,132477,1,0,0:0:0:30:kick.wav
192,192,132552,1,0,0:0:0:30:kick.wav
320,192,132627,1,0,0:0:0:50:crash.wav
448,192,132627,1,0,0:0:0:70:snare2_a#4.wav
320,192,132702,1,0,0:0:0:70:snare2_a#4.wav
448,192,132702,1,0,0:0:0:0:
64,192,132777,1,0,0:0:0:70:snare2_b4.wav
192,192,132777,1,0,0:0:0:0:
320,192,132852,1,0,0:0:0:70:snare2_b4.wav
448,192,132852,1,0,0:0:0:0:
64,192,132927,1,0,0:0:0:30:snare2.wav
192,192,132927,1,0,0:0:0:0:
64,192,133002,1,0,0:0:0:30:snare2.wav
192,192,133002,1,0,0:0:0:0:
320,192,133077,1,0,0:0:0:30:snare2.wav
448,192,133077,1,0,0:0:0:0:
64,192,133152,1,0,0:0:0:30:snare2.wav
192,192,133152,1,0,0:0:0:0:
320,192,133227,1,0,0:0:0:30:snare2.wav
448,192,133227,1,0,0:0:0:0:
320,192,133302,1,0,0:0:0:30:snare2.wav
448,192,133302,1,0,0:0:0:0:
64,192,133377,1,0,0:0:0:30:snare2.wav
192,192,133377,1,0,0:0:0:0:
320,192,133452,1,0,0:0:0:30:snare2.wav
448,192,133452,1,0,0:0:0:0:
64,192,133527,1,0,0:0:0:30:snare2.wav
192,192,133527,1,0,0:0:0:0:
64,192,133602,1,0,0:0:0:30:snare2.wav
192,192,133602,1,0,0:0:0:0:
320,192,133677,1,0,0:0:0:30:snare2.wav
448,192,133677,1,0,0:0:0:0:
192,192,133752,1,0,0:0:0:30:snare2.wav
64,192,133827,128,0,133902:0:0:0:50:crash.wav
320,192,133827,128,0,135027:0:0:0:0:
448,192,133827,128,0,138027:0:0:0:0:
