osu file format v14

[General]
AudioFilename: audio.ogg
AudioLeadIn: 0
PreviewTime: 33852
Countdown: 0
SampleSet: Soft
StackLeniency: 0.7
Mode: 3
LetterboxInBreaks: 0
SpecialStyle: 0
WidescreenStoryboard: 1

[Editor]
DistanceSpacing: 0.8
BeatDivisor: 4
GridSize: 8
TimelineZoom: 1.58

[Metadata]
Title:Eternally Onward
TitleUnicode:Eternally Onward
Artist:Ardolf
ArtistUnicode:Ardolf
Creator:Ucitysm
Version:Present
Source:
Tags:fa featured artist ln long notes arcaea第3回公募 落選供養 electronic future bass artcore drumstep instrumental indoroid tigerinity hytex himitsuhiketsu 雷欧 leoo furry Ardolf Project
BeatmapID:3986584
BeatmapSetID:1929932

[Difficulty]
HPDrainRate:7.4
CircleSize:4
OverallDifficulty:7.4
ApproachRate:5
SliderMultiplier:1.4
SliderTickRate:1

[Events]
//Background and Video events
0,0,"ardolf_violin.jpg",0,0
//Break Periods
//Storyboard Layer 0 (Background)
//Storyboard Layer 1 (Fail)
//Storyboard Layer 2 (Pass)
//Storyboard Layer 3 (Foreground)
//Storyboard Layer 4 (Overlay)
//Storyboard Sound Samples
Sample,28527,0,"snare2_f4.wav",70
Sample,28827,0,"snare2_f4.wav",70
Sample,29127,0,"snare2_f4.wav",70
Sample,29427,0,"snare2_f4.wav",70
Sample,29727,0,"snare.wav",30
Sample,29727,0,"snare2_f4.wav",70
Sample,30177,0,"snare2_f#4.wav",70
Sample,30327,0,"snare.wav",30
Sample,30327,0,"snare2_f#4.wav",70
Sample,30627,0,"snare2_g4.wav",70
Sample,30927,0,"snare.wav",30
Sample,30927,0,"snare2_g4.wav",70
Sample,31377,0,"snare2_g#4.wav",70
Sample,31527,0,"snare2_g#4.wav",70
Sample,31677,0,"snare2_g#4.wav",70
Sample,31827,0,"snare.wav",30
Sample,31827,0,"snare2_g#4.wav",70
Sample,32052,0,"snare2_g#4.wav",70
Sample,32277,0,"snare2_g#4.wav",70
Sample,32427,0,"snare.wav",30
Sample,32427,0,"snare2_a4.wav",70
Sample,32652,0,"snare2_a4.wav",70
Sample,32877,0,"snare2_a#4.wav",70
Sample,33027,0,"snare.wav",30
Sample,33027,0,"snare2.wav",30
Sample,33627,0,"snare2.wav",30
Sample,41577,0,"snare.wav",30
Sample,41877,0,"snare.wav",30
Sample,42477,0,"snare.wav",30
Sample,42552,0,"snare.wav",30
Sample,42627,0,"snare2_g4.wav",70
Sample,42927,0,"snare2_a#4.wav",70
Sample,43227,0,"snare2.wav",30
Sample,51177,0,"snare2_f4.wav",50
Sample,51327,0,"snare2_f4.wav",50
Sample,51477,0,"snare2_f4.wav",50
Sample,51627,0,"snare2_g#4.wav",70
Sample,51777,0,"snare2_g#4.wav",70
Sample,51927,0,"snare2_a4.wav",70
Sample,52077,0,"snare2_a#4.wav",50
Sample,58227,0,"snare.wav",30
Sample,60777,0,"snare2_a4.wav",70
Sample,60927,0,"snare2_a4.wav",70
Sample,61077,0,"snare2_a4.wav",70
Sample,72027,0,"snare6.wav",70
Sample,79377,0,"snare2_a4.wav",70
Sample,79677,0,"snare2_a4.wav",70
Sample,96627,0,"snare.wav",30
Sample,99177,0,"snare2_a4.wav",70
Sample,99327,0,"snare2_a4.wav",70
Sample,99477,0,"snare2_a4.wav",70
Sample,99627,0,"snare2_a#4.wav",70
Sample,99777,0,"snare2_a#4.wav",70
Sample,99927,0,"snare2_a#4.wav",70
Sample,100077,0,"snare2_a#4.wav",70
Sample,100227,0,"snare2.wav",30
Sample,100377,0,"snare2.wav",30
Sample,100527,0,"snare2.wav",30
Sample,100677,0,"snare2.wav",30
Sample,101577,0,"snare2_a4.wav",70
Sample,101727,0,"snare2_a4.wav",70
Sample,101877,0,"snare2_a4.wav",70
Sample,102027,0,"snare2_a#4.wav",70
Sample,102177,0,"snare2_a#4.wav",70
Sample,102327,0,"snare2_a#4.wav",70
Sample,102477,0,"snare2_a#4.wav",70
Sample,102627,0,"snare2.wav",40
Sample,102627,0,"snare3.wav",50
Sample,102927,0,"snare2.wav",40
Sample,102927,0,"snare3.wav",50
Sample,103227,0,"snare2.wav",40
Sample,103227,0,"snare3.wav",50
Sample,103377,0,"snare2.wav",40
Sample,103377,0,"snare3.wav",50
Sample,103527,0,"snare5.wav",30
Sample,111177,0,"snare.wav",30
Sample,111477,0,"snare.wav",30
Sample,112077,0,"snare.wav",30
Sample,112152,0,"snare.wav",30
Sample,112227,0,"snare2_g4.wav",70
Sample,112527,0,"snare2_a#4.wav",70
Sample,112827,0,"snare2.wav",30
Sample,120777,0,"snare2_f4.wav",50
Sample,120927,0,"snare2_f4.wav",50
Sample,121077,0,"snare2_f4.wav",50
Sample,121227,0,"snare2_g#4.wav",70
Sample,121377,0,"snare2_g#4.wav",70
Sample,121527,0,"snare2_a4.wav",70
Sample,121677,0,"snare2_a#4.wav",50
Sample,125577,0,"snare.wav",30
Sample,125877,0,"snare.wav",30
Sample,126627,0,"snare.wav",30
Sample,127227,0,"snare.wav",30
Sample,127827,0,"snare.wav",30
Sample,131427,0,"snare2_a4.wav",70
Sample,131427,0,"snare3.wav",50
Sample,131727,0,"snare3.wav",50
Sample,132027,0,"snare3.wav",50
Sample,132327,0,"snare3.wav",50

[TimingPoints]
2494,300.0,4,2,1,70,1,0
9694,333.333333333333,4,2,1,70,1,0
9694,-90.0900900900901,4,2,1,70,0,0
11027,400.0,4,2,1,70,1,0
11027,-75.187969924812,4,2,1,70,0,0
12627,300.0,4,2,1,70,1,0
34227,-100.0,4,2,1,70,0,1
48589,-100.0,4,2,1,70,0,0
48627,-100.0,4,2,1,70,0,1
48889,-100.0,4,2,1,70,0,0
49827,-100.0,4,2,1,70,0,1
50089,-100.0,4,2,1,70,0,0
51027,-100.0,4,2,1,70,0,1
52227,-100.0,4,2,1,70,0,0
63027,-100.0,4,2,1,70,0,1
81027,-100.0,4,2,1,70,0,0
103827,-100.0,4,2,1,70,0,1
118189,-100.0,4,2,1,70,0,0
118227,-100.0,4,2,1,70,0,1
118489,-100.0,4,2,1,70,0,0
119427,-100.0,4,2,1,70,0,1
119689,-100.0,4,2,1,70,0,0
120627,-100.0,4,2,1,70,0,1
121827,-100.0,4,2,1,70,0,0
126627,-100.0,4,2,1,70,0,1
133827,-100.0,4,2,1,70,0,0

[HitObjects]
64,192,1894,1,0,0:0:0:0:
192,192,2194,1,0,0:0:0:0:
64,192,2494,1,0,0:0:0:50:crash.wav
448,192,2494,1,0,0:0:0:0:
192,192,2794,1,0,0:0:0:0:
320,192,2944,1,0,0:0:0:0:
448,192,3394,1,0,0:0:0:0:
320,192,3694,1,0,0:0:0:0:
192,192,3994,1,0,0:0:0:0:
64,192,4144,1,0,0:0:0:0:
192,192,4444,1,0,0:0:0:0:
320,192,4594,1,0,0:0:0:0:
64,192,4894,1,0,0:0:0:0:
192,192,5194,1,0,0:0:0:0:
320,192,5494,1,0,0:0:0:0:
64,192,5794,1,0,0:0:0:0:
320,192,6094,1,0,0:0:0:0:
448,192,6094,1,0,0:0:0:0:
64,192,6994,128,0,7294:0:0:0:0:
320,192,7294,1,0,0:0:0:50:kick.wav
448,192,7294,128,0,7594:0:0:0:0:
192,192,7594,128,0,7894:0:0:0:0:
64,192,7894,128,0,8194:0:0:0:0:
320,192,8194,128,0,8494:0:0:0:0:
448,192,8494,128,0,8794:0:0:0:0:
320,192,8794,128,0,9094:0:0:0:0:
192,192,9094,128,0,9394:0:0:0:0:
64,192,9394,128,0,9694:0:0:0:0:
320,192,9694,128,0,11027:0:0:0:50:crash.wav
448,192,9694,1,0,0:0:0:0:
64,192,11027,1,0,0:0:0:0:
192,192,11027,128,0,12627:0:0:0:0:
64,192,12627,1,0,0:0:0:50:crash.wav
448,192,12627,128,0,13827:0:0:0:0:
192,192,12927,1,0,0:0:0:0:
320,192,13227,1,0,0:0:0:0:
64,192,13527,1,0,0:0:0:0:
192,192,13827,1,0,0:0:0:50:snare3.wav
192,192,14127,1,0,0:0:0:50:snare3.wav
320,192,14427,1,0,0:0:0:50:snare3.wav
64,192,14577,1,0,0:0:0:50:snare3.wav
320,192,14727,1,0,0:0:0:50:snare3.wav
448,192,14727,1,0,0:0:0:30:snare5.wav
192,192,14877,1,0,0:0:0:50:snare3.wav
64,192,15027,128,0,15327:0:0:0:50:crash.wav
448,192,15027,1,0,0:0:0:50:kick.wav
192,192,15327,1,0,0:0:0:0:
64,192,15477,128,0,15927:0:0:0:50:kick.wav
320,192,15627,1,0,0:0:0:30:snare4.wav
448,192,15627,1,0,0:0:0:0:
448,192,15927,128,0,16227:0:0:0:0:
64,192,16227,128,0,16827:0:0:0:50:kick.wav
192,192,16677,1,0,0:0:0:50:kick.wav
320,192,16827,1,0,0:0:0:30:snare4.wav
448,192,16827,1,0,0:0:0:0:
64,192,16977,1,0,0:0:0:0:
192,192,17127,1,0,0:0:0:0:
448,192,17277,1,0,0:0:0:50:kick.wav
320,192,17427,128,0,17727:0:0:0:50:kick.wav
192,192,17727,1,0,0:0:0:0:
320,192,17877,128,0,18327:0:0:0:50:kick.wav
64,192,18027,1,0,0:0:0:30:snare4.wav
192,192,18027,1,0,0:0:0:0:
448,192,18327,128,0,18627:0:0:0:0:
64,192,18627,128,0,19227:0:0:0:50:kick.wav
192,192,19077,1,0,0:0:0:50:kick.wav
320,192,19227,128,0,19527:0:0:0:30:snare4.wav
448,192,19227,1,0,0:0:0:0:
448,192,19527,128,0,19827:0:0:0:0:
192,192,19677,1,0,0:0:0:50:kick.wav
64,192,19827,128,0,20127:0:0:0:50:kick.wav
320,192,20127,1,0,0:0:0:0:
448,192,20277,128,0,20727:0:0:0:50:kick.wav
64,192,20427,1,0,0:0:0:30:snare4.wav
192,192,20427,1,0,0:0:0:0:
192,192,20727,128,0,21027:0:0:0:0:
64,192,21027,128,0,21477:0:0:0:50:kick.wav
448,192,21477,1,0,0:0:0:50:kick.wav
64,192,21627,1,0,0:0:0:30:snare4.wav
320,192,21627,1,0,0:0:0:0:
192,192,21927,1,0,0:0:0:30:snare4.wav
448,192,21927,1,0,0:0:0:0:
64,192,22227,1,0,0:0:0:50:kick.wav
320,192,22227,1,0,0:0:0:30:snare4.wav
448,192,22377,1,0,0:0:0:50:kick.wav
64,192,22527,1,0,0:0:0:30:snare4.wav
192,192,22527,1,0,0:0:0:0:
320,192,22677,1,0,0:0:0:50:kick.wav
448,192,22677,1,0,0:0:0:0:
192,192,22827,1,0,0:0:0:50:kick.wav
320,192,22977,1,0,0:0:0:50:kick.wav
64,192,23127,1,0,0:0:0:30:snare4.wav
448,192,23127,1,0,0:0:0:0:
192,192,23277,1,0,0:0:0:50:kick.wav
64,192,23427,128,0,23577:0:0:0:50:kick.wav
320,192,23427,128,0,23577:0:0:0:30:snare4.wav
64,192,23727,128,0,23877:0:0:0:50:kick.wav
320,192,23727,128,0,23877:0:0:0:30:snare4.wav
64,192,24027,128,0,24177:0:0:0:50:kick.wav
320,192,24027,128,0,24177:0:0:0:30:snare4.wav
192,192,24327,1,0,0:0:0:50:kick.wav
448,192,24327,1,0,0:0:0:30:snare4.wav
320,192,24477,1,0,0:0:0:50:kick.wav
64,192,24627,128,0,24927:0:0:0:50:crash.wav
448,192,24627,1,0,0:0:0:50:kick.wav
192,192,24927,1,0,0:0:0:30:snare4.wav
320,192,24927,1,0,0:0:0:0:
64,192,25077,128,0,25527:0:0:0:50:kick.wav
192,192,25377,1,0,0:0:0:50:kick.wav
320,192,25527,1,0,0:0:0:30:snare4.wav
448,192,25527,128,0,25827:0:0:0:0:
64,192,25827,128,0,26577:0:0:0:50:kick.wav
320,192,26127,1,0,0:0:0:30:snare4.wav
448,192,26127,1,0,0:0:0:0:
192,192,26277,1,0,0:0:0:50:kick.wav
320,192,26577,1,0,0:0:0:50:kick.wav
64,192,26727,1,0,0:0:0:30:snare4.wav
192,192,26727,1,0,0:0:0:0:
448,192,26877,1,0,0:0:0:50:kick.wav
320,192,27027,128,0,27327:0:0:0:50:kick.wav
64,192,27327,1,0,0:0:0:30:snare4.wav
448,192,27327,1,0,0:0:0:0:
320,192,27477,128,0,27927:0:0:0:50:kick.wav
192,192,27777,1,0,0:0:0:50:kick.wav
64,192,27927,128,0,28077:0:0:0:50:kick.wav
448,192,27927,128,0,28077:0:0:0:30:snare4.wav
64,192,28377,1,0,0:0:0:50:kick.wav
320,192,28527,1,0,0:0:0:50:kick.wav
448,192,28527,1,0,0:0:0:30:snare.wav
192,192,28677,1,0,0:0:0:50:kick.wav
64,192,28827,1,0,0:0:0:50:kick.wav
448,192,28827,1,0,0:0:0:30:snare.wav
192,192,28977,1,0,0:0:0:50:kick.wav
320,192,29127,1,0,0:0:0:50:kick.wav
448,192,29127,1,0,0:0:0:30:snare.wav
64,192,29277,1,0,0:0:0:50:kick.wav
192,192,29427,128,0,29727:0:0:0:50:crash.wav
448,192,29427,128,0,29727:0:0:0:50:kick.wav
64,192,29727,1,0,0:0:0:50:kick.wav
320,192,29877,128,0,30177:0:0:0:50:kick.wav
448,192,29877,128,0,30177:0:0:0:70:snare2_f4.wav
192,192,30177,1,0,0:0:0:50:kick.wav
64,192,30327,1,0,0:0:0:50:kick.wav
448,192,30477,1,0,0:0:0:50:kick.wav
64,192,30627,128,0,30927:0:0:0:50:crash.wav
320,192,30627,128,0,30927:0:0:0:50:kick.wav
448,192,30927,1,0,0:0:0:50:kick.wav
64,192,31077,128,0,31377:0:0:0:50:kick.wav
192,192,31077,128,0,31377:0:0:0:70:snare2_g4.wav
320,192,31377,1,0,0:0:0:50:kick.wav
64,192,31527,128,0,31677:0:0:0:50:kick.wav
448,192,31527,128,0,31677:0:0:0:30:snare.wav
192,192,31677,1,0,0:0:0:50:kick.wav
320,192,31827,1,0,0:0:0:50:crash.wav
448,192,31827,1,0,0:0:0:50:kick.wav
64,192,32052,1,0,0:0:0:50:kick.wav
448,192,32052,1,0,0:0:0:30:snare.wav
320,192,32277,1,0,0:0:0:50:kick.wav
448,192,32277,1,0,0:0:0:30:snare.wav
64,192,32427,1,0,0:0:0:50:crash.wav
192,192,32427,1,0,0:0:0:50:kick.wav
192,192,32652,1,0,0:0:0:50:kick.wav
320,192,32652,1,0,0:0:0:30:snare.wav
320,192,32877,1,0,0:0:0:50:kick.wav
448,192,32877,1,0,0:0:0:30:snare.wav
64,192,33027,128,0,33627:0:0:0:50:crash.wav
448,192,33027,128,0,33627:0:0:0:50:kick.wav
192,192,33627,1,0,0:0:0:50:crash.wav
320,192,33627,1,0,0:0:0:50:kick.wav
64,192,33927,128,0,34227:0:0:0:50:kick.wav
448,192,33927,1,0,0:0:0:30:snare5.wav
320,192,34227,128,0,34527:0:0:0:50:crash.wav
448,192,34227,128,0,34527:0:0:0:50:kick.wav
64,192,34527,1,0,0:0:0:50:kick.wav
192,192,34527,128,0,34677:0:0:0:30:snare.wav
448,192,34677,128,0,34827:0:0:0:0:
320,192,34827,1,0,0:0:0:50:kick.wav
64,192,35127,128,0,35277:0:0:0:50:kick.wav
448,192,35127,128,0,35277:0:0:0:30:snare.wav
64,192,35427,128,0,35727:0:0:0:50:kick.wav
192,192,35427,128,0,35727:0:0:0:0:
320,192,35727,128,0,35877:0:0:0:50:kick.wav
448,192,35727,1,0,0:0:0:30:snare.wav
192,192,35877,128,0,36027:0:0:0:0:
448,192,36027,128,0,36177:0:0:0:50:kick.wav
64,192,36177,128,0,36327:0:0:0:0:
320,192,36327,128,0,36477:0:0:0:50:kick.wav
448,192,36327,1,0,0:0:0:30:snare.wav
64,192,36477,1,0,0:0:0:0:
192,192,36552,1,0,0:0:0:0:
320,192,36627,128,0,36777:0:0:0:50:kick.wav
448,192,36627,128,0,36777:0:0:0:0:
64,192,36927,128,0,37077:0:0:0:50:kick.wav
448,192,36927,1,0,0:0:0:30:snare.wav
320,192,37077,1,0,0:0:0:0:
448,192,37152,1,0,0:0:0:0:
64,192,37227,128,0,37377:0:0:0:50:kick.wav
192,192,37227,128,0,37377:0:0:0:0:
64,192,37527,1,0,0:0:0:50:kick.wav
448,192,37527,128,0,37677:0:0:0:30:snare.wav
192,192,37677,1,0,0:0:0:0:
64,192,37752,1,0,0:0:0:0:
320,192,37827,128,0,38427:0:0:0:50:kick.wav
448,192,37827,128,0,38127:0:0:0:0:
64,192,38127,1,0,0:0:0:50:kick.wav
192,192,38127,128,0,38427:0:0:0:30:snare.wav
448,192,38427,128,0,38577:0:0:0:50:kick.wav
64,192,38577,128,0,38727:0:0:0:0:
320,192,38727,128,0,38877:0:0:0:50:kick.wav
448,192,38727,1,0,0:0:0:30:snare.wav
192,192,38877,128,0,39027:0:0:0:50:kick.wav
64,192,39027,128,0,39327:0:0:0:50:kick.wav
448,192,39027,128,0,39327:0:0:0:0:
192,192,39327,128,0,39477:0:0:0:50:kick.wav
320,192,39327,1,0,0:0:0:30:snare.wav
448,192,39477,128,0,39627:0:0:0:0:
320,192,39627,1,0,0:0:0:50:kick.wav
64,192,39927,128,0,40077:0:0:0:50:kick.wav
448,192,39927,128,0,40077:0:0:0:30:snare.wav
192,192,40227,128,0,40527:0:0:0:50:kick.wav
320,192,40227,128,0,40527:0:0:0:0:
64,192,40527,1,0,0:0:0:50:kick.wav
448,192,40527,128,0,40677:0:0:0:30:snare.wav
192,192,40677,128,0,40827:0:0:0:0:
64,192,40827,1,0,0:0:0:50:kick.wav
320,192,41127,1,0,0:0:0:50:kick.wav
448,192,41127,1,0,0:0:0:30:snare.wav
192,192,41277,1,0,0:0:0:50:kick.wav
64,192,41427,1,0,0:0:0:50:kick.wav
448,192,41427,1,0,0:0:0:30:snare.wav
320,192,41577,1,0,0:0:0:50:kick.wav
64,192,41727,1,0,0:0:0:50:kick.wav
448,192,41727,1,0,0:0:0:30:snare.wav
192,192,41877,1,0,0:0:0:50:kick.wav
64,192,42027,1,0,0:0:0:50:kick.wav
320,192,42027,1,0,0:0:0:30:snare.wav
192,192,42327,1,0,0:0:0:50:kick.wav
448,192,42327,1,0,0:0:0:30:snare.wav
320,192,42477,1,0,0:0:0:50:kick.wav
64,192,42552,1,0,0:0:0:50:kick.wav
448,192,42627,1,0,0:0:0:50:kick.wav
192,192,42777,1,0,0:0:0:70:snare2_a4.wav
320,192,42927,1,0,0:0:0:50:kick.wav
192,192,43077,1,0,0:0:0:70:snare2_b4.wav
64,192,43227,128,0,43377:0:0:0:50:kick.wav
320,192,43227,128,0,43377:0:0:0:30:snare.wav
192,192,43527,128,0,43677:0:0:0:50:kick.wav
448,192,43527,128,0,43677:0:0:0:30:snare.wav
320,192,43827,128,0,44127:0:0:0:50:crash.wav
448,192,43827,128,0,44127:0:0:0:50:kick.wav
64,192,44127,1,0,0:0:0:50:kick.wav
192,192,44127,128,0,44277:0:0:0:30:snare.wav
448,192,44277,128,0,44427:0:0:0:0:
320,192,44427,1,0,0:0:0:50:kick.wav
64,192,44727,128,0,44877:0:0:0:50:kick.wav
448,192,44727,128,0,44877:0:0:0:30:snare.wav
64,192,45027,128,0,45327:0:0:0:50:kick.wav
192,192,45027,128,0,45327:0:0:0:0:
320,192,45327,128,0,45477:0:0:0:50:kick.wav
448,192,45327,1,0,0:0:0:30:snare.wav
192,192,45477,128,0,45627:0:0:0:0:
448,192,45627,128,0,45777:0:0:0:50:kick.wav
64,192,45777,128,0,45927:0:0:0:0:
320,192,45927,128,0,46077:0:0:0:50:kick.wav
448,192,45927,1,0,0:0:0:30:snare.wav
64,192,46077,1,0,0:0:0:0:
192,192,46152,1,0,0:0:0:0:
320,192,46227,1,0,0:0:0:50:kick.wav
448,192,46227,128,0,46377:0:0:0:0:
64,192,46377,1,0,0:0:0:50:kick.wav
192,192,46452,1,0,0:0:0:50:kick.wav
64,192,46527,128,0,46677:0:0:0:50:kick.wav
448,192,46527,1,0,0:0:0:30:snare.wav
320,192,46677,1,0,0:0:0:50:kick.wav
448,192,46752,1,0,0:0:0:50:kick.wav
192,192,46827,128,0,46977:0:0:0:50:kick.wav
320,192,46827,128,0,46977:0:0:0:0:
64,192,47127,1,0,0:0:0:50:kick.wav
448,192,47127,128,0,47277:0:0:0:30:snare.wav
320,192,47277,1,0,0:0:0:50:kick.wav
192,192,47352,1,0,0:0:0:50:kick.wav
320,192,47427,128,0,48027:0:0:0:50:kick.wav
448,192,47427,128,0,47727:0:0:0:0:
64,192,47727,1,0,0:0:0:50:kick.wav
192,192,47727,128,0,48027:0:0:0:30:snare.wav
64,192,48027,128,0,48327:0:0:0:50:kick.wav
320,192,48327,128,0,48627:0:0:0:50:kick.wav
448,192,48327,1,0,0:0:0:30:snare.wav
192,192,48627,128,0,48777:0:0:0:50:kick.wav
448,192,48627,128,0,48777:0:0:0:0:
64,192,48927,1,0,0:0:0:30:snare2.wav
320,192,49077,1,0,0:0:0:50:snare2_a#4.wav
64,192,49227,1,0,0:0:0:50:snare2_g#4.wav
448,192,49377,1,0,0:0:0:50:snare2_f#4.wav
192,192,49527,1,0,0:0:0:50:kick.wav
192,192,49677,1,0,0:0:0:50:kick.wav
64,192,49827,128,0,49977:0:0:0:50:kick.wav
320,192,49827,128,0,49977:0:0:0:0:
448,192,50127,1,0,0:0:0:30:snare2.wav
192,192,50277,1,0,0:0:0:50:snare2_a#4.wav
448,192,50427,1,0,0:0:0:50:snare2_g#4.wav
64,192,50577,1,0,0:0:0:50:snare2_f#4.wav
320,192,50727,1,0,0:0:0:50:kick.wav
320,192,50877,1,0,0:0:0:50:kick.wav
64,192,51027,128,0,51177:0:0:0:50:kick.wav
192,192,51027,128,0,51177:0:0:0:50:snare2_f4.wav
448,192,51177,1,0,0:0:0:50:kick.wav
64,192,51327,1,0,0:0:0:50:kick.wav
448,192,51477,1,0,0:0:0:50:kick.wav
192,192,51627,1,0,0:0:0:50:kick.wav
320,192,51777,1,0,0:0:0:50:kick.wav
192,192,51927,1,0,0:0:0:50:kick.wav
320,192,52077,1,0,0:0:0:50:kick.wav
64,192,52227,128,0,52827:0:0:0:30:snare2.wav
448,192,52227,1,0,0:0:0:0:
320,192,52827,1,0,0:0:0:30:snare2.wav
64,192,52977,1,0,0:0:0:50:snare2_a#4.wav
320,192,53127,1,0,0:0:0:50:snare2_g#4.wav
192,192,53277,1,0,0:0:0:50:snare2_f#4.wav
64,192,53427,1,0,0:0:0:50:crash.wav
448,192,53427,1,0,0:0:0:50:kick.wav
192,192,53727,1,0,0:0:0:0:
320,192,53877,1,0,0:0:0:0:
448,192,54327,1,0,0:0:0:0:
320,192,54627,1,0,0:0:0:0:
192,192,54927,1,0,0:0:0:0:
64,192,55077,1,0,0:0:0:0:
192,192,55377,1,0,0:0:0:0:
320,192,55527,1,0,0:0:0:0:
64,192,55827,1,0,0:0:0:0:
192,192,56127,1,0,0:0:0:0:
320,192,56427,1,0,0:0:0:0:
448,192,56727,1,0,0:0:0:0:
64,192,57027,1,0,0:0:0:0:
192,192,57027,1,0,0:0:0:0:
64,192,57777,1,0,0:0:0:0:
192,192,57927,1,0,0:0:0:0:
320,192,58077,1,0,0:0:0:0:
64,192,58227,1,0,0:0:0:50:crash.wav
448,192,58227,1,0,0:0:0:50:kick.wav
320,192,58377,1,0,0:0:0:50:kick.wav
64,192,58527,1,0,0:0:0:50:kick.wav
192,192,58527,1,0,0:0:0:0:
320,192,58677,1,0,0:0:0:50:kick.wav
448,192,58677,1,0,0:0:0:30:snare.wav
192,192,58827,1,0,0:0:0:50:kick.wav
64,192,58977,1,0,0:0:0:50:kick.wav
320,192,59127,128,0,59427:0:0:0:50:kick.wav
448,192,59127,1,0,0:0:0:70:snare2_f4.wav
64,192,59427,1,0,0:0:0:50:kick.wav
448,192,59427,1,0,0:0:0:30:snare.wav
192,192,59577,1,0,0:0:0:50:kick.wav
320,192,59727,1,0,0:0:0:50:kick.wav
448,192,59727,1,0,0:0:0:0:
64,192,59877,1,0,0:0:0:50:kick.wav
192,192,59877,1,0,0:0:0:30:snare.wav
320,192,60027,1,0,0:0:0:50:kick.wav
448,192,60177,1,0,0:0:0:50:kick.wav
64,192,60327,1,0,0:0:0:50:kick.wav
192,192,60327,128,0,60627:0:0:0:70:snare2_g#4.wav
64,192,60627,128,0,60777:0:0:0:50:kick.wav
448,192,60627,1,0,0:0:0:70:snare2_a4.wav
320,192,60777,1,0,0:0:0:50:kick.wav
448,192,60927,1,0,0:0:0:50:kick.wav
192,192,61077,1,0,0:0:0:50:kick.wav
320,192,61227,1,0,0:0:0:70:snare2_a#4.wav
64,192,61377,1,0,0:0:0:70:snare2_a#4.wav
320,192,61527,1,0,0:0:0:70:snare2_a#4.wav
192,192,61677,1,0,0:0:0:70:snare2_a#4.wav
64,192,61827,1,0,0:0:0:30:snare2.wav
448,192,61827,128,0,62427:0:0:0:0:
64,192,62427,1,0,0:0:0:70:snare6.wav
192,192,62577,1,0,0:0:0:70:kick2.wav
448,192,62727,1,0,0:0:0:70:kick2.wav
192,192,62877,1,0,0:0:0:70:kick2.wav
64,192,63027,128,0,63327:0:0:0:50:crash.wav
448,192,63027,1,0,0:0:0:70:kick2.wav
192,192,63327,1,0,0:0:0:70:snare6.wav
320,192,63327,1,0,0:0:0:0:
448,192,63477,128,0,63927:0:0:0:0:
64,192,63627,1,0,0:0:0:70:kick2.wav
192,192,63927,1,0,0:0:0:70:snare6.wav
320,192,63927,1,0,0:0:0:0:
448,192,64077,1,0,0:0:0:0:
64,192,64227,128,0,64527:0:0:0:70:kick2.wav
320,192,64527,1,0,0:0:0:70:snare6.wav
448,192,64527,1,0,0:0:0:0:
192,192,64677,1,0,0:0:0:0:
320,192,64827,128,0,65127:0:0:0:70:kick2.wav
64,192,65127,1,0,0:0:0:70:snare6.wav
448,192,65127,128,0,65427:0:0:0:0:
64,192,65427,128,0,65727:0:0:0:70:kick2.wav
320,192,65727,128,0,66027:0:0:0:70:snare6.wav
448,192,65727,1,0,0:0:0:0:
192,192,66027,128,0,66327:0:0:0:70:kick2.wav
64,192,66327,1,0,0:0:0:70:snare6.wav
320,192,66327,128,0,66627:0:0:0:0:
448,192,66627,128,0,67227:0:0:0:70:kick2.wav
64,192,66927,1,0,0:0:0:70:snare6.wav
192,192,66927,1,0,0:0:0:0:
192,192,67227,128,0,67677:0:0:0:70:kick2.wav
320,192,67527,1,0,0:0:0:70:snare6.wav
448,192,67527,1,0,0:0:0:0:
64,192,67677,1,0,0:0:0:0:
192,192,67827,128,0,67977:0:0:0:50:crash.wav
448,192,67827,128,0,67977:0:0:0:70:kick2.wav
192,192,68127,128,0,68277:0:0:0:70:snare6.wav
448,192,68127,128,0,68277:0:0:0:0:
192,192,68427,128,0,68577:0:0:0:70:kick2.wav
448,192,68427,128,0,68577:0:0:0:0:
320,192,68727,1,0,0:0:0:70:snare6.wav
448,192,68727,1,0,0:0:0:0:
192,192,68877,1,0,0:0:0:0:
64,192,69027,1,0,0:0:0:50:crash.wav
320,192,69027,1,0,0:0:0:70:kick2.wav
448,192,69177,128,0,69477:0:0:0:0:
64,192,69327,1,0,0:0:0:70:snare6.wav
192,192,69477,128,0,69927:0:0:0:0:
320,192,69627,1,0,0:0:0:70:kick2.wav
64,192,69927,128,0,70227:0:0:0:70:snare6.wav
448,192,69927,1,0,0:0:0:0:
192,192,70227,1,0,0:0:0:50:crash.wav
320,192,70227,128,0,70527:0:0:0:70:kick2.wav
64,192,70527,128,0,70827:0:0:0:70:snare6.wav
448,192,70527,1,0,0:0:0:0:
192,192,70827,128,0,71127:0:0:0:50:crash.wav
320,192,70827,1,0,0:0:0:70:kick2.wav
64,192,71127,1,0,0:0:0:70:snare6.wav
448,192,71127,128,0,71427:0:0:0:0:
192,192,71427,1,0,0:0:0:50:crash.wav
320,192,71427,128,0,72027:0:0:0:70:kick2.wav
64,192,71727,1,0,0:0:0:70:snare6.wav
448,192,71727,1,0,0:0:0:0:
64,192,72027,1,0,0:0:0:70:kick2.wav
192,192,72177,1,0,0:0:0:0:
448,192,72327,1,0,0:0:0:0:
192,192,72477,1,0,0:0:0:0:
64,192,72627,128,0,72927:0:0:0:50:crash.wav
448,192,72627,1,0,0:0:0:70:kick2.wav
192,192,72927,1,0,0:0:0:70:snare6.wav
320,192,72927,1,0,0:0:0:0:
448,192,73077,128,0,73527:0:0:0:0:
64,192,73227,1,0,0:0:0:70:kick2.wav
192,192,73227,1,0,0:0:0:0:
192,192,73527,1,0,0:0:0:70:snare6.wav
320,192,73527,1,0,0:0:0:0:
448,192,73677,1,0,0:0:0:0:
64,192,73827,128,0,74127:0:0:0:70:kick2.wav
192,192,73827,1,0,0:0:0:0:
320,192,74127,1,0,0:0:0:70:snare6.wav
448,192,74127,1,0,0:0:0:0:
192,192,74427,1,0,0:0:0:70:kick2.wav
320,192,74427,128,0,74727:0:0:0:0:
64,192,74727,1,0,0:0:0:70:snare6.wav
448,192,74727,1,0,0:0:0:0:
192,192,74877,1,0,0:0:0:0:
64,192,75027,128,0,75327:0:0:0:70:kick2.wav
320,192,75027,1,0,0:0:0:0:
320,192,75327,128,0,75627:0:0:0:70:snare6.wav
448,192,75327,1,0,0:0:0:0:
64,192,75627,1,0,0:0:0:70:kick2.wav
192,192,75627,128,0,75927:0:0:0:0:
320,192,75927,128,0,76227:0:0:0:70:snare6.wav
448,192,75927,1,0,0:0:0:0:
64,192,76227,1,0,0:0:0:70:kick2.wav
448,192,76227,128,0,76827:0:0:0:0:
64,192,76527,1,0,0:0:0:70:snare6.wav
192,192,76527,1,0,0:0:0:0:
192,192,76827,128,0,77127:0:0:0:70:kick2.wav
320,192,76827,1,0,0:0:0:0:
320,192,77127,128,0,77427:0:0:0:50:kick.wav
448,192,77127,1,0,0:0:0:70:snare6.wav
64,192,77277,1,0,0:0:0:50:kick.wav
192,192,77427,128,0,77577:0:0:0:50:kick.wav
448,192,77427,128,0,77577:0:0:0:0:
192,192,77727,128,0,77877:0:0:0:50:kick.wav
448,192,77727,128,0,77877:0:0:0:0:
192,192,78027,128,0,78177:0:0:0:50:kick.wav
448,192,78027,128,0,78177:0:0:0:0:
320,192,78327,1,0,0:0:0:30:snare.wav
448,192,78327,1,0,0:0:0:0:
192,192,78477,1,0,0:0:0:0:
64,192,78627,128,0,78777:0:0:0:50:kick.wav
320,192,78627,128,0,78777:0:0:0:0:
64,192,78927,128,0,79077:0:0:0:50:kick.wav
320,192,78927,128,0,79077:0:0:0:0:
64,192,79227,1,0,0:0:0:50:kick.wav
448,192,79227,1,0,0:0:0:70:snare2_a4.wav
192,192,79377,1,0,0:0:0:50:kick.wav
64,192,79527,1,0,0:0:0:50:kick.wav
320,192,79527,1,0,0:0:0:70:snare2_a4.wav
192,192,79677,1,0,0:0:0:50:kick.wav
320,192,79827,1,0,0:0:0:50:kick.wav
448,192,79827,1,0,0:0:0:70:snare2_a#4.wav
64,192,79977,1,0,0:0:0:70:snare2_a#4.wav
192,192,80127,1,0,0:0:0:70:snare2_a#4.wav
448,192,80127,1,0,0:0:0:0:
320,192,80277,1,0,0:0:0:70:snare2_a#4.wav
64,192,80427,128,0,80727:0:0:0:50:kick.wav
448,192,80427,1,0,0:0:0:70:snare2_b4.wav
320,192,80727,1,0,0:0:0:70:snare2_b4.wav
448,192,80727,128,0,81027:0:0:0:0:
64,192,81027,1,0,0:0:0:50:kick.wav
192,192,81027,128,0,82227:0:0:0:70:snare2_b4.wav
64,192,82227,1,0,0:0:0:50:crash.wav
448,192,82227,1,0,0:0:0:0:
192,192,82527,1,0,0:0:0:0:
320,192,82677,1,0,0:0:0:0:
448,192,83127,1,0,0:0:0:0:
320,192,83427,1,0,0:0:0:0:
64,192,84177,1,0,0:0:0:0:
192,192,84327,1,0,0:0:0:0:
320,192,84477,1,0,0:0:0:0:
448,192,84627,1,0,0:0:0:0:
320,192,84927,1,0,0:0:0:0:
448,192,85077,1,0,0:0:0:0:
320,192,85527,1,0,0:0:0:0:
192,192,85827,1,0,0:0:0:0:
64,192,86727,1,0,0:0:0:0:
448,192,87027,1,0,0:0:0:0:
320,192,87327,1,0,0:0:0:0:
192,192,87477,1,0,0:0:0:0:
64,192,87927,1,0,0:0:0:0:
448,192,88227,1,0,0:0:0:0:
192,192,88527,1,0,0:0:0:0:
64,192,88677,1,0,0:0:0:0:
192,192,89127,1,0,0:0:0:0:
320,192,89427,1,0,0:0:0:0:
448,192,89727,1,0,0:0:0:0:
320,192,90027,1,0,0:0:0:0:
64,192,90327,1,0,0:0:0:0:
192,192,90627,1,0,0:0:0:0:
64,192,91227,1,0,0:0:0:0:
320,192,91527,1,0,0:0:0:0:
64,192,91827,1,0,0:0:0:50:crash.wav
448,192,91827,1,0,0:0:0:0:
192,192,92127,1,0,0:0:0:0:
320,192,92277,1,0,0:0:0:0:
448,192,92727,1,0,0:0:0:0:
320,192,93027,1,0,0:0:0:0:
192,192,93327,1,0,0:0:0:0:
64,192,93477,1,0,0:0:0:0:
192,192,93777,1,0,0:0:0:0:
320,192,93927,1,0,0:0:0:0:
64,192,94227,1,0,0:0:0:0:
192,192,94527,1,0,0:0:0:0:
320,192,94827,1,0,0:0:0:0:
64,192,95127,1,0,0:0:0:0:
320,192,95427,1,0,0:0:0:0:
448,192,95427,1,0,0:0:0:0:
64,192,96177,1,0,0:0:0:0:
192,192,96327,1,0,0:0:0:0:
320,192,96477,1,0,0:0:0:0:
64,192,96627,1,0,0:0:0:50:crash.wav
448,192,96627,1,0,0:0:0:50:kick.wav
320,192,96777,1,0,0:0:0:50:kick.wav
64,192,96927,1,0,0:0:0:50:kick.wav
192,192,96927,1,0,0:0:0:0:
320,192,97077,1,0,0:0:0:50:kick.wav
448,192,97077,1,0,0:0:0:30:snare.wav
192,192,97227,1,0,0:0:0:50:kick.wav
64,192,97377,1,0,0:0:0:50:kick.wav
320,192,97527,128,0,97827:0:0:0:50:kick.wav
448,192,97527,1,0,0:0:0:70:snare2_f4.wav
64,192,97827,1,0,0:0:0:50:kick.wav
448,192,97827,1,0,0:0:0:30:snare.wav
192,192,97977,1,0,0:0:0:50:kick.wav
320,192,98127,1,0,0:0:0:50:kick.wav
448,192,98127,1,0,0:0:0:0:
64,192,98277,1,0,0:0:0:50:kick.wav
192,192,98277,1,0,0:0:0:30:snare.wav
320,192,98427,1,0,0:0:0:50:kick.wav
448,192,98577,1,0,0:0:0:50:kick.wav
64,192,98727,1,0,0:0:0:50:kick.wav
192,192,98727,128,0,99027:0:0:0:70:snare2_g#4.wav
64,192,99027,128,0,99177:0:0:0:50:kick.wav
448,192,99027,1,0,0:0:0:70:snare2_a4.wav
320,192,99177,1,0,0:0:0:50:kick.wav
448,192,99327,1,0,0:0:0:50:kick.wav
192,192,99477,1,0,0:0:0:50:kick.wav
448,192,99627,1,0,0:0:0:50:kick.wav
64,192,99777,1,0,0:0:0:50:kick.wav
448,192,99927,128,0,100077:0:0:0:50:kick.wav
192,192,100077,128,0,100227:0:0:0:50:kick.wav
320,192,100227,1,0,0:0:0:50:kick.wav
64,192,100377,1,0,0:0:0:50:kick.wav
320,192,100527,1,0,0:0:0:50:kick.wav
448,192,100677,1,0,0:0:0:50:kick.wav
64,192,100827,1,0,0:0:0:30:snare.wav
192,192,100827,128,0,101427:0:0:0:0:
64,192,101427,1,0,0:0:0:50:kick.wav
448,192,101427,128,0,101577:0:0:0:70:snare2_a4.wav
192,192,101577,1,0,0:0:0:50:kick.wav
64,192,101727,1,0,0:0:0:50:kick.wav
320,192,101877,1,0,0:0:0:50:kick.wav
64,192,102027,1,0,0:0:0:50:kick.wav
448,192,102177,1,0,0:0:0:50:kick.wav
64,192,102327,128,0,102477:0:0:0:50:kick.wav
320,192,102477,128,0,102627:0:0:0:50:kick.wav
192,192,102627,1,0,0:0:0:50:kick.wav
448,192,102777,1,0,0:0:0:40:snare2.wav
192,192,102927,1,0,0:0:0:50:kick.wav
320,192,103077,1,0,0:0:0:40:snare2.wav
64,192,103227,1,0,0:0:0:50:kick.wav
320,192,103377,1,0,0:0:0:50:kick.wav
64,192,103527,1,0,0:0:0:50:kick.wav
192,192,103527,1,0,0:0:0:40:snare2.wav
192,192,103827,128,0,104127:0:0:0:50:crash.wav
448,192,103827,128,0,104127:0:0:0:50:kick.wav
64,192,104127,128,0,104277:0:0:0:50:kick.wav
320,192,104127,1,0,0:0:0:30:snare.wav
448,192,104277,128,0,104427:0:0:0:0:
64,192,104427,1,0,0:0:0:50:kick.wav
192,192,104727,128,0,104877:0:0:0:50:kick.wav
448,192,104727,128,0,104877:0:0:0:30:snare.wav
64,192,105027,128,0,105327:0:0:0:50:kick.wav
320,192,105027,128,0,105327:0:0:0:0:
192,192,105327,1,0,0:0:0:50:kick.wav
448,192,105327,128,0,105477:0:0:0:30:snare.wav
64,192,105477,128,0,105627:0:0:0:0:
448,192,105627,128,0,105777:0:0:0:50:kick.wav
192,192,105777,128,0,105927:0:0:0:0:
320,192,105927,128,0,106077:0:0:0:50:kick.wav
448,192,105927,1,0,0:0:0:30:snare.wav
64,192,106077,1,0,0:0:0:0:
192,192,106152,1,0,0:0:0:0:
320,192,106227,128,0,106377:0:0:0:50:kick.wav
448,192,106227,128,0,106377:0:0:0:0:
64,192,106527,128,0,106677:0:0:0:50:kick.wav
448,192,106527,1,0,0:0:0:30:snare.wav
320,192,106677,1,0,0:0:0:0:
448,192,106752,1,0,0:0:0:0:
64,192,106827,128,0,106977:0:0:0:50:kick.wav
192,192,106827,128,0,106977:0:0:0:0:
64,192,107127,1,0,0:0:0:50:kick.wav
448,192,107127,128,0,107277:0:0:0:30:snare.wav
192,192,107277,1,0,0:0:0:0:
64,192,107352,1,0,0:0:0:0:
320,192,107427,128,0,108027:0:0:0:50:kick.wav
448,192,107427,128,0,107727:0:0:0:0:
64,192,107727,1,0,0:0:0:50:kick.wav
192,192,107727,128,0,108027:0:0:0:30:snare.wav
448,192,108027,128,0,108177:0:0:0:50:kick.wav
64,192,108177,128,0,108327:0:0:0:0:
192,192,108327,128,0,108477:0:0:0:50:kick.wav
320,192,108327,1,0,0:0:0:30:snare.wav
448,192,108477,128,0,108627:0:0:0:50:kick.wav
64,192,108627,128,0,108927:0:0:0:50:kick.wav
320,192,108627,128,0,108927:0:0:0:0:
192,192,108927,128,0,109077:0:0:0:50:kick.wav
448,192,108927,1,0,0:0:0:30:snare.wav
320,192,109077,128,0,109227:0:0:0:0:
64,192,109227,1,0,0:0:0:50:kick.wav
320,192,109527,128,0,109677:0:0:0:50:kick.wav
448,192,109527,128,0,109677:0:0:0:30:snare.wav
192,192,109827,128,0,110127:0:0:0:50:kick.wav
448,192,109827,128,0,110127:0:0:0:0:
64,192,110127,1,0,0:0:0:50:kick.wav
320,192,110127,128,0,110277:0:0:0:30:snare.wav
192,192,110277,128,0,110427:0:0:0:0:
448,192,110427,1,0,0:0:0:50:kick.wav
320,192,110727,1,0,0:0:0:50:kick.wav
448,192,110727,1,0,0:0:0:30:snare.wav
192,192,110877,1,0,0:0:0:50:kick.wav
64,192,111027,1,0,0:0:0:50:kick.wav
448,192,111027,1,0,0:0:0:30:snare.wav
320,192,111177,1,0,0:0:0:50:kick.wav
64,192,111327,1,0,0:0:0:50:kick.wav
448,192,111327,1,0,0:0:0:30:snare.wav
192,192,111477,1,0,0:0:0:50:kick.wav
64,192,111627,1,0,0:0:0:50:kick.wav
320,192,111627,1,0,0:0:0:30:snare.wav
192,192,111927,1,0,0:0:0:50:kick.wav
448,192,111927,1,0,0:0:0:30:snare.wav
320,192,112077,1,0,0:0:0:50:kick.wav
64,192,112152,1,0,0:0:0:50:kick.wav
192,192,112227,1,0,0:0:0:50:kick.wav
448,192,112377,1,0,0:0:0:70:snare2_a4.wav
192,192,112527,1,0,0:0:0:50:kick.wav
320,192,112677,1,0,0:0:0:70:snare2_b4.wav
64,192,112827,128,0,112977:0:0:0:50:kick.wav
448,192,112827,128,0,112977:0:0:0:30:snare.wav
192,192,113127,128,0,113277:0:0:0:50:kick.wav
320,192,113127,128,0,113277:0:0:0:30:snare.wav
192,192,113427,128,0,113727:0:0:0:50:crash.wav
448,192,113427,128,0,113727:0:0:0:50:kick.wav
64,192,113727,128,0,113877:0:0:0:50:kick.wav
320,192,113727,1,0,0:0:0:30:snare.wav
448,192,113877,128,0,114027:0:0:0:0:
64,192,114027,1,0,0:0:0:50:kick.wav
192,192,114327,128,0,114477:0:0:0:50:kick.wav
448,192,114327,128,0,114477:0:0:0:30:snare.wav
64,192,114627,128,0,114927:0:0:0:50:kick.wav
320,192,114627,128,0,114927:0:0:0:0:
192,192,114927,1,0,0:0:0:50:kick.wav
448,192,114927,128,0,115077:0:0:0:30:snare.wav
64,192,115077,128,0,115227:0:0:0:50:kick.wav
320,192,115227,128,0,115377:0:0:0:50:kick.wav
192,192,115377,128,0,115527:0:0:0:50:kick.wav
320,192,115527,128,0,115677:0:0:0:50:kick.wav
448,192,115527,1,0,0:0:0:30:snare.wav
64,192,115677,1,0,0:0:0:0:
192,192,115752,1,0,0:0:0:0:
320,192,115827,1,0,0:0:0:50:kick.wav
448,192,115827,1,0,0:0:0:30:snare.wav
64,192,116052,1,0,0:0:0:50:kick.wav
448,192,116052,1,0,0:0:0:30:snare.wav
192,192,116277,1,0,0:0:0:50:kick.wav
448,192,116277,1,0,0:0:0:30:snare.wav
64,192,116427,1,0,0:0:0:50:kick.wav
320,192,116427,1,0,0:0:0:30:snare.wav
64,192,116652,1,0,0:0:0:50:kick.wav
192,192,116652,1,0,0:0:0:30:snare.wav
64,192,116877,1,0,0:0:0:50:kick.wav
448,192,116877,1,0,0:0:0:30:snare.wav
192,192,117027,128,0,117327:0:0:0:50:kick.wav
320,192,117027,128,0,117627:0:0:0:0:
64,192,117327,1,0,0:0:0:50:kick.wav
448,192,117327,128,0,117627:0:0:0:30:snare.wav
192,192,117627,128,0,117927:0:0:0:50:kick.wav
320,192,117927,128,0,118227:0:0:0:50:kick.wav
448,192,117927,1,0,0:0:0:30:snare.wav
64,192,118227,128,0,118377:0:0:0:50:kick.wav
448,192,118227,128,0,118377:0:0:0:0:
64,192,118527,1,0,0:0:0:30:snare2.wav
320,192,118677,1,0,0:0:0:50:snare2_a#4.wav
64,192,118827,1,0,0:0:0:50:snare2_g#4.wav
448,192,118977,1,0,0:0:0:50:snare2_f#4.wav
192,192,119127,1,0,0:0:0:50:kick.wav
192,192,119277,1,0,0:0:0:50:kick.wav
64,192,119427,128,0,119577:0:0:0:50:kick.wav
320,192,119427,128,0,119577:0:0:0:0:
448,192,119727,1,0,0:0:0:30:snare2.wav
192,192,119877,1,0,0:0:0:50:snare2_a#4.wav
448,192,120027,1,0,0:0:0:50:snare2_g#4.wav
64,192,120177,1,0,0:0:0:50:snare2_f#4.wav
320,192,120327,1,0,0:0:0:50:kick.wav
320,192,120477,1,0,0:0:0:50:kick.wav
64,192,120627,128,0,120777:0:0:0:50:kick.wav
192,192,120627,128,0,120777:0:0:0:50:snare2_f4.wav
448,192,120777,1,0,0:0:0:50:kick.wav
64,192,120927,1,0,0:0:0:50:kick.wav
448,192,121077,1,0,0:0:0:50:kick.wav
192,192,121227,1,0,0:0:0:50:kick.wav
320,192,121377,1,0,0:0:0:50:kick.wav
192,192,121527,1,0,0:0:0:50:kick.wav
320,192,121677,1,0,0:0:0:50:kick.wav
64,192,121827,128,0,122427:0:0:0:30:snare2.wav
448,192,121827,1,0,0:0:0:0:
320,192,122427,1,0,0:0:0:30:snare2.wav
64,192,122577,1,0,0:0:0:50:snare2_a#4.wav
320,192,122727,1,0,0:0:0:50:snare2_g#4.wav
192,192,122877,1,0,0:0:0:50:snare2_f#4.wav
64,192,123027,1,0,0:0:0:50:crash.wav
448,192,123027,1,0,0:0:0:50:kick.wav
192,192,123327,1,0,0:0:0:0:
320,192,123477,1,0,0:0:0:0:
448,192,123927,1,0,0:0:0:0:
192,192,124227,1,0,0:0:0:0:
64,192,124827,128,0,125427:0:0:0:50:kick.wav
192,192,124827,1,0,0:0:0:0:
320,192,125427,1,0,0:0:0:50:kick.wav
448,192,125427,1,0,0:0:0:30:snare.wav
192,192,125577,1,0,0:0:0:50:kick.wav
64,192,125727,1,0,0:0:0:50:kick.wav
448,192,125727,1,0,0:0:0:30:snare.wav
192,192,125877,1,0,0:0:0:50:kick.wav
320,192,126027,1,0,0:0:0:50:kick.wav
448,192,126027,1,0,0:0:0:30:snare.wav
64,192,126177,128,0,126477:0:0:0:50:kick.wav
192,192,126177,1,0,0:0:0:30:snare.wav
192,192,126477,1,0,0:0:0:50:kick.wav
448,192,126477,1,0,0:0:0:30:snare.wav
64,192,126627,1,0,0:0:0:50:crash.wav
320,192,126627,128,0,127227:0:0:0:50:kick.wav
64,192,126927,1,0,0:0:0:50:kick.wav
448,192,126927,1,0,0:0:0:30:snare.wav
192,192,127227,128,0,127527:0:0:0:50:kick.wav
320,192,127527,128,0,127827:0:0:0:50:kick.wav
448,192,127527,1,0,0:0:0:30:snare.wav
64,192,127827,1,0,0:0:0:50:crash.wav
448,192,127827,128,0,128127:0:0:0:30:kick.wav
192,192,128127,1,0,0:0:0:30:kick.wav
320,192,128127,128,0,128427:0:0:0:0:
64,192,128427,1,0,0:0:0:30:kick.wav
192,192,128427,128,0,128727:0:0:0:30:snare.wav
320,192,128727,1,0,0:0:0:30:kick.wav
448,192,128727,1,0,0:0:0:0:
64,192,128877,1,0,0:0:0:30:kick.wav
192,192,128877,1,0,0:0:0:0:
320,192,129027,128,0,129327:0:0:0:30:kick.wav
448,192,129027,1,0,0:0:0:30:snare.wav
64,192,129327,1,0,0:0:0:30:kick.wav
448,192,129327,1,0,0:0:0:0:
192,192,129477,1,0,0:0:0:30:kick.wav
320,192,129477,1,0,0:0:0:0:
64,192,129627,1,0,0:0:0:30:kick.wav
448,192,129627,128,0,129927:0:0:0:30:snare.wav
64,192,129927,1,0,0:0:0:30:kick.wav
192,192,129927,1,0,0:0:0:0:
320,192,130077,1,0,0:0:0:30:kick.wav
448,192,130077,1,0,0:0:0:0:
64,192,130227,1,0,0:0:0:50:kick.wav
192,192,130227,1,0,0:0:0:30:snare.wav
64,192,130377,1,0,0:0:0:50:kick.wav
192,192,130377,1,0,0:0:0:30:snare.wav
320,192,130527,128,0,130677:0:0:0:30:kick.wav
192,192,130677,128,0,130827:0:0:0:30:kick.wav
64,192,130827,1,0,0:0:0:50:kick.wav
448,192,130827,1,0,0:0:0:30:snare.wav
64,192,130977,1,0,0:0:0:50:kick.wav
448,192,130977,1,0,0:0:0:30:snare.wav
192,192,131127,128,0,131277:0:0:0:30:kick.wav
448,192,131277,128,0,131427:0:0:0:30:kick.wav
64,192,131427,1,0,0:0:0:30:kick.wav
192,192,131427,1,0,0:0:0:30:snare.wav
192,192,131727,1,0,0:0:0:30:kick.wav
320,192,131727,1,0,0:0:0:70:snare2_a4.wav
320,192,132027,1,0,0:0:0:30:kick.wav
448,192,132027,1,0,0:0:0:70:snare2_a4.wav
64,192,132327,1,0,0:0:0:30:kick.wav
192,192,132327,1,0,0:0:0:70:snare2_a4.wav
64,192,132627,128,0,133827:0:0:0:50:crash.wav
448,192,132627,1,0,0:0:0:70:snare2_a#4.wav
320,192,132777,1,0,0:0:0:70:snare2_b4.wav
192,192,132927,1,0,0:0:0:30:snare2.wav
448,192,133077,1,0,0:0:0:30:snare2.wav
192,192,133227,1,0,0:0:0:30:snare2.wav
320,192,133377,1,0,0:0:0:30:snare2.wav
448,192,133527,1,0,0:0:0:30:snare2.wav
192,192,133677,1,0,0:0:0:30:snare2.wav
320,192,133827,128,0,135027:0:0:0:50:crash.wav
448,192,133827,128,0,138027:0:0:0:0:
