osu file format v14

[General]
AudioFilename: audio.ogg
AudioLeadIn: 0
PreviewTime: 33852
Countdown: 0
SampleSet: Soft
StackLeniency: 0.7
Mode: 3
LetterboxInBreaks: 0
SpecialStyle: 0
WidescreenStoryboard: 1

[Editor]
DistanceSpacing: 0.8
BeatDivisor: 4
GridSize: 8
TimelineZoom: 2.08

[Metadata]
Title:Eternally Onward
TitleUnicode:Eternally Onward
Artist:Ardolf
ArtistUnicode:Ardolf
Creator:Ucitysm
Version:Hytex's Primitive
Source:
Tags:fa featured artist ln long notes arcaea第3回公募 落選供養 electronic future bass artcore drumstep instrumental indoroid tigerinity hytex himitsuhiketsu 雷欧 leoo furry Ardolf Project
BeatmapID:3986583
BeatmapSetID:1929932

[Difficulty]
HPDrainRate:6.7
CircleSize:4
OverallDifficulty:6.7
ApproachRate:5
SliderMultiplier:1.4
SliderTickRate:1

[Events]
//Background and Video events
0,0,"ardolf_violin.jpg",0,0
//Break Periods
//Storyboard Layer 0 (Background)
//Storyboard Layer 1 (Fail)
//Storyboard Layer 2 (Pass)
//Storyboard Layer 3 (Foreground)
//Storyboard Layer 4 (Overlay)
//Storyboard Sound Samples
Sample,14727,0,"snare5.wav",30
Sample,22227,0,"snare4.wav",30
Sample,23427,0,"snare4.wav",30
Sample,23727,0,"snare4.wav",30
Sample,24027,0,"snare4.wav",30
Sample,24327,0,"snare4.wav",30
Sample,27927,0,"snare4.wav",30
Sample,28527,0,"snare.wav",30
Sample,28527,0,"snare2_f4.wav",70
Sample,28827,0,"snare.wav",30
Sample,28827,0,"snare2_f4.wav",70
Sample,29127,0,"snare.wav",30
Sample,29127,0,"snare2_f4.wav",70
Sample,29427,0,"snare2_f4.wav",70
Sample,29727,0,"snare2_f4.wav",70
Sample,29727,0,"snare.wav",30
Sample,29877,0,"snare2_f4.wav",70
Sample,30327,0,"snare.wav",30
Sample,30327,0,"snare2_f#4.wav",70
Sample,30627,0,"snare2_g4.wav",70
Sample,30927,0,"snare2_g4.wav",70
Sample,30927,0,"snare.wav",30
Sample,31077,0,"snare2_g4.wav",70
Sample,31527,0,"snare.wav",30
Sample,31527,0,"snare2_g#4.wav",70
Sample,31827,0,"snare.wav",30
Sample,31827,0,"snare2_g#4.wav",70
Sample,32427,0,"snare2_a4.wav",70
Sample,32427,0,"kick.wav",50
Sample,32427,0,"snare.wav",30
Sample,33027,0,"snare2.wav",30
Sample,33027,0,"snare.wav",30
Sample,33627,0,"snare2.wav",30
Sample,33627,0,"kick.wav",50
Sample,33927,0,"snare5.wav",30
Sample,35127,0,"snare.wav",30
Sample,36327,0,"snare.wav",30
Sample,38727,0,"snare.wav",30
Sample,39927,0,"snare.wav",30
Sample,41127,0,"snare.wav",30
Sample,41727,0,"snare.wav",30
Sample,42027,0,"snare.wav",30
Sample,42327,0,"snare.wav",30
Sample,42627,0,"snare2_g4.wav",70
Sample,43227,0,"snare2.wav",30
Sample,43227,0,"snare.wav",30
Sample,43527,0,"snare.wav",30
Sample,44727,0,"snare.wav",30
Sample,45927,0,"snare.wav",30
Sample,48327,0,"snare.wav",30
Sample,51627,0,"snare2_g#4.wav",70
Sample,58227,0,"snare.wav",30
Sample,58677,0,"snare.wav",30
Sample,59127,0,"snare2_f4.wav",70
Sample,59877,0,"snare.wav",30
Sample,60327,0,"snare2_g#4.wav",70
Sample,69027,0,"kick2.wav",70
Sample,70227,0,"kick2.wav",70
Sample,70827,0,"kick2.wav",70
Sample,71427,0,"kick2.wav",70
Sample,72027,0,"snare6.wav",70
Sample,77127,0,"snare6.wav",70
Sample,79227,0,"snare2_a4.wav",70
Sample,79527,0,"snare2_a4.wav",70
Sample,80427,0,"snare2_b4.wav",70
Sample,81027,0,"snare2_b4.wav",70
Sample,96627,0,"snare.wav",30
Sample,97077,0,"snare.wav",30
Sample,97527,0,"snare2_f4.wav",70
Sample,98277,0,"snare.wav",30
Sample,98727,0,"snare2_g#4.wav",70
Sample,99927,0,"snare2_a#4.wav",70
Sample,100227,0,"snare2.wav",30
Sample,102627,0,"snare2.wav",40
Sample,102627,0,"snare3.wav",50
Sample,103527,0,"snare2.wav",40
Sample,103527,0,"snare5.wav",30
Sample,104727,0,"snare.wav",30
Sample,105927,0,"snare.wav",30
Sample,106527,0,"snare.wav",30
Sample,107127,0,"snare.wav",30
Sample,108327,0,"snare.wav",30
Sample,109527,0,"snare.wav",30
Sample,110727,0,"snare.wav",30
Sample,111327,0,"snare.wav",30
Sample,111627,0,"snare.wav",30
Sample,111927,0,"snare.wav",30
Sample,112227,0,"snare2_g4.wav",70
Sample,112827,0,"snare2.wav",30
Sample,112827,0,"snare.wav",30
Sample,113127,0,"snare.wav",30
Sample,114327,0,"snare.wav",30
Sample,115527,0,"snare.wav",30
Sample,116427,0,"snare.wav",30
Sample,117927,0,"snare.wav",30
Sample,121227,0,"snare2_g#4.wav",70
Sample,125727,0,"snare.wav",30
Sample,126027,0,"snare.wav",30
Sample,126177,0,"snare.wav",30
Sample,126477,0,"snare.wav",30
Sample,126627,0,"snare.wav",30
Sample,126627,0,"kick.wav",50
Sample,127227,0,"snare.wav",30
Sample,127527,0,"snare.wav",30
Sample,127827,0,"snare.wav",30
Sample,128427,0,"snare.wav",30
Sample,129627,0,"snare.wav",30
Sample,130827,0,"snare.wav",30
Sample,131427,0,"snare3.wav",50
Sample,131427,0,"snare2_a4.wav",70
Sample,131727,0,"snare3.wav",50
Sample,131727,0,"snare2_a4.wav",70
Sample,132027,0,"snare3.wav",50
Sample,132027,0,"snare2_a4.wav",70
Sample,132327,0,"snare3.wav",50
Sample,132327,0,"snare2_a4.wav",70

[TimingPoints]
2494,300,4,2,1,70,1,0
9694,333.333333333333,4,2,1,70,1,0
9694,-90.0900900900901,4,2,1,70,0,0
11027,400,4,2,1,70,1,0
11027,-75.187969924812,4,2,1,70,0,0
12627,300,4,2,1,70,1,0
34227,-100,4,2,1,70,0,1
48589,-100,4,2,1,70,0,0
48627,-100,4,2,1,70,0,1
48889,-100,4,2,1,70,0,0
49827,-100,4,2,1,70,0,1
50089,-100,4,2,1,70,0,0
51027,-100,4,2,1,70,0,1
52227,-100,4,2,1,70,0,0
63027,-100,4,2,1,70,0,1
81027,-100,4,2,1,70,0,0
103827,-100,4,2,1,70,0,1
118189,-100,4,2,1,70,0,0
118227,-100,4,2,1,70,0,1
118489,-100,4,2,1,70,0,0
119427,-100,4,2,1,70,0,1
119689,-100,4,2,1,70,0,0
120627,-100,4,2,1,70,0,1
121827,-100,4,2,1,70,0,0
126627,-100,4,2,1,70,0,1
133827,-100,4,2,1,70,0,0

[HitObjects]
320,192,2494,5,0,0:0:0:50:crash.wav
448,192,2494,1,0,0:0:0:0:
448,192,2944,1,0,0:0:0:0:
64,192,3694,1,0,0:0:0:0:
64,192,4144,1,0,0:0:0:0:
320,192,4894,1,0,0:0:0:0:
192,192,5494,1,0,0:0:0:0:
448,192,6094,1,0,0:0:0:0:
448,192,7294,128,0,7894:0:0:0:50:kick.wav
192,192,7894,128,0,8494:0:0:0:0:
320,192,8494,128,0,9094:0:0:0:0:
64,192,9094,128,0,9694:0:0:0:0:
320,192,9694,128,0,11027:0:0:0:50:crash.wav
448,192,9694,1,0,0:0:0:0:
192,192,11027,128,0,12627:0:0:0:0:
64,192,12627,1,0,0:0:0:50:crash.wav
448,192,12627,128,0,13827:0:0:0:0:
192,192,13827,1,0,0:0:0:50:snare3.wav
192,192,14427,1,0,0:0:0:50:snare3.wav
448,192,14727,1,0,0:0:0:50:snare3.wav
64,192,15027,1,0,0:0:0:50:crash.wav
320,192,15027,1,0,0:0:0:50:kick.wav
64,192,15477,128,0,15927:0:0:0:50:kick.wav
448,192,15927,1,0,0:0:0:0:
192,192,16227,128,0,16827:0:0:0:50:kick.wav
320,192,16827,1,0,0:0:0:30:snare4.wav
64,192,17127,1,0,0:0:0:0:
448,192,17427,1,0,0:0:0:50:kick.wav
448,192,17877,128,0,18327:0:0:0:50:kick.wav
64,192,18327,1,0,0:0:0:0:
320,192,18627,128,0,19227:0:0:0:50:kick.wav
192,192,19227,1,0,0:0:0:30:snare4.wav
448,192,19527,1,0,0:0:0:0:
64,192,19827,1,0,0:0:0:50:kick.wav
320,192,20277,128,0,20727:0:0:0:50:kick.wav
192,192,20727,1,0,0:0:0:0:
64,192,21027,128,0,21627:0:0:0:50:kick.wav
448,192,21627,1,0,0:0:0:30:snare4.wav
64,192,21927,1,0,0:0:0:30:snare4.wav
448,192,22227,1,0,0:0:0:50:kick.wav
320,192,22677,1,0,0:0:0:50:kick.wav
64,192,23127,1,0,0:0:0:30:snare4.wav
448,192,23427,1,0,0:0:0:50:kick.wav
192,192,23727,1,0,0:0:0:50:kick.wav
320,192,24027,1,0,0:0:0:50:kick.wav
448,192,24327,1,0,0:0:0:50:kick.wav
64,192,24627,1,0,0:0:0:50:crash.wav
192,192,24627,1,0,0:0:0:50:kick.wav
64,192,25077,128,0,25527:0:0:0:50:kick.wav
448,192,25527,1,0,0:0:0:30:snare4.wav
320,192,25827,128,0,26577:0:0:0:50:kick.wav
64,192,26577,1,0,0:0:0:50:kick.wav
192,192,26727,1,0,0:0:0:30:snare4.wav
448,192,27027,1,0,0:0:0:50:kick.wav
448,192,27477,128,0,27927:0:0:0:50:kick.wav
64,192,27927,1,0,0:0:0:50:kick.wav
64,192,28377,1,0,0:0:0:50:kick.wav
448,192,28527,1,0,0:0:0:50:kick.wav
192,192,28827,1,0,0:0:0:50:kick.wav
64,192,29127,1,0,0:0:0:50:kick.wav
320,192,29427,1,0,0:0:0:50:crash.wav
448,192,29427,1,0,0:0:0:50:kick.wav
192,192,29727,1,0,0:0:0:50:kick.wav
448,192,29877,128,0,30327:0:0:0:50:kick.wav
192,192,30327,1,0,0:0:0:50:kick.wav
64,192,30627,1,0,0:0:0:50:crash.wav
448,192,30627,1,0,0:0:0:50:kick.wav
320,192,30927,1,0,0:0:0:50:kick.wav
64,192,31077,128,0,31527:0:0:0:50:kick.wav
320,192,31527,1,0,0:0:0:50:kick.wav
64,192,31827,1,0,0:0:0:50:crash.wav
448,192,31827,1,0,0:0:0:50:kick.wav
192,192,32427,1,0,0:0:0:50:crash.wav
320,192,33027,128,0,33627:0:0:0:50:crash.wav
448,192,33027,1,0,0:0:0:50:kick.wav
64,192,33627,1,0,0:0:0:50:crash.wav
192,192,33927,1,0,0:0:0:50:kick.wav
320,192,34227,1,0,0:0:0:50:crash.wav
448,192,34227,128,0,34677:0:0:0:50:kick.wav
192,192,34677,1,0,0:0:0:0:
320,192,35127,1,0,0:0:0:50:kick.wav
64,192,35427,128,0,35877:0:0:0:50:kick.wav
320,192,35877,1,0,0:0:0:0:
192,192,36327,1,0,0:0:0:50:kick.wav
64,192,36627,1,0,0:0:0:50:kick.wav
448,192,36627,1,0,0:0:0:0:
192,192,37227,1,0,0:0:0:50:kick.wav
320,192,37827,128,0,38427:0:0:0:50:kick.wav
64,192,38427,1,0,0:0:0:50:kick.wav
320,192,38727,1,0,0:0:0:50:kick.wav
192,192,39027,128,0,39477:0:0:0:50:kick.wav
448,192,39027,1,0,0:0:0:0:
320,192,39477,1,0,0:0:0:0:
448,192,39927,1,0,0:0:0:50:kick.wav
320,192,40227,128,0,40677:0:0:0:50:kick.wav
192,192,40677,1,0,0:0:0:0:
64,192,41127,1,0,0:0:0:50:kick.wav
192,192,41427,1,0,0:0:0:50:kick.wav
448,192,41427,1,0,0:0:0:30:snare.wav
320,192,41727,1,0,0:0:0:50:kick.wav
192,192,42027,1,0,0:0:0:50:kick.wav
64,192,42327,1,0,0:0:0:50:kick.wav
320,192,42627,128,0,43227:0:0:0:50:kick.wav
64,192,43227,1,0,0:0:0:50:kick.wav
192,192,43527,1,0,0:0:0:50:kick.wav
320,192,43827,1,0,0:0:0:50:crash.wav
448,192,43827,128,0,44277:0:0:0:50:kick.wav
192,192,44277,1,0,0:0:0:0:
320,192,44727,1,0,0:0:0:50:kick.wav
64,192,45027,128,0,45477:0:0:0:50:kick.wav
320,192,45477,1,0,0:0:0:0:
192,192,45927,1,0,0:0:0:50:kick.wav
64,192,46227,1,0,0:0:0:50:kick.wav
448,192,46227,1,0,0:0:0:0:
192,192,46827,1,0,0:0:0:50:kick.wav
320,192,47427,1,0,0:0:0:50:kick.wav
448,192,47427,128,0,48027:0:0:0:0:
192,192,48027,1,0,0:0:0:50:kick.wav
320,192,48327,1,0,0:0:0:50:kick.wav
64,192,48627,1,0,0:0:0:50:kick.wav
448,192,48627,1,0,0:0:0:0:
448,192,49527,1,0,0:0:0:50:kick.wav
64,192,49827,1,0,0:0:0:50:kick.wav
192,192,49827,1,0,0:0:0:0:
320,192,50727,1,0,0:0:0:50:kick.wav
64,192,51027,128,0,51627:0:0:0:50:kick.wav
448,192,51027,1,0,0:0:0:50:snare2_f4.wav
448,192,51627,128,0,52227:0:0:0:50:kick.wav
192,192,52227,128,0,52827:0:0:0:30:snare2.wav
320,192,52827,1,0,0:0:0:30:snare2.wav
64,192,53127,1,0,0:0:0:50:snare2_g#4.wav
320,192,53427,1,0,0:0:0:50:crash.wav
448,192,53427,1,0,0:0:0:50:kick.wav
448,192,53877,1,0,0:0:0:0:
64,192,54627,1,0,0:0:0:0:
64,192,55077,1,0,0:0:0:0:
320,192,55827,1,0,0:0:0:0:
192,192,56427,1,0,0:0:0:0:
448,192,57027,1,0,0:0:0:0:
64,192,57927,1,0,0:0:0:0:
192,192,58227,1,0,0:0:0:50:crash.wav
448,192,58227,1,0,0:0:0:50:kick.wav
64,192,58527,1,0,0:0:0:50:kick.wav
448,192,58677,128,0,59127:0:0:0:50:kick.wav
320,192,59127,1,0,0:0:0:50:kick.wav
64,192,59427,1,0,0:0:0:50:kick.wav
192,192,59427,1,0,0:0:0:30:snare.wav
448,192,59727,1,0,0:0:0:50:kick.wav
64,192,59877,128,0,60327:0:0:0:50:kick.wav
192,192,60327,1,0,0:0:0:50:kick.wav
320,192,60627,1,0,0:0:0:50:kick.wav
448,192,60627,128,0,61227:0:0:0:70:snare2_a4.wav
64,192,61227,128,0,61827:0:0:0:70:snare2_a#4.wav
320,192,61827,128,0,62427:0:0:0:30:snare2.wav
192,192,62427,128,0,63027:0:0:0:70:snare6.wav
64,192,63027,128,0,63477:0:0:0:50:crash.wav
448,192,63027,1,0,0:0:0:70:kick2.wav
320,192,63477,128,0,63927:0:0:0:0:
192,192,63927,1,0,0:0:0:70:snare6.wav
64,192,64227,128,0,64827:0:0:0:70:kick2.wav
448,192,64827,1,0,0:0:0:70:kick2.wav
192,192,65427,1,0,0:0:0:70:kick2.wav
320,192,66027,1,0,0:0:0:70:kick2.wav
448,192,66627,128,0,67227:0:0:0:70:kick2.wav
64,192,67227,128,0,67827:0:0:0:70:kick2.wav
320,192,67827,1,0,0:0:0:50:crash.wav
448,192,67827,1,0,0:0:0:70:kick2.wav
320,192,68427,1,0,0:0:0:70:kick2.wav
192,192,69027,1,0,0:0:0:50:crash.wav
448,192,69477,128,0,69927:0:0:0:0:
64,192,69927,1,0,0:0:0:70:snare6.wav
448,192,70227,1,0,0:0:0:50:crash.wav
192,192,70827,1,0,0:0:0:50:crash.wav
320,192,71427,128,0,72027:0:0:0:50:crash.wav
192,192,72027,1,0,0:0:0:70:kick2.wav
320,192,72327,1,0,0:0:0:0:
64,192,72627,128,0,73077:0:0:0:50:crash.wav
448,192,72627,1,0,0:0:0:70:kick2.wav
320,192,73077,128,0,73527:0:0:0:0:
192,192,73527,1,0,0:0:0:70:snare6.wav
64,192,73827,128,0,74427:0:0:0:70:kick2.wav
448,192,74427,1,0,0:0:0:70:kick2.wav
192,192,74727,1,0,0:0:0:70:snare6.wav
320,192,75027,1,0,0:0:0:70:kick2.wav
64,192,75627,1,0,0:0:0:70:kick2.wav
192,192,75927,1,0,0:0:0:70:snare6.wav
448,192,76227,128,0,76827:0:0:0:70:kick2.wav
192,192,76827,1,0,0:0:0:70:kick2.wav
320,192,77127,1,0,0:0:0:50:kick.wav
64,192,77427,128,0,78327:0:0:0:50:kick.wav
192,192,77427,1,0,0:0:0:0:
448,192,78327,1,0,0:0:0:30:snare.wav
320,192,78627,128,0,79227:0:0:0:50:kick.wav
192,192,79227,1,0,0:0:0:50:kick.wav
320,192,79527,1,0,0:0:0:50:kick.wav
64,192,79827,1,0,0:0:0:50:kick.wav
192,192,79827,1,0,0:0:0:70:snare2_a#4.wav
448,192,80427,1,0,0:0:0:50:kick.wav
192,192,81027,128,0,82227:0:0:0:50:kick.wav
320,192,82227,1,0,0:0:0:50:crash.wav
448,192,82227,1,0,0:0:0:0:
320,192,82677,1,0,0:0:0:0:
64,192,83127,1,0,0:0:0:0:
320,192,83427,1,0,0:0:0:0:
192,192,84177,1,0,0:0:0:0:
64,192,84627,1,0,0:0:0:0:
448,192,84627,1,0,0:0:0:0:
448,192,85077,1,0,0:0:0:0:
320,192,85527,1,0,0:0:0:0:
192,192,85827,1,0,0:0:0:0:
64,192,86727,1,0,0:0:0:0:
448,192,87027,1,0,0:0:0:0:
320,192,87477,1,0,0:0:0:0:
64,192,87927,1,0,0:0:0:0:
448,192,88227,1,0,0:0:0:0:
192,192,88677,1,0,0:0:0:0:
64,192,89127,1,0,0:0:0:0:
320,192,89427,1,0,0:0:0:0:
320,192,90027,1,0,0:0:0:0:
448,192,90627,1,0,0:0:0:0:
64,192,91227,1,0,0:0:0:0:
320,192,91827,1,0,0:0:0:50:crash.wav
448,192,91827,1,0,0:0:0:0:
448,192,92277,1,0,0:0:0:0:
64,192,93027,1,0,0:0:0:0:
64,192,93477,1,0,0:0:0:0:
320,192,94227,1,0,0:0:0:0:
448,192,94227,1,0,0:0:0:0:
192,192,94827,1,0,0:0:0:0:
448,192,95427,1,0,0:0:0:0:
64,192,96327,1,0,0:0:0:0:
320,192,96627,1,0,0:0:0:50:crash.wav
448,192,96627,1,0,0:0:0:50:kick.wav
64,192,96927,1,0,0:0:0:50:kick.wav
448,192,97077,128,0,97527:0:0:0:50:kick.wav
320,192,97527,1,0,0:0:0:50:kick.wav
64,192,97827,1,0,0:0:0:50:kick.wav
192,192,97827,1,0,0:0:0:30:snare.wav
448,192,98127,1,0,0:0:0:50:kick.wav
64,192,98277,128,0,98727:0:0:0:50:kick.wav
192,192,98727,1,0,0:0:0:50:kick.wav
320,192,99027,1,0,0:0:0:50:kick.wav
448,192,99027,128,0,99927:0:0:0:70:snare2_a4.wav
192,192,99927,1,0,0:0:0:50:kick.wav
64,192,100227,128,0,100827:0:0:0:50:kick.wav
320,192,100827,1,0,0:0:0:30:snare.wav
64,192,101427,1,0,0:0:0:50:kick.wav
192,192,101427,128,0,102627:0:0:0:70:snare2_a4.wav
320,192,102627,128,0,103527:0:0:0:50:kick.wav
64,192,103527,1,0,0:0:0:50:kick.wav
192,192,103827,1,0,0:0:0:50:crash.wav
448,192,103827,128,0,104277:0:0:0:50:kick.wav
64,192,104277,1,0,0:0:0:0:
320,192,104727,1,0,0:0:0:50:kick.wav
64,192,105027,128,0,105477:0:0:0:50:kick.wav
448,192,105477,1,0,0:0:0:0:
192,192,105927,1,0,0:0:0:50:kick.wav
64,192,106227,1,0,0:0:0:50:kick.wav
448,192,106227,1,0,0:0:0:0:
320,192,106527,1,0,0:0:0:50:kick.wav
64,192,106827,1,0,0:0:0:50:kick.wav
192,192,107127,1,0,0:0:0:50:kick.wav
320,192,107427,128,0,108027:0:0:0:50:kick.wav
64,192,108027,1,0,0:0:0:50:kick.wav
448,192,108327,1,0,0:0:0:50:kick.wav
64,192,108627,1,0,0:0:0:50:kick.wav
192,192,108627,128,0,109077:0:0:0:0:
448,192,109077,1,0,0:0:0:0:
192,192,109527,1,0,0:0:0:50:kick.wav
320,192,109827,128,0,110277:0:0:0:50:kick.wav
64,192,110277,1,0,0:0:0:0:
320,192,110727,1,0,0:0:0:50:kick.wav
192,192,111027,1,0,0:0:0:50:kick.wav
448,192,111027,1,0,0:0:0:30:snare.wav
64,192,111327,1,0,0:0:0:50:kick.wav
320,192,111627,1,0,0:0:0:50:kick.wav
448,192,111927,1,0,0:0:0:50:kick.wav
320,192,112227,128,0,112827:0:0:0:50:kick.wav
192,192,112827,1,0,0:0:0:50:kick.wav
320,192,113127,1,0,0:0:0:50:kick.wav
64,192,113427,1,0,0:0:0:50:crash.wav
448,192,113427,128,0,113877:0:0:0:50:kick.wav
192,192,113877,1,0,0:0:0:0:
320,192,114327,1,0,0:0:0:50:kick.wav
64,192,114627,128,0,115077:0:0:0:50:kick.wav
320,192,115077,1,0,0:0:0:50:kick.wav
192,192,115527,1,0,0:0:0:50:kick.wav
64,192,115827,1,0,0:0:0:50:kick.wav
448,192,115827,1,0,0:0:0:30:snare.wav
192,192,116427,1,0,0:0:0:50:kick.wav
320,192,117027,1,0,0:0:0:50:kick.wav
448,192,117027,128,0,117627:0:0:0:0:
192,192,117627,1,0,0:0:0:50:kick.wav
320,192,117927,1,0,0:0:0:50:kick.wav
64,192,118227,1,0,0:0:0:50:kick.wav
448,192,118227,1,0,0:0:0:0:
448,192,119127,1,0,0:0:0:50:kick.wav
64,192,119427,1,0,0:0:0:50:kick.wav
192,192,119427,1,0,0:0:0:0:
320,192,120327,1,0,0:0:0:50:kick.wav
64,192,120627,128,0,121227:0:0:0:50:kick.wav
448,192,120627,1,0,0:0:0:50:snare2_f4.wav
448,192,121227,128,0,121827:0:0:0:50:kick.wav
192,192,121827,128,0,122427:0:0:0:30:snare2.wav
320,192,122427,1,0,0:0:0:30:snare2.wav
64,192,122727,1,0,0:0:0:50:snare2_g#4.wav
192,192,123027,1,0,0:0:0:50:crash.wav
448,192,123027,1,0,0:0:0:50:kick.wav
448,192,123477,1,0,0:0:0:0:
64,192,124227,1,0,0:0:0:0:
192,192,124827,128,0,125427:0:0:0:50:kick.wav
64,192,125427,1,0,0:0:0:50:kick.wav
320,192,125427,1,0,0:0:0:30:snare.wav
448,192,125727,1,0,0:0:0:50:kick.wav
192,192,126027,1,0,0:0:0:50:kick.wav
320,192,126177,1,0,0:0:0:50:kick.wav
448,192,126477,1,0,0:0:0:50:kick.wav
64,192,126627,128,0,127227:0:0:0:50:crash.wav
320,192,127227,1,0,0:0:0:50:kick.wav
192,192,127527,1,0,0:0:0:50:kick.wav
64,192,127827,1,0,0:0:0:50:crash.wav
448,192,127827,128,0,128427:0:0:0:30:kick.wav
192,192,128427,128,0,129027:0:0:0:30:kick.wav
320,192,129027,128,0,129627:0:0:0:30:kick.wav
448,192,129027,1,0,0:0:0:30:snare.wav
64,192,129627,128,0,130227:0:0:0:30:kick.wav
192,192,130227,1,0,0:0:0:50:kick.wav
448,192,130227,1,0,0:0:0:30:snare.wav
320,192,130527,1,0,0:0:0:30:kick.wav
64,192,130827,1,0,0:0:0:50:kick.wav
192,192,131127,1,0,0:0:0:30:kick.wav
320,192,131427,1,0,0:0:0:30:kick.wav
448,192,131427,1,0,0:0:0:30:snare.wav
64,192,131727,1,0,0:0:0:30:kick.wav
448,192,132027,1,0,0:0:0:30:kick.wav
64,192,132327,1,0,0:0:0:30:kick.wav
320,192,132627,128,0,133827:0:0:0:50:crash.wav
448,192,132627,1,0,0:0:0:70:snare2_a#4.wav
64,192,133827,1,0,0:0:0:50:crash.wav
448,192,133827,128,0,138027:0:0:0:0:
