osu file format v14

[General]
AudioFilename: audio.mp3
AudioLeadIn: 0
PreviewTime: 33819
Countdown: 0
SampleSet: Soft
StackLeniency: 0.7
Mode: 2
LetterboxInBreaks: 0
WidescreenStoryboard: 0

[Editor]
DistanceSpacing: 1
BeatDivisor: 4
GridSize: 4
TimelineZoom: 1.9

[Metadata]
Title:Eternally Onward
TitleUnicode:Eternally Onward
Artist:Ardolf
ArtistUnicode:Ardolf
Creator:4rcheR-
Version:Until The Last Moment
Source:
Tags:osu!catch world cup 2023 cwc cwc2023 semifinals semi finals sf double time3 dt3 archer afb autofanboy alienflybot Electronic Instrumental fa featured artist furry wolf werewolf Artcore edm & house arcaea第3回公募 落選供養 uk happy hardcore progressive hardstyle
BeatmapID:4213349
BeatmapSetID:2004026

[Difficulty]
HPDrainRate:6
CircleSize:4
OverallDifficulty:9.6
ApproachRate:9.6
SliderMultiplier:1.96
SliderTickRate:2

[Events]
//Background and Video events
0,0,"bg.jpg",0,0
//Break Periods
//Storyboard Layer 0 (Background)
//Storyboard Layer 1 (Fail)
//Storyboard Layer 2 (Pass)
//Storyboard Layer 3 (Foreground)
//Storyboard Layer 4 (Overlay)
//Storyboard Sound Samples

[TimingPoints]
61,300,4,2,22,10,1,0
1261,-100,4,2,22,20,0,0
1861,-100,4,2,22,30,0,0
2461,-100,4,2,22,40,0,0
9661,333.333333333333,4,2,22,45,1,0
10994,400,4,2,22,50,1,0
12594,300,4,2,22,55,1,0
14994,-100,4,2,22,60,0,0
24594,-100,4,2,22,65,0,0
29394,-100,4,2,22,70,0,0
31794,-100,4,2,22,75,0,0
34194,-100,4,2,22,80,0,1
43194,-100,4,2,22,80,0,0
43794,-100,4,2,22,80,0,1
53394,-100,4,2,22,40,0,0
58194,-100,4,2,22,45,0,0
59394,-100,4,2,22,55,0,0
60594,-100,4,2,22,65,0,0
61794,-100,4,2,22,75,0,0
62994,-100,4,2,22,50,0,0
72594,-100,4,2,22,55,0,0
77394,-100,4,2,22,60,0,0
78594,-100,4,2,22,65,0,0
79794,-100,4,2,22,70,0,0
80994,-100,4,2,22,75,0,0
81294,-100,4,2,22,65,0,0
81594,-100,4,2,22,55,0,0
81894,-100,4,2,22,45,0,0
82194,-100,4,2,22,40,0,0
86994,-100,4,2,22,50,0,0
91194,-100,4,2,22,55,0,0
91794,-100,4,2,22,60,0,0
96594,-100,4,2,22,65,0,0
97794,-100,4,2,22,70,0,0
98994,-100,4,2,22,75,0,0
100794,-35.7142857142857,4,2,22,75,0,0
101394,-100,4,2,22,80,0,0
103794,-100,4,2,22,85,0,1
112794,-100,4,2,22,85,0,0
113019,-100,4,2,22,5,0,0
113094,-100,4,2,22,85,0,0
113319,-100,4,2,22,5,0,0
113394,-100,4,2,22,85,0,1
122994,-100,4,2,22,40,0,0
125394,-100,4,2,22,50,0,0
126594,-100,4,2,22,60,0,1
127794,-100,4,2,22,65,0,1
130194,-100,4,2,22,70,0,1
131394,-100,4,2,22,75,0,1
132594,-100,4,2,22,80,0,1
133794,-100,4,2,22,85,0,0
134394,-100,4,2,22,75,0,0
134994,-100,4,2,22,65,0,0
135594,-100,4,2,22,55,0,0
136194,-100,4,2,22,45,0,0
136794,-100,4,2,22,35,0,0
137394,-100,4,2,22,25,0,0

[Colours]
Combo1 : 128,128,128
Combo2 : 46,222,165
Combo3 : 108,112,251
Combo4 : 173,120,48

[HitObjects]
352,264,1861,6,0,P|440:240|464:136,1,196,2|2,0:0|0:0,0:0:0:0:
444,104,2236,1,0,0:0:0:0:
404,76,2311,1,0,0:0:0:0:
356,68,2386,1,0,0:0:0:0:
164,72,2461,6,0,P|112:128|180:208,1,196,6|2,1:3|0:0,0:0:0:0:
324,208,2911,2,0,P|316:268|104:328,1,294,2|2,0:0|0:0,0:0:0:0:
396,352,3661,6,0,P|412:288|300:204,1,196,2|2,0:0|0:0,0:0:0:0:
180,208,4111,1,2,0:0:0:0:
376,188,4411,2,0,L|448:120,2,98,2|2|0,0:0|0:0|0:0,0:0:0:0:
132,212,4861,6,0,P|84:148|156:52,1,196,2|2,0:0|0:0,0:0:0:0:
332,64,5461,2,0,P|436:88|464:176,1,196,2|2,0:0|0:0,0:0:0:0:
188,160,6061,6,0,L|152:172,1,24.5,2|2,0:0|0:0,0:0:0:0:
188,160,6136,2,0,P|256:160|120:240,1,539,2|2,0:0|0:0,0:0:0:0:
136,196,7036,1,0,0:0:0:0:
172,164,7111,1,0,0:0:0:0:
220,152,7186,1,0,0:0:0:0:
412,156,7261,6,0,L|416:36,1,98,6|0,1:3|0:0,0:0:0:0:
268,44,7561,2,0,L|132:32,1,98,2|0,0:0|0:0,0:0:0:0:
316,40,7861,2,0,L|320:160,1,98,2|0,0:0|0:0,0:0:0:0:
220,144,8161,2,0,L|104:144,1,98,2|0,0:0|0:0,0:0:0:0:
368,148,8461,6,0,L|476:144,1,98,2|0,0:0|0:0,0:0:0:0:
320,140,8761,2,0,L|204:144,1,98,2|0,0:0|0:0,0:0:0:0:
368,140,9061,2,0,L|376:248,1,98,2|0,0:0|0:0,0:0:0:0:
228,248,9361,2,0,L|156:248,1,49,2|0,0:0|0:0,0:0:0:0:
228,248,9511,2,0,L|288:248,1,49,0|0,0:0|0:0,0:0:0:0:
104,248,9661,5,6,1:2:0:0:
40,248,9744,1,0,0:0:0:0:
104,248,9827,1,0,0:0:0:0:
168,248,9911,1,0,0:0:0:0:
104,248,9994,1,0,0:0:0:0:
40,248,10077,1,0,0:0:0:0:
104,248,10161,1,0,0:0:0:0:
168,248,10244,1,0,0:0:0:0:
104,248,10327,1,0,0:0:0:0:
40,248,10411,1,0,0:0:0:0:
104,248,10494,1,0,0:0:0:0:
168,248,10577,1,0,0:0:0:0:
232,248,10660,1,0,1:0:0:0:
168,248,10744,1,0,1:0:0:0:
104,248,10827,1,0,1:0:0:0:
40,248,10910,1,0,1:0:0:0:
232,248,10994,6,0,P|344:200|264:84,1,294,6|0,1:2|0:0,0:0:0:0:
152,88,11794,1,0,0:0:0:0:
116,132,11894,1,0,0:0:0:0:
152,180,11994,1,0,0:0:0:0:
208,196,12094,1,0,0:0:0:0:
264,212,12194,1,0,0:0:0:0:
320,232,12294,1,0,0:0:0:0:
352,284,12394,1,0,0:0:0:0:
316,332,12494,1,0,0:0:0:0:
56,336,12594,6,0,P|16:276|80:176,1,196,6|2,1:0|0:0,0:0:0:0:
348,196,13194,2,0,P|428:188|496:92,1,196,2|2,0:0|0:0,0:0:0:0:
220,104,13794,6,0,L|24:104,1,196,10|8,0:1|0:1,0:0:0:0:
300,104,14394,2,0,L|424:104,1,98,8|0,0:1|1:0,0:0:0:0:
124,104,14694,2,0,L|12:104,1,98,8|0,0:1|1:0,0:0:0:0:
348,104,14994,6,0,P|408:144|336:236,1,196,6|2,1:0|0:0,0:0:0:0:
232,228,15444,1,2,1:0:0:0:
360,232,15594,2,0,L|360:120,1,98,8|0,0:1|0:0,0:0:0:0:
212,136,15894,2,0,L|84:136,1,98,2|0,0:0|0:0,0:0:0:0:
408,140,16194,6,0,P|464:176|388:260,1,196,2|0,1:0|0:0,0:0:0:0:
280,264,16644,1,0,1:0:0:0:
152,260,16794,2,0,L|152:132,1,98,8|2,0:1|0:0,0:0:0:0:
428,164,17094,2,0,L|428:40,1,98,2|2,0:0|1:0,0:0:0:0:
136,72,17394,6,0,L|352:72,1,196,2|2,1:0|0:0,0:0:0:0:
204,72,17844,1,2,1:0:0:0:
76,76,17994,2,0,L|76:200,1,98,8|0,0:1|0:0,0:0:0:0:
352,180,18294,2,0,L|464:176,1,98,2|0,0:0|0:0,0:0:0:0:
156,172,18594,5,2,1:0:0:0:
116,145,18669,1,0,0:0:0:0:
113,98,18744,1,0,0:0:0:0:
148,66,18819,1,0,0:0:0:0:
196,64,18894,1,0,0:0:0:0:
235,90,18969,1,0,0:0:0:0:
238,137,19044,1,0,1:0:0:0:
203,169,19119,1,0,0:0:0:0:
32,168,19194,2,0,L|16:232,3,49,10|0|0|0,0:1|0:0|0:0|0:0,0:0:0:0:
192,216,19494,2,0,L|248:212,1,49,2|0,0:0|0:0,0:0:0:0:
192,216,19644,2,0,L|128:220,1,49,0|0,1:0|0:0,0:0:0:0:
336,220,19794,6,0,P|388:176|316:96,1,196,2|2,1:0|0:0,0:0:0:0:
192,104,20244,1,2,1:0:0:0:
320,108,20394,2,0,L|192:108,1,98,8|0,0:1|0:0,0:0:0:0:
368,108,20694,2,0,L|500:108,1,98,2|0,0:0|0:0,0:0:0:0:
172,112,20994,6,0,P|136:160|204:260,1,196,2|0,1:0|0:0,0:0:0:0:
300,248,21444,1,0,1:0:0:0:
24,240,21594,2,0,L|22:117,1,98,10|0,0:1|0:0,0:0:0:0:
168,140,21894,2,0,L|56:140,1,98,10|0,0:1|0:0,0:0:0:0:
364,140,22194,6,0,L|368:276,1,98,10|0,0:1|1:0,0:0:0:0:
92,252,22494,1,10,0:1:0:0:
368,248,22644,2,0,L|232:248,2,98,2|8|0,1:0|0:1|1:0,0:0:0:0:
92,252,23094,2,0,L|92:372,1,98,10|0,0:1|1:0,0:0:0:0:
384,344,23394,6,0,L|288:336,1,49,10|0,0:1|1:0,0:0:0:0:
164,324,23544,2,0,L|92:316,1,49,0|0,1:0|1:0,0:0:0:0:
288,316,23694,2,0,L|360:300,1,49,8|0,0:1|1:0,0:0:0:0:
164,304,23844,2,0,L|104:296,1,49,0|0,1:0|1:0,0:0:0:0:
288,292,23994,2,0,L|368:280,3,49,10|0|0|0,0:1|1:0|1:0|1:0,0:0:0:0:
164,284,24294,2,0,L|96:292,1,49,10|0,0:1|0:0,0:0:0:0:
164,284,24444,2,0,L|224:276,1,49,0|0,1:0|0:0,0:0:0:0:
408,288,24594,6,0,P|464:232|388:144,1,196,6|10,1:0|0:1,0:0:0:0:
264,148,25044,2,0,P|180:132|132:20,1,196,2|0,1:0|1:0,0:0:0:0:
280,36,25494,2,0,L|408:32,1,98,10|0,0:1|0:0,0:0:0:0:
84,40,25794,6,0,P|80:128|188:172,1,196,2|8,1:0|0:1,0:0:0:0:
312,180,26244,2,0,P|376:232|296:300,1,196,0|2,1:0|1:0,0:0:0:0:
168,308,26694,1,10,0:1:0:0:
444,300,26844,1,2,1:0:0:0:
152,308,26994,6,0,P|96:280|176:196,1,196,2|10,1:0|0:1,0:0:0:0:
296,184,27444,2,0,P|360:168|352:24,1,196,2|0,1:0|1:0,0:0:0:0:
104,64,27894,2,0,P|52:116|124:212,1,196,10|0,0:1|0:0,0:0:0:0:
420,204,28344,5,14,1:1:0:0:
144,200,28494,1,10,0:1:0:0:
420,204,28644,1,10,1:1:0:0:
144,216,28794,2,0,L|24:216,1,98,10|2,0:1|1:0,0:0:0:0:
192,208,29094,2,0,L|72:208,1,98,10|2,0:1|1:0,0:0:0:0:
408,204,29394,5,14,1:0:0:0:
361,199,29469,1,0,1:0:0:0:
337,158,29544,1,0,1:0:0:0:
358,116,29619,1,0,1:0:0:0:
404,109,29694,1,8,1:0:0:0:
128,120,29844,1,10,1:0:0:0:
173,108,29919,1,0,1:0:0:0:
191,65,29994,1,0,1:0:0:0:
167,25,30069,1,0,1:0:0:0:
121,19,30144,1,8,1:0:0:0:
396,32,30294,2,0,L|504:32,1,98,10|10,1:0|1:0,0:0:0:0:
200,32,30594,5,14,1:0:0:0:
264,32,30669,1,0,1:0:0:0:
328,32,30744,1,0,1:0:0:0:
264,32,30819,1,0,1:0:0:0:
200,32,30894,1,8,0:1:0:0:
476,36,31044,1,10,1:0:0:0:
412,36,31119,1,0,1:0:0:0:
348,36,31194,1,0,1:0:0:0:
412,36,31269,1,0,1:0:0:0:
476,36,31344,1,8,1:0:0:0:
200,32,31494,2,0,L|72:32,1,98,10|0,1:0|1:0,0:0:0:0:
416,36,31794,6,0,P|440:88|396:116,1,98,14|0,0:0|1:0,0:0:0:0:
244,120,32019,2,0,P|216:160|272:204,1,98,10|0,0:0|1:0,0:0:0:0:
412,192,32244,1,10,0:0:0:0:
136,192,32394,2,0,L|28:192,1,98,10|0,0:0|1:0,0:0:0:0:
208,192,32619,2,0,L|332:192,1,98,10|0,0:0|1:0,0:0:0:0:
136,192,32844,1,10,0:0:0:0:
428,196,32994,6,0,L|488:196,1,49,2|2,1:2|1:2,0:0:0:0:
304,200,33144,2,0,L|224:200,1,49,2|2,1:2|1:2,0:0:0:0:
428,196,33294,2,0,L|496:196,1,49,2|2,1:2|1:2,0:0:0:0:
304,200,33444,2,0,L|236:200,1,49,2|2,1:2|1:2,0:0:0:0:
452,196,33594,1,6,1:0:0:0:
256,192,33894,1,2,1:0:0:0:
192,192,33969,1,0,1:0:0:0:
256,192,34044,1,0,1:0:0:0:
320,192,34119,1,0,1:0:0:0:
124,196,34194,6,0,P|56:144|144:88,1,196,6|10,1:2|0:0,0:0:0:0:
404,80,34644,2,0,L|508:80,2,98,2|0|0,0:0|1:0|0:0,0:0:0:0:
120,76,35094,2,0,L|16:76,1,98,10|0,0:0|0:0,0:0:0:0:
72,76,35319,1,0,0:0:0:0:
260,80,35394,6,0,P|344:88|424:176,1,196,2|10,1:2|0:0,0:0:0:0:
136,164,35844,1,2,0:0:0:0:
264,164,35994,1,0,1:0:0:0:
136,164,36144,1,2,0:0:0:0:
420,164,36294,1,10,0:0:0:0:
292,164,36444,1,0,0:0:0:0:
228,164,36519,1,0,0:0:0:0:
416,168,36594,6,0,L|416:64,1,98,2|0,1:2|0:0,0:0:0:0:
364,72,36819,1,0,0:0:0:0:
188,72,36894,2,0,L|60:72,1,98,10|0,0:0|0:0,0:0:0:0:
144,72,37119,1,0,0:0:0:0:
320,80,37194,2,0,L|324:200,1,98,2|0,1:2|0:0,0:0:0:0:
268,176,37419,1,0,0:0:0:0:
92,180,37494,2,0,L|88:68,1,98,10|0,0:0|0:0,0:0:0:0:
144,72,37719,1,0,0:0:0:0:
382,89,37794,5,2,1:2:0:0:
403,138,37869,1,0,0:0:0:0:
382,188,37944,1,0,0:0:0:0:
332,209,38019,1,0,0:0:0:0:
283,188,38094,1,8,0:0:0:0:
262,138,38169,1,0,0:0:0:0:
283,89,38244,1,0,0:0:0:0:
332,68,38319,1,0,0:0:0:0:
156,72,38394,2,0,L|156:136,1,49,2|0,1:2|0:0,0:0:0:0:
312,132,38544,2,0,L|376:132,1,49,2|0,0:0|1:0,0:0:0:0:
184,144,38694,2,0,L|248:144,1,49,10|0,0:0|0:0,0:0:0:0:
408,152,38844,2,0,L|340:152,1,49,2|0,1:2|0:0,0:0:0:0:
164,152,38994,6,0,P|112:216|184:296,1,196,2|10,1:2|0:0,0:0:0:0:
456,292,39444,2,0,L|456:192,1,98,2|0,0:0|1:0,0:0:0:0:
348,188,39744,1,0,0:0:0:0:
64,200,39894,2,0,L|60:92,1,98,10|0,0:0|0:0,0:0:0:0:
116,104,40119,1,0,0:0:0:0:
300,96,40194,6,0,L|92:72,1,196,2|10,1:2|0:0,0:0:0:0:
388,72,40644,2,0,L|492:72,2,98,2|0|0,0:0|1:0|0:0,0:0:0:0:
104,84,41094,2,0,L|104:144,1,49,10|0,0:0|0:0,0:0:0:0:
280,136,41244,2,0,L|344:136,1,49,2|0,1:2|0:0,0:0:0:0:
144,136,41394,6,0,L|40:136,1,98,10|2,1:2|1:2,0:0:0:0:
300,132,41694,2,0,L|184:132,1,98,10|2,0:0|1:2,0:0:0:0:
456,128,41994,2,0,L|292:128,1,147,10|0,0:0|0:0,0:0:0:0:
132,128,42294,1,10,0:0:0:0:
260,128,42444,1,0,1:0:0:0:
324,128,42519,1,0,1:0:0:0:
132,128,42594,6,0,L|80:128,1,49,2|0,1:2|1:0,0:0:0:0:
36,132,42744,2,0,L|104:132,1,49,0|0,1:0|1:0,0:0:0:0:
264,128,42894,2,0,L|316:128,1,49,0|0,1:0|1:0,0:0:0:0:
136,132,43044,2,0,L|72:132,1,49,0|0,1:0|1:0,0:0:0:0:
284,128,43194,2,0,L|396:128,1,98,14|0,1:2|0:0,0:0:0:0:
60,132,43494,2,0,L|56:16,1,98,14|0,1:2|0:0,0:0:0:0:
380,40,43794,6,0,L|180:36,1,196,6|10,1:2|0:0,0:0:0:0:
468,40,44244,2,0,L|352:40,2,98,2|0|0,0:0|1:0|0:0,0:0:0:0:
184,44,44694,2,0,L|300:44,1,98,10|0,0:0|0:0,0:0:0:0:
336,44,44919,1,0,0:0:0:0:
148,44,44994,6,0,P|100:84|180:164,1,196,2|10,1:2|0:0,0:0:0:0:
452,172,45444,1,2,0:0:0:0:
324,172,45594,1,2,1:2:0:0:
452,172,45744,1,2,0:0:0:0:
168,176,45894,2,0,L|64:176,1,98,10|0,0:0|0:0,0:0:0:0:
124,176,46119,1,0,0:0:0:0:
312,180,46194,6,0,L|312:80,1,98,2|0,1:2|1:0,0:0:0:0:
260,76,46419,1,0,1:0:0:0:
436,64,46494,2,0,L|436:176,1,98,10|0,0:0|1:0,0:0:0:0:
384,160,46719,1,0,1:0:0:0:
208,156,46794,2,0,L|96:156,1,98,2|0,1:2|0:0,0:0:0:0:
164,156,47019,1,0,0:0:0:0:
332,156,47094,2,0,L|444:156,1,98,10|0,0:0|1:0,0:0:0:0:
376,156,47319,1,0,1:0:0:0:
188,164,47394,6,0,L|244:164,1,49,2|0,1:2|0:0,0:0:0:0:
412,168,47544,2,0,L|348:168,1,49,0|0,0:0|0:0,0:0:0:0:
188,164,47694,2,0,L|128:164,1,49,8|0,0:0|0:0,0:0:0:0:
316,164,47844,2,0,L|368:164,1,49,0|0,0:0|0:0,0:0:0:0:
188,168,47994,2,0,L|84:168,1,98,2|0,1:2|0:0,0:0:0:0:
376,168,48294,2,0,L|492:168,1,98,10|0,0:0|0:0,0:0:0:0:
152,164,48594,6,0,L|356:164,1,196,6|0,1:2|0:0,0:0:0:0:
400,164,48969,1,0,0:0:0:0:
348,164,49044,1,0,0:0:0:0:
296,164,49119,1,0,0:0:0:0:
248,184,49194,1,0,0:0:0:0:
220,232,49269,1,0,0:0:0:0:
228,284,49344,1,0,0:0:0:0:
276,312,49419,1,0,0:0:0:0:
452,284,49494,2,0,L|340:288,1,98,10|2,0:0|1:2,0:0:0:0:
32,264,49794,6,0,L|240:264,1,196,6|0,1:2|0:0,0:0:0:0:
272,236,50169,1,0,0:0:0:0:
272,184,50244,1,0,0:0:0:0:
224,160,50319,1,0,0:0:0:0:
172,152,50394,1,0,0:0:0:0:
236,144,50469,1,0,0:0:0:0:
300,136,50544,1,0,0:0:0:0:
236,128,50619,1,0,0:0:0:0:
60,136,50694,2,0,L|164:132,1,98,10|2,0:0|1:2,0:0:0:0:
484,124,50994,6,0,L|484:236,1,98,6|8,1:2|0:0,0:0:0:0:
200,232,51294,2,0,L|96:232,1,98,0|8,1:0|0:0,0:0:0:0:
388,236,51594,1,2,1:2:0:0:
452,236,51669,1,0,1:0:0:0:
388,236,51744,1,0,1:0:0:0:
324,236,51819,1,0,1:0:0:0:
148,232,51894,2,0,L|232:232,1,49,0|0,1:0|1:0,0:0:0:0:
372,236,52044,2,0,L|424:236,1,49,0|0,1:0|1:0,0:0:0:0:
236,236,52194,6,0,P|100:184|248:76,1,392,2|0,1:2|1:0,0:0:0:0:
296,68,52869,1,0,1:0:0:0:
232,68,52944,1,0,1:0:0:0:
296,68,53019,1,0,1:0:0:0:
120,72,53094,1,0,1:0:0:0:
56,72,53169,1,0,1:0:0:0:
120,72,53244,1,0,1:0:0:0:
184,72,53319,1,0,1:0:0:0:
376,68,53394,6,0,P|428:116|352:208,1,196,6|2,1:2|0:0,0:0:0:0:
224,216,53844,2,0,P|152:180|240:128,1,196,2|0,0:0|0:0,0:0:0:0:
360,120,54294,2,0,L|472:120,1,98,2|0,0:0|0:0,0:0:0:0:
312,120,54594,6,0,L|100:124,1,196,2|2,0:0|0:0,0:0:0:0:
264,120,55044,2,0,P|336:200|268:248,1,196,2|2,0:0|0:0,0:0:0:0:
140,244,55494,2,0,L|40:244,1,98,2|0,0:0|0:0,0:0:0:0:
336,236,55794,6,0,L|448:236,1,98,2|0,0:0|0:0,0:0:0:0:
336,232,56094,2,0,L|228:232,1,98,2|0,0:0|0:0,0:0:0:0:
384,232,56394,2,0,L|392:116,1,98,2|0,0:0|0:0,0:0:0:0:
116,132,56694,2,0,L|16:128,1,98,2|0,0:0|0:0,0:0:0:0:
312,136,56994,6,0,L|344:136,1,24.5,2|2,0:0|0:0,0:0:0:0:
312,136,57069,2,0,P|184:164|328:316,1,441,2|2,0:0|0:0,0:0:0:0:
196,324,57894,1,2,0:0:0:0:
323,318,58044,2,0,L|255:314,1,49,2|0,0:0|0:0,0:0:0:0:
80,316,58194,6,0,L|72:208,1,98,6|0,1:0|1:0,0:0:0:0:
180,204,58494,1,0,1:0:0:0:
456,208,58644,2,0,L|464:100,1,98,8|0,0:0|1:0,0:0:0:0:
356,96,58944,1,0,1:0:0:0:
84,76,59094,2,0,L|28:76,1,49,8|0,0:0|1:0,0:0:0:0:
84,76,59244,2,0,L|144:76,1,49,0|0,1:0|1:0,0:0:0:0:
324,64,59394,5,6,1:0:0:0:
196,64,59544,1,0,1:0:0:0:
324,64,59694,1,0,1:0:0:0:
48,64,59844,1,8,0:0:0:0:
176,64,59994,1,0,1:0:0:0:
48,64,60144,1,0,1:0:0:0:
324,68,60294,2,0,L|380:68,1,49,8|0,0:0|1:0,0:0:0:0:
200,72,60444,2,0,L|132:72,1,49,0|0,1:0|1:0,0:0:0:0:
344,76,60594,5,6,1:0:0:0:
370,115,60669,1,0,1:0:0:0:
356,160,60744,1,0,1:0:0:0:
311,175,60819,1,8,1:0:0:0:
140,192,60894,1,0,1:0:0:0:
112,230,60969,1,0,1:0:0:0:
122,276,61044,1,0,1:0:0:0:
164,299,61119,1,0,1:0:0:0:
336,296,61194,2,0,L|400:292,3,49,2|0|0|0,1:0|1:0|1:0|1:0,0:0:0:0:
212,296,61494,1,0,1:0:0:0:
148,296,61569,1,0,1:0:0:0:
212,296,61644,1,0,1:0:0:0:
276,296,61719,1,0,1:0:0:0:
96,300,61794,6,0,P|72:248|284:60,1,392,2|0,1:0|1:0,0:0:0:0:
292,60,62431,1,0,0:0:0:0:
312,72,62468,1,0,0:0:0:0:
327,92,62506,1,0,0:0:0:0:
332,115,62543,1,0,1:0:0:0:
328,139,62581,1,0,0:0:0:0:
315,160,62618,1,0,0:0:0:0:
140,184,62694,1,0,1:0:0:0:
115,186,62731,1,0,0:0:0:0:
95,200,62769,1,0,1:0:0:0:
84,222,62806,1,0,0:0:0:0:
84,246,62844,1,0,1:0:0:0:
95,268,62881,1,0,0:0:0:0:
114,282,62919,1,0,1:0:0:0:
296,288,62994,6,0,P|368:280|444:184,1,196,6|8,1:0|0:1,0:0:0:0:
168,192,63444,2,0,P|192:128|300:72,1,196,2|0,0:0|1:0,0:0:0:0:
448,76,63894,2,0,L|328:64,1,98,10|2,0:1|0:0,0:0:0:0:
56,76,64194,6,0,P|56:152|160:196,1,196,2|8,1:0|0:1,0:0:0:0:
428,184,64794,2,0,P|500:236|448:332,1,196,2|10,1:0|0:1,0:0:0:0:
108,328,65394,6,0,L|104:216,1,98,2|0,1:0|1:0,0:0:0:0:
252,228,65694,2,0,L|256:116,1,98,10|0,0:1|1:0,0:0:0:0:
108,136,65994,2,0,L|8:120,1,98,2|0,1:0|1:0,0:0:0:0:
284,100,66294,2,0,L|414:81,1,98,10|0,0:1|1:0,0:0:0:0:
88,108,66594,6,0,P|40:176|144:224,1,196,2|8,1:0|0:1,0:0:0:0:
384,188,67194,2,0,L|156:180,1,196,2|8,1:0|0:1,0:0:0:0:
92,180,67644,1,2,0:0:0:0:
384,180,67794,6,0,L|388:64,1,98,2|0,1:0|1:0,0:0:0:0:
240,180,68094,2,0,L|236:64,1,98,10|0,0:1|1:0,0:0:0:0:
384,180,68394,2,0,L|388:64,1,98,2|0,1:0|1:0,0:0:0:0:
240,76,68694,1,10,0:1:0:0:
368,76,68844,1,2,0:0:0:0:
72,92,68994,6,0,L|188:92,2,98,2|2|8,1:0|0:0|0:1,0:0:0:0:
220,96,69444,2,0,P|280:140|208:208,1,196,2|0,0:0|1:0,0:0:0:0:
64,212,69894,2,0,L|48:320,1,98,10|0,0:1|1:0,0:0:0:0:
344,316,70194,6,0,L|456:312,1,98,2|0,1:0|1:0,0:0:0:0:
296,316,70494,2,0,L|176:320,1,98,10|0,0:1|1:0,0:0:0:0:
344,312,70794,2,0,L|448:308,1,98,2|0,1:0|1:0,0:0:0:0:
164,320,71094,2,0,L|44:324,1,98,10|0,0:1|1:0,0:0:0:0:
360,332,71394,6,0,P|440:308|476:200,1,196,2|8,1:0|0:1,0:0:0:0:
204,92,71994,1,10,0:1:0:0:
152,92,72069,1,0,1:0:0:0:
204,92,72144,1,0,1:0:0:0:
152,92,72219,1,0,1:0:0:0:
324,88,72294,2,0,L|384:88,1,49,10|0,0:1|1:0,0:0:0:0:
200,88,72444,2,0,L|136:88,1,49,10|0,0:1|1:0,0:0:0:0:
344,88,72594,6,0,L|456:88,2,98,6|0|8,1:0|1:0|0:1,0:0:0:0:
68,92,73044,2,0,L|276:92,1,196,2|0,1:0|1:0,0:0:0:0:
116,96,73494,2,0,L|116:208,1,98,10|2,0:1|1:0,0:0:0:0:
408,328,73794,5,2,1:0:0:0:
448,300,73869,1,0,1:0:0:0:
452,252,73944,1,0,1:0:0:0:
414,216,74019,1,0,1:0:0:0:
244,224,74094,1,8,0:1:0:0:
200,205,74169,1,0,1:0:0:0:
194,158,74244,1,0,1:0:0:0:
229,128,74319,1,0,1:0:0:0:
400,128,74394,2,0,L|400:20,1,98,2|0,1:0|1:0,0:0:0:0:
124,40,74694,2,0,L|24:40,1,98,10|0,0:1|1:0,0:0:0:0:
320,52,74994,6,0,L|320:160,1,98,2|0,1:0|1:0,0:0:0:0:
468,152,75294,2,0,L|468:264,1,98,10|0,0:1|1:0,0:0:0:0:
320,252,75594,2,0,L|204:252,1,98,2|0,1:0|1:0,0:0:0:0:
496,252,75894,2,0,L|384:252,1,98,10|0,0:1|1:0,0:0:0:0:
124,248,76194,5,2,1:0:0:0:
79,232,76269,1,0,1:0:0:0:
71,186,76344,1,0,1:0:0:0:
106,156,76419,1,0,1:0:0:0:
280,152,76494,2,0,L|280:208,1,49,8|0,0:1|1:0,0:0:0:0:
212,208,76644,2,0,L|208:264,1,49,0|0,1:0|1:0,0:0:0:0:
380,164,76794,2,0,L|484:164,1,98,2|0,1:0|1:0,0:0:0:0:
204,164,77094,2,0,L|100:164,1,98,10|0,0:1|1:0,0:0:0:0:
400,48,77394,6,0,L|456:80,2,49,2|0|0,1:0|1:0|1:0,0:0:0:0:
328,48,77619,1,0,1:0:0:0:
400,48,77694,2,0,L|456:80,2,49,2|0|0,1:0|1:0|1:0,0:0:0:0:
328,48,77919,1,0,1:0:0:0:
156,52,77994,2,0,L|100:84,2,49,10|0|0,0:1|1:0|1:0,0:0:0:0:
228,48,78219,1,0,1:0:0:0:
400,48,78294,2,0,L|456:80,2,49,10|0|0,0:1|1:0|1:0,0:0:0:0:
328,48,78519,1,0,1:0:0:0:
148,52,78594,6,0,L|92:84,2,49,2|0|0,1:0|1:0|1:0,0:0:0:0:
296,52,78819,1,0,1:0:0:0:
148,52,78894,2,0,L|92:84,2,49,2|0|0,1:0|1:0|1:0,0:0:0:0:
296,52,79119,1,0,1:0:0:0:
148,52,79194,2,0,L|44:52,1,98,10|0,0:1|1:0,0:0:0:0:
196,60,79494,2,0,L|88:60,1,98,8|0,0:1|1:0,0:0:0:0:
400,60,79794,6,0,L|404:176,1,98,10|0,0:1|1:0,0:0:0:0:
256,160,80094,2,0,L|148:160,1,98,10|0,0:1|1:0,0:0:0:0:
432,156,80394,1,10,1:0:0:0:
455,197,80469,1,8,1:0:0:0:
442,243,80544,1,0,1:0:0:0:
399,264,80619,1,0,1:0:0:0:
228,268,80694,2,0,L|156:268,1,49,10|8,1:0|1:0,0:0:0:0:
268,268,80844,2,0,L|316:268,1,49,0|0,1:0|1:0,0:0:0:0:
144,268,80994,5,2,1:0:0:0:
116,227,81069,1,0,0:0:0:0:
120,179,81144,1,0,0:0:0:0:
154,144,81219,1,0,0:0:0:0:
204,140,81294,1,0,0:0:0:0:
244,168,81369,1,0,0:0:0:0:
257,215,81444,1,0,0:0:0:0:
236,259,81519,1,0,0:0:0:0:
64,268,81594,2,0,L|44:208,3,49,0|0|0|0,0:0|0:0|0:0|0:0,0:0:0:0:
220,204,81894,2,0,L|292:204,1,49,0|0,0:0|0:0,0:0:0:0:
269,204,82044,2,0,L|209:204,1,49,0|0,0:0|0:0,0:0:0:0:
28,212,82194,6,0,P|16:160|144:88,1,196,6|2,1:0|0:0,0:0:0:0:
212,88,82644,2,0,P|212:156|24:260,1,294,2|2,0:0|0:0,0:0:0:0:
312,316,83394,6,0,P|396:300|280:56,1,490,2|2,0:0|0:0,0:0:0:0:
184,64,84294,1,2,0:0:0:0:
332,72,84444,1,2,0:0:0:0:
28,92,84594,6,0,P|24:136|148:200,1,196,2|2,0:0|0:0,0:0:0:0:
288,200,85044,2,0,P|348:208|496:392,1,294,2|2,0:0|0:0,0:0:0:0:
220,360,85794,6,0,P|132:280|300:104,1,392,2|0,0:0|0:0,0:0:0:0:
460,244,86694,1,2,0:0:0:0:
88,264,86994,6,0,P|40:184|100:116,1,196,2|2,1:0|0:0,0:0:0:0:
196,140,87444,2,0,P|204:84|0:28,1,294,2|2,0:0|0:0,0:0:0:0:
304,120,88194,6,0,P|352:200|292:268,1,196,2|2,0:0|0:0,0:0:0:0:
196,244,88644,2,0,P|124:220|24:376,1,294,2|2,0:0|0:0,0:0:0:0:
296,352,89394,6,0,L|300:236,1,98,2|0,0:0|0:0,0:0:0:0:
152,252,89694,2,0,L|148:120,1,98,2|0,0:0|0:0,0:0:0:0:
296,156,89994,2,0,L|416:136,1,98,2|0,0:0|0:0,0:0:0:0:
244,132,90294,2,0,L|124:120,1,98,2|0,0:0|0:0,0:0:0:0:
292,144,90594,6,0,P|400:184|256:328,1,392,2|2,0:0|0:0,0:0:0:0:
224,328,91269,1,0,0:0:0:0:
204,284,91344,1,0,0:0:0:0:
224,240,91419,1,0,0:0:0:0:
396,108,91494,1,2,0:0:0:0:
460,108,91569,1,0,0:0:0:0:
396,108,91644,1,0,0:0:0:0:
332,108,91719,1,0,0:0:0:0:
136,316,91794,6,0,P|84:268|160:176,1,196,6|2,1:3|0:0,0:0:0:0:
288,168,92244,2,0,P|360:204|272:256,1,196,2|0,0:0|0:0,0:0:0:0:
152,264,92694,2,0,L|40:264,1,98,2|0,0:0|0:0,0:0:0:0:
200,264,92994,6,0,L|412:260,1,196,2|2,0:0|0:0,0:0:0:0:
248,264,93444,2,0,P|176:184|244:136,1,196,2|2,0:0|0:0,0:0:0:0:
372,140,93894,2,0,L|472:140,1,98,2|0,0:0|0:0,0:0:0:0:
176,148,94194,6,0,L|64:148,1,98,2|0,0:0|0:0,0:0:0:0:
176,152,94494,2,0,L|284:152,1,98,2|0,0:0|0:0,0:0:0:0:
128,152,94794,2,0,L|120:268,1,98,2|0,0:0|0:0,0:0:0:0:
396,252,95094,2,0,L|496:256,1,98,2|0,0:0|0:0,0:0:0:0:
200,248,95394,6,0,L|168:248,1,24.5,2|2,0:0|0:0,0:0:0:0:
200,248,95469,2,0,P|328:220|184:68,1,441,2|2,0:0|0:0,0:0:0:0:
316,60,96294,1,2,0:0:0:0:
189,66,96444,2,0,L|257:70,1,49,2|0,0:0|0:0,0:0:0:0:
432,68,96594,6,0,L|440:176,1,98,6|0,1:2|1:0,0:0:0:0:
332,180,96894,1,0,1:0:0:0:
56,176,97044,2,0,L|48:284,1,98,8|0,0:0|1:0,0:0:0:0:
156,288,97344,1,0,1:0:0:0:
428,308,97494,2,0,L|484:308,1,49,8|0,0:0|1:0,0:0:0:0:
428,308,97644,2,0,L|368:308,1,49,0|0,1:0|1:0,0:0:0:0:
188,320,97794,5,6,1:0:0:0:
316,320,97944,1,0,1:0:0:0:
188,320,98094,1,0,1:0:0:0:
464,320,98244,1,8,0:0:0:0:
336,320,98394,1,0,1:0:0:0:
464,320,98544,1,0,1:0:0:0:
188,316,98694,2,0,L|132:316,1,49,8|0,0:0|1:0,0:0:0:0:
312,312,98844,2,0,L|380:312,1,49,0|0,1:0|1:0,0:0:0:0:
168,312,98994,5,6,1:0:0:0:
121,302,99069,1,0,0:0:0:0:
104,259,99144,1,8,0:0:0:0:
131,220,99219,1,0,0:0:0:0:
304,312,99294,1,0,1:0:0:0:
368,312,99369,1,0,0:0:0:0:
304,312,99444,1,8,0:0:0:0:
240,312,99519,1,0,0:0:0:0:
412,316,99594,2,0,L|468:316,3,49,0|0|8|0,1:0|0:0|0:0|0:0,0:0:0:0:
292,312,99894,2,0,L|288:248,1,49,0|0,1:0|0:0,0:0:0:0:
460,244,100044,2,0,L|396:240,1,49,8|0,0:0|0:0,0:0:0:0:
228,232,100194,6,0,L|152:232,3,49,0|0|0|0,1:0|1:0|1:0|1:0,0:0:0:0:
348,224,100494,2,0,L|404:224,1,49,0|0,1:0|1:0,0:0:0:0:
224,228,100644,2,0,L|164:228,1,49,0|0,1:0|1:0,0:0:0:0:
348,220,100794,2,0,B|352:356|352:356|352:216|352:216|72:180,1,548.799983251954,8|8,0:2|1:3,0:0:0:0:
456,196,101394,5,6,1:0:0:0:
480,148,101469,1,0,1:0:0:0:
448,108,101544,1,0,1:0:0:0:
400,96,101619,1,0,1:0:0:0:
228,100,101694,1,0,1:0:0:0:
164,100,101769,1,0,1:0:0:0:
228,100,101844,1,0,1:0:0:0:
292,100,101919,1,0,1:0:0:0:
120,100,101994,2,0,L|64:100,3,49,0|0|0|0,1:0|1:0|1:0|1:0,0:0:0:0:
244,100,102294,2,0,L|304:100,1,49,2|0,1:0|1:0,0:0:0:0:
120,100,102444,2,0,L|64:100,1,49,2|0,1:0|1:0,0:0:0:0:
252,100,102594,5,2,1:0:0:0:
275,108,102631,1,0,1:0:0:0:
292,126,102669,1,0,1:0:0:0:
300,149,102706,1,0,1:0:0:0:
297,173,102744,1,0,1:0:0:0:
285,194,102781,1,0,1:0:0:0:
265,208,102819,1,0,1:0:0:0:
92,212,102894,1,10,1:0:0:0:
69,221,102931,1,0,1:0:0:0:
52,239,102969,1,0,1:0:0:0:
44,260,103006,1,0,1:0:0:0:
48,284,103044,1,0,1:0:0:0:
60,308,103081,1,0,1:0:0:0:
80,324,103119,1,0,1:0:0:0:
251,346,103194,5,10,1:0:0:0:
315,346,103269,1,0,1:0:0:0:
251,346,103344,1,8,1:0:0:0:
187,346,103419,1,0,1:0:0:0:
15,346,103494,1,10,1:0:0:0:
388,188,103794,6,0,P|456:240|368:296,1,196,6|10,1:2|0:0,0:0:0:0:
108,304,104244,2,0,L|224:304,2,98,2|0|0,0:0|1:0|0:0,0:0:0:0:
392,308,104694,2,0,L|496:308,1,98,10|0,0:0|0:0,0:0:0:0:
440,308,104919,1,0,0:0:0:0:
252,304,104994,6,0,L|180:304,1,49,2|0,1:2|0:0,0:0:0:0:
380,304,105144,2,0,L|428:304,1,49,0|0,0:0|0:0,0:0:0:0:
252,304,105294,2,0,L|192:304,1,49,10|0,0:0|0:0,0:0:0:0:
376,220,105444,1,2,0:0:0:0:
248,220,105594,1,0,1:0:0:0:
376,220,105744,1,2,0:0:0:0:
92,220,105894,1,10,0:0:0:0:
220,220,106044,1,0,0:0:0:0:
284,220,106119,1,0,0:0:0:0:
96,216,106194,6,0,L|96:320,1,98,2|0,1:2|0:0,0:0:0:0:
244,312,106419,1,0,0:0:0:0:
392,312,106494,2,0,L|392:192,1,98,10|0,0:0|0:0,0:0:0:0:
336,312,106719,1,0,0:0:0:0:
160,304,106794,2,0,L|156:184,1,98,2|0,1:2|0:0,0:0:0:0:
212,208,107019,1,0,0:0:0:0:
388,204,107094,2,0,L|392:316,1,98,10|0,0:0|0:0,0:0:0:0:
336,312,107319,1,0,0:0:0:0:
98,295,107394,5,2,1:2:0:0:
77,246,107469,1,0,0:0:0:0:
98,196,107544,1,0,0:0:0:0:
148,175,107619,1,0,0:0:0:0:
197,196,107694,1,8,0:0:0:0:
218,246,107769,1,0,0:0:0:0:
197,295,107844,1,0,0:0:0:0:
148,316,107919,1,0,0:0:0:0:
324,312,107994,2,0,L|324:248,1,49,2|0,1:2|0:0,0:0:0:0:
176,252,108144,1,2,0:0:0:0:
324,252,108219,1,0,1:0:0:0:
472,252,108294,2,0,L|408:252,1,49,10|0,0:0|0:0,0:0:0:0:
248,244,108444,2,0,L|192:244,1,49,2|0,1:2|0:0,0:0:0:0:
396,236,108594,6,0,P|456:172|376:92,1,196,2|10,1:2|0:0,0:0:0:0:
120,96,109044,2,0,L|20:96,1,98,2|0,0:0|1:0,0:0:0:0:
120,96,109344,1,0,0:0:0:0:
404,84,109494,2,0,L|408:192,1,98,10|0,0:0|0:0,0:0:0:0:
352,180,109719,1,0,0:0:0:0:
168,188,109794,6,0,L|248:184,1,49,2|0,1:2|0:0,0:0:0:0:
392,196,109944,2,0,L|336:196,1,49,0|0,0:0|0:0,0:0:0:0:
168,208,110094,2,0,L|168:260,1,49,10|0,0:0|0:0,0:0:0:0:
344,248,110244,2,0,L|448:248,2,98,2|0|0,0:0|1:0|0:0,0:0:0:0:
52,344,110694,2,0,L|136:344,1,49,10|0,0:0|0:0,0:0:0:0:
276,292,110844,2,0,L|340:292,1,49,2|0,1:2|0:0,0:0:0:0:
140,248,110994,6,0,L|36:248,1,98,10|2,1:2|1:2,0:0:0:0:
296,252,111294,2,0,L|180:252,1,98,10|2,0:0|1:2,0:0:0:0:
452,256,111594,2,0,L|288:256,1,147,10|0,0:0|0:0,0:0:0:0:
128,256,111894,1,10,0:0:0:0:
412,256,112044,2,0,L|344:256,1,49,0|0,1:0|1:0,0:0:0:0:
176,248,112194,6,0,L|108:248,3,49,2|0|0|0,1:2|1:0|1:0|1:0,0:0:0:0:
304,252,112494,2,0,L|356:252,1,49,0|0,1:0|1:0,0:0:0:0:
176,248,112644,2,0,L|112:248,1,49,0|0,1:0|1:0,0:0:0:0:
324,252,112794,2,0,L|436:252,1,98,14|0,1:2|0:0,0:0:0:0:
100,248,113094,2,0,L|96:364,1,98,14|0,1:2|0:0,0:0:0:0:
424,344,113394,6,0,P|476:280|408:200,1,196,6|10,1:2|0:0,0:0:0:0:
132,184,113844,2,0,L|248:184,2,98,2|0|0,0:0|1:0|0:0,0:0:0:0:
416,180,114294,2,0,L|420:56,1,98,10|0,0:0|0:0,0:0:0:0:
364,84,114519,1,0,0:0:0:0:
176,84,114594,6,0,L|240:84,1,49,2|0,1:2|0:0,0:0:0:0:
400,84,114744,2,0,L|332:84,1,49,0|0,0:0|0:0,0:0:0:0:
176,84,114894,2,0,L|252:84,1,49,10|0,0:0|0:0,0:0:0:0:
400,212,115044,1,2,0:0:0:0:
272,212,115194,1,2,1:2:0:0:
400,212,115344,1,2,0:0:0:0:
116,208,115494,2,0,L|12:208,1,98,10|0,0:0|0:0,0:0:0:0:
72,208,115719,1,0,0:0:0:0:
260,204,115794,6,0,L|380:200,1,98,10|0,1:2|0:0,0:0:0:0:
180,204,116019,2,0,L|72:204,1,98,10|0,1:2|0:0,0:0:0:0:
260,204,116244,2,0,L|320:204,1,49,10|0,1:2|0:0,0:0:0:0:
484,204,116394,2,0,L|364:204,1,98,10|0,1:2|0:0,0:0:0:0:
208,208,116619,2,0,L|336:208,1,98,10|0,1:2|0:0,0:0:0:0:
484,204,116844,2,0,L|416:204,1,49,10|0,1:2|0:0,0:0:0:0:
240,172,116994,6,0,L|184:172,1,49,6|0,1:2|0:0,0:0:0:0:
368,172,117144,2,0,L|432:172,1,49,0|0,0:0|0:0,0:0:0:0:
240,172,117294,2,0,L|180:172,1,49,8|0,0:0|0:0,0:0:0:0:
368,172,117444,2,0,L|436:172,1,49,0|0,0:0|0:0,0:0:0:0:
240,172,117594,2,0,L|132:172,1,98,2|0,1:2|0:0,0:0:0:0:
428,172,117894,2,0,L|428:60,1,98,10|0,0:0|0:0,0:0:0:0:
104,176,118194,6,0,L|308:176,1,196,6|0,1:2|0:0,0:0:0:0:
352,176,118569,1,0,0:0:0:0:
352,176,118644,1,0,0:0:0:0:
300,176,118719,1,0,0:0:0:0:
124,188,118794,2,0,L|124:248,1,49,0|0,0:0|0:0,0:0:0:0:
300,240,118944,2,0,L|372:240,1,49,0|0,0:0|0:0,0:0:0:0:
172,244,119094,2,0,L|64:244,1,98,10|2,0:0|1:2,0:0:0:0:
448,240,119394,6,0,L|240:240,1,196,6|0,1:2|0:0,0:0:0:0:
208,212,119769,1,0,0:0:0:0:
208,160,119844,1,0,0:0:0:0:
256,136,119919,1,0,0:0:0:0:
432,136,119994,2,0,L|352:136,1,49,0|0,0:0|0:0,0:0:0:0:
208,140,120144,2,0,L|208:84,1,49,0|0,0:0|0:0,0:0:0:0:
384,84,120294,2,0,L|492:80,1,98,10|2,0:0|1:2,0:0:0:0:
160,96,120594,6,0,L|56:96,1,98,6|8,1:2|0:0,0:0:0:0:
344,152,120894,2,0,L|448:152,1,98,0|8,1:0|0:0,0:0:0:0:
156,148,121194,2,0,L|92:148,1,49,2|0,1:2|1:0,0:0:0:0:
284,152,121344,2,0,L|344:152,1,49,0|0,1:0|1:0,0:0:0:0:
188,156,121494,1,0,1:0:0:0:
40,160,121569,1,0,1:0:0:0:
188,156,121644,1,0,1:0:0:0:
336,156,121719,1,0,1:0:0:0:
140,120,121794,6,0,P|96:212|304:316,1,392,2|0,1:2|1:0,0:0:0:0:
236,316,122469,1,0,1:0:0:0:
300,316,122544,1,0,1:0:0:0:
236,316,122619,1,0,1:0:0:0:
412,312,122694,1,0,1:0:0:0:
476,312,122769,1,0,1:0:0:0:
412,312,122844,1,0,1:0:0:0:
348,312,122919,1,0,1:0:0:0:
156,308,122994,6,0,P|108:264|176:156,1,196,6|2,1:0|0:0,0:0:0:0:
304,152,123444,2,0,P|368:112|296:48,1,196,2|0,0:0|0:0,0:0:0:0:
156,60,123894,2,0,L|32:60,1,98,2|0,0:0|0:0,0:0:0:0:
204,64,124194,6,0,L|320:64,1,98,2|0,0:0|0:0,0:0:0:0:
156,64,124494,2,0,L|156:172,1,98,2|2,0:0|0:0,0:0:0:0:
432,168,124794,2,0,L|192:168,1,196,8|0,1:3|0:0,0:0:0:0:
300,168,125169,1,0,0:0:0:0:
364,168,125244,1,0,0:0:0:0:
432,168,125319,1,0,0:0:0:0:
240,164,125394,6,0,L|132:164,1,98,10|10,1:0|1:0,0:0:0:0:
416,164,125694,2,0,L|288:164,1,98,2|10,1:0|1:0,0:0:0:0:
44,168,125994,1,2,1:0:0:0:
316,152,126144,2,0,L|92:156,1,196,10|2,1:0|1:0,0:0:0:0:
440,96,126594,5,6,1:0:0:0:
484,128,126669,1,0,0:0:0:0:
492,184,126744,1,0,0:0:0:0:
456,216,126819,1,0,0:0:0:0:
416,252,126894,1,8,0:1:0:0:
404,304,126969,1,0,0:0:0:0:
432,348,127044,1,0,0:0:0:0:
484,360,127119,1,0,0:0:0:0:
308,352,127194,1,2,1:0:0:0:
261,340,127269,1,0,0:0:0:0:
234,300,127344,1,0,0:0:0:0:
239,253,127419,1,0,0:0:0:0:
416,268,127494,1,10,0:1:0:0:
452,237,127569,1,0,0:0:0:0:
453,189,127644,1,0,0:0:0:0:
418,158,127719,1,0,0:0:0:0:
224,156,127794,5,6,1:0:0:0:
181,135,127869,1,0,1:0:0:0:
174,88,127944,1,0,1:0:0:0:
209,56,128019,1,0,1:0:0:0:
384,48,128094,2,0,L|304:48,1,49,2|0,1:0|1:0,0:0:0:0:
160,52,128244,2,0,L|108:52,1,49,0|0,1:0|1:0,0:0:0:0:
305,54,128394,1,6,1:0:0:0:
347,74,128469,1,0,1:0:0:0:
354,121,128544,1,0,1:0:0:0:
319,153,128619,1,0,1:0:0:0:
145,162,128694,2,0,L|225:162,1,49,0|0,1:0|1:0,0:0:0:0:
369,158,128844,2,0,L|421:158,1,49,0|0,1:0|1:0,0:0:0:0:
224,168,128994,5,6,1:0:0:0:
172,168,129069,1,0,1:0:0:0:
224,168,129144,1,0,1:0:0:0:
276,168,129219,1,0,1:0:0:0:
104,168,129294,2,0,L|44:168,1,49,0|0,1:0|1:0,0:0:0:0:
224,168,129444,2,0,L|280:168,1,49,0|0,1:0|1:0,0:0:0:0:
76,168,129594,1,6,1:0:0:0:
24,168,129669,1,0,1:0:0:0:
76,168,129744,1,0,1:0:0:0:
128,168,129819,1,0,1:0:0:0:
304,172,129894,2,0,L|304:112,1,49,0|0,1:0|1:0,0:0:0:0:
128,120,130044,2,0,L|80:120,1,49,0|0,1:0|1:0,0:0:0:0:
276,84,130194,6,0,L|404:84,1,98,6|2,1:0|1:0,0:0:0:0:
216,80,130494,2,0,L|152:80,3,49,0|0|0|0,1:0|1:0|1:0|1:0,0:0:0:0:
364,80,130794,2,0,L|484:80,1,98,6|2,1:0|1:0,0:0:0:0:
316,80,131094,2,0,L|260:80,3,49,0|0|0|0,1:0|1:0|1:0|1:0,0:0:0:0:
464,88,131394,5,6,1:0:0:0:
470,135,131469,1,0,1:0:0:0:
443,175,131544,1,0,1:0:0:0:
397,186,131619,1,0,1:0:0:0:
220,192,131694,1,8,1:0:0:0:
176,216,131769,1,0,1:0:0:0:
168,264,131844,1,0,1:0:0:0:
208,292,131919,1,0,1:0:0:0:
384,296,131994,5,8,1:0:0:0:
448,296,132069,1,0,1:0:0:0:
384,296,132144,1,0,1:0:0:0:
320,296,132219,1,0,1:0:0:0:
144,296,132294,1,8,1:0:0:0:
80,296,132369,1,0,1:0:0:0:
144,296,132444,1,0,1:0:0:0:
208,296,132519,1,0,1:0:0:0:
396,292,132594,6,0,L|396:228,1,49,2|0,1:0|1:0,0:0:0:0:
220,232,132744,2,0,L|220:176,1,49,0|0,1:0|1:0,0:0:0:0:
396,172,132894,2,0,L|452:172,1,49,0|0,1:0|1:0,0:0:0:0:
268,172,133044,2,0,L|212:172,1,49,0|0,1:0|1:0,0:0:0:0:
396,172,133194,6,0,L|312:172,1,49,0|0,1:0|1:0,0:0:0:0:
172,168,133344,2,0,L|232:168,1,49,0|0,1:0|1:0,0:0:0:0:
368,168,133494,1,0,1:0:0:0:
220,168,133569,1,0,1:0:0:0:
72,168,133644,1,0,1:0:0:0:
220,168,133719,1,0,1:0:0:0:
416,168,133794,5,6,1:0:0:0:
256,192,133944,12,0,137394,0:0:0:0:
