osu file format v14

[General]
AudioFilename: audio.mp3
AudioLeadIn: 0
PreviewTime: 45296
Countdown: 0
SampleSet: Drum
StackLeniency: 0.7
Mode: 2
LetterboxInBreaks: 0
WidescreenStoryboard: 0

[Editor]
DistanceSpacing: 3.2
BeatDivisor: 4
GridSize: 4
TimelineZoom: 1.7

[Metadata]
Title:DEATHDOOR (Instrumental Version)
TitleUnicode:DEATHDOOR (Instrumental Version)
Artist:Ardolf
ArtistUnicode:Ardolf
Creator:4rcheR-
Version:ENDLESS ABYSS
Source:Livid Lycanthrope
Tags:archer Electronic Video game Instrumental fa featured artist furry lycurgus vermithrax reaver demon friday night funkin' fnf mod edm & house werewolf wolf dnb d&b drum and bass drumstep vgm videogame
BeatmapID:4202686
BeatmapSetID:2018309

[Difficulty]
HPDrainRate:4
CircleSize:4.2
OverallDifficulty:9.6
ApproachRate:9.6
SliderMultiplier:2.08
SliderTickRate:2

[Events]
//Background and Video events
0,0,"deathdoor.jpg",0,0
//Break Periods
2,157380,166713
//Storyboard Layer 0 (Background)
//Storyboard Layer 1 (Fail)
//Storyboard Layer 2 (Pass)
//Storyboard Layer 3 (Foreground)
//Storyboard Layer 4 (Overlay)
//Storyboard Sound Samples

[TimingPoints]
47,333.333333333333,4,3,22,10,1,0
380,-100,4,3,22,20,0,0
713,-100,4,3,22,30,0,0
1046,-100,4,3,22,40,0,0
1380,-100,4,3,22,50,0,0
1713,-100,4,3,22,60,0,0
2046,-100,4,3,22,70,0,0
2380,-100,4,3,22,80,0,0
2713,-133.333333333333,4,3,22,50,0,0
13380,-133.333333333333,4,3,22,55,0,0
15046,-133.333333333333,4,3,4,55,0,0
15213,-133.333333333333,4,3,22,55,0,0
17713,-133.333333333333,4,3,4,55,0,0
17880,-133.333333333333,4,3,22,55,0,0
19046,-133.333333333333,4,3,4,55,0,0
19213,-133.333333333333,4,3,22,55,0,0
20380,-133.333333333333,4,3,4,55,0,0
20546,-133.333333333333,4,3,22,55,0,0
21713,-133.333333333333,4,3,4,55,0,0
21880,-133.333333333333,4,3,22,55,0,0
23380,-100,4,2,22,55,0,0
23713,-100,4,1,22,55,0,0
24046,-100,4,3,22,60,0,0
34713,-100,4,3,22,65,0,0
45380,-100,4,3,22,70,0,0
46213,-100,4,1,2,70,0,0
46296,-100,4,3,22,70,0,0
46713,-100,4,1,22,75,0,0
47713,-40,4,1,22,75,0,0
48046,-38.4615384615385,4,2,22,80,0,1
48213,-100,4,2,22,80,0,1
50713,-38.4615384615385,4,2,22,80,0,1
50880,-100,4,2,22,80,0,1
53380,-62.5,4,2,22,80,0,1
53546,-100,4,2,22,80,0,1
54713,-62.5,4,2,22,80,0,1
54880,-100,4,2,22,80,0,1
56046,-62.5,4,2,22,80,0,1
56213,-100,4,2,22,80,0,1
58380,-38.4615384615385,4,2,22,80,0,1
58546,-100,4,2,22,80,0,1
58713,-38.4615384615385,4,2,22,80,0,1
58880,-100,4,2,22,80,0,1
61380,-38.4615384615385,4,2,22,80,0,1
61546,-100,4,2,22,80,0,1
64046,-62.5,4,2,22,80,0,1
64213,-100,4,2,22,80,0,1
65380,-62.5,4,2,22,80,0,1
65546,-100,4,2,22,80,0,1
68046,-38.4615384615385,4,2,22,80,0,1
68213,-100,4,2,22,80,0,1
68380,-37.037037037037,4,2,22,80,0,1
68546,-100,4,2,22,80,0,1
68713,-35.7142857142857,4,2,22,80,0,1
68880,-100,4,2,22,80,0,1
69380,-100,4,2,22,80,0,1
89380,-38.4615384615385,4,1,22,70,0,0
89546,-38.4615384615385,4,1,2,70,0,0
90046,-38.4615384615385,4,1,2,60,0,0
90546,-38.4615384615385,4,1,22,60,0,0
90713,-100,4,3,21,50,0,0
109380,-100,4,2,22,55,0,0
110713,-100,4,1,22,60,0,0
111380,-100,4,1,22,65,0,0
112046,-100,4,2,22,70,0,0
122380,-40,4,2,22,70,0,0
122713,-100,4,2,22,70,0,0
132046,-33.3333333333333,4,2,22,75,0,0
132130,-100,4,2,22,75,0,0
132380,-31.25,4,2,22,75,0,0
132463,-100,4,2,22,75,0,0
132713,-29.4117647058824,4,2,22,75,0,0
132796,-100,4,2,22,75,0,0
133046,-27.7777777777778,4,2,22,75,0,0
133130,-100,4,2,22,75,0,0
133380,-100,4,1,22,75,0,0
133713,-100,4,2,22,80,0,1
137546,-100,4,3,22,80,0,1
137630,-100,4,2,22,80,0,1
142880,-100,4,3,22,80,0,1
142963,-100,4,2,22,80,0,1
144046,-100,4,2,22,80,0,0
144380,-38.4615384615385,4,2,22,80,0,1
144546,-100,4,2,22,80,0,1
148213,-100,4,3,22,80,0,1
148296,-100,4,2,22,80,0,1
154713,-100,4,1,22,70,0,0
154796,-100,4,1,3,70,0,0
154880,-100,4,3,22,70,0,0
155046,-100,4,1,3,65,0,0
155213,-100,4,3,22,65,0,0
155380,-100,4,1,3,60,0,0
155546,-100,4,3,22,60,0,0
155713,-100,4,1,3,55,0,0
155880,-100,4,3,22,55,0,0
156046,-100,4,1,22,50,0,0
156380,-100,4,1,22,45,0,0
156713,-100,4,1,22,40,0,0
157046,-100,4,1,22,35,0,0
157380,-100,4,1,22,30,0,0
168046,-100,4,3,22,40,0,0
176046,-100,4,3,22,45,0,0
177380,-200,4,3,22,45,0,0
178713,-133.333333333333,4,3,22,50,0,0
191046,-133.333333333333,4,3,4,50,0,0
191213,-133.333333333333,4,3,22,50,0,0
193713,-133.333333333333,4,3,4,50,0,0
193880,-133.333333333333,4,3,22,50,0,0
195046,-133.333333333333,4,3,4,50,0,0
195213,-133.333333333333,4,3,22,50,0,0
196380,-133.333333333333,4,3,4,50,0,0
196546,-133.333333333333,4,3,22,50,0,0
197713,-133.333333333333,4,3,4,50,0,0
197880,-133.333333333333,4,3,22,50,0,0
199380,-100,4,2,22,55,0,0
199713,-100,4,1,22,55,0,0
200046,-100,4,3,22,60,0,0
210713,-100,4,3,22,65,0,0
221380,-100,4,3,22,70,0,0
222713,-100,4,1,22,75,0,0
223713,-40,4,1,22,75,0,0
224046,-100,4,2,22,80,0,1
234380,-38.4615384615385,4,2,22,80,0,1
234546,-100,4,2,22,80,0,1
244046,-38.4615384615385,4,2,22,80,0,1
244213,-100,4,2,22,80,0,1
244380,-38.4615384615385,4,2,22,80,0,1
244546,-100,4,2,22,80,0,1
245046,-76.9230769230769,4,2,22,80,0,0
245213,-76.9230769230769,4,3,22,80,0,0
245296,-76.9230769230769,4,2,22,80,0,0
245380,-100,4,2,22,85,0,1
255713,-38.4615384615385,4,2,22,85,0,1
255880,-100,4,2,22,85,0,1
265380,-38.4615384615385,4,2,22,85,0,1
265546,-100,4,2,22,85,0,1
265713,-37.037037037037,4,2,22,85,0,1
265880,-100,4,2,22,85,0,1
266046,-35.7142857142857,4,2,22,85,0,1
266213,-100,4,2,22,80,0,1
266713,-100,4,2,22,80,0,1
286713,-38.4615384615385,4,1,22,70,0,0
286880,-38.4615384615385,4,1,2,70,0,0
287380,-38.4615384615385,4,1,2,65,0,0
288046,-100,4,1,22,60,0,0
288713,-100,4,1,22,65,0,0
289380,-100,4,1,22,70,0,0
290046,-100,4,1,22,75,0,0
290713,-100,4,3,22,5,0,0

[Colours]
Combo1 : 184,29,29
Combo2 : 106,106,106
Combo3 : 255,0,0
Combo4 : 166,166,166

[HitObjects]
256,192,213,12,0,2380,0:0:0:0:
292,304,2713,6,0,L|292:136,1,156.000005950928,6|2,0:0|0:0,0:0:0:0:
96,204,3380,2,0,L|92:40,1,156.000005950928,2|2,0:0|0:0,0:0:0:0:
292,64,4046,2,0,P|280:120|44:220,1,312.000011901856,2|2,0:0|0:0,0:0:0:0:
416,232,5380,6,0,L|108:316,1,312.000011901856,2|0,0:0|0:0,0:0:0:0:
316,328,6380,1,2,0:0:0:0:
112,336,6713,2,0,P|116:276|444:164,1,468.000017852784,2|0,0:0|0:0,0:0:0:0:
144,180,8046,6,0,P|92:136|144:84,1,156.000005950928,2|2,0:0|0:0,0:0:0:0:
344,60,8713,2,0,P|384:136|324:172,1,156.000005950928,2|2,0:0|0:0,0:0:0:0:
136,172,9380,2,0,L|292:160,3,156.000005950928,2|2|2|2,0:0|0:0|0:0|0:0,0:0:0:0:
88,176,10713,6,0,P|108:304|416:360,1,468.000017852784,2|2,0:0|0:0,0:0:0:0:
196,356,12046,2,0,P|76:304|156:160,1,312.000011901856,2|2,0:0|0:0,0:0:0:0:
336,152,13046,1,2,0:0:0:0:
40,148,13380,6,0,L|40:320,1,156.000005950928,2|2,1:3|1:2,0:0:0:0:
244,300,14046,2,0,L|72:300,1,156.000005950928,2|2,0:0|0:0,0:0:0:0:
288,300,14713,2,0,B|288:144|288:144|120:144,1,312.000011901856,2|2,1:3|0:0,0:0:0:0:
476,164,16046,6,0,L|476:4,1,156.000005950928,2|2,1:3|1:3,0:0:0:0:
276,32,16713,2,0,L|276:188,1,156.000005950928,2|2,0:0|0:0,0:0:0:0:
480,204,17380,2,0,B|480:360|480:360|320:360,1,312.000011901856,2|0,1:3|0:0,0:0:0:0:
120,348,18380,2,0,L|120:260,1,78.000002975464,2|2,0:0|0:0,0:0:0:0:
276,256,18713,6,0,B|432:256|432:256|432:96,1,312.000011901856,2|0,1:3|0:0,0:0:0:0:
248,76,20046,2,0,B|246:234|246:234|420:236,1,312.000011901856,2|2,1:3|0:0,0:0:0:0:
56,224,21380,6,0,B|56:68|56:68|376:68,1,468.000017852784,2|2,1:3|0:0,0:0:0:0:
268,68,22546,1,2,0:0:0:0:
168,68,22713,2,0,L|168:248,1,156.000005950928,2|0,1:3|1:0,0:0:0:0:
376,208,23380,2,0,L|440:208,1,52,0|0,0:0|0:0,0:0:0:0:
428,208,23546,2,0,L|368:208,1,52,0|0,0:0|0:0,0:0:0:0:
220,208,23713,2,0,L|168:208,1,52,0|0,0:0|0:0,0:0:0:0:
324,208,23880,2,0,L|392:208,1,52,0|0,0:0|0:0,0:0:0:0:
168,204,24046,6,0,P|96:188|184:136,1,208,6|2,1:0|0:0,0:0:0:0:
312,112,24546,1,2,0:0:0:0:
52,112,24713,2,0,L|52:224,1,104,8|0,0:0|0:0,0:0:0:0:
208,208,25046,2,0,L|88:208,1,104,0|0,0:0|0:0,0:0:0:0:
260,204,25380,6,0,L|384:204,1,104,2|0,1:0|0:0,0:0:0:0:
208,200,25713,2,0,L|88:200,1,104,2|2,0:0|1:0,0:0:0:0:
364,204,26046,2,0,L|492:204,1,104,8|0,0:0|0:0,0:0:0:0:
312,204,26380,2,0,L|448:204,1,104,2|0,1:0|0:0,0:0:0:0:
124,212,26713,6,0,P|40:144|176:32,1,312,2|0,1:0|0:0,0:0:0:0:
416,24,27380,1,8,0:0:0:0:
416,172,28046,6,0,P|472:240|316:352,1,312,0|0,1:0|1:0,0:0:0:0:
76,360,28713,2,0,L|216:360,1,104,8|2,0:0|1:0,0:0:0:0:
336,356,29046,1,2,2:0:0:0:
76,244,29213,1,2,1:0:0:0:
388,256,29380,6,0,P|448:200|380:116,1,208,6|2,1:0|0:0,0:0:0:0:
228,128,29880,1,2,0:0:0:0:
488,132,30046,2,0,L|488:264,1,104,10|0,0:0|0:0,0:0:0:0:
224,236,30380,2,0,L|84:236,1,104,2|0,0:0|0:0,0:0:0:0:
412,236,30713,6,0,L|412:120,1,104,2|0,1:0|0:0,0:0:0:0:
152,140,31046,2,0,L|40:140,1,104,2|0,0:0|1:0,0:0:0:0:
308,132,31380,2,0,L|416:132,1,104,10|0,0:0|0:0,0:0:0:0:
256,132,31713,2,0,L|128:132,1,104,2|0,0:0|0:0,0:0:0:0:
444,256,32046,6,0,P|488:184|384:0,1,312,2|0,1:0|0:0,0:0:0:0:
132,56,32713,1,8,0:0:0:0:
424,56,33046,2,0,L|308:56,1,104,2|2,0:0|0:0,0:0:0:0:
28,52,33380,6,0,L|348:52,1,312,2|0,1:0|1:0,0:0:0:0:
80,64,34046,2,0,L|208:64,1,104,8|2,0:0|1:0,0:0:0:0:
340,64,34380,1,2,2:0:0:0:
80,64,34546,1,2,1:0:0:0:
392,64,34713,5,6,1:0:0:0:
416,70,34755,1,0,0:0:0:0:
437,86,34796,1,0,0:0:0:0:
449,109,34838,1,0,0:0:0:0:
451,134,34880,1,0,0:0:0:0:
443,159,34921,1,0,0:0:0:0:
426,178,34963,1,0,0:0:0:0:
402,188,35005,1,0,0:0:0:0:
376,189,35046,1,2,0:0:0:0:
220,192,35213,1,2,0:0:0:0:
480,212,35380,2,0,L|356:212,1,104,8|0,0:0|0:0,0:0:0:0:
220,228,35713,2,0,L|344:228,1,104,2|0,0:0|0:0,0:0:0:0:
168,228,36046,6,0,L|44:228,1,104,2|0,1:0|0:0,0:0:0:0:
220,240,36380,2,0,L|108:240,1,104,2|0,0:0|1:0,0:0:0:0:
376,228,36713,2,0,L|500:228,1,104,10|0,0:0|0:0,0:0:0:0:
324,240,37046,2,0,L|436:240,1,104,2|0,1:0|0:0,0:0:0:0:
136,248,37380,6,0,P|92:204|168:104,1,208,2|0,1:0|0:0,0:0:0:0:
60,100,37880,1,0,0:0:0:0:
320,104,38046,2,0,L|320:224,1,104,8|0,0:0|0:0,0:0:0:0:
164,208,38380,2,0,L|52:208,1,104,0|0,0:0|0:0,0:0:0:0:
352,212,38713,6,0,P|424:268|372:356,1,208,0|0,1:0|0:0,0:0:0:0:
480,360,39213,1,0,1:0:0:0:
220,356,39380,2,0,L|220:236,1,104,8|2,0:0|1:0,0:0:0:0:
376,256,39713,1,2,2:0:0:0:
116,260,39880,1,2,1:0:0:0:
428,256,40046,6,0,L|204:256,1,208,6|2,1:0|0:0,0:0:0:0:
376,252,40546,1,2,0:0:0:0:
116,260,40713,2,0,L|116:136,1,104,8|0,0:0|0:0,0:0:0:0:
272,152,41046,2,0,L|156:152,1,104,2|0,0:0|0:0,0:0:0:0:
460,152,41380,6,0,L|460:268,1,104,2|0,1:0|0:0,0:0:0:0:
200,256,41713,2,0,L|316:256,1,104,2|0,0:0|1:0,0:0:0:0:
44,260,42046,2,0,L|44:128,1,104,10|0,0:0|0:0,0:0:0:0:
232,168,42380,2,0,L|352:168,1,104,2|0,0:0|0:0,0:0:0:0:
44,152,42713,6,0,L|276:152,1,208,2|0,1:0|0:0,0:0:0:0:
148,152,43213,1,0,0:0:0:0:
408,152,43380,2,0,L|280:152,1,104,8|0,0:0|0:0,0:0:0:0:
148,152,43713,1,2,1:0:0:0:
408,152,43880,1,2,0:0:0:0:
116,152,44046,6,0,L|8:152,1,104,10|0,1:3|0:0,0:0:0:0:
272,164,44380,2,0,L|160:164,1,104,10|0,1:3|0:0,0:0:0:0:
428,164,44713,2,0,P|472:132|408:52,1,156,10|10,1:3|1:3,0:0:0:0:
280,52,45046,1,10,1:3:0:0:
436,40,45213,1,10,1:3:0:0:
124,52,45380,5,6,1:0:0:0:
280,52,45546,1,2,0:0:0:0:
124,52,45713,1,10,1:3:0:0:
280,52,45880,1,2,0:0:0:0:
124,52,46046,2,0,P|84:104|136:176,1,156,10|10,1:3|1:3,0:0:0:0:
284,176,46380,1,10,1:3:0:0:
128,180,46546,1,10,1:3:0:0:
420,176,46713,5,10,1:3:0:0:
264,176,46880,1,10,1:3:0:0:
108,176,47046,1,10,1:3:0:0:
368,176,47213,1,10,1:3:0:0:
108,176,47380,2,0,L|192:176,1,52,10|8,1:3|1:3,0:0:0:0:
316,180,47546,2,0,L|248:180,1,52,10|8,1:3|1:3,0:0:0:0:
108,176,47713,2,0,L|392:176,1,260,10|2,0:2|0:0,0:0:0:0:
36,176,48046,6,0,L|328:176,1,270.399987622071,6|2,1:2|0:0,0:0:0:0:
364,176,48296,1,0,0:0:0:0:
196,184,48380,2,0,L|196:108,1,52,0|0,1:0|0:0,0:0:0:0:
360,132,48546,2,0,L|420:132,1,52,2|0,0:0|0:0,0:0:0:0:
244,128,48713,2,0,L|244:76,1,52,2|0,1:0|0:0,0:0:0:0:
324,76,48880,2,0,L|324:20,1,52,2|0,0:0|0:0,0:0:0:0:
160,12,49046,2,0,L|96:12,1,52,2|0,1:0|0:0,0:0:0:0:
264,8,49213,1,2,0:0:0:0:
420,8,49296,1,2,0:0:0:0:
220,52,49380,6,0,L|140:52,1,52,2|0,1:0|0:0,0:0:0:0:
168,52,49546,2,0,L|228:52,1,52,2|0,0:0|0:0,0:0:0:0:
388,56,49713,2,0,L|388:128,1,52,2|0,1:0|0:0,0:0:0:0:
312,120,49880,2,0,L|312:204,1,52,2|0,0:0|0:0,0:0:0:0:
472,172,50046,2,0,L|384:172,1,52,2|0,1:0|0:0,0:0:0:0:
252,180,50213,2,0,L|252:116,1,52,2|0,0:0|0:0,0:0:0:0:
420,128,50380,2,0,L|332:128,1,52,2|0,1:0|0:0,0:0:0:0:
200,128,50546,2,0,L|116:128,1,52,2|0,0:0|0:0,0:0:0:0:
356,128,50713,6,0,L|76:128,1,270.399987622071,2|2,1:0|0:0,0:0:0:0:
88,128,50963,1,0,0:0:0:0:
252,128,51046,2,0,L|320:128,1,52,2|0,1:0|0:0,0:0:0:0:
136,124,51213,2,0,L|204:124,1,52,2|0,0:0|0:0,0:0:0:0:
356,128,51380,2,0,L|356:192,1,52,2|0,1:0|0:0,0:0:0:0:
280,176,51546,2,0,L|280:256,1,52,2|0,0:0|0:0,0:0:0:0:
448,232,51713,2,0,L|376:232,1,52,2|0,1:0|0:0,0:0:0:0:
228,236,51880,2,0,L|168:236,1,52,2|0,0:0|0:0,0:0:0:0:
372,232,52046,6,0,L|372:160,1,52,2|0,1:0|0:0,0:0:0:0:
204,180,52213,2,0,L|140:180,1,52,2|0,0:0|0:0,0:0:0:0:
320,176,52380,2,0,L|320:112,1,52,2|0,1:0|0:0,0:0:0:0:
152,120,52546,2,0,L|80:120,1,52,2|0,0:0|0:0,0:0:0:0:
268,124,52713,1,2,1:0:0:0:
336,124,52796,1,0,0:0:0:0:
404,124,52880,1,0,0:0:0:0:
336,124,52963,1,0,0:0:0:0:
172,128,53046,1,0,1:0:0:0:
104,128,53130,1,0,0:0:0:0:
172,128,53213,1,0,0:0:0:0:
104,128,53296,1,0,0:0:0:0:
316,72,53380,6,0,B|400:72|400:72|308:72,1,166.4,2|2,1:0|0:0,0:0:0:0:
260,72,53630,1,0,0:0:0:0:
168,76,53713,2,0,L|240:76,1,52,2|0,1:0|0:0,0:0:0:0:
316,76,53880,2,0,L|244:76,1,52,2|0,0:0|0:0,0:0:0:0:
48,24,54046,2,0,L|136:24,1,52,2|0,1:0|0:0,0:0:0:0:
264,20,54213,2,0,L|344:20,1,52,2|0,0:0|0:0,0:0:0:0:
148,20,54380,2,0,L|148:88,1,52,2|0,1:0|0:0,0:0:0:0:
312,80,54546,2,0,L|312:144,1,52,2|0,0:0|0:0,0:0:0:0:
112,120,54713,6,0,B|28:120|28:120|120:120,1,166.4,2|2,1:0|0:0,0:0:0:0:
168,120,54963,1,0,0:0:0:0:
260,112,55046,2,0,L|188:112,1,52,2|0,1:0|0:0,0:0:0:0:
112,108,55213,2,0,L|184:108,1,52,2|0,0:0|0:0,0:0:0:0:
328,76,55380,2,0,L|328:8,1,52,2|0,1:0|0:0,0:0:0:0:
160,32,55546,2,0,L|80:32,1,52,2|0,0:0|0:0,0:0:0:0:
276,32,55713,2,0,L|276:100,1,52,2|0,1:0|0:0,0:0:0:0:
112,92,55880,2,0,L|112:156,1,52,2|0,0:0|0:0,0:0:0:0:
308,156,56046,6,0,L|140:156,1,166.4,2|2,1:0|0:0,0:0:0:0:
200,156,56296,1,0,0:0:0:0:
368,156,56380,2,0,L|308:156,1,52,2|0,1:0|0:0,0:0:0:0:
152,160,56546,2,0,L|152:212,1,52,2|0,0:0|0:0,0:0:0:0:
320,208,56713,2,0,L|244:208,1,52,2|0,1:0|0:0,0:0:0:0:
100,220,56880,2,0,L|100:292,1,52,2|0,0:0|0:0,0:0:0:0:
264,264,57046,2,0,L|344:264,1,52,2|0,1:0|0:0,0:0:0:0:
148,264,57213,2,0,L|80:264,1,52,2|0,0:0|0:0,0:0:0:0:
304,264,57380,6,0,L|380:264,1,52,2|0,1:0|0:0,0:0:0:0:
192,260,57546,2,0,L|192:184,1,52,2|2,0:0|0:0,0:0:0:0:
360,208,57713,2,0,L|292:208,1,52,2|0,1:0|0:0,0:0:0:0:
140,208,57880,2,0,L|72:208,1,52,2|2,0:0|0:0,0:0:0:0:
252,204,58046,2,0,L|252:140,1,52,2|0,1:0|0:0,0:0:0:0:
84,156,58213,2,0,L|12:156,1,52,2|0,1:0|1:0,0:0:0:0:
200,156,58380,2,0,L|488:156,1,270.399987622071,10|2,1:2|0:0,0:0:0:0:
136,156,58713,6,0,L|424:156,1,270.399987622071,6|2,1:0|0:0,0:0:0:0:
348,156,58963,1,0,0:0:0:0:
184,160,59046,2,0,L|240:160,1,52,10|0,0:0|0:0,0:0:0:0:
404,160,59213,2,0,L|404:224,1,52,2|0,0:0|0:0,0:0:0:0:
236,224,59380,2,0,L|236:280,1,52,2|0,1:0|0:0,0:0:0:0:
312,276,59546,2,0,L|312:348,1,52,2|0,0:0|0:0,0:0:0:0:
140,328,59713,2,0,L|140:256,1,52,10|0,0:0|0:0,0:0:0:0:
296,276,59880,1,2,0:0:0:0:
452,276,59963,1,2,0:0:0:0:
256,276,60046,6,0,L|256:200,1,52,2|0,1:0|0:0,0:0:0:0:
336,228,60213,2,0,L|336:160,1,52,2|0,0:0|0:0,0:0:0:0:
168,180,60380,1,10,0:0:0:0:
100,180,60463,1,0,0:0:0:0:
168,180,60546,1,2,0:0:0:0:
100,180,60630,1,0,0:0:0:0:
264,192,60713,2,0,L|264:260,1,52,2|0,1:0|0:0,0:0:0:0:
96,244,60880,2,0,L|96:312,1,52,2|0,0:0|0:0,0:0:0:0:
260,300,61046,2,0,L|316:300,1,52,10|0,0:0|0:0,0:0:0:0:
144,308,61213,2,0,L|224:308,1,52,2|0,0:0|0:0,0:0:0:0:
404,304,61380,6,0,L|112:304,1,270.399987622071,2|2,1:0|0:0,0:0:0:0:
192,304,61630,1,0,0:0:0:0:
356,300,61713,2,0,L|296:300,1,52,10|0,0:0|0:0,0:0:0:0:
136,308,61880,2,0,L|136:248,1,52,2|0,0:0|0:0,0:0:0:0:
300,248,62046,1,2,1:0:0:0:
368,248,62130,1,0,0:0:0:0:
300,248,62213,1,2,0:0:0:0:
232,248,62296,1,0,0:0:0:0:
400,244,62380,2,0,L|400:176,1,52,10|0,0:0|0:0,0:0:0:0:
236,192,62546,2,0,L|144:192,1,52,2|0,0:0|0:0,0:0:0:0:
384,192,62713,6,0,L|384:128,1,52,2|0,1:0|0:0,0:0:0:0:
216,144,62880,2,0,L|136:144,1,52,2|0,0:0|0:0,0:0:0:0:
328,136,63046,2,0,L|328:64,1,52,10|0,0:0|0:0,0:0:0:0:
160,80,63213,2,0,L|160:20,1,52,2|0,0:0|0:0,0:0:0:0:
328,40,63380,1,2,1:0:0:0:
396,44,63463,1,0,0:0:0:0:
328,40,63546,1,0,0:0:0:0:
260,40,63630,1,0,0:0:0:0:
96,36,63713,1,8,0:0:0:0:
28,36,63796,1,0,0:0:0:0:
96,36,63880,1,0,0:0:0:0:
28,36,63963,1,0,0:0:0:0:
236,40,64046,6,0,L|424:40,1,166.4,2|2,1:0|0:0,0:0:0:0:
472,40,64296,1,0,0:0:0:0:
376,40,64380,2,0,L|304:40,1,52,10|0,0:0|0:0,0:0:0:0:
416,40,64546,2,0,L|480:40,1,52,2|0,0:0|0:0,0:0:0:0:
300,44,64713,2,0,L|216:44,1,52,2|0,1:0|0:0,0:0:0:0:
80,60,64880,2,0,L|160:60,1,52,2|0,0:0|0:0,0:0:0:0:
296,68,65046,2,0,L|296:136,1,52,10|0,0:0|0:0,0:0:0:0:
128,120,65213,2,0,L|212:120,1,52,2|0,0:0|0:0,0:0:0:0:
380,124,65380,6,0,L|196:124,1,166.4,2|2,1:0|0:0,0:0:0:0:
144,124,65630,1,0,0:0:0:0:
236,124,65713,2,0,L|320:124,1,52,10|0,0:0|0:0,0:0:0:0:
192,124,65880,2,0,L|120:124,1,52,2|0,0:0|0:0,0:0:0:0:
304,124,66046,2,0,L|304:200,1,52,2|0,1:0|0:0,0:0:0:0:
136,192,66213,2,0,L|136:264,1,52,2|0,0:0|0:0,0:0:0:0:
304,244,66380,2,0,L|360:244,1,52,10|0,0:0|0:0,0:0:0:0:
192,240,66546,2,0,L|112:240,1,52,2|0,0:0|0:0,0:0:0:0:
348,228,66713,6,0,L|348:176,1,52,2|0,1:0|0:0,0:0:0:0:
268,176,66880,2,0,L|268:248,1,52,2|0,0:0|0:0,0:0:0:0:
432,224,67046,2,0,L|492:224,1,52,10|0,0:0|0:0,0:0:0:0:
336,228,67213,2,0,L|260:228,1,52,2|0,0:0|0:0,0:0:0:0:
116,236,67380,2,0,L|116:180,1,52,2|0,1:0|0:0,0:0:0:0:
280,180,67546,2,0,L|340:180,1,52,2|0,0:0|0:0,0:0:0:0:
164,188,67713,2,0,L|164:112,1,52,10|0,0:0|0:0,0:0:0:0:
332,132,67880,2,0,L|252:132,1,52,2|0,0:0|0:0,0:0:0:0:
72,136,68046,6,0,L|352:136,1,270.399987622071,10|2,1:2|0:0,0:0:0:0:
284,136,68296,1,2,0:0:0:0:
104,136,68380,2,0,L|392:136,1,280.800001071167,10|2,1:2|0:0,0:0:0:0:
328,136,68630,1,0,0:0:0:0:
140,136,68713,2,0,L|444:136,1,291.199991113282,10|2,1:2|1:0,0:0:0:0:
372,136,68963,1,0,1:0:0:0:
176,136,69046,1,10,1:2:0:0:
448,136,69213,1,2,0:0:0:0:
136,136,69380,6,0,L|96:136,6,26,6|0|0|0|0|0|0,1:0|0:0|0:0|0:0|0:0|0:0|0:0,0:0:0:0:
300,132,69713,2,0,L|432:132,1,104,8|2,0:0|0:0,0:0:0:0:
236,128,70046,2,0,L|132:128,1,104,0|2,1:0|0:0,0:0:0:0:
404,128,70380,2,0,P|408:200|380:224,1,104,10|0,0:0|0:0,0:0:0:0:
220,228,70630,6,0,P|200:184|244:128,1,104,0|0,0:0|0:0,0:0:0:0:
392,132,70880,1,2,0:0:0:0:
124,132,71046,2,0,L|256:132,1,104,8|2,0:0|0:0,0:0:0:0:
392,104,71380,2,0,L|496:104,1,104,0|2,1:0|0:0,0:0:0:0:
224,104,71713,2,0,L|120:104,1,104,8|2,0:0|0:0,0:0:0:0:
176,104,71963,1,0,0:0:0:0:
384,108,72046,6,0,L|424:108,6,26,8|0|0|0|0|0|0,1:0|0:0|0:0|0:0|0:0|0:0|0:0,0:0:0:0:
220,104,72380,2,0,L|88:104,1,104,8|2,0:0|0:0,0:0:0:0:
284,108,72713,2,0,L|404:108,1,104,0|2,1:0|0:0,0:0:0:0:
116,112,73046,2,0,P|92:172|136:212,1,104,10|0,0:0|0:0,0:0:0:0:
280,208,73296,6,0,P|300:164|272:112,1,104,0|0,0:0|0:0,0:0:0:0:
116,112,73546,1,2,0:0:0:0:
388,104,73713,2,0,L|388:224,1,104,8|0,0:0|0:0,0:0:0:0:
232,132,74046,1,2,1:0:0:0:
388,132,74213,1,2,0:0:0:0:
116,224,74380,2,0,L|232:224,1,104,10|2,0:0|0:0,0:0:0:0:
276,220,74630,1,0,0:0:0:0:
68,224,74713,5,10,1:0:0:0:
42,218,74754,1,0,0:0:0:0:
24,200,74796,1,0,0:0:0:0:
17,175,74838,1,0,0:0:0:0:
24,151,74879,1,0,0:0:0:0:
43,133,74921,1,0,0:0:0:0:
68,128,74963,1,0,0:0:0:0:
236,108,75046,2,0,L|356:116,1,104,8|2,0:0|0:0,0:0:0:0:
172,100,75380,2,0,L|68:92,1,104,0|2,1:0|0:0,0:0:0:0:
340,92,75713,2,0,L|452:84,1,104,10|0,0:0|0:0,0:0:0:0:
276,84,75963,6,0,L|148:68,1,104,0|0,0:0|0:0,0:0:0:0:
340,60,76213,1,2,0:0:0:0:
68,72,76380,2,0,L|68:204,1,104,8|2,0:0|0:0,0:0:0:0:
236,188,76713,2,0,L|92:188,1,104,0|2,1:0|0:0,0:0:0:0:
404,188,77046,2,0,L|404:320,1,104,8|2,0:0|0:0,0:0:0:0:
348,296,77296,1,0,0:0:0:0:
140,280,77380,5,10,1:0:0:0:
126,257,77421,1,0,0:0:0:0:
124,232,77463,1,0,0:0:0:0:
133,207,77505,1,0,0:0:0:0:
150,189,77546,1,2,0:0:0:0:
175,180,77588,1,0,0:0:0:0:
200,182,77630,1,0,0:0:0:0:
368,160,77713,2,0,L|472:136,1,104,10|2,0:0|0:0,0:0:0:0:
304,140,78046,2,0,L|408:116,1,104,2|2,1:0|0:0,0:0:0:0:
132,112,78380,1,10,0:0:0:0:
64,112,78463,1,0,0:0:0:0:
132,112,78546,1,2,0:0:0:0:
200,112,78630,1,2,0:0:0:0:
396,108,78713,5,2,1:0:0:0:
328,108,78796,1,2,0:0:0:0:
396,108,78880,1,2,0:0:0:0:
328,108,78963,1,2,0:0:0:0:
164,112,79046,2,0,L|88:112,1,52,10|2,0:0|0:0,0:0:0:0:
280,108,79213,2,0,L|208:108,1,52,2|2,0:0|0:0,0:0:0:0:
60,112,79380,1,2,1:0:0:0:
216,108,79463,1,2,0:0:0:0:
372,108,79546,1,2,0:0:0:0:
216,108,79630,1,2,0:0:0:0:
60,116,79713,2,0,P|24:168|72:252,1,156,10|0,0:0|0:0,0:0:0:0:
268,248,80046,5,8,1:0:0:0:
296,248,80088,1,0,0:0:0:0:
268,248,80130,1,0,0:0:0:0:
240,248,80171,1,0,0:0:0:0:
212,248,80213,1,0,0:0:0:0:
184,248,80255,1,0,0:0:0:0:
160,248,80296,1,0,0:0:0:0:
328,248,80380,2,0,L|444:248,2,104,8|2|0,0:0|1:0|0:0,0:0:0:0:
160,248,80880,1,2,1:0:0:0:
428,248,81046,1,10,0:0:0:0:
456,244,81088,2,0,L|456:164,1,78,0|0,0:0|0:0,0:0:0:0:
144,164,81380,5,10,1:0:0:0:
116,164,81421,1,0,0:0:0:0:
88,164,81463,1,0,0:0:0:0:
116,164,81505,1,0,0:0:0:0:
144,164,81546,1,0,0:0:0:0:
172,164,81588,1,0,0:0:0:0:
196,164,81630,1,0,0:0:0:0:
400,164,81713,2,0,L|404:52,1,104,8|2,0:0|1:0,0:0:0:0:
288,60,82046,5,0,0:0:0:0:
452,40,82213,1,2,1:0:0:0:
180,60,82380,2,0,L|112:60,1,52,10|0,0:0|0:0,0:0:0:0:
300,60,82546,2,0,L|240:60,1,52,10|0,0:0|0:0,0:0:0:0:
456,72,82713,5,10,1:0:0:0:
472,92,82754,1,0,0:0:0:0:
479,116,82796,1,0,0:0:0:0:
477,142,82838,1,0,0:0:0:0:
466,165,82879,1,0,0:0:0:0:
446,183,82921,1,0,0:0:0:0:
422,191,82963,1,0,0:0:0:0:
256,204,83046,2,0,L|148:196,2,104,8|2|0,0:0|1:0|0:0,0:0:0:0:
424,192,83546,1,2,1:0:0:0:
152,196,83713,1,8,0:0:0:0:
124,196,83755,2,0,L|32:196,1,78,0|0,0:0|0:0,0:0:0:0:
356,192,84046,5,10,1:0:0:0:
381,188,84087,1,0,0:0:0:0:
402,173,84129,1,0,0:0:0:0:
412,150,84171,1,0,0:0:0:0:
409,124,84212,1,0,0:0:0:0:
393,103,84254,1,0,0:0:0:0:
369,94,84296,1,0,0:0:0:0:
200,128,84380,2,0,L|72:120,1,104,8|2,0:0|1:0,0:0:0:0:
368,136,84713,6,0,L|384:72,1,52,2|2,0:0|0:0,0:0:0:0:
220,136,84880,2,0,L|216:80,1,52,2|2,1:0|0:0,0:0:0:0:
384,80,85046,2,0,L|452:80,1,52,10|0,0:0|0:0,0:0:0:0:
268,84,85213,2,0,L|328:84,1,52,10|0,0:0|0:0,0:0:0:0:
112,92,85380,5,10,1:0:0:0:
86,95,85421,1,0,0:0:0:0:
65,110,85463,1,0,0:0:0:0:
51,132,85505,1,0,0:0:0:0:
49,158,85546,1,0,0:0:0:0:
58,182,85588,1,0,0:0:0:0:
76,200,85630,1,0,0:0:0:0:
244,212,85713,2,0,L|360:212,2,104,8|2|2,0:0|1:0|0:0,0:0:0:0:
412,212,86130,6,0,L|472:212,1,52,0|2,0:0|1:0,0:0:0:0:
300,212,86296,2,0,L|232:212,1,52,0|10,0:0|0:0,0:0:0:0:
412,212,86463,2,0,L|472:212,1,52,0|2,0:0|0:0,0:0:0:0:
300,212,86630,1,0,0:0:0:0:
92,212,86713,5,8,1:0:0:0:
67,205,86754,1,0,0:0:0:0:
48,187,86796,1,0,0:0:0:0:
39,163,86838,1,0,0:0:0:0:
42,138,86879,1,0,0:0:0:0:
56,117,86921,1,0,0:0:0:0:
79,104,86963,1,0,0:0:0:0:
248,120,87046,2,0,L|352:116,2,104,8|2|0,0:0|1:0|0:0,0:0:0:0:
84,104,87546,1,2,1:0:0:0:
356,100,87713,2,0,L|428:100,1,52,10|0,0:0|0:0,0:0:0:0:
240,100,87880,2,0,L|304:100,1,52,10|0,0:0|0:0,0:0:0:0:
84,104,88046,5,10,1:0:0:0:
62,117,88087,1,0,0:0:0:0:
47,139,88129,1,0,0:0:0:0:
44,164,88171,1,0,0:0:0:0:
51,189,88212,1,2,0:0:0:0:
68,208,88254,1,0,0:0:0:0:
91,219,88296,1,0,0:0:0:0:
264,224,88380,2,0,L|264:116,1,104,10|2,0:0|1:0,0:0:0:0:
148,120,88713,5,2,0:0:0:0:
312,120,88796,2,0,L|376:120,1,52,0|2,3:0|1:0,0:0:0:0:
196,120,88963,2,0,L|136:120,1,52,0|10,3:0|0:0,0:0:0:0:
312,120,89130,2,0,L|376:120,1,52,0|2,3:0|0:0,0:0:0:0:
196,120,89296,1,0,3:0:0:0:
396,116,89380,6,0,B|404:384|404:384|292:136|292:136|440:356|440:356|248:160|248:160|488:296|488:296|228:224|228:224|500:224,1,1892.7999133545,2|2,1:0|3:0,0:0:0:0:
184,228,90713,6,0,P|124:172|184:72,1,208,2|2,1:3|0:0,0:0:0:0:
280,72,91213,1,0,1:0:0:0:
124,64,91380,2,0,P|132:140|256:192,1,208,10|2,0:0|0:0,0:0:0:0:
344,188,91880,1,0,1:0:0:0:
188,192,92046,6,0,L|432:192,1,208,2|0,1:3|0:0,0:0:0:0:
104,200,92713,2,0,P|40:264|116:336,1,208,10|0,0:0|1:0,0:0:0:0:
396,344,93380,6,0,P|456:312|368:236,1,208,2|2,1:3|0:0,0:0:0:0:
284,220,93880,1,2,1:3:0:0:
128,224,94046,1,10,0:0:0:0:
420,220,94380,2,0,L|296:220,1,104,2|2,1:3|0:0,0:0:0:0:
472,220,94713,6,0,P|484:160|352:120,1,208,2|0,1:3|1:0,0:0:0:0:
76,196,95380,1,8,0:0:0:0:
368,196,95713,2,0,L|480:196,1,104,2|2,1:3|0:0,0:0:0:0:
160,200,96046,6,0,L|376:200,1,208,2|2,1:3|0:0,0:0:0:0:
264,196,96546,1,0,1:0:0:0:
108,200,96713,2,0,L|320:200,1,208,10|2,0:0|0:0,0:0:0:0:
212,200,97213,1,2,0:0:0:0:
368,208,97380,6,0,L|372:100,1,104,2|0,1:3|0:0,0:0:0:0:
268,100,97713,2,0,L|264:232,1,104,2|0,0:0|0:0,0:0:0:0:
420,200,98046,2,0,L|192:200,1,208,10|2,0:0|1:3,0:0:0:0:
316,200,98546,1,2,0:0:0:0:
160,208,98713,6,0,L|28:208,1,104,2|0,1:3|0:0,0:0:0:0:
212,196,99046,2,0,L|84:196,1,104,2|0,0:0|1:0,0:0:0:0:
264,180,99380,2,0,L|268:64,1,104,10|0,0:0|0:0,0:0:0:0:
164,80,99713,2,0,L|48:72,1,104,2|10,1:3|0:0,0:0:0:0:
216,88,100046,6,0,P|288:144|204:188,1,208,2|0,1:3|1:0,0:0:0:0:
100,188,100546,1,0,0:0:0:0:
256,188,100713,2,0,L|144:188,1,104,10|0,0:0|0:0,0:0:0:0:
308,188,101046,2,0,L|436:188,1,104,2|0,1:3|0:0,0:0:0:0:
96,196,101380,6,0,P|28:164|116:96,1,208,2|2,1:3|1:3,0:0:0:0:
196,84,101880,1,0,1:0:0:0:
352,80,102046,2,0,L|136:80,1,208,10|2,0:0|0:0,0:0:0:0:
248,80,102546,1,2,0:0:0:0:
404,84,102713,6,0,P|400:160|276:204,1,208,2|0,1:3|1:0,0:0:0:0:
188,212,103213,1,0,0:0:0:0:
448,220,103380,2,0,P|484:180|432:48,1,208,10|0,0:0|1:0,0:0:0:0:
148,68,104046,5,2,1:3:0:0:
92,100,104213,1,2,0:0:0:0:
152,124,104380,1,2,1:3:0:0:
92,156,104491,1,2,0:0:0:0:
152,180,104602,1,2,0:0:0:0:
92,208,104713,1,10,0:0:0:0:
152,236,104824,1,2,0:0:0:0:
92,264,104935,1,2,0:0:0:0:
152,292,105046,2,0,L|48:292,1,104,2|2,1:3|0:0,0:0:0:0:
204,296,105380,6,0,P|288:296|328:192,1,208,2|0,1:3|1:0,0:0:0:0:
40,196,106046,2,0,L|252:196,1,208,8|2,0:0|1:3,0:0:0:0:
144,192,106546,1,2,0:0:0:0:
456,184,106713,6,0,L|224:184,1,208,2|0,1:3|1:0,0:0:0:0:
248,184,107213,1,2,1:3:0:0:
404,184,107380,2,0,P|456:156|392:52,1,208,8|2,0:0|0:0,0:0:0:0:
108,68,108046,6,0,L|328:56,1,208,2|0,1:3|1:0,0:0:0:0:
200,52,108546,1,2,0:0:0:0:
356,68,108713,2,0,P|360:152|248:196,1,208,10|2,0:0|1:3,0:0:0:0:
156,204,109213,1,0,0:0:0:0:
448,192,109380,5,2,1:0:0:0:
463,240,109463,1,0,0:0:0:0:
442,286,109546,1,0,0:0:0:0:
396,306,109630,1,0,0:0:0:0:
300,252,109713,2,0,L|316:328,3,52,0|0|0|0,0:0|0:0|0:0|0:0,0:0:0:0:
216,316,110046,2,0,L|232:392,3,52,0|0|0|0,0:0|0:0|0:0|0:0,0:0:0:0:
320,356,110380,1,2,0:0:0:0:
388,356,110463,1,0,0:0:0:0:
320,356,110546,1,2,0:0:0:0:
252,356,110630,1,0,0:0:0:0:
444,348,110713,6,0,L|444:252,1,52,2|0,0:0|0:0,0:0:0:0:
288,292,110880,2,0,L|216:292,1,52,0|0,0:0|0:0,0:0:0:0:
404,288,111046,2,0,L|460:288,1,52,0|0,0:0|0:0,0:0:0:0:
288,232,111213,2,0,L|216:232,1,52,0|0,0:0|0:0,0:0:0:0:
420,224,111380,2,0,L|328:224,1,52,0|0,0:0|0:0,0:0:0:0:
188,228,111546,2,0,L|100:228,1,52,0|0,0:0|0:0,0:0:0:0:
292,228,111713,1,8,0:3:0:0:
448,232,111796,1,0,0:0:0:0:
292,228,111880,1,0,0:0:0:0:
136,228,111963,1,0,0:0:0:0:
336,228,112046,5,6,1:0:0:0:
361,224,112088,1,0,0:0:0:0:
380,207,112130,1,0,0:0:0:0:
387,182,112171,1,0,0:0:0:0:
380,158,112213,1,0,0:0:0:0:
361,141,112255,1,0,0:0:0:0:
335,138,112296,1,0,0:0:0:0:
240,136,112380,2,0,L|236:68,1,52,2|0,1:0|0:0,0:0:0:0:
392,72,112546,2,0,L|324:72,1,52,2|0,0:0|0:0,0:0:0:0:
244,72,112713,6,0,L|244:8,1,52,2|0,1:0|0:0,0:0:0:0:
400,20,112880,2,0,L|328:20,1,52,2|0,0:0|0:0,0:0:0:0:
256,24,113046,2,0,L|256:88,1,52,2|0,1:0|0:0,0:0:0:0:
412,88,113213,2,0,L|468:88,1,52,2|0,0:0|0:0,0:0:0:0:
272,84,113380,5,2,1:0:0:0:
204,84,113463,1,2,0:0:0:0:
272,84,113546,1,2,0:0:0:0:
204,84,113630,1,2,0:0:0:0:
112,88,113713,2,0,L|112:156,1,52,2|0,1:0|0:0,0:0:0:0:
268,144,113880,2,0,L|336:144,1,52,2|0,0:0|0:0,0:0:0:0:
164,152,114046,6,0,L|164:224,1,52,2|0,1:0|0:0,0:0:0:0:
320,216,114213,2,0,L|320:152,1,52,2|0,0:0|0:0,0:0:0:0:
468,220,114380,1,2,1:0:0:0:
468,220,114463,1,0,0:0:0:0:
400,220,114546,1,2,0:0:0:0:
332,220,114630,1,0,0:0:0:0:
140,156,114713,5,6,1:2:0:0:
117,167,114755,1,0,0:0:0:0:
103,189,114796,1,0,0:0:0:0:
103,215,114838,1,0,0:0:0:0:
115,237,114880,1,0,0:0:0:0:
138,250,114921,1,0,0:0:0:0:
163,249,114963,1,0,0:0:0:0:
260,248,115046,2,0,L|264:316,1,52,2|0,1:0|0:0,0:0:0:0:
108,312,115213,2,0,L|176:312,1,52,2|0,0:0|0:0,0:0:0:0:
256,312,115380,6,0,L|256:376,1,52,2|0,1:0|0:0,0:0:0:0:
100,364,115546,2,0,L|172:364,1,52,2|0,0:0|0:0,0:0:0:0:
244,360,115713,2,0,L|244:296,1,52,2|0,1:0|0:0,0:0:0:0:
88,296,115880,2,0,L|32:296,1,52,2|0,0:0|0:0,0:0:0:0:
224,296,116046,5,2,1:0:0:0:
292,296,116130,1,2,0:0:0:0:
224,296,116213,1,2,0:0:0:0:
292,296,116296,1,2,0:0:0:0:
392,296,116380,2,0,L|392:220,1,52,2|0,1:0|0:0,0:0:0:0:
236,244,116546,2,0,L|316:244,1,52,2|0,0:0|0:0,0:0:0:0:
380,232,116713,6,0,L|380:156,1,52,2|0,1:0|0:0,0:0:0:0:
224,184,116880,2,0,L|304:184,1,52,2|0,0:0|0:0,0:0:0:0:
368,184,117046,2,0,L|312:184,1,52,2|0,1:0|0:0,0:0:0:0:
160,188,117213,2,0,L|80:188,1,52,2|0,0:0|0:0,0:0:0:0:
312,192,117380,5,6,1:2:0:0:
336,185,117421,1,0,0:0:0:0:
354,167,117463,1,0,0:0:0:0:
360,140,117505,1,0,0:0:0:0:
352,116,117546,1,0,0:0:0:0:
332,100,117588,1,0,0:0:0:0:
304,96,117630,1,0,0:0:0:0:
211,89,117713,2,0,L|275:89,1,52,2|0,1:0|0:0,0:0:0:0:
419,97,117880,2,0,L|343:97,1,52,2|0,0:0|0:0,0:0:0:0:
275,97,118046,6,0,L|203:97,1,52,2|0,1:0|0:0,0:0:0:0:
379,101,118213,2,0,L|303:101,1,52,2|0,0:0|0:0,0:0:0:0:
231,101,118380,2,0,L|303:101,1,52,2|0,1:0|0:0,0:0:0:0:
439,101,118546,2,0,L|371:101,1,52,2|0,0:0|0:0,0:0:0:0:
195,97,118713,5,2,1:0:0:0:
263,97,118796,1,2,0:0:0:0:
331,97,118880,1,2,0:0:0:0:
263,97,118963,1,2,0:0:0:0:
171,97,119046,2,0,L|171:161,1,52,2|0,1:0|0:0,0:0:0:0:
327,145,119213,2,0,L|259:145,1,52,2|0,0:0|0:0,0:0:0:0:
119,145,119380,6,0,L|51:145,1,52,2|0,1:0|0:0,0:0:0:0:
223,149,119546,2,0,L|223:217,1,52,2|0,0:0|0:0,0:0:0:0:
379,201,119713,2,0,L|451:201,1,52,2|0,1:0|0:0,0:0:0:0:
275,201,119880,2,0,L|207:201,1,52,2|0,0:0|0:0,0:0:0:0:
415,201,120046,6,0,L|415:277,1,52,2|0,1:0|0:0,0:0:0:0:
259,253,120213,2,0,L|191:253,1,52,2|0,0:0|0:0,0:0:0:0:
51,253,120380,2,0,L|51:193,1,52,2|0,1:0|0:0,0:0:0:0:
207,205,120546,2,0,L|147:205,1,52,2|2,0:0|0:0,0:0:0:0:
311,205,120713,6,0,L|371:205,1,52,2|0,1:0|0:0,0:0:0:0:
207,205,120880,2,0,L|207:137,1,52,2|0,0:0|0:0,0:0:0:0:
363,141,121046,2,0,L|295:141,1,52,2|0,1:0|0:0,0:0:0:0:
143,141,121213,2,0,L|67:141,1,52,2|0,0:0|0:0,0:0:0:0:
283,133,121380,6,0,L|283:57,1,52,2|0,1:0|0:0,0:0:0:0:
127,89,121546,2,0,L|127:161,1,52,2|0,0:0|0:0,0:0:0:0:
283,153,121713,2,0,L|227:153,1,52,2|0,1:0|0:0,0:0:0:0:
75,157,121880,2,0,L|147:153,1,52,2|0,0:0|0:0,0:0:0:0:
283,157,122046,6,0,L|283:217,1,52,2|0,1:0|0:0,0:0:0:0:
203,209,122213,2,0,L|203:273,1,52,2|0,0:0|0:0,0:0:0:0:
407,261,122380,2,0,L|127:261,1,260,10|2,1:2|0:0,0:0:0:0:
471,261,122713,5,6,1:0:0:0:
483,237,122755,1,0,0:0:0:0:
487,212,122796,1,0,0:0:0:0:
483,185,122838,1,0,0:0:0:0:
470,164,122880,1,0,0:0:0:0:
447,149,122921,1,0,0:0:0:0:
426,138,122963,1,0,0:0:0:0:
267,129,123046,1,10,0:0:0:0:
423,133,123130,2,0,L|487:133,2,52,2|2|2,0:0|0:0|0:0,0:0:0:0:
327,133,123380,5,2,1:0:0:0:
171,133,123463,2,0,L|107:133,2,52,2|2|2,0:0|0:0|0:0,0:0:0:0:
327,129,123713,1,10,0:0:0:0:
171,133,123796,2,0,L|107:133,2,52,2|2|2,0:0|0:0|0:0,0:0:0:0:
363,129,124046,5,2,1:0:0:0:
431,129,124130,1,2,0:0:0:0:
363,129,124213,1,2,0:0:0:0:
431,129,124296,1,2,0:0:0:0:
275,129,124380,2,0,L|211:129,1,52,10|0,0:0|0:0,0:0:0:0:
379,129,124546,2,0,L|303:129,1,52,2|0,0:0|0:0,0:0:0:0:
171,133,124713,6,0,L|111:133,1,52,2|0,1:0|0:0,0:0:0:0:
275,137,124880,2,0,L|343:137,1,52,2|0,0:0|0:0,0:0:0:0:
171,137,125046,2,0,L|171:197,1,52,10|0,0:0|0:0,0:0:0:0:
251,193,125213,2,0,L|251:257,1,52,2|0,0:0|0:0,0:0:0:0:
55,261,125380,5,6,1:2:0:0:
43,237,125421,1,0,0:0:0:0:
39,212,125463,1,0,0:0:0:0:
47,185,125505,1,0,0:0:0:0:
56,164,125546,1,0,0:0:0:0:
75,149,125588,1,0,0:0:0:0:
100,138,125630,1,0,0:0:0:0:
259,129,125713,1,10,0:0:0:0:
103,133,125796,2,0,L|39:133,2,52,2|2|2,0:0|0:0|0:0,0:0:0:0:
199,133,126046,5,2,1:0:0:0:
355,133,126130,2,0,L|419:133,2,52,2|2|2,0:0|0:0|0:0,0:0:0:0:
199,129,126380,1,10,0:0:0:0:
355,133,126463,2,0,L|419:133,2,52,2|2|2,0:0|0:0|0:0,0:0:0:0:
163,129,126713,5,2,1:0:0:0:
95,129,126796,1,2,0:0:0:0:
163,129,126880,1,2,0:0:0:0:
95,129,126963,1,2,0:0:0:0:
251,129,127046,2,0,L|315:129,1,52,10|0,0:0|0:0,0:0:0:0:
147,129,127213,2,0,L|223:129,1,52,2|0,0:0|0:0,0:0:0:0:
355,133,127380,6,0,L|415:133,1,52,2|0,1:0|0:0,0:0:0:0:
251,137,127546,2,0,L|183:137,1,52,2|0,0:0|0:0,0:0:0:0:
355,137,127713,2,0,L|355:197,1,52,2|0,0:0|0:0,0:0:0:0:
199,201,127880,2,0,L|131:201,1,52,2|0,0:0|0:0,0:0:0:0:
347,205,128046,5,6,1:2:0:0:
371,212,128088,1,0,0:0:0:0:
389,230,128130,1,0,0:0:0:0:
397,254,128171,1,0,0:0:0:0:
392,280,128213,1,0,0:0:0:0:
376,300,128255,1,0,0:0:0:0:
352,310,128296,1,0,0:0:0:0:
195,309,128380,1,10,0:0:0:0:
351,309,128463,2,0,L|408:308,2,52,2|2|2,0:0|0:0|0:0,0:0:0:0:
271,309,128713,5,2,1:0:0:0:
115,309,128796,2,0,L|56:308,2,52,2|2|2,0:0|0:0|0:0,0:0:0:0:
271,309,129046,1,10,0:0:0:0:
427,309,129130,2,0,L|480:308,2,52,2|2|2,0:0|0:0|0:0,0:0:0:0:
243,257,129380,5,2,1:0:0:0:
175,257,129463,1,2,0:0:0:0:
243,257,129546,1,2,0:0:0:0:
175,257,129630,1,2,0:0:0:0:
331,257,129713,2,0,L|395:257,1,52,10|0,0:0|0:0,0:0:0:0:
227,257,129880,2,0,L|303:257,1,52,2|0,0:0|0:0,0:0:0:0:
435,257,130046,6,0,L|371:257,1,52,2|0,1:0|0:0,0:0:0:0:
227,257,130213,2,0,L|159:257,1,52,2|0,0:0|0:0,0:0:0:0:
331,257,130380,2,0,L|387:257,1,52,2|0,0:0|0:0,0:0:0:0:
291,257,130546,2,0,L|219:257,1,52,2|0,0:0|0:0,0:0:0:0:
431,257,130713,6,0,L|431:193,1,52,6|0,1:2|0:0,0:0:0:0:
275,205,130880,2,0,L|207:205,1,52,2|0,0:0|0:0,0:0:0:0:
379,197,131046,2,0,L|379:137,1,52,10|0,0:0|0:0,0:0:0:0:
223,149,131213,2,0,L|163:149,1,52,2|0,0:0|0:0,0:0:0:0:
327,145,131380,6,0,L|267:145,1,52,2|0,1:0|0:0,0:0:0:0:
119,145,131546,2,0,L|59:145,1,52,2|0,0:0|0:0,0:0:0:0:
223,145,131713,2,0,L|283:145,1,52,10|0,0:0|0:0,0:0:0:0:
119,149,131880,2,0,L|43:149,1,52,2|0,0:0|0:0,0:0:0:0:
271,145,132046,6,0,L|439:145,1,156.000005950928,10|0,1:2|0:0,0:0:0:0:
464,107,132213,1,0,0:0:0:0:
427,70,132296,1,0,0:0:0:0:
223,65,132380,2,0,L|403:65,1,166.4,10|0,1:2|0:0,0:0:0:0:
426,101,132546,1,0,0:0:0:0:
388,138,132630,1,0,0:0:0:0:
187,137,132713,6,0,L|371:137,1,176.800003372192,10|0,1:2|0:0,0:0:0:0:
400,173,132880,1,0,0:0:0:0:
362,210,132963,1,0,0:0:0:0:
159,209,133046,2,0,L|351:209,1,187.19999428711,10|0,1:2|0:0,0:0:0:0:
382,245,133213,1,0,0:0:0:0:
344,282,133296,1,0,0:0:0:0:
143,281,133380,6,0,L|163:281,1,13,10|0,0:0|2:0,0:0:0:0:
299,281,133463,2,0,L|311:281,1,13,10|0,0:0|2:0,0:0:0:0:
455,281,133546,2,0,L|435:281,1,13,10|0,0:0|2:0,0:0:0:0:
299,281,133630,2,0,L|275:281,1,13,10|0,0:0|2:0,0:0:0:0:
91,281,133713,2,0,L|223:281,1,104,6|2,1:0|0:0,0:0:0:0:
363,277,134046,2,0,L|471:277,1,104,10|2,1:0|0:0,0:0:0:0:
195,273,134380,1,10,1:2:0:0:
211,273,134401,1,0,0:0:0:0:
495,277,134546,1,2,0:0:0:0:
191,269,134713,6,0,L|80:268,1,104,10|2,1:0|0:0,0:0:0:0:
360,272,135046,1,10,1:2:0:0:
376,272,135067,1,0,0:0:0:0:
496,272,135213,1,2,0:0:0:0:
224,172,135380,2,0,L|112:172,1,104,10|2,1:0|0:0,0:0:0:0:
392,172,135713,1,10,1:2:0:0:
408,172,135734,1,0,0:0:0:0:
120,176,135880,1,2,0:0:0:0:
452,172,136046,5,10,1:0:0:0:
316,172,136213,1,2,0:0:0:0:
49,163,136380,1,10,1:2:0:0:
65,163,136401,1,0,0:0:0:0:
185,167,136546,1,2,0:0:0:0:
457,167,136713,1,10,1:0:0:0:
185,159,136880,1,2,0:0:0:0:
453,151,137046,1,10,1:2:0:0:
437,151,137067,1,0,0:0:0:0:
181,155,137213,1,2,0:0:0:0:
485,151,137380,6,0,P|497:235|401:287,1,208,10|10,1:0|1:2,0:0:0:0:
233,283,137796,1,2,0:0:0:0:
301,283,137880,1,2,0:0:0:0:
233,283,137963,1,2,0:0:0:0:
397,283,138046,2,0,L|508:284,1,104,10|0,1:0|0:0,0:0:0:0:
229,279,138380,2,0,L|229:215,1,52,10|0,1:2|0:0,0:0:0:0:
393,231,138546,2,0,L|473:231,1,52,2|2,0:0|0:0,0:0:0:0:
237,235,138713,6,0,L|129:235,1,104,10|2,1:0|0:0,0:0:0:0:
405,235,139046,1,10,1:2:0:0:
421,235,139067,2,0,L|421:139,1,91,0|2,0:0|0:0,0:0:0:0:
253,139,139380,1,10,1:0:0:0:
389,139,139546,1,2,0:0:0:0:
117,139,139713,1,10,1:2:0:0:
101,139,139734,1,0,0:0:0:0:
389,139,139880,1,2,0:0:0:0:
88,140,140046,6,0,L|88:36,1,104,10|2,1:0|0:0,0:0:0:0:
360,36,140380,1,10,1:2:0:0:
344,36,140401,1,0,0:0:0:0:
224,40,140546,1,2,0:0:0:0:
392,36,140713,2,0,L|496:36,1,104,10|2,1:0|0:0,0:0:0:0:
224,36,141046,1,10,1:2:0:0:
240,36,141067,1,0,0:0:0:0:
496,40,141213,1,2,0:0:0:0:
164,40,141380,5,10,1:0:0:0:
300,40,141546,1,2,0:0:0:0:
28,40,141713,1,10,1:2:0:0:
44,40,141734,1,0,0:0:0:0:
164,40,141880,1,2,0:0:0:0:
432,40,142046,1,10,1:0:0:0:
160,40,142213,1,2,0:0:0:0:
432,40,142380,1,10,1:2:0:0:
416,40,142401,1,0,0:0:0:0:
164,44,142546,1,2,0:0:0:0:
468,40,142713,6,0,P|496:120|408:200,1,208,10|10,1:0|1:2,0:0:0:0:
248,176,143130,1,2,0:0:0:0:
92,176,143213,1,2,0:0:0:0:
248,176,143296,1,2,0:0:0:0:
404,180,143380,2,0,L|404:68,1,104,10|0,1:0|0:0,0:0:0:0:
132,76,143713,1,10,1:2:0:0:
148,76,143734,1,0,0:0:0:0:
404,72,143880,1,2,0:0:0:0:
104,76,144046,5,10,1:0:0:0:
120,76,144067,1,0,0:0:0:0:
260,76,144130,1,10,1:0:0:0:
276,76,144151,1,0,0:0:0:0:
416,76,144213,1,10,1:0:0:0:
404,76,144234,1,0,0:0:0:0:
260,76,144296,1,10,1:0:0:0:
244,76,144317,1,0,0:0:0:0:
52,76,144380,2,0,L|344:76,1,270.399987622071,6|2,1:0|0:0,0:0:0:0:
164,76,144713,2,0,L|52:76,1,104,10|2,1:0|0:0,0:0:0:0:
330,76,145046,1,10,1:2:0:0:
344,76,145067,1,0,0:0:0:0:
464,76,145213,1,2,0:0:0:0:
160,68,145380,5,10,1:0:0:0:
296,68,145546,1,2,0:0:0:0:
24,72,145713,1,10,1:2:0:0:
40,72,145734,2,0,L|136:72,1,91,0|2,0:0|0:0,0:0:0:0:
296,72,146046,2,0,L|400:72,1,104,10|0,1:0|0:0,0:0:0:0:
128,72,146380,1,10,1:2:0:0:
112,72,146401,2,0,L|112:168,1,91,0|2,0:0|0:0,0:0:0:0:
444,168,146713,6,0,L|336:168,1,104,10|2,1:0|0:0,0:0:0:0:
68,172,147046,1,10,1:2:0:0:
52,172,147067,2,0,L|152:172,1,91,0|2,0:0|0:0,0:0:0:0:
312,172,147380,1,10,1:0:0:0:
176,176,147546,1,2,0:0:0:0:
448,176,147713,1,10,1:2:0:0:
432,176,147734,1,0,0:0:0:0:
176,176,147880,1,2,0:0:0:0:
476,176,148046,6,0,P|456:120|332:52,1,208,10|10,1:0|1:2,0:0:0:0:
164,68,148463,2,0,L|96:68,2,52,2|2|2,0:0|0:0|0:0,0:0:0:0:
332,68,148713,2,0,L|456:68,1,104,10|0,1:0|0:0,0:0:0:0:
164,68,149046,1,10,1:2:0:0:
180,68,149067,1,0,0:0:0:0:
436,68,149213,1,2,0:0:0:0:
104,72,149380,5,10,1:0:0:0:
372,72,149546,1,2,0:0:0:0:
104,72,149713,1,10,1:2:0:0:
88,72,149734,1,0,0:0:0:0:
340,72,149880,1,2,0:0:0:0:
204,76,150046,1,10,1:0:0:0:
68,76,150213,1,2,0:0:0:0:
340,72,150380,1,10,1:2:0:0:
356,72,150401,1,0,0:0:0:0:
476,72,150546,1,2,0:0:0:0:
172,76,150713,5,10,1:0:0:0:
308,76,150880,1,2,0:0:0:0:
40,80,151046,1,10,1:2:0:0:
56,80,151067,2,0,L|152:80,1,91,0|2,0:0|0:0,0:0:0:0:
316,88,151380,2,0,L|204:88,1,104,10|0,1:0|0:0,0:0:0:0:
484,84,151713,1,10,1:2:0:0:
468,84,151734,1,0,0:0:0:0:
348,84,151880,1,2,0:0:0:0:
16,80,152046,5,10,1:0:0:0:
152,80,152213,1,2,1:0:0:0:
424,80,152380,1,10,1:2:0:0:
440,80,152401,1,0,0:0:0:0:
320,80,152546,1,2,1:0:0:0:
48,80,152713,1,10,1:0:0:0:
152,80,152880,1,2,1:0:0:0:
424,80,153046,1,10,1:2:0:0:
440,80,153067,1,0,0:0:0:0:
320,80,153213,1,2,1:0:0:0:
16,80,153380,6,0,L|88:80,1,52,10|0,1:2|2:0,0:0:0:0:
232,76,153546,2,0,L|292:76,1,52,0|0,2:0|2:0,0:0:0:0:
116,80,153713,2,0,L|192:80,1,52,8|0,1:2|2:0,0:0:0:0:
336,76,153880,2,0,L|392:76,1,52,0|0,2:0|2:0,0:0:0:0:
212,72,154046,2,0,L|148:72,1,52,10|0,1:2|1:0,0:0:0:0:
340,68,154213,2,0,L|420:68,1,52,0|0,1:0|1:0,0:0:0:0:
192,68,154380,1,8,2:2:0:0:
176,68,154401,1,0,2:0:0:0:
36,72,154463,1,0,2:0:0:0:
52,72,154484,1,0,2:0:0:0:
192,68,154546,1,0,2:0:0:0:
208,68,154567,1,0,2:0:0:0:
348,68,154630,1,0,2:0:0:0:
332,68,154651,1,0,2:0:0:0:
148,20,154713,6,0,B|48:20|48:20|156:20|156:20|256:40|256:40|156:72|156:72|68:132|68:132|156:184|156:184|224:264|224:264|156:368,1,832,6|2,1:0|3:0,0:0:0:0:
368,312,168046,6,0,P|444:296|476:172,2,208,2|0|0,0:0|0:0|0:0,0:0:0:0:
76,292,169046,1,2,0:0:0:0:
368,300,169380,1,2,0:0:0:0:
76,300,169713,2,0,P|32:248|132:168,1,208,2|0,0:0|0:0,0:0:0:0:
300,168,170380,2,0,L|348:120,2,52,2|2|2,0:0|0:0|0:0,0:0:0:0:
208,176,170630,5,2,0:0:0:0:
416,176,171046,2,0,P|452:244|388:356,1,208,0|0,0:0|0:0,0:0:0:0:
104,328,171713,1,2,0:0:0:0:
396,340,172046,2,0,P|304:320|236:212,1,208,2|0,0:0|0:0,0:0:0:0:
428,224,172713,2,0,P|464:176|408:52,1,208,0|0,0:0|0:0,0:0:0:0:
120,40,173380,5,2,0:0:0:0:
288,40,173713,1,0,0:0:0:0:
456,44,174046,1,0,0:0:0:0:
164,40,174380,1,2,0:0:0:0:
456,40,174713,5,2,0:0:0:0:
164,40,175046,2,0,P|256:48|448:168,1,312,2|2,0:0|0:0,0:0:0:0:
128,244,176046,5,2,0:0:0:0:
60,244,176130,1,0,0:0:0:0:
128,244,176213,1,0,0:0:0:0:
196,244,176296,1,0,0:0:0:0:
128,244,176380,1,0,0:0:0:0:
60,244,176463,1,0,0:0:0:0:
128,244,176546,1,0,0:0:0:0:
196,244,176630,1,0,0:0:0:0:
128,244,176713,1,0,0:0:0:0:
60,244,176796,1,0,0:0:0:0:
128,244,176880,1,0,0:0:0:0:
196,244,176963,1,0,0:0:0:0:
128,244,177046,1,0,0:0:0:0:
60,244,177130,1,0,0:0:0:0:
128,244,177213,1,0,0:0:0:0:
196,244,177296,1,0,0:0:0:0:
352,252,177380,6,0,P|448:208|352:72,1,312,2|0,0:0|0:0,0:0:0:0:
60,72,178713,6,0,L|232:72,1,156.000005950928,6|2,0:0|0:0,0:0:0:0:
416,180,179380,2,0,L|420:344,1,156.000005950928,2|2,0:0|0:0,0:0:0:0:
220,320,180046,2,0,P|232:264|468:164,1,312.000011901856,2|2,0:0|0:0,0:0:0:0:
96,152,181380,6,0,L|404:68,1,312.000011901856,2|0,0:0|0:0,0:0:0:0:
196,56,182380,1,2,0:0:0:0:
400,48,182713,2,0,P|396:108|68:220,1,468.000017852784,2|0,0:0|0:0,0:0:0:0:
368,204,184046,6,0,P|420:248|368:300,1,156.000005950928,2|2,0:0|0:0,0:0:0:0:
168,324,184713,2,0,P|128:248|188:212,1,156.000005950928,2|2,0:0|0:0,0:0:0:0:
376,212,185380,2,0,L|220:224,3,156.000005950928,2|2|2|2,0:0|0:0|0:0|0:0,0:0:0:0:
424,208,186713,6,0,P|404:80|96:24,1,468.000017852784,2|2,0:0|0:0,0:0:0:0:
316,28,188046,2,0,P|436:80|356:224,1,312.000011901856,2|2,0:0|0:0,0:0:0:0:
176,232,189046,1,2,0:0:0:0:
472,236,189380,6,0,L|472:64,1,156.000005950928,2|2,1:3|1:2,0:0:0:0:
268,84,190046,2,0,L|440:84,1,156.000005950928,2|2,0:0|0:0,0:0:0:0:
224,84,190713,2,0,B|224:240|224:240|392:240,1,312.000011901856,2|2,1:3|0:0,0:0:0:0:
36,220,192046,6,0,L|36:380,1,156.000005950928,2|2,1:3|1:3,0:0:0:0:
236,352,192713,2,0,L|236:196,1,156.000005950928,2|2,0:0|0:0,0:0:0:0:
32,180,193380,2,0,B|32:24|32:24|192:24,1,312.000011901856,2|0,1:3|0:0,0:0:0:0:
392,36,194380,2,0,L|392:124,1,78.000002975464,2|2,0:0|0:0,0:0:0:0:
236,128,194713,6,0,B|80:128|80:128|80:288,1,312.000011901856,2|0,1:3|0:0,0:0:0:0:
264,308,196046,2,0,B|266:150|266:150|92:148,1,312.000011901856,2|2,1:3|0:0,0:0:0:0:
456,160,197380,6,0,B|456:316|456:316|136:316,1,468.000017852784,2|2,1:3|0:0,0:0:0:0:
244,316,198546,1,2,0:0:0:0:
344,316,198713,2,0,L|344:136,1,156.000005950928,2|0,1:3|1:0,0:0:0:0:
136,176,199380,2,0,L|72:176,1,52,0|0,0:0|0:0,0:0:0:0:
84,176,199546,2,0,L|144:176,1,52,0|0,0:0|0:0,0:0:0:0:
292,176,199713,2,0,L|344:176,1,52,0|0,0:0|0:0,0:0:0:0:
188,176,199880,2,0,L|120:176,1,52,0|0,0:0|0:0,0:0:0:0:
344,180,200046,6,0,P|416:196|328:248,1,208,6|2,1:0|0:0,0:0:0:0:
200,272,200546,1,2,0:0:0:0:
460,272,200713,2,0,L|460:160,1,104,8|0,0:0|0:0,0:0:0:0:
304,176,201046,2,0,L|424:176,1,104,0|0,0:0|0:0,0:0:0:0:
252,180,201380,6,0,L|128:180,1,104,2|0,1:0|0:0,0:0:0:0:
304,184,201713,2,0,L|424:184,1,104,2|2,0:0|1:0,0:0:0:0:
148,180,202046,2,0,L|20:180,1,104,8|0,0:0|0:0,0:0:0:0:
200,180,202380,2,0,L|64:180,1,104,2|0,1:0|0:0,0:0:0:0:
388,172,202713,6,0,P|472:240|336:352,1,312,2|0,1:0|0:0,0:0:0:0:
96,360,203380,1,8,0:0:0:0:
96,212,204046,6,0,P|40:144|196:32,1,312,0|0,1:0|1:0,0:0:0:0:
436,24,204713,2,0,L|296:24,1,104,8|2,0:0|1:0,0:0:0:0:
176,28,205046,1,2,2:0:0:0:
436,140,205213,1,2,1:0:0:0:
124,128,205380,6,0,P|64:184|132:268,1,208,6|2,1:0|0:0,0:0:0:0:
284,256,205880,1,2,0:0:0:0:
24,252,206046,2,0,L|24:120,1,104,10|0,0:0|0:0,0:0:0:0:
288,148,206380,2,0,L|428:148,1,104,2|0,0:0|0:0,0:0:0:0:
100,148,206713,6,0,L|100:264,1,104,2|0,1:0|0:0,0:0:0:0:
360,244,207046,2,0,L|472:244,1,104,2|0,0:0|1:0,0:0:0:0:
204,252,207380,2,0,L|96:252,1,104,10|0,0:0|0:0,0:0:0:0:
256,252,207713,2,0,L|384:252,1,104,2|0,0:0|0:0,0:0:0:0:
68,128,208046,6,0,P|24:200|128:384,1,312,2|0,1:0|0:0,0:0:0:0:
380,328,208713,1,8,0:0:0:0:
88,328,209046,2,0,L|204:328,1,104,2|2,0:0|0:0,0:0:0:0:
484,332,209380,6,0,L|164:332,1,312,2|0,1:0|1:0,0:0:0:0:
432,320,210046,2,0,L|304:320,1,104,8|2,0:0|1:0,0:0:0:0:
172,320,210380,1,2,2:0:0:0:
432,320,210546,1,2,1:0:0:0:
120,320,210713,5,6,1:0:0:0:
96,314,210755,1,0,0:0:0:0:
75,298,210796,1,0,0:0:0:0:
63,275,210838,1,0,0:0:0:0:
61,250,210880,1,0,0:0:0:0:
69,225,210921,1,0,0:0:0:0:
86,206,210963,1,0,0:0:0:0:
110,196,211005,1,0,0:0:0:0:
136,195,211046,1,2,0:0:0:0:
292,192,211213,1,2,0:0:0:0:
32,172,211380,2,0,L|156:172,1,104,8|0,0:0|0:0,0:0:0:0:
292,156,211713,2,0,L|168:156,1,104,2|0,0:0|0:0,0:0:0:0:
344,156,212046,6,0,L|468:156,1,104,2|0,1:0|0:0,0:0:0:0:
292,144,212380,2,0,L|404:144,1,104,2|0,0:0|1:0,0:0:0:0:
136,156,212713,2,0,L|12:156,1,104,10|0,0:0|0:0,0:0:0:0:
188,144,213046,2,0,L|76:144,1,104,2|0,1:0|0:0,0:0:0:0:
376,136,213380,6,0,P|420:180|344:280,1,208,2|0,1:0|0:0,0:0:0:0:
452,284,213880,1,0,0:0:0:0:
192,280,214046,2,0,L|192:160,1,104,8|0,0:0|0:0,0:0:0:0:
348,176,214380,2,0,L|460:176,1,104,0|0,0:0|0:0,0:0:0:0:
160,172,214713,6,0,P|88:116|140:28,1,208,0|0,1:0|0:0,0:0:0:0:
32,24,215213,1,0,1:0:0:0:
292,28,215380,2,0,L|292:148,1,104,8|2,0:0|1:0,0:0:0:0:
136,128,215713,1,2,2:0:0:0:
396,124,215880,1,2,1:0:0:0:
84,128,216046,6,0,L|308:128,1,208,6|2,1:0|0:0,0:0:0:0:
136,132,216546,1,2,0:0:0:0:
396,124,216713,2,0,L|396:248,1,104,8|0,0:0|0:0,0:0:0:0:
240,232,217046,2,0,L|356:232,1,104,2|0,0:0|0:0,0:0:0:0:
52,232,217380,6,0,L|52:116,1,104,2|0,1:0|0:0,0:0:0:0:
312,128,217713,2,0,L|196:128,1,104,2|0,0:0|1:0,0:0:0:0:
468,124,218046,2,0,L|468:256,1,104,10|0,0:0|0:0,0:0:0:0:
280,216,218380,2,0,L|160:216,1,104,2|0,0:0|0:0,0:0:0:0:
468,232,218713,6,0,L|236:232,1,208,2|0,1:0|0:0,0:0:0:0:
364,232,219213,1,0,0:0:0:0:
104,232,219380,2,0,L|232:232,1,104,8|0,0:0|0:0,0:0:0:0:
364,232,219713,1,2,1:0:0:0:
104,232,219880,1,2,0:0:0:0:
396,232,220046,6,0,L|504:232,1,104,10|0,1:3|0:0,0:0:0:0:
240,220,220380,2,0,L|352:220,1,104,10|0,1:3|0:0,0:0:0:0:
84,220,220713,2,0,P|40:252|104:332,1,156,10|10,1:3|1:3,0:0:0:0:
232,332,221046,1,10,1:3:0:0:
76,344,221213,1,10,1:3:0:0:
388,332,221380,5,6,1:0:0:0:
232,332,221546,1,2,0:0:0:0:
388,332,221713,1,10,1:3:0:0:
232,332,221880,1,2,0:0:0:0:
388,332,222046,2,0,P|428:280|376:208,1,156,10|10,1:3|1:3,0:0:0:0:
228,208,222380,1,10,1:3:0:0:
384,204,222546,1,10,1:3:0:0:
92,208,222713,5,10,1:3:0:0:
248,208,222880,1,10,1:3:0:0:
404,208,223046,1,10,1:3:0:0:
144,208,223213,1,10,1:3:0:0:
404,208,223380,2,0,L|320:208,1,52,10|8,1:3|1:3,0:0:0:0:
196,204,223546,2,0,L|264:204,1,52,10|8,1:3|1:3,0:0:0:0:
404,208,223713,2,0,L|120:208,1,260,10|2,0:2|0:0,0:0:0:0:
480,212,224046,6,0,L|480:136,1,52,6|0,1:2|0:0,0:0:0:0:
404,140,224213,2,0,L|336:140,1,52,2|0,0:0|0:0,0:0:0:0:
168,140,224380,2,0,L|228:140,1,52,2|0,1:0|0:0,0:0:0:0:
404,112,224546,2,0,L|324:112,1,52,2|0,0:0|0:0,0:0:0:0:
172,116,224713,2,0,L|84:116,1,52,2|0,1:0|0:0,0:0:0:0:
216,116,224880,2,0,L|312:116,1,52,2|0,0:0|0:0,0:0:0:0:
84,120,225046,2,0,L|24:120,1,52,2|0,1:0|0:0,0:0:0:0:
212,112,225213,2,0,L|212:172,1,52,2|0,0:0|0:0,0:0:0:0:
412,160,225380,6,0,L|344:160,1,52,2|0,1:0|0:0,0:0:0:0:
264,164,225546,2,0,L|184:164,1,52,2|0,0:0|0:0,0:0:0:0:
392,160,225713,2,0,L|392:236,1,52,2|0,1:0|0:0,0:0:0:0:
208,220,225880,2,0,L|132:220,1,52,2|0,0:0|0:0,0:0:0:0:
340,220,226046,2,0,L|340:280,1,52,2|0,1:0|0:0,0:0:0:0:
264,276,226213,2,0,L|264:344,1,52,2|0,0:0|0:0,0:0:0:0:
448,324,226380,2,0,L|356:324,1,52,2|0,1:0|0:0,0:0:0:0:
212,336,226546,2,0,L|136:336,1,52,2|0,0:0|0:0,0:0:0:0:
368,336,226713,6,0,L|368:264,1,52,2|0,1:0|0:0,0:0:0:0:
184,276,226880,2,0,L|184:200,1,52,2|0,0:0|0:0,0:0:0:0:
368,216,227046,2,0,L|296:216,1,52,2|0,1:0|0:0,0:0:0:0:
136,212,227213,2,0,L|212:212,1,52,2|0,0:0|0:0,0:0:0:0:
372,212,227380,2,0,L|284:212,1,52,2|0,1:0|0:0,0:0:0:0:
136,212,227546,2,0,L|68:216,1,52,2|0,0:0|0:0,0:0:0:0:
264,212,227713,2,0,L|316:208,1,52,2|0,1:0|0:0,0:0:0:0:
132,208,227880,2,0,L|48:212,1,52,2|0,0:0|0:0,0:0:0:0:
280,212,228046,5,2,1:0:0:0:
348,212,228130,1,0,0:0:0:0:
416,212,228213,1,0,0:0:0:0:
348,212,228296,1,0,0:0:0:0:
176,216,228380,1,2,1:0:0:0:
348,212,228463,1,2,0:0:0:0:
292,212,228546,1,2,0:0:0:0:
348,212,228630,1,2,0:0:0:0:
168,212,228713,2,0,L|168:148,1,52,2|0,1:0|0:0,0:0:0:0:
248,156,228880,2,0,L|248:88,1,52,0|0,0:0|0:0,0:0:0:0:
64,116,229046,2,0,L|64:32,1,52,2|0,1:0|0:0,0:0:0:0:
236,60,229213,1,2,0:0:0:0:
408,60,229296,1,2,0:0:0:0:
200,56,229380,6,0,L|120:56,1,52,2|0,1:0|0:0,0:0:0:0:
244,56,229546,2,0,L|312:56,1,52,2|0,0:0|0:0,0:0:0:0:
116,60,229713,2,0,L|116:132,1,52,2|0,1:0|0:0,0:0:0:0:
300,116,229880,2,0,L|300:188,1,52,2|0,0:0|0:0,0:0:0:0:
116,176,230046,2,0,L|56:176,1,52,2|0,1:0|0:0,0:0:0:0:
156,180,230213,2,0,L|236:180,1,52,2|0,0:0|0:0,0:0:0:0:
392,188,230380,2,0,L|332:188,1,52,2|0,1:0|0:0,0:0:0:0:
160,212,230546,2,0,L|84:212,1,52,2|0,0:0|0:0,0:0:0:0:
304,224,230713,6,0,L|304:300,1,52,2|0,1:0|0:0,0:0:0:0:
224,284,230880,2,0,L|224:348,1,52,2|0,0:0|0:0,0:0:0:0:
408,328,231046,2,0,L|344:328,1,52,2|0,1:0|0:0,0:0:0:0:
172,324,231213,2,0,L|80:324,1,52,2|0,0:0|0:0,0:0:0:0:
304,328,231380,2,0,L|304:272,1,52,2|0,1:0|0:0,0:0:0:0:
224,280,231546,2,0,L|224:204,1,52,2|0,0:0|0:0,0:0:0:0:
404,228,231713,2,0,L|336:228,1,52,2|0,1:0|0:0,0:0:0:0:
168,224,231880,2,0,L|100:224,1,52,2|0,0:0|0:0,0:0:0:0:
324,224,232046,6,0,L|380:224,1,52,2|0,1:0|0:0,0:0:0:0:
284,220,232213,2,0,L|200:220,1,52,2|0,0:0|0:0,0:0:0:0:
416,216,232380,2,0,L|416:152,1,52,2|0,1:0|0:0,0:0:0:0:
232,168,232546,2,0,L|232:108,1,52,2|0,0:0|0:0,0:0:0:0:
412,160,232713,2,0,L|332:156,1,52,2|0,1:0|0:0,0:0:0:0:
176,148,232880,2,0,L|260:148,1,52,2|0,0:0|0:0,0:0:0:0:
412,152,233046,2,0,L|412:96,1,52,2|0,1:0|0:0,0:0:0:0:
232,104,233213,2,0,L|296:104,1,52,2|0,0:0|0:0,0:0:0:0:
84,104,233380,5,2,1:0:0:0:
16,108,233463,1,0,0:0:0:0:
84,104,233546,1,0,0:0:0:0:
152,100,233630,1,0,0:0:0:0:
316,96,233713,1,2,1:0:0:0:
484,96,233796,1,2,0:0:0:0:
320,96,233880,1,2,0:0:0:0:
156,100,233963,1,2,0:0:0:0:
324,96,234046,2,0,L|388:96,1,52,2|0,1:0|0:0,0:0:0:0:
196,100,234213,2,0,L|196:164,1,52,0|0,1:0|1:0,0:0:0:0:
380,148,234380,2,0,L|88:148,1,270.399987622071,10|2,1:2|0:0,0:0:0:0:
444,152,234713,6,0,L|360:156,1,52,6|0,1:0|0:0,0:0:0:0:
208,160,234880,2,0,L|128:164,1,52,2|0,0:0|0:0,0:0:0:0:
340,156,235046,2,0,L|400:156,1,52,10|0,0:0|0:0,0:0:0:0:
212,160,235213,2,0,L|152:160,1,52,2|0,0:0|0:0,0:0:0:0:
344,156,235380,2,0,L|344:224,1,52,2|0,1:0|0:0,0:0:0:0:
160,216,235546,2,0,L|96:216,1,52,2|0,0:0|0:0,0:0:0:0:
288,224,235713,2,0,L|288:284,1,52,10|0,0:0|0:0,0:0:0:0:
208,272,235880,2,0,L|208:348,1,52,2|0,0:0|0:0,0:0:0:0:
408,336,236046,6,0,L|464:336,1,52,2|0,1:0|0:0,0:0:0:0:
280,340,236213,2,0,L|208:340,1,52,2|0,0:0|0:0,0:0:0:0:
412,332,236380,2,0,L|328:332,1,52,10|0,0:0|0:0,0:0:0:0:
176,336,236546,2,0,L|176:264,1,52,2|0,0:0|0:0,0:0:0:0:
356,264,236713,1,2,1:0:0:0:
424,264,236796,1,0,0:0:0:0:
492,264,236880,1,0,0:0:0:0:
424,264,236963,1,0,0:0:0:0:
244,264,237046,2,0,L|244:200,1,52,10|0,0:0|0:0,0:0:0:0:
428,208,237213,2,0,L|488:208,1,52,2|0,0:0|0:0,0:0:0:0:
272,212,237380,6,0,L|208:212,1,52,2|0,1:0|0:0,0:0:0:0:
40,212,237546,2,0,L|104:212,1,52,2|0,0:0|0:0,0:0:0:0:
276,180,237713,2,0,L|276:240,1,52,10|0,0:0|0:0,0:0:0:0:
196,228,237880,2,0,L|196:300,1,52,2|0,0:0|0:0,0:0:0:0:
376,260,238046,2,0,L|448:260,1,52,2|0,1:0|0:0,0:0:0:0:
244,264,238213,2,0,L|180:264,1,52,2|0,0:0|0:0,0:0:0:0:
376,260,238380,2,0,L|312:260,1,52,10|0,0:0|0:0,0:0:0:0:
144,268,238546,2,0,L|144:204,1,52,2|0,0:0|0:0,0:0:0:0:
344,120,238713,5,2,1:0:0:0:
276,120,238796,1,0,0:0:0:0:
208,120,238880,1,0,0:0:0:0:
140,120,238963,1,0,0:0:0:0:
324,120,239046,1,10,0:0:0:0:
160,120,239130,2,0,L|68:120,2,52,0|2|0,0:0|0:0|0:0,0:0:0:0:
344,116,239380,2,0,L|344:184,1,52,2|0,1:0|0:0,0:0:0:0:
268,180,239546,2,0,L|268:248,1,52,0|0,0:0|0:0,0:0:0:0:
448,236,239713,2,0,L|372:236,1,52,10|0,0:0|0:0,0:0:0:0:
212,240,239880,2,0,L|160:240,1,52,2|0,0:0|0:0,0:0:0:0:
368,236,240046,6,0,L|368:304,1,52,2|0,1:0|0:0,0:0:0:0:
188,288,240213,2,0,L|116:288,1,52,2|0,0:0|0:0,0:0:0:0:
320,288,240380,2,0,L|244:288,1,52,10|0,0:0|0:0,0:0:0:0:
84,284,240546,2,0,L|156:284,1,52,2|0,0:0|0:0,0:0:0:0:
316,280,240713,2,0,L|316:208,1,52,2|0,1:0|0:0,0:0:0:0:
132,216,240880,2,0,L|132:156,1,52,2|0,0:0|0:0,0:0:0:0:
316,168,241046,2,0,L|372:168,1,52,10|0,0:0|0:0,0:0:0:0:
276,168,241213,2,0,L|224:168,1,52,2|0,0:0|0:0,0:0:0:0:
24,160,241380,6,0,L|24:232,1,52,2|0,1:0|0:0,0:0:0:0:
208,216,241546,2,0,L|276:216,1,52,2|0,0:0|0:0,0:0:0:0:
80,228,241713,2,0,L|80:156,1,52,10|0,0:0|0:0,0:0:0:0:
264,176,241880,2,0,L|332:176,1,52,2|0,0:0|0:0,0:0:0:0:
132,176,242046,1,2,1:0:0:0:
64,176,242130,1,0,0:0:0:0:
132,176,242213,1,0,0:0:0:0:
200,176,242296,1,0,0:0:0:0:
380,184,242380,2,0,L|300:184,1,52,10|0,0:0|0:0,0:0:0:0:
144,196,242546,2,0,L|144:252,1,52,2|0,0:0|0:0,0:0:0:0:
352,252,242713,6,0,L|276:252,1,52,2|0,1:0|0:0,0:0:0:0:
116,256,242880,2,0,L|36:256,1,52,2|0,0:0|0:0,0:0:0:0:
248,252,243046,2,0,L|248:332,1,52,10|0,0:0|0:0,0:0:0:0:
172,308,243213,2,0,L|172:364,1,52,2|0,0:0|0:0,0:0:0:0:
356,360,243380,2,0,L|276:360,1,52,2|0,1:0|0:0,0:0:0:0:
120,360,243546,2,0,L|44:360,1,52,2|0,0:0|0:0,0:0:0:0:
248,356,243713,2,0,L|248:296,1,52,10|0,0:0|0:0,0:0:0:0:
168,304,243880,2,0,L|168:240,1,52,2|0,0:0|0:0,0:0:0:0:
368,248,244046,6,0,L|96:248,1,270.399987622071,10|0,1:2|0:0,0:0:0:0:
156,248,244296,1,0,0:0:0:0:
352,248,244380,2,0,L|68:248,1,270.399987622071,8|0,1:2|0:0,0:0:0:0:
140,248,244630,1,0,0:0:0:0:
336,248,244713,2,0,L|260:248,1,52,10|0,1:2|0:0,0:0:0:0:
100,248,244880,2,0,L|180:248,1,52,0|0,0:0|0:0,0:0:0:0:
336,248,245046,2,0,P|292:208|156:180,1,202.799990716553,8|0,1:2|0:0,0:0:0:0:
364,248,245380,5,4,1:2:0:0:
432,248,245463,1,2,0:0:0:0:
364,248,245546,1,2,0:0:0:0:
432,248,245630,1,2,0:0:0:0:
268,248,245713,1,8,0:0:0:0:
100,248,245796,2,0,L|36:248,2,52,2|2|2,0:0|0:0|0:0,0:0:0:0:
284,248,246046,1,0,1:0:0:0:
352,248,246130,1,2,0:0:0:0:
284,248,246213,1,2,0:0:0:0:
216,248,246296,1,2,0:0:0:0:
52,248,246380,1,8,0:0:0:0:
216,248,246463,2,0,L|288:248,2,52,2|2|2,0:0|0:0|0:0,0:0:0:0:
416,248,246713,5,0,1:0:0:0:
484,248,246796,1,2,0:0:0:0:
416,248,246880,1,2,0:0:0:0:
484,248,246963,1,2,0:0:0:0:
316,248,247046,1,8,0:0:0:0:
152,248,247130,1,2,0:0:0:0:
220,248,247213,1,2,0:0:0:0:
288,248,247296,1,2,0:0:0:0:
468,248,247380,1,0,1:0:0:0:
288,248,247463,1,2,0:0:0:0:
220,248,247546,1,2,0:0:0:0:
288,248,247630,1,2,0:0:0:0:
452,248,247713,1,8,0:0:0:0:
284,248,247796,1,2,0:0:0:0:
120,248,247880,2,0,L|184:248,1,52,2|2,0:0|0:0,0:0:0:0:
380,248,248046,5,0,1:0:0:0:
216,248,248130,1,2,0:0:0:0:
148,248,248213,1,2,0:0:0:0:
216,248,248296,1,2,0:0:0:0:
396,248,248380,1,8,0:0:0:0:
464,248,248463,1,2,0:0:0:0:
396,248,248546,1,2,0:0:0:0:
464,248,248630,1,2,0:0:0:0:
300,248,248713,1,0,1:0:0:0:
132,248,248796,2,0,L|64:248,2,52,2|2|2,0:0|0:0|0:0,0:0:0:0:
316,248,249046,1,8,0:0:0:0:
384,248,249130,1,2,0:0:0:0:
452,248,249213,1,2,0:0:0:0:
384,248,249296,1,2,0:0:0:0:
188,244,249380,5,0,1:0:0:0:
120,244,249463,1,2,0:0:0:0:
188,244,249546,1,2,0:0:0:0:
256,244,249630,1,2,0:0:0:0:
420,244,249713,1,8,0:0:0:0:
256,244,249796,2,0,L|228:180,2,52,2|2|2,0:0|0:0|0:0,0:0:0:0:
420,244,250046,1,0,1:0:0:0:
488,244,250130,1,2,0:0:0:0:
420,244,250213,1,2,0:0:0:0:
488,244,250296,1,2,0:0:0:0:
308,244,250380,2,0,L|208:244,1,52,8|0,0:0|0:0,0:0:0:0:
440,244,250546,2,0,L|352:244,1,52,2|0,0:0|0:0,0:0:0:0:
180,244,250713,6,0,L|120:244,1,52,2|0,1:0|0:0,0:0:0:0:
296,244,250880,1,2,0:0:0:0:
460,244,250963,1,2,0:0:0:0:
292,244,251046,2,0,L|208:244,1,52,10|0,0:0|0:0,0:0:0:0:
420,240,251213,2,0,L|420:172,1,52,2|0,0:0|0:0,0:0:0:0:
252,192,251380,1,2,1:0:0:0:
420,188,251463,1,0,0:0:0:0:
488,188,251546,1,2,0:0:0:0:
416,188,251630,1,2,0:0:0:0:
236,192,251713,2,0,L|160:192,1,52,10|0,0:0|0:0,0:0:0:0:
368,188,251880,2,0,L|300:188,1,52,2|0,0:0|0:0,0:0:0:0:
116,200,252046,6,0,L|116:120,1,52,2|0,1:0|0:0,0:0:0:0:
280,144,252213,1,2,0:0:0:0:
448,140,252296,1,2,0:0:0:0:
284,148,252380,2,0,L|224:148,1,52,10|0,0:0|0:0,0:0:0:0:
416,148,252546,2,0,L|344:148,1,52,2|0,0:0|0:0,0:0:0:0:
184,144,252713,2,0,L|108:144,1,52,2|2,1:0|0:0,0:0:0:0:
300,144,252880,1,2,0:0:0:0:
464,148,252963,1,2,0:0:0:0:
296,144,253046,1,10,0:0:0:0:
228,144,253130,1,0,0:0:0:0:
296,144,253213,1,2,0:0:0:0:
228,144,253296,1,0,0:0:0:0:
436,152,253380,6,0,L|436:232,1,52,2|0,1:0|0:0,0:0:0:0:
252,220,253546,2,0,L|192:220,1,52,2|2,0:0|0:0,0:0:0:0:
380,212,253713,2,0,L|380:152,1,52,10|0,0:0|0:0,0:0:0:0:
196,164,253880,2,0,L|112:168,1,52,2|0,0:0|0:0,0:0:0:0:
328,164,254046,2,0,L|328:236,1,52,2|0,1:0|0:0,0:0:0:0:
252,220,254213,2,0,L|252:296,1,52,2|0,0:0|0:0,0:0:0:0:
436,276,254380,2,0,L|356:276,1,52,10|0,0:0|0:0,0:0:0:0:
200,276,254546,2,0,L|132:276,1,52,2|0,0:0|0:0,0:0:0:0:
344,276,254713,6,0,L|408:276,1,52,10|0,1:2|0:0,0:0:0:0:
228,276,254880,1,2,0:0:0:0:
64,276,254963,1,2,0:0:0:0:
232,272,255046,2,0,L|296:272,1,52,10|0,0:0|0:0,0:0:0:0:
104,272,255213,2,0,L|176:272,1,52,2|0,0:0|0:0,0:0:0:0:
324,212,255380,2,0,L|384:212,1,52,10|0,1:2|0:0,0:0:0:0:
208,212,255546,1,2,1:0:0:0:
44,216,255630,1,0,1:0:0:0:
208,212,255713,2,0,L|480:212,1,270.399987622071,10|2,0:0|0:0,0:0:0:0:
148,136,256046,5,4,1:2:0:0:
80,136,256130,1,2,0:0:0:0:
148,136,256213,1,2,0:0:0:0:
80,136,256296,1,2,0:0:0:0:
244,136,256380,1,8,0:0:0:0:
412,136,256463,2,0,L|476:136,2,52,2|2|2,0:0|0:0|0:0,0:0:0:0:
228,136,256713,1,0,1:0:0:0:
160,136,256796,1,2,0:0:0:0:
228,136,256880,1,2,0:0:0:0:
296,136,256963,1,2,0:0:0:0:
460,136,257046,1,8,0:0:0:0:
296,136,257130,2,0,L|224:136,2,52,2|2|2,0:0|0:0|0:0,0:0:0:0:
96,136,257380,5,0,1:0:0:0:
28,136,257463,1,2,0:0:0:0:
96,136,257546,1,2,0:0:0:0:
28,136,257630,1,2,0:0:0:0:
196,136,257713,1,8,0:0:0:0:
360,136,257796,1,2,0:0:0:0:
292,136,257880,1,2,0:0:0:0:
224,136,257963,1,2,0:0:0:0:
44,136,258046,1,0,1:0:0:0:
224,136,258130,1,2,0:0:0:0:
292,136,258213,1,2,0:0:0:0:
224,136,258296,1,2,0:0:0:0:
60,136,258380,1,8,0:0:0:0:
228,136,258463,1,2,0:0:0:0:
392,136,258546,2,0,L|328:136,1,52,2|2,0:0|0:0,0:0:0:0:
132,136,258713,5,0,1:0:0:0:
296,136,258796,1,2,0:0:0:0:
364,136,258880,1,2,0:0:0:0:
296,136,258963,1,2,0:0:0:0:
116,136,259046,1,8,0:0:0:0:
48,136,259130,1,2,0:0:0:0:
116,136,259213,1,2,0:0:0:0:
48,136,259296,1,2,0:0:0:0:
212,136,259380,1,0,1:0:0:0:
380,136,259463,2,0,L|448:136,2,52,2|2|2,0:0|0:0|0:0,0:0:0:0:
196,136,259713,1,8,0:0:0:0:
128,136,259796,1,2,0:0:0:0:
60,136,259880,1,2,0:0:0:0:
128,136,259963,1,2,0:0:0:0:
324,140,260046,5,0,1:0:0:0:
392,140,260130,1,2,0:0:0:0:
324,140,260213,1,2,0:0:0:0:
256,140,260296,1,2,0:0:0:0:
92,140,260380,1,8,0:0:0:0:
256,140,260463,2,0,L|284:204,2,52,2|2|2,0:0|0:0|0:0,0:0:0:0:
92,140,260713,1,0,1:0:0:0:
24,140,260796,1,2,0:0:0:0:
92,140,260880,1,2,0:0:0:0:
24,140,260963,1,2,0:0:0:0:
204,140,261046,2,0,L|304:140,1,52,8|0,0:0|0:0,0:0:0:0:
72,140,261213,2,0,L|160:140,1,52,2|0,0:0|0:0,0:0:0:0:
332,140,261380,6,0,L|392:140,1,52,2|0,1:0|0:0,0:0:0:0:
216,140,261546,1,2,0:0:0:0:
52,140,261630,1,2,0:0:0:0:
220,140,261713,2,0,L|304:140,1,52,10|0,0:0|0:0,0:0:0:0:
92,144,261880,2,0,L|92:212,1,52,2|0,0:0|0:0,0:0:0:0:
260,192,262046,1,2,1:0:0:0:
92,196,262130,1,0,0:0:0:0:
24,196,262213,1,2,0:0:0:0:
96,196,262296,1,2,0:0:0:0:
276,192,262380,2,0,L|352:192,1,52,10|0,0:0|0:0,0:0:0:0:
144,196,262546,2,0,L|212:196,1,52,2|0,0:0|0:0,0:0:0:0:
396,184,262713,6,0,L|396:264,1,52,2|0,1:0|0:0,0:0:0:0:
232,240,262880,1,2,0:0:0:0:
64,244,262963,1,2,0:0:0:0:
228,236,263046,2,0,L|288:236,1,52,10|0,0:0|0:0,0:0:0:0:
96,236,263213,2,0,L|168:236,1,52,2|0,0:0|0:0,0:0:0:0:
328,240,263380,2,0,L|404:240,1,52,2|2,1:0|0:0,0:0:0:0:
212,240,263546,1,2,0:0:0:0:
48,236,263630,1,2,0:0:0:0:
216,240,263713,1,10,0:0:0:0:
284,240,263796,1,0,0:0:0:0:
216,240,263880,1,2,0:0:0:0:
284,240,263963,1,0,0:0:0:0:
492,236,264046,6,0,L|492:184,1,52,2|0,1:0|0:0,0:0:0:0:
308,168,264213,2,0,L|256:168,1,52,2|2,0:0|0:0,0:0:0:0:
436,176,264380,2,0,L|436:228,1,52,10|0,0:0|0:0,0:0:0:0:
252,224,264546,2,0,L|200:221,1,52,2|0,0:0|0:0,0:0:0:0:
384,224,264713,2,0,L|384:172,1,52,2|0,1:0|0:0,0:0:0:0:
308,168,264880,6,0,L|308:116,1,52,2|0,0:0|0:0,0:0:0:0:
492,112,265046,2,0,L|440:112,1,52,10|0,0:0|0:0,0:0:0:0:
256,112,265213,2,0,L|204:112,1,52,2|0,0:0|0:0,0:0:0:0:
412,248,265380,6,0,L|132:248,1,270.399987622071,10|2,1:2|0:0,0:0:0:0:
200,248,265630,1,2,0:0:0:0:
380,248,265713,2,0,L|92:248,1,280.800001071167,10|2,0:0|0:0,0:0:0:0:
156,248,265963,1,0,0:0:0:0:
344,248,266046,2,0,L|32:248,1,291.199991113282,10|2,1:2|1:0,0:0:0:0:
112,248,266296,1,0,1:0:0:0:
308,248,266380,1,10,0:0:0:0:
36,248,266546,1,2,0:0:0:0:
348,248,266713,6,0,L|388:248,6,26,6|0|0|0|0|0|0,1:0|0:0|0:0|0:0|0:0|0:0|0:0,0:0:0:0:
184,244,267046,2,0,L|52:244,1,104,8|2,0:0|0:0,0:0:0:0:
248,248,267380,2,0,L|352:248,1,104,0|2,1:0|0:0,0:0:0:0:
80,248,267713,2,0,P|52:184|84:148,1,104,10|0,0:0|0:0,0:0:0:0:
232,148,267963,6,0,P|256:192|224:236,1,104,0|0,0:0|0:0,0:0:0:0:
64,244,268213,1,2,0:0:0:0:
332,244,268380,2,0,L|200:244,1,104,8|2,0:0|0:0,0:0:0:0:
64,272,268713,2,0,L|64:160,1,104,0|2,1:0|0:0,0:0:0:0:
336,280,269046,2,0,L|440:280,1,104,8|2,0:0|0:0,0:0:0:0:
384,280,269296,1,0,0:0:0:0:
176,276,269380,6,0,L|136:276,6,26,8|0|0|0|0|0|0,1:0|0:0|0:0|0:0|0:0|0:0|0:0,0:0:0:0:
336,280,269713,2,0,L|468:280,1,104,8|2,0:0|0:0,0:0:0:0:
272,276,270046,2,0,L|152:276,1,104,0|2,1:0|0:0,0:0:0:0:
440,272,270380,2,0,P|452:212|420:172,1,104,10|0,0:0|0:0,0:0:0:0:
264,176,270630,6,0,P|240:220|272:272,1,104,0|0,0:0|0:0,0:0:0:0:
428,272,270880,1,2,0:0:0:0:
156,280,271046,2,0,L|156:160,1,104,8|0,0:0|0:0,0:0:0:0:
312,252,271380,1,2,1:0:0:0:
156,252,271546,1,2,0:0:0:0:
428,160,271713,2,0,L|312:160,1,104,10|2,0:0|0:0,0:0:0:0:
268,164,271963,1,0,0:0:0:0:
476,160,272046,5,10,1:0:0:0:
489,181,272087,1,0,0:0:0:0:
495,206,272129,1,0,0:0:0:0:
493,232,272171,1,0,0:0:0:0:
481,256,272212,1,0,0:0:0:0:
463,274,272254,1,0,0:0:0:0:
440,285,272296,1,0,0:0:0:0:
272,276,272380,2,0,L|152:268,1,104,8|2,0:0|0:0,0:0:0:0:
336,284,272713,2,0,L|440:292,1,104,0|2,1:0|0:0,0:0:0:0:
168,292,273046,2,0,L|56:300,1,104,10|0,0:0|0:0,0:0:0:0:
232,300,273296,6,0,L|360:316,1,104,0|0,0:0|0:0,0:0:0:0:
168,324,273546,1,2,0:0:0:0:
440,312,273713,2,0,L|440:180,1,104,8|2,0:0|0:0,0:0:0:0:
272,196,274046,2,0,L|416:196,1,104,0|2,1:0|0:0,0:0:0:0:
104,196,274380,2,0,L|104:64,1,104,8|2,0:0|0:0,0:0:0:0:
160,88,274630,1,0,0:0:0:0:
368,104,274713,5,10,1:0:0:0:
383,126,274755,1,0,0:0:0:0:
388,151,274796,1,0,0:0:0:0:
384,177,274838,1,0,0:0:0:0:
372,200,274880,1,2,0:0:0:0:
352,216,274921,1,0,0:0:0:0:
328,225,274963,1,0,0:0:0:0:
164,224,275046,2,0,L|60:248,1,104,10|2,0:0|0:0,0:0:0:0:
228,244,275380,2,0,L|124:268,1,104,2|2,1:0|0:0,0:0:0:0:
400,272,275713,1,10,0:0:0:0:
468,272,275796,1,0,0:0:0:0:
400,272,275880,1,2,0:0:0:0:
332,272,275963,1,2,0:0:0:0:
136,276,276046,5,2,1:0:0:0:
204,276,276130,1,2,0:0:0:0:
136,276,276213,1,2,0:0:0:0:
204,276,276296,1,2,0:0:0:0:
368,272,276380,2,0,L|444:272,1,52,10|2,0:0|0:0,0:0:0:0:
252,276,276546,2,0,L|324:276,1,52,2|2,0:0|0:0,0:0:0:0:
472,272,276713,1,2,1:0:0:0:
316,276,276796,1,2,0:0:0:0:
160,276,276880,1,2,0:0:0:0:
316,276,276963,1,2,0:0:0:0:
472,268,277046,2,0,P|496:212|440:128,1,156,10|0,0:0|0:0,0:0:0:0:
244,136,277380,5,8,1:0:0:0:
216,136,277421,1,0,0:0:0:0:
244,136,277463,1,0,0:0:0:0:
272,136,277505,1,0,0:0:0:0:
300,136,277546,1,0,0:0:0:0:
328,136,277588,1,0,0:0:0:0:
352,136,277630,1,0,0:0:0:0:
188,136,277713,2,0,L|72:136,2,104,8|2|0,0:0|1:0|0:0,0:0:0:0:
356,136,278213,1,2,1:0:0:0:
88,136,278380,1,10,0:0:0:0:
60,140,278421,2,0,L|60:220,1,78,0|0,0:0|0:0,0:0:0:0:
372,220,278713,5,10,1:0:0:0:
400,220,278755,1,0,0:0:0:0:
428,220,278796,1,0,0:0:0:0:
400,220,278838,1,0,0:0:0:0:
372,220,278880,1,0,0:0:0:0:
344,220,278921,1,0,0:0:0:0:
320,220,278963,1,0,0:0:0:0:
156,220,279046,2,0,L|152:332,1,104,8|2,0:0|1:0,0:0:0:0:
268,324,279380,5,0,0:0:0:0:
104,344,279546,1,2,1:0:0:0:
376,324,279713,2,0,L|444:324,1,52,10|0,0:0|0:0,0:0:0:0:
256,324,279880,2,0,L|316:324,1,52,10|0,0:0|0:0,0:0:0:0:
100,312,280046,5,10,1:0:0:0:
76,302,280087,1,0,0:0:0:0:
58,283,280129,1,0,0:0:0:0:
49,259,280171,1,0,0:0:0:0:
52,233,280212,1,0,0:0:0:0:
64,211,280254,1,0,0:0:0:0:
85,196,280296,1,0,0:0:0:0:
256,180,280380,2,0,L|364:188,2,104,8|2|0,0:0|1:0|0:0,0:0:0:0:
88,192,280880,1,2,1:0:0:0:
360,188,281046,1,8,0:0:0:0:
388,188,281088,2,0,L|480:188,1,78,0|0,0:0|0:0,0:0:0:0:
156,192,281380,5,10,1:0:0:0:
131,189,281421,1,0,0:0:0:0:
108,200,281463,1,0,0:0:0:0:
94,221,281505,1,0,0:0:0:0:
93,247,281546,1,0,0:0:0:0:
106,269,281588,1,0,0:0:0:0:
129,280,281630,1,0,0:0:0:0:
296,276,281713,2,0,L|424:284,1,104,8|2,0:0|1:0,0:0:0:0:
128,268,282046,6,0,L|112:332,1,52,2|2,0:0|0:0,0:0:0:0:
276,268,282213,2,0,L|280:324,1,52,2|2,1:0|0:0,0:0:0:0:
112,324,282380,2,0,L|44:324,1,52,10|0,0:0|0:0,0:0:0:0:
228,320,282546,2,0,L|168:320,1,52,10|0,0:0|0:0,0:0:0:0:
384,312,282713,5,10,1:0:0:0:
410,310,282755,1,0,0:0:0:0:
433,297,282796,1,0,0:0:0:0:
448,276,282838,1,0,0:0:0:0:
453,251,282880,1,0,0:0:0:0:
448,226,282921,1,0,0:0:0:0:
433,205,282963,1,0,0:0:0:0:
268,172,283046,2,0,L|152:172,2,104,8|2|2,0:0|1:0|0:0,0:0:0:0:
100,172,283463,6,0,L|40:172,1,52,0|2,0:0|1:0,0:0:0:0:
212,172,283630,2,0,L|280:172,1,52,0|10,0:0|0:0,0:0:0:0:
100,172,283796,2,0,L|40:172,1,52,0|2,0:0|0:0,0:0:0:0:
212,172,283963,1,0,0:0:0:0:
420,172,284046,5,8,1:0:0:0:
446,173,284088,1,0,0:0:0:0:
468,186,284130,1,0,0:0:0:0:
481,208,284171,1,0,0:0:0:0:
482,233,284213,1,0,0:0:0:0:
469,256,284255,1,0,0:0:0:0:
447,269,284296,1,0,0:0:0:0:
280,264,284380,2,0,L|176:268,2,104,8|2|0,0:0|1:0|0:0,0:0:0:0:
444,280,284880,1,2,1:0:0:0:
172,284,285046,2,0,L|100:284,1,52,10|0,0:0|0:0,0:0:0:0:
288,284,285213,2,0,L|224:284,1,52,10|0,0:0|0:0,0:0:0:0:
444,280,285380,5,10,1:0:0:0:
467,268,285421,1,0,0:0:0:0:
483,248,285463,1,0,0:0:0:0:
490,223,285505,1,0,0:0:0:0:
486,197,285546,1,2,0:0:0:0:
472,176,285588,1,0,0:0:0:0:
451,161,285630,1,0,0:0:0:0:
284,160,285713,2,0,L|284:268,1,104,10|2,0:0|1:0,0:0:0:0:
400,264,286046,5,2,0:0:0:0:
236,264,286130,2,0,L|172:264,1,52,0|2,3:0|1:0,0:0:0:0:
352,264,286296,2,0,L|412:264,1,52,0|10,3:0|0:0,0:0:0:0:
236,264,286463,2,0,L|172:264,1,52,0|2,3:0|0:0,0:0:0:0:
352,264,286630,1,0,3:0:0:0:
152,268,286713,6,0,B|144:0|144:0|256:248|256:248|108:28|108:28|300:224|300:224|60:88|60:88|320:160|320:160|52:159|52:159|352:160,1,2163.19990097657,2|2,1:0|2:0,0:0:0:0:
256,192,288213,12,0,290713,0:0:0:0:
