osu file format v14

[General]
AudioFilename: audio.mp3
AudioLeadIn: 0
PreviewTime: 21623
Countdown: 0
SampleSet: Normal
StackLeniency: 0.7
Mode: 1
LetterboxInBreaks: 0
WidescreenStoryboard: 1

[Editor]
Bookmarks: 290,10956,21623,42956,53623,64289,85623,96289,106956,117623,128289,149623,160289,170956
DistanceSpacing: 1.1
BeatDivisor: 4
GridSize: 32
TimelineZoom: 1.199999

[Metadata]
Title:Chromatic
TitleUnicode:Chromatic
Artist:Ardolf
ArtistUnicode:Ardolf
Creator:Fynbi
Version:Futsuu
Source:
Tags:fa featured artist electronic instrumental happy hardcore future bass breakcore
BeatmapID:3595139
BeatmapSetID:1538237

[Difficulty]
HPDrainRate:7.5
CircleSize:5
OverallDifficulty:4
ApproachRate:2
SliderMultiplier:1.4
SliderTickRate:1

[Events]
//Background and Video events
0,0,"vackground-iSaDQdcPozk-unsplash.jpg",0,0
//Break Periods
//Storyboard Layer 0 (Background)
//Storyboard Layer 1 (Fail)
//Storyboard Layer 2 (Pass)
//Storyboard Layer 3 (Foreground)
//Storyboard Layer 4 (Overlay)
//Storyboard Sound Samples

[TimingPoints]
290,333.333333333333,4,1,0,55,1,0
290,-100,4,1,0,55,0,0
8206,-100,4,1,0,75,0,0
10873,-100,4,1,0,85,0,0
20206,-100,4,1,0,70,0,0
21539,-100,4,1,0,90,0,0
43206,-100,4,1,0,75,0,0
45873,-100,4,1,0,80,0,0
48539,-100,4,1,0,85,0,0
50873,-100,4,1,0,95,0,0
62873,-100,4,1,0,85,0,0
64289,-100,4,1,0,100,0,1
73623,-100,4,1,0,100,0,0
75289,-100,4,1,0,100,0,1
80289,-100,4,1,0,100,0,0
82956,-100,4,1,0,100,0,1
84289,-100,4,1,0,80,0,0
85539,-100,4,1,0,60,0,0
86873,-100,4,1,0,55,0,0
93539,-100,4,1,0,75,0,0
97539,-100,4,1,0,65,0,0
105539,-100,4,1,0,70,0,0
106873,-100,4,1,0,75,0,0
109873,-100,4,1,0,80,0,0
112539,-100,4,1,0,85,0,0
114873,-100,4,1,0,95,0,0
126873,-100,4,1,0,85,0,0
128289,-100,4,1,0,100,0,1
137623,-100,4,1,0,100,0,0
139289,-100,4,1,0,100,0,1
144289,-100,4,1,0,100,0,0
146956,-100,4,1,0,100,0,1
148289,-100,4,1,0,100,0,0
149623,-100,4,1,0,100,0,1
150289,-100,4,1,0,95,0,0
160289,-100,4,1,0,90,0,0
170956,-100,4,1,0,55,0,0

[HitObjects]
233,207,290,5,12,0:0:0:0:
233,207,1623,5,0,0:0:0:0:
218,201,2956,5,8,0:0:0:0:
219,204,4289,5,8,0:0:0:0:
219,204,4956,5,0,0:0:0:0:
219,204,5623,5,8,0:0:0:0:
229,210,6956,5,0,0:0:0:0:
208,226,7623,5,8,0:0:0:0:
231,214,8289,5,0,0:0:0:0:
231,214,8623,5,8,0:0:0:0:
186,204,8956,5,0,0:0:0:0:
231,214,9123,5,0,0:0:0:0:
231,214,9289,5,8,0:0:0:0:
231,214,9623,5,0,0:0:0:0:
232,220,9956,5,8,0:0:0:0:
188,204,10289,5,8,0:0:0:0:
204,199,10456,5,0,0:0:0:0:
232,220,10623,5,8,0:0:0:0:
232,220,10956,5,0,0:0:0:0:
207,223,11623,5,8,0:0:0:0:
200,217,12289,5,0,0:0:0:0:
201,217,12956,5,8,0:0:0:0:
201,217,13623,5,0,0:0:0:0:
202,216,14289,5,0,0:0:0:0:
202,216,14956,5,8,0:0:0:0:
202,216,15623,5,8,0:0:0:0:
202,216,16289,5,0,0:0:0:0:
202,216,16623,5,8,0:0:0:0:
202,216,16956,5,0,0:0:0:0:
202,216,17289,5,8,0:0:0:0:
202,216,17623,5,0,0:0:0:0:
202,216,17956,5,8,0:0:0:0:
202,216,18289,5,0,0:0:0:0:
202,216,18623,5,8,0:0:0:0:
209,214,18956,5,0,0:0:0:0:
209,214,19123,5,0,0:0:0:0:
209,214,19289,5,0,0:0:0:0:
202,210,19623,5,8,0:0:0:0:
209,217,19789,5,8,0:0:0:0:
209,217,19956,5,8,0:0:0:0:
218,221,20289,5,0,0:0:0:0:
218,221,20623,5,8,0:0:0:0:
218,221,21123,5,8,0:0:0:0:
218,221,21289,5,4,0:0:0:0:
229,216,21623,5,12,0:0:0:0:
226,218,22289,5,8,0:0:0:0:
192,230,22539,5,8,0:0:0:0:
217,236,22956,5,8,0:0:0:0:
208,230,23623,5,0,0:0:0:0:
200,251,23789,5,0,0:0:0:0:
208,230,23956,5,8,0:0:0:0:
208,230,24289,5,12,0:0:0:0:
207,238,24956,5,0,0:0:0:0:
168,209,25206,5,0,0:0:0:0:
193,223,25623,5,12,0:0:0:0:
198,223,25956,5,8,0:0:0:0:
192,248,26289,5,8,0:0:0:0:
192,248,26456,5,0,0:0:0:0:
204,221,26623,5,8,0:0:0:0:
204,221,26956,5,12,0:0:0:0:
212,224,27289,5,0,0:0:0:0:
197,224,27623,5,8,0:0:0:0:
193,210,27873,5,8,0:0:0:0:
193,210,28289,5,8,0:0:0:0:
195,225,28956,5,0,0:0:0:0:
187,250,29123,5,0,0:0:0:0:
195,225,29289,5,8,0:0:0:0:
195,225,29623,5,12,0:0:0:0:
198,230,30289,5,8,0:0:0:0:
217,237,30539,5,8,0:0:0:0:
215,236,30956,5,4,0:0:0:0:
222,219,31289,5,8,0:0:0:0:
218,218,31623,5,0,0:0:0:0:
187,250,31789,5,0,0:0:0:0:
222,219,31956,5,8,0:0:0:0:
222,219,32289,5,12,0:0:0:0:
206,251,32956,5,4,0:0:0:0:
215,285,33623,5,12,0:0:0:0:
235,265,34289,5,0,0:0:0:0:
183,249,34456,5,0,0:0:0:0:
235,265,34623,5,8,0:0:0:0:
233,260,34956,5,12,0:0:0:0:
255,256,35623,5,0,0:0:0:0:
250,253,35956,5,0,0:0:0:0:
250,253,36123,5,0,0:0:0:0:
250,253,36289,5,12,0:0:0:0:
232,254,36623,5,8,0:0:0:0:
228,249,36956,5,8,0:0:0:0:
228,249,37123,5,0,0:0:0:0:
169,230,37289,5,8,0:0:0:0:
169,230,37623,5,12,0:0:0:0:
192,232,37956,5,0,0:0:0:0:
167,230,38289,5,8,0:0:0:0:
167,231,38539,5,0,0:0:0:0:
167,231,38956,5,12,0:0:0:0:
197,243,39623,5,0,0:0:0:0:
197,243,39789,5,0,0:0:0:0:
197,243,39956,5,8,0:0:0:0:
191,244,40289,5,12,0:0:0:0:
200,220,40956,5,0,0:0:0:0:
214,214,41289,5,0,0:0:0:0:
201,216,41623,5,8,0:0:0:0:
200,216,41789,5,0,0:0:0:0:
200,216,41956,5,8,0:0:0:0:
200,216,42289,5,8,0:0:0:0:
200,216,42456,5,0,0:0:0:0:
200,216,42623,5,8,0:0:0:0:
200,216,42789,5,8,0:0:0:0:
200,216,42956,5,0,0:0:0:0:
220,231,43289,5,8,0:0:0:0:
220,231,43456,5,0,0:0:0:0:
219,230,43956,5,0,0:0:0:0:
219,230,44289,5,0,0:0:0:0:
218,230,44623,5,8,0:0:0:0:
218,230,44789,5,0,0:0:0:0:
217,230,45289,5,8,0:0:0:0:
217,230,45623,5,8,0:0:0:0:
216,229,45956,5,8,0:0:0:0:
216,229,46123,5,0,0:0:0:0:
216,229,46623,5,8,0:0:0:0:
216,229,46956,5,8,0:0:0:0:
198,241,47623,5,0,0:0:0:0:
193,241,47956,5,0,0:0:0:0:
193,241,48289,5,8,0:0:0:0:
191,241,48623,5,8,0:0:0:0:
191,241,48789,5,0,0:0:0:0:
191,241,49289,5,8,0:0:0:0:
184,235,49623,5,8,0:0:0:0:
182,234,49956,5,8,0:0:0:0:
182,234,50123,5,0,0:0:0:0:
176,230,50623,5,8,0:0:0:0:
172,226,50956,5,0,0:0:0:0:
170,219,51206,5,8,0:0:0:0:
170,219,51456,5,0,0:0:0:0:
168,216,51956,5,0,0:0:0:0:
176,214,52289,5,12,0:0:0:0:
198,232,52789,1,8,0:0:0:0:
176,212,52956,5,4,0:0:0:0:
198,232,53456,1,0,0:0:0:0:
181,225,53623,5,8,0:0:0:0:
181,225,53789,5,8,0:0:0:0:
181,225,53956,5,8,0:0:0:0:
159,207,54289,5,0,0:0:0:0:
137,242,54623,5,0,0:0:0:0:
196,221,54956,5,8,0:0:0:0:
196,221,55123,5,8,0:0:0:0:
196,221,55289,5,8,0:0:0:0:
186,227,55623,5,0,0:0:0:0:
196,221,56289,5,8,0:0:0:0:
196,221,56456,5,8,0:0:0:0:
196,221,56623,5,8,0:0:0:0:
196,221,56956,5,0,0:0:0:0:
200,227,57289,5,0,0:0:0:0:
193,237,57456,5,0,0:0:0:0:
193,237,57623,5,8,0:0:0:0:
200,253,57956,5,8,0:0:0:0:
216,256,58289,5,0,0:0:0:0:
196,267,58956,5,8,0:0:0:0:
200,279,59289,5,8,0:0:0:0:
200,279,59623,5,0,0:0:0:0:
200,279,59956,5,0,0:0:0:0:
204,275,60289,5,8,0:0:0:0:
204,275,60623,5,8,0:0:0:0:
202,274,60956,5,0,0:0:0:0:
202,274,61289,5,8,0:0:0:0:
204,268,61623,5,0,0:0:0:0:
204,268,61789,5,0,0:0:0:0:
198,266,61956,5,0,0:0:0:0:
204,268,62289,5,8,0:0:0:0:
198,264,62456,5,8,0:0:0:0:
198,264,62623,5,8,0:0:0:0:
198,264,62956,5,0,0:0:0:0:
198,264,63289,5,8,0:0:0:0:
198,264,63789,5,8,0:0:0:0:
210,249,63956,5,4,0:0:0:0:
213,243,64289,5,12,0:0:0:0:
200,250,64623,5,0,0:0:0:0:
200,250,64789,5,8,0:0:0:0:
198,254,65289,5,8,0:0:0:0:
194,259,65456,5,0,0:0:0:0:
194,259,65623,5,8,0:0:0:0:
237,274,65956,5,0,0:0:0:0:
214,260,66123,5,8,0:0:0:0:
240,267,66623,5,8,0:0:0:0:
240,268,66789,5,8,0:0:0:0:
240,268,66956,5,0,0:0:0:0:
241,257,67623,5,0,0:0:0:0:
243,258,67956,5,0,0:0:0:0:
215,226,68289,5,8,0:0:0:0:
197,227,68623,5,0,0:0:0:0:
197,227,68956,5,8,0:0:0:0:
197,227,69123,5,0,0:0:0:0:
217,220,69289,5,0,0:0:0:0:
213,243,69623,5,8,0:0:0:0:
200,250,69956,5,0,0:0:0:0:
200,250,70123,5,8,0:0:0:0:
198,254,70623,5,8,0:0:0:0:
194,259,70789,5,0,0:0:0:0:
194,259,70956,5,8,0:0:0:0:
237,274,71289,5,0,0:0:0:0:
214,260,71456,5,8,0:0:0:0:
240,267,71956,5,8,0:0:0:0:
240,268,72123,5,8,0:0:0:0:
240,268,72289,5,0,0:0:0:0:
243,258,72539,5,8,0:0:0:0:
241,257,72789,5,0,0:0:0:0:
222,207,73289,5,0,0:0:0:0:
239,220,73623,5,8,0:0:0:0:
222,223,74289,5,8,0:0:0:0:
235,195,74623,5,0,0:0:0:0:
234,214,74789,5,0,0:0:0:0:
234,214,74956,5,0,0:0:0:0:
200,250,75289,5,12,0:0:0:0:
198,254,75956,5,8,0:0:0:0:
194,259,76123,5,0,0:0:0:0:
194,259,76289,5,8,0:0:0:0:
237,274,76623,5,0,0:0:0:0:
214,260,76789,5,8,0:0:0:0:
240,267,77289,5,8,0:0:0:0:
240,268,77456,5,8,0:0:0:0:
240,268,77623,5,0,0:0:0:0:
241,257,78289,5,0,0:0:0:0:
209,218,78623,5,0,0:0:0:0:
215,226,78956,5,8,0:0:0:0:
242,252,79289,5,0,0:0:0:0:
212,226,79623,5,8,0:0:0:0:
223,243,79789,5,0,0:0:0:0:
217,220,79956,5,0,0:0:0:0:
213,243,80289,5,12,0:0:0:0:
226,233,80956,5,12,0:0:0:0:
225,232,81623,5,4,0:0:0:0:
225,231,82289,5,4,0:0:0:0:
223,230,82956,5,8,0:0:0:0:
232,211,83289,5,8,0:0:0:0:
239,238,83623,5,0,0:0:0:0:
218,207,83789,5,0,0:0:0:0:
239,238,83956,5,0,0:0:0:0:
239,238,84289,5,8,0:0:0:0:
237,237,84956,5,0,0:0:0:0:
243,228,85623,5,12,0:0:0:0:
241,227,86956,5,0,0:0:0:0:
241,227,88289,5,8,0:0:0:0:
241,227,89623,5,0,0:0:0:0:
241,227,89957,5,8,0:0:0:0:
241,227,90290,5,0,0:0:0:0:
241,227,90623,5,8,0:0:0:0:
241,227,90956,5,8,0:0:0:0:
254,208,91289,5,0,0:0:0:0:
254,208,91456,5,8,0:0:0:0:
250,214,91956,5,8,0:0:0:0:
250,214,92123,5,0,0:0:0:0:
250,214,92289,5,8,0:0:0:0:
235,197,92956,5,8,0:0:0:0:
236,197,93623,5,0,0:0:0:0:
236,197,93956,5,8,0:0:0:0:
228,208,94289,5,0,0:0:0:0:
221,212,94456,5,0,0:0:0:0:
221,212,94623,5,8,0:0:0:0:
221,212,94956,5,0,0:0:0:0:
221,212,95289,5,8,0:0:0:0:
238,223,95623,5,8,0:0:0:0:
233,227,95789,5,0,0:0:0:0:
234,228,95956,5,8,0:0:0:0:
234,228,96289,5,12,0:0:0:0:
228,224,97623,5,8,0:0:0:0:
228,223,98956,5,0,0:0:0:0:
223,220,100289,5,0,0:0:0:0:
227,220,101623,5,8,0:0:0:0:
218,220,102956,5,0,0:0:0:0:
214,221,104289,5,8,0:0:0:0:
214,221,105623,5,0,0:0:0:0:
210,217,105956,5,0,0:0:0:0:
210,217,106289,5,8,0:0:0:0:
210,217,106623,5,8,0:0:0:0:
210,217,106789,5,8,0:0:0:0:
200,216,106956,5,0,0:0:0:0:
220,231,107289,5,8,0:0:0:0:
220,231,107456,5,0,0:0:0:0:
219,230,107956,5,0,0:0:0:0:
217,240,108123,5,0,0:0:0:0:
219,230,108289,5,8,0:0:0:0:
218,230,108623,5,8,0:0:0:0:
210,234,108789,5,0,0:0:0:0:
217,230,109289,5,8,0:0:0:0:
217,230,109456,5,8,0:0:0:0:
217,230,109623,5,0,0:0:0:0:
216,229,109956,5,8,0:0:0:0:
216,229,110123,5,0,0:0:0:0:
216,229,110623,5,8,0:0:0:0:
222,237,110789,5,8,0:0:0:0:
216,229,110956,5,8,0:0:0:0:
236,230,111289,5,0,0:0:0:0:
214,228,111456,5,8,0:0:0:0:
193,241,112289,5,8,0:0:0:0:
191,241,112623,5,8,0:0:0:0:
191,241,112789,5,0,0:0:0:0:
191,241,113289,5,0,0:0:0:0:
184,235,113456,5,0,0:0:0:0:
184,235,113623,5,8,0:0:0:0:
182,234,113956,5,8,0:0:0:0:
182,234,114123,5,0,0:0:0:0:
176,230,114623,5,8,0:0:0:0:
176,230,114789,5,8,0:0:0:0:
172,226,114956,5,0,0:0:0:0:
170,219,115289,5,8,0:0:0:0:
170,219,115456,5,0,0:0:0:0:
168,216,115956,5,0,0:0:0:0:
175,223,116289,5,12,0:0:0:0:
176,234,116789,5,8,0:0:0:0:
175,223,116956,5,4,0:0:0:0:
176,234,117456,5,0,0:0:0:0:
181,225,117623,5,8,0:0:0:0:
181,225,117789,5,8,0:0:0:0:
181,225,117956,5,8,0:0:0:0:
186,227,118289,5,0,0:0:0:0:
200,231,118623,5,0,0:0:0:0:
196,221,118956,5,8,0:0:0:0:
196,221,119123,5,8,0:0:0:0:
196,221,119289,5,8,0:0:0:0:
186,227,119623,5,0,0:0:0:0:
196,221,120289,5,8,0:0:0:0:
196,221,120456,5,8,0:0:0:0:
196,221,120623,5,8,0:0:0:0:
196,221,120956,5,0,0:0:0:0:
200,227,121289,5,0,0:0:0:0:
193,237,121456,5,0,0:0:0:0:
193,237,121623,5,8,0:0:0:0:
200,253,121956,5,8,0:0:0:0:
193,238,122623,5,0,0:0:0:0:
196,267,122956,5,8,0:0:0:0:
200,279,123289,5,8,0:0:0:0:
200,279,123623,5,0,0:0:0:0:
200,279,123956,5,0,0:0:0:0:
204,275,124289,5,8,0:0:0:0:
204,275,124623,5,8,0:0:0:0:
202,274,124956,5,0,0:0:0:0:
202,274,125289,5,8,0:0:0:0:
204,268,125623,5,0,0:0:0:0:
204,268,125789,5,0,0:0:0:0:
198,266,125956,5,0,0:0:0:0:
204,268,126289,5,8,0:0:0:0:
198,264,126456,5,8,0:0:0:0:
198,264,126623,5,8,0:0:0:0:
198,264,126956,5,0,0:0:0:0:
198,264,127289,5,8,0:0:0:0:
198,264,127789,5,8,0:0:0:0:
210,249,127956,5,4,0:0:0:0:
213,243,128289,5,12,0:0:0:0:
200,250,128623,5,0,0:0:0:0:
200,250,128789,5,8,0:0:0:0:
199,247,129289,5,8,0:0:0:0:
194,259,129456,5,0,0:0:0:0:
194,259,129623,5,8,0:0:0:0:
237,274,129956,5,0,0:0:0:0:
214,260,130123,5,8,0:0:0:0:
240,267,130623,5,0,0:0:0:0:
240,268,130789,5,8,0:0:0:0:
240,268,130956,5,0,0:0:0:0:
241,257,131623,5,0,0:0:0:0:
243,258,131956,5,0,0:0:0:0:
215,226,132289,5,8,0:0:0:0:
242,252,132623,5,8,0:0:0:0:
192,206,132789,5,8,0:0:0:0:
179,248,133123,5,0,0:0:0:0:
185,249,133289,5,0,0:0:0:0:
213,243,133623,5,8,0:0:0:0:
200,250,133956,5,0,0:0:0:0:
200,250,134123,5,8,0:0:0:0:
252,278,134623,5,0,0:0:0:0:
194,259,134789,5,0,0:0:0:0:
194,259,134956,5,8,0:0:0:0:
237,274,135289,5,0,0:0:0:0:
214,260,135456,5,8,0:0:0:0:
240,267,135956,5,8,0:0:0:0:
240,268,136123,5,8,0:0:0:0:
240,268,136289,5,0,0:0:0:0:
241,257,136623,5,0,0:0:0:0:
243,258,136789,5,8,0:0:0:0:
224,233,137289,5,8,0:0:0:0:
224,233,137456,5,0,0:0:0:0:
239,220,137623,5,8,0:0:0:0:
243,232,138289,5,8,0:0:0:0:
235,195,138623,5,0,0:0:0:0:
234,214,138789,5,0,0:0:0:0:
234,214,138956,5,0,0:0:0:0:
200,250,139289,5,12,0:0:0:0:
176,242,139956,5,0,0:0:0:0:
194,259,140123,5,0,0:0:0:0:
194,259,140289,5,8,0:0:0:0:
237,274,140623,5,0,0:0:0:0:
214,260,140789,5,8,0:0:0:0:
240,267,141289,5,0,0:0:0:0:
240,268,141456,5,8,0:0:0:0:
226,222,141623,5,0,0:0:0:0:
241,257,142289,5,0,0:0:0:0:
243,258,142623,5,0,0:0:0:0:
215,226,142956,5,8,0:0:0:0:
242,252,143289,5,8,0:0:0:0:
212,226,143456,5,8,0:0:0:0:
219,215,143789,5,0,0:0:0:0:
217,220,143956,5,0,0:0:0:0:
213,243,144289,5,12,0:0:0:0:
226,233,144956,5,12,0:0:0:0:
225,232,145623,5,4,0:0:0:0:
225,231,146289,5,4,0:0:0:0:
223,230,146956,5,8,0:0:0:0:
232,211,147289,5,8,0:0:0:0:
239,238,147623,5,0,0:0:0:0:
239,238,147789,5,0,0:0:0:0:
239,238,147956,5,0,0:0:0:0:
239,238,148289,5,8,0:0:0:0:
237,237,148956,5,0,0:0:0:0:
200,227,149623,5,12,0:0:0:0:
216,227,149956,5,0,0:0:0:0:
216,227,150289,5,8,0:0:0:0:
202,229,150623,5,8,0:0:0:0:
202,229,150789,5,8,0:0:0:0:
202,229,150956,5,0,0:0:0:0:
202,229,151456,5,0,0:0:0:0:
202,229,151623,5,8,0:0:0:0:
204,234,152289,5,8,0:0:0:0:
217,231,152623,5,0,0:0:0:0:
210,230,152956,5,8,0:0:0:0:
215,220,153289,5,8,0:0:0:0:
194,228,153456,5,8,0:0:0:0:
209,239,153623,5,0,0:0:0:0:
202,240,154123,5,0,0:0:0:0:
198,236,154289,5,8,0:0:0:0:
198,236,154956,5,0,0:0:0:0:
189,247,155289,5,0,0:0:0:0:
189,247,155623,5,8,0:0:0:0:
186,237,155956,5,8,0:0:0:0:
186,237,156123,5,0,0:0:0:0:
186,237,156289,5,0,0:0:0:0:
186,237,156456,5,8,0:0:0:0:
186,237,156789,5,0,0:0:0:0:
186,237,156956,5,8,0:0:0:0:
186,230,157623,5,0,0:0:0:0:
186,230,157956,5,8,0:0:0:0:
190,227,158289,5,8,0:0:0:0:
190,227,158623,5,0,0:0:0:0:
190,231,158956,5,8,0:0:0:0:
168,226,159123,5,0,0:0:0:0:
188,231,159289,5,8,0:0:0:0:
190,227,159623,5,8,0:0:0:0:
197,236,159789,5,8,0:0:0:0:
191,249,159956,5,4,0:0:0:0:
222,219,160289,5,12,0:0:0:0:
206,251,160956,5,4,0:0:0:0:
215,285,161623,5,12,0:0:0:0:
235,265,162289,5,0,0:0:0:0:
235,265,162456,5,0,0:0:0:0:
235,265,162623,5,8,0:0:0:0:
233,260,162956,5,12,0:0:0:0:
255,256,163623,5,0,0:0:0:0:
250,253,163956,5,0,0:0:0:0:
250,253,164123,5,0,0:0:0:0:
250,253,164289,5,12,0:0:0:0:
232,254,164623,5,8,0:0:0:0:
228,249,164956,5,8,0:0:0:0:
228,249,165123,5,0,0:0:0:0:
169,230,165289,5,8,0:0:0:0:
169,230,165623,5,12,0:0:0:0:
192,232,165956,5,0,0:0:0:0:
167,230,166289,5,8,0:0:0:0:
167,231,166539,5,0,0:0:0:0:
167,231,166956,5,12,0:0:0:0:
197,243,167623,5,0,0:0:0:0:
197,243,167789,5,0,0:0:0:0:
197,243,167956,5,8,0:0:0:0:
191,244,168289,5,12,0:0:0:0:
200,220,168956,5,0,0:0:0:0:
214,214,169289,5,0,0:0:0:0:
201,216,169623,5,8,0:0:0:0:
201,216,169789,5,0,0:0:0:0:
200,216,169956,5,8,0:0:0:0:
200,216,170289,5,8,0:0:0:0:
234,235,170456,5,0,0:0:0:0:
200,216,170623,5,8,0:0:0:0:
200,216,170789,5,8,0:0:0:0:
256,192,170956,12,0,173289,0:0:0:0:
197,175,173623,5,8,0:0:0:0:
188,178,174956,5,0,0:0:0:0:
189,178,175623,5,0,0:0:0:0:
189,178,176289,5,8,0:0:0:0:
248,182,177623,5,8,0:0:0:0:
248,186,178289,5,0,0:0:0:0:
248,186,178956,5,8,0:0:0:0:
248,186,180289,5,8,0:0:0:0:
248,186,180956,5,0,0:0:0:0:
