osu file format v14

[General]
AudioFilename: audio.mp3
AudioLeadIn: 0
PreviewTime: 53011
Countdown: 0
SampleSet: None
StackLeniency: 0.7
Mode: 0
LetterboxInBreaks: 0
WidescreenStoryboard: 1

[Editor]
DistanceSpacing: 0.5
BeatDivisor: 1
GridSize: 16
TimelineZoom: 2.9

[Metadata]
Title:Chousenjyou
TitleUnicode:挑戦狀
Artist:Ardolf
ArtistUnicode:Ardolf
Creator:YamiMyDaddy
Version:hs
Source:
Tags:electronic instrumental fa featured artist furry
BeatmapID:4577340
BeatmapSetID:2113359

[Difficulty]
HPDrainRate:5
CircleSize:3.8
OverallDifficulty:8.5
ApproachRate:9.3
SliderMultiplier:2
SliderTickRate:1

[Events]
//Background and Video events
0,0,"touhou.jpg",0,0
//Break Periods
2,32993,37457
2,117123,121261
//Storyboard Layer 0 (Background)
//Storyboard Layer 1 (Fail)
//Storyboard Layer 2 (Pass)
//Storyboard Layer 3 (Foreground)
//Storyboard Layer 4 (Overlay)
//Storyboard Sound Samples

[TimingPoints]
185,326.086956521739,4,2,1,100,1,0
185,-80,4,2,1,100,0,0
6706,-71.4285714285714,4,2,1,100,0,0
9315,-100,4,2,1,100,0,0
10619,-80,4,2,1,100,0,0
11924,-66.6666666666667,4,2,1,100,0,0
16815,-50,4,2,1,100,0,0
17141,-58.8235294117647,4,2,1,100,0,0
22358,-41.6666666666667,4,2,1,100,0,0
23011,-50,4,2,1,100,0,0
23337,-41.6666666666667,4,2,1,100,0,0
24967,-50,4,2,1,100,0,0
25293,-41.6666666666667,4,2,1,100,0,0
25619,-50,4,2,1,100,0,0
25945,-41.6666666666667,4,2,1,100,0,0
28228,-50,4,2,1,100,0,0
28554,-41.6666666666667,4,2,1,100,0,0
28880,-50,4,2,1,100,0,0
29532,-41.6666666666667,4,2,1,100,0,0
30837,-50,4,2,1,100,0,0
38011,-100,4,2,1,100,0,0
41598,-71.4285714285714,4,2,1,100,0,0
43228,-66.6666666666667,4,2,1,100,0,0
48445,-55.5555555555556,4,2,1,100,0,0
53663,-40,4,2,1,100,0,0
54315,-50,4,2,1,100,0,0
54804,-40,4,2,1,100,0,0
55130,-50,4,2,1,100,0,0
56108,-40,4,2,1,100,0,0
56434,-50,4,2,1,100,0,0
56842,-40,4,2,1,100,0,0
57087,-50,4,2,1,100,0,0
57576,-40,4,2,1,100,0,0
57902,-50,4,2,1,100,0,0
58880,-40,4,2,1,100,0,0
59206,-50,4,2,1,100,0,0
60184,-40,4,2,1,100,0,0
60511,-50,4,2,1,100,0,0
61489,-40,4,2,1,100,0,0
61815,-50,4,2,1,100,0,0
62141,-40,4,2,1,100,0,0
62467,-50,4,2,1,100,0,0
62793,-36.3636363636364,4,2,1,100,0,0
63608,-66.6666666666667,4,2,1,100,0,0
64098,-40,4,2,1,100,0,0
64750,-50,4,2,1,100,0,0
65239,-40,4,2,1,100,0,0
65565,-50,4,2,1,100,0,0
65728,-40,4,2,1,100,0,0
66054,-50,4,2,1,100,0,0
66543,-40,4,2,1,100,0,0
66869,-50,4,2,1,100,0,0
67277,-40,4,2,1,100,0,0
67521,-50,4,2,1,100,0,0
68011,-40,4,2,1,100,0,0
68337,-50,4,2,1,100,0,0
69315,-40,4,2,1,100,0,0
69804,-44.4444444444445,4,2,1,100,0,0
70619,-52.6315789473684,4,2,1,100,0,0
71108,-55.5555555555556,4,2,1,100,0,0
71924,-58.8235294117647,4,2,1,100,0,0
73228,-36.3636363636364,4,2,1,100,0,0
74532,-50,4,2,1,100,0,0
77141,-66.6666666666667,4,2,1,100,0,0
82358,-62.5,4,2,1,100,0,0
83989,-80,4,2,1,100,0,0
84641,-50,4,2,1,100,0,0
84967,-40,4,2,1,100,0,0
90511,-50,4,2,1,100,0,0
90837,-40,4,2,1,100,0,0
91163,-50,4,2,1,100,0,0
91489,-40,4,2,1,100,0,0
91815,-50,4,2,1,100,0,0
92141,-40,4,2,1,100,0,0
92467,-50,4,2,1,100,0,0
92793,-40,4,2,1,100,0,0
93119,-50,4,2,1,100,0,0
93445,-40,4,2,1,100,0,0
93690,-50,4,2,1,100,0,0
94098,-62.5,4,2,1,100,0,0
95402,-41.6666666666667,4,2,1,100,0,0
95728,-50,4,2,1,100,0,0
96380,-33.3333333333333,4,2,1,100,0,0
96706,-41.6666666666667,4,2,1,100,0,0
97032,-50,4,2,1,100,0,0
97684,-33.3333333333333,4,2,1,100,0,0
98011,-41.6666666666667,4,2,1,100,0,0
98337,-50,4,2,1,100,0,0
98663,-33.3333333333333,4,2,1,100,0,0
99967,-41.6666666666667,4,2,1,100,0,0
100945,-50,4,2,1,100,0,0
101598,-33.3333333333333,4,2,1,100,0,0
101924,-41.6666666666667,4,2,1,100,0,0
102250,-50,4,2,1,100,0,0
103228,-41.6666666666667,4,2,1,100,0,0
103554,-50,4,2,1,100,0,0
106489,326.086956521739,4,2,1,100,1,0
106489,-40,4,2,1,100,0,0
106815,-50,4,2,1,100,0,0
121815,-133.333333333333,4,2,1,100,0,0
122141,-100,4,2,1,100,0,0
122793,-95.2380952380952,4,2,1,100,0,0
123445,-90.9090909090909,4,2,1,100,0,0
124423,-66.6666666666667,4,2,1,100,0,0
124749,-50,4,2,1,100,0,0
127358,-40,4,2,1,100,0,0
128010,-50,4,2,1,100,0,0
128499,-40,4,2,1,100,0,0
128825,-50,4,2,1,100,0,0
129803,-40,4,2,1,100,0,0
130129,-50,4,2,1,100,0,0
130537,-40,4,2,1,100,0,0
130782,-50,4,2,1,100,0,0
131271,-40,4,2,1,100,0,0
131597,-50,4,2,1,100,0,0
132575,-40,4,2,1,100,0,0
132901,-50,4,2,1,100,0,0
133879,-40,4,2,1,100,0,0
134206,-50,4,2,1,100,0,0
135184,-40,4,2,1,100,0,0
135510,-50,4,2,1,100,0,0
135836,-40,4,2,1,100,0,0
136162,-50,4,2,1,100,0,0
136488,-36.3636363636364,4,2,1,100,0,0
137303,-66.6666666666667,4,2,1,100,0,0
137793,-37.7358490566038,4,2,1,100,0,0
138445,-46.5116279069767,4,2,1,100,0,0
138934,-37.7358490566038,4,2,1,100,0,0
139260,-46.5116279069767,4,2,1,100,0,0
139423,-37.7358490566038,4,2,1,100,0,0
139749,-46.5116279069767,4,2,1,100,0,0
140238,-37.7358490566038,4,2,1,100,0,0
140564,-46.5116279069767,4,2,1,100,0,0
140972,-37.7358490566038,4,2,1,100,0,0
141216,-46.5116279069767,4,2,1,100,0,0
141706,-37.7358490566038,4,2,1,100,0,0
142032,-46.5116279069767,4,2,1,100,0,0
143010,-37.7358490566038,4,2,1,100,0,0
143499,-41.6666666666667,4,2,1,100,0,0
144314,-47.6190476190476,4,2,1,100,0,0
144803,-50,4,2,1,100,0,0
145619,-54.054054054054,4,2,1,100,0,0
146923,-36.3636363636364,4,2,1,100,0,0
148227,-46.5116279069767,4,2,1,100,0,0

[HitObjects]
287,152,1163,5,8,2:1:0:0:
237,157,1244,1,8,2:1:0:0:
186,162,1326,1,8,2:1:0:0:
136,167,1407,1,8,2:1:0:0:
140,196,1489,1,12,3:2:0:0:
287,152,2141,5,8,2:1:0:0:
237,157,2222,1,8,2:1:0:0:
186,162,2304,1,8,2:1:0:0:
136,167,2385,1,8,2:1:0:0:
287,152,2467,5,8,2:1:0:0:
237,157,2548,1,8,2:1:0:0:
186,162,2630,1,8,2:1:0:0:
136,167,2711,1,8,2:1:0:0:
140,196,2793,1,12,3:2:0:0:
22,302,3445,5,8,2:1:0:0:
71,296,3527,1,8,2:1:0:0:
120,290,3608,1,8,2:1:0:0:
219,278,3771,1,2,0:0:0:0:
318,267,3934,1,2,0:0:0:0:
140,196,4098,1,12,3:2:0:0:
287,152,4750,5,8,2:1:0:0:
237,157,4831,1,8,2:1:0:0:
186,162,4913,1,8,2:1:0:0:
136,167,4994,1,8,2:1:0:0:
287,152,5076,5,8,2:1:0:0:
237,157,5157,1,8,2:1:0:0:
186,162,5239,1,8,2:1:0:0:
136,167,5320,1,8,2:1:0:0:
140,196,5402,1,12,3:2:0:0:
473,25,5565,1,2,0:0:0:0:
373,37,5728,1,2,0:0:0:0:
482,126,5891,1,2,0:0:0:0:
140,196,6054,1,12,3:2:0:0:
169,193,6217,1,2,0:0:0:0:
287,152,6380,5,8,2:1:0:0:
237,157,6461,1,8,2:1:0:0:
186,162,6543,1,8,2:1:0:0:
136,167,6624,1,8,2:1:0:0:
140,196,6706,1,12,3:2:0:0:
273,157,7032,1,8,2:1:0:0:
140,196,7358,1,8,3:2:0:0:
273,157,7439,1,8,2:1:0:0:
211,165,7521,1,8,2:1:0:0:
148,173,7602,1,8,2:1:0:0:
92,230,7684,1,8,2:1:0:0:
92,230,7766,1,8,2:1:0:0:
96,264,7848,1,8,2:1:0:0:
99,291,7929,1,8,2:1:0:0:
140,196,8011,1,12,3:2:0:0:
273,157,8337,1,8,2:1:0:0:
140,196,8663,1,8,3:2:0:0:
467,345,8744,1,0,0:0:0:0:
418,304,8826,1,0,0:0:0:0:
273,157,8989,1,8,2:1:0:0:
273,157,9152,1,8,2:1:0:0:
140,196,9315,1,12,3:2:0:0:
224,211,9478,1,2,0:0:0:0:
166,221,9641,1,2,0:0:0:0:
106,232,9804,1,2,0:0:0:0:
140,196,9967,1,12,3:2:0:0:
106,232,10130,1,2,0:0:0:0:
106,232,10293,1,2,0:0:0:0:
106,232,10456,1,2,0:0:0:0:
140,196,10619,1,8,3:2:0:0:
407,300,10701,1,8,2:1:0:0:
401,309,10782,1,8,2:1:0:0:
390,303,10864,1,8,2:1:0:0:
140,196,10945,1,8,3:2:0:0:
336,260,11027,1,8,2:1:0:0:
310,196,11108,1,8,2:1:0:0:
308,128,11189,1,8,2:1:0:0:
140,196,11271,1,8,3:2:0:0:
252,158,11353,1,8,2:1:0:0:
365,87,11434,1,8,2:1:0:0:
437,200,11516,1,8,2:1:0:0:
140,196,11598,1,8,3:1:0:0:
183,340,11706,5,8,3:1:0:0:
105,308,11815,5,8,3:1:0:0:
84,262,11924,1,14,0:0:0:0:
263,318,12087,1,2,0:0:0:0:
321,327,12168,1,2,0:0:0:0:
371,294,12250,1,2,0:0:0:0:
214,154,12413,1,2,0:0:0:0:
84,262,12576,1,10,0:0:0:0:
71,238,12739,1,2,0:0:0:0:
354,197,12902,1,2,0:0:0:0:
168,294,13065,1,2,0:0:0:0:
84,262,13228,1,10,0:0:0:0:
501,267,13391,1,2,0:0:0:0:
497,327,13473,1,2,0:0:0:0:
437,324,13554,1,2,0:0:0:0:
507,126,13717,1,2,0:0:0:0:
84,262,13880,1,10,0:0:0:0:
73,349,14043,5,10,2:1:0:0:
83,226,14125,1,10,2:1:0:0:
83,226,14206,1,10,2:1:0:0:
83,226,14369,1,2,0:0:0:0:
84,262,14532,1,10,0:0:0:0:
230,215,14695,1,2,0:0:0:0:
286,232,14776,1,2,0:0:0:0:
340,206,14858,1,2,0:0:0:0:
202,47,15021,1,2,0:0:0:0:
84,262,15184,1,10,0:0:0:0:
83,226,15348,1,2,0:0:0:0:
77,80,15510,1,2,0:0:0:0:
230,215,15673,1,2,0:0:0:0:
84,262,15837,1,10,0:0:0:0:
23,105,16000,1,2,0:0:0:0:
77,80,16081,1,2,0:0:0:0:
108,131,16163,1,2,0:0:0:0:
36,227,16326,1,2,0:0:0:0:
84,262,16489,1,10,0:0:0:0:
260,92,16652,5,2,0:0:0:0:
208,145,16734,1,2,0:0:0:0:
83,226,16815,1,6,0:0:0:0:
83,226,17141,1,12,0:0:0:0:
412,236,17358,1,2,3:1:0:0:
322,217,17467,1,2,3:1:0:0:
282,298,17576,1,2,3:1:0:0:
160,237,17684,5,2,3:1:0:0:
83,226,17793,1,10,3:1:0:0:
160,237,18011,5,2,3:1:0:0:
134,150,18119,1,2,3:1:0:0:
203,91,18228,1,2,3:1:0:0:
290,117,18337,1,2,3:1:0:0:
83,226,18445,1,10,3:1:0:0:
439,178,18663,5,2,3:1:0:0:
349,187,18771,1,2,3:1:0:0:
290,117,18880,1,2,3:1:0:0:
312,28,18989,1,2,3:1:0:0:
412,80,19098,5,10,3:2:0:0:
355,164,19206,1,2,3:1:0:0:
400,255,19315,1,2,3:1:0:0:
318,317,19424,5,10,3:2:0:0:
391,246,19532,1,2,3:1:0:0:
340,157,19641,1,2,3:1:0:0:
306,166,19750,1,10,3:2:0:0:
223,94,19967,5,2,3:1:0:0:
174,171,20076,1,2,3:1:0:0:
228,242,20184,1,2,3:1:0:0:
318,317,20293,5,2,3:1:0:0:
280,301,20402,1,10,3:1:0:0:
121,236,20728,1,2,3:1:0:0:
93,225,21054,1,10,3:1:0:0:
366,46,21271,5,2,3:1:0:0:
93,225,21380,1,10,3:1:0:0:
237,81,21598,5,2,3:1:0:0:
93,225,21706,1,10,3:1:0:0:
93,225,22032,1,2,3:1:0:0:
316,126,22358,1,14,0:0:0:0:
216,192,22521,1,0,0:0:0:0:
281,299,22603,5,0,0:0:0:0:
214,263,22684,1,0,0:0:0:0:
214,263,22848,1,0,0:0:0:0:
388,324,22929,5,0,0:0:0:0:
340,306,23011,1,0,0:0:0:0:
246,271,23174,1,0,0:0:0:0:
214,263,23337,1,0,0:0:0:0:
188,263,23663,1,0,0:0:0:0:
188,263,23826,1,0,0:0:0:0:
188,263,23989,1,0,0:0:0:0:
107,101,24152,5,0,0:0:0:0:
107,101,24233,1,0,0:0:0:0:
188,263,24315,1,0,0:0:0:0:
188,263,24478,1,0,0:0:0:0:
188,263,24641,1,0,0:0:0:0:
56,173,24723,1,0,0:0:0:0:
61,220,24804,1,0,0:0:0:0:
67,267,24886,1,0,0:0:0:0:
188,263,24967,1,0,0:0:0:0:
188,263,25130,1,0,0:0:0:0:
188,263,25293,1,0,0:0:0:0:
188,263,25456,1,0,0:0:0:0:
188,263,25538,1,0,0:0:0:0:
188,263,25619,1,0,0:0:0:0:
188,263,25782,1,0,0:0:0:0:
188,263,25945,1,0,0:0:0:0:
188,263,26271,1,0,0:0:0:0:
188,263,26434,1,0,0:0:0:0:
188,263,26598,1,0,0:0:0:0:
471,350,26761,1,0,0:0:0:0:
471,350,26842,1,0,0:0:0:0:
471,350,26924,5,0,0:0:0:0:
217,271,27168,1,0,0:0:0:0:
441,155,27413,1,0,0:0:0:0:
188,263,27576,1,0,0:0:0:0:
188,263,27739,1,0,0:0:0:0:
217,271,27820,5,0,0:0:0:0:
188,263,27902,1,0,0:0:0:0:
188,263,28065,1,0,0:0:0:0:
501,338,28146,5,0,0:0:0:0:
188,263,28228,1,0,0:0:0:0:
188,263,28391,1,0,0:0:0:0:
188,263,28554,1,0,0:0:0:0:
188,263,28880,1,0,0:0:0:0:
188,263,29043,1,0,0:0:0:0:
188,263,29206,1,0,0:0:0:0:
247,42,29369,1,0,0:0:0:0:
188,263,29532,1,0,0:0:0:0:
188,263,29695,1,0,0:0:0:0:
188,263,29858,1,0,0:0:0:0:
262,334,30021,5,0,0:0:0:0:
262,334,30103,1,0,0:0:0:0:
188,263,30184,1,0,0:0:0:0:
188,263,30348,1,0,0:0:0:0:
434,103,30429,5,0,0:0:0:0:
188,263,30511,1,0,0:0:0:0:
188,263,30674,1,0,0:0:0:0:
58,311,30755,1,0,0:0:0:0:
58,311,30837,5,0,0:0:0:0:
82,320,30918,1,0,0:0:0:0:
117,315,31000,1,0,0:0:0:0:
154,289,31081,1,0,0:0:0:0:
170,237,31163,1,0,0:0:0:0:
147,177,31244,1,0,0:0:0:0:
174,110,31326,1,0,0:0:0:0:
253,94,31407,1,0,0:0:0:0:
188,263,31489,1,0,0:0:0:0:
188,263,31570,1,0,0:0:0:0:
202,362,31652,5,0,0:0:0:0:
198,332,31733,1,0,0:0:0:0:
193,291,31815,1,0,0:0:0:0:
187,241,31896,1,0,0:0:0:0:
181,180,31978,1,0,0:0:0:0:
174,110,32059,1,0,0:0:0:0:
167,29,32141,5,0,0:0:0:0:
167,29,32386,1,0,0:0:0:0:
167,29,32630,1,0,0:0:0:0:
263,53,32793,1,0,0:0:0:0:
189,266,38011,5,0,0:0:0:0:
189,266,38989,1,0,0:0:0:0:
391,181,39233,5,0,0:0:0:0:
189,266,39315,1,0,0:0:0:0:
189,266,40293,1,0,0:0:0:0:
58,319,40538,5,0,0:0:0:0:
189,266,40619,1,0,0:0:0:0:
260,334,41108,1,0,0:0:0:0:
189,266,41271,1,0,0:0:0:0:
189,266,41598,1,0,0:0:0:0:
189,266,41924,1,0,0:0:0:0:
455,358,42250,5,0,0:0:0:0:
448,302,42331,1,0,0:0:0:0:
441,246,42413,1,0,0:0:0:0:
434,190,42494,1,0,0:0:0:0:
427,134,42576,1,0,0:0:0:0:
341,341,42902,1,0,0:0:0:0:
197,270,43228,1,0,0:0:0:0:
197,270,43391,1,0,0:0:0:0:
197,270,43554,1,0,0:0:0:0:
197,270,43717,1,0,0:0:0:0:
236,379,43880,5,0,0:0:0:0:
236,379,44043,1,0,0:0:0:0:
197,270,44206,1,0,0:0:0:0:
125,248,44369,1,0,0:0:0:0:
197,270,44451,1,0,0:0:0:0:
389,159,44532,5,0,0:0:0:0:
270,174,44695,1,0,0:0:0:0:
373,40,44858,1,0,0:0:0:0:
254,55,45021,1,0,0:0:0:0:
197,270,45184,1,0,0:0:0:0:
197,270,45348,1,0,0:0:0:0:
197,270,45511,1,0,0:0:0:0:
197,270,45674,1,0,0:0:0:0:
286,308,45755,1,0,0:0:0:0:
286,308,45837,5,0,0:0:0:0:
418,247,45999,1,0,0:0:0:0:
214,138,46163,5,0,0:0:0:0:
169,173,46326,1,0,0:0:0:0:
121,211,46489,1,0,0:0:0:0:
56,262,46652,1,0,0:0:0:0:
34,280,46815,1,0,0:0:0:0:
34,280,46978,1,0,0:0:0:0:
487,178,47059,1,0,0:0:0:0:
34,280,47141,1,0,0:0:0:0:
34,280,47304,1,0,0:0:0:0:
510,371,47467,5,0,0:0:0:0:
34,280,47630,1,0,0:0:0:0:
34,280,47793,1,0,0:0:0:0:
446,56,47956,5,0,0:0:0:0:
356,64,48119,1,0,0:0:0:0:
271,33,48282,1,0,0:0:0:0:
34,280,48445,1,0,0:0:0:0:
186,287,48771,1,0,0:0:0:0:
34,280,48934,1,0,0:0:0:0:
91,240,49261,1,0,0:0:0:0:
59,136,49424,1,0,0:0:0:0:
163,108,49587,1,0,0:0:0:0:
34,280,49750,1,0,0:0:0:0:
379,211,50076,1,0,0:0:0:0:
34,280,50239,1,0,0:0:0:0:
85,59,50565,1,0,0:0:0:0:
247,135,50728,1,0,0:0:0:0:
99,312,50891,5,0,0:0:0:0:
99,312,50973,1,0,0:0:0:0:
34,280,51054,1,0,0:0:0:0:
424,284,51380,1,0,0:0:0:0:
34,280,51543,1,0,0:0:0:0:
336,185,51869,1,0,0:0:0:0:
157,161,52032,1,0,0:0:0:0:
203,331,52195,1,0,0:0:0:0:
34,280,52358,1,0,0:0:0:0:
20,325,52684,5,0,0:0:0:0:
69,317,52765,1,0,0:0:0:0:
119,310,52847,1,0,0:0:0:0:
168,303,52928,1,0,0:0:0:0:
219,297,53011,5,0,0:0:0:0:
328,346,53174,1,0,0:0:0:0:
395,246,53337,1,0,0:0:0:0:
395,246,53500,1,0,0:0:0:0:
266,261,53663,1,0,0:0:0:0:
37,289,53989,1,0,0:0:0:0:
116,294,54233,5,0,0:0:0:0:
37,289,54315,1,0,0:0:0:0:
37,289,54478,1,0,0:0:0:0:
37,289,54641,1,0,0:0:0:0:
37,289,54804,1,0,0:0:0:0:
72,74,55130,1,0,0:0:0:0:
52,193,55293,1,0,0:0:0:0:
358,25,55456,5,0,0:0:0:0:
317,25,55538,1,0,0:0:0:0:
277,53,55619,1,0,0:0:0:0:
192,113,55782,1,0,0:0:0:0:
104,176,55945,1,0,0:0:0:0:
49,217,56108,1,0,0:0:0:0:
49,217,56434,1,0,0:0:0:0:
49,217,56598,1,0,0:0:0:0:
118,92,56761,5,0,0:0:0:0:
49,217,56842,1,0,0:0:0:0:
49,217,57087,1,0,0:0:0:0:
49,217,57250,1,0,0:0:0:0:
49,217,57413,1,0,0:0:0:0:
49,217,57576,1,0,0:0:0:0:
49,217,57902,1,0,0:0:0:0:
492,92,58065,5,8,2:1:0:0:
474,82,58146,1,8,2:1:0:0:
434,74,58228,1,8,3:2:0:0:
374,79,58309,1,8,2:1:0:0:
327,130,58390,1,8,2:1:0:0:
266,167,58473,1,8,2:1:0:0:
266,167,58554,1,8,2:1:0:0:
49,217,58717,1,2,0:0:0:0:
49,217,58880,1,8,3:2:0:0:
49,217,59206,1,0,0:0:0:0:
492,92,59369,5,8,2:1:0:0:
474,82,59450,1,8,2:1:0:0:
434,74,59532,1,8,3:2:0:0:
374,79,59613,1,8,2:1:0:0:
327,130,59694,1,8,2:1:0:0:
266,167,59777,1,8,2:1:0:0:
49,217,59858,1,8,3:2:0:0:
49,217,60021,1,2,0:0:0:0:
49,217,60184,1,8,3:2:0:0:
49,217,60511,1,8,3:2:0:0:
492,92,60674,5,8,2:1:0:0:
474,82,60755,1,8,2:1:0:0:
434,74,60837,1,8,3:2:0:0:
374,79,60918,1,8,2:1:0:0:
327,130,60999,1,8,2:1:0:0:
266,167,61082,1,8,2:1:0:0:
49,217,61163,1,8,3:2:0:0:
49,217,61326,1,2,0:0:0:0:
49,217,61489,1,8,3:2:0:0:
49,217,61815,1,0,0:0:0:0:
49,217,61978,1,0,0:0:0:0:
49,217,62141,1,0,0:0:0:0:
49,217,62467,1,0,0:0:0:0:
49,217,62630,1,0,0:0:0:0:
49,217,62793,1,0,0:0:0:0:
49,217,63038,1,0,0:0:0:0:
49,217,63282,1,0,0:0:0:0:
140,167,63405,1,0,0:0:0:0:
50,162,63608,1,0,0:0:0:0:
102,155,63690,1,0,0:0:0:0:
67,194,63771,1,0,0:0:0:0:
208,238,63934,1,0,0:0:0:0:
82,243,64098,1,0,0:0:0:0:
50,245,64424,1,0,0:0:0:0:
204,350,64668,5,0,0:0:0:0:
50,245,64750,1,0,0:0:0:0:
50,245,64913,1,0,0:0:0:0:
50,245,65076,1,0,0:0:0:0:
50,245,65239,1,0,0:0:0:0:
50,245,65565,1,0,0:0:0:0:
50,245,65728,1,0,0:0:0:0:
75,131,65973,5,0,0:0:0:0:
50,245,66054,1,0,0:0:0:0:
50,245,66217,1,0,0:0:0:0:
50,245,66380,1,0,0:0:0:0:
50,245,66543,1,0,0:0:0:0:
50,245,66869,1,0,0:0:0:0:
50,245,67032,1,0,0:0:0:0:
279,73,67195,1,0,0:0:0:0:
50,245,67277,1,0,0:0:0:0:
161,139,67521,1,0,0:0:0:0:
81,215,67684,1,0,0:0:0:0:
81,215,67848,1,0,0:0:0:0:
81,215,68011,1,0,0:0:0:0:
81,215,68337,1,0,0:0:0:0:
175,343,68500,5,0,0:0:0:0:
194,349,68582,1,0,0:0:0:0:
233,354,68663,1,0,0:0:0:0:
283,355,68745,1,0,0:0:0:0:
341,345,68826,1,0,0:0:0:0:
407,321,68908,1,0,0:0:0:0:
363,300,68989,1,0,0:0:0:0:
266,255,69152,1,0,0:0:0:0:
136,194,69315,1,0,0:0:0:0:
136,194,69478,1,0,0:0:0:0:
136,194,69641,1,0,0:0:0:0:
325,56,69804,5,0,0:0:0:0:
302,52,69886,1,0,0:0:0:0:
269,58,69967,1,0,0:0:0:0:
220,86,70049,1,0,0:0:0:0:
157,109,70130,1,0,0:0:0:0:
78,97,70212,1,0,0:0:0:0:
136,194,70293,1,0,0:0:0:0:
136,194,70456,1,0,0:0:0:0:
231,206,70619,1,0,0:0:0:0:
179,199,70782,1,0,0:0:0:0:
179,199,70945,1,0,0:0:0:0:
195,43,71108,5,0,0:0:0:0:
167,42,71190,1,0,0:0:0:0:
131,47,71271,1,0,0:0:0:0:
83,73,71353,1,0,0:0:0:0:
43,132,71434,1,0,0:0:0:0:
43,213,71516,1,0,0:0:0:0:
94,204,71598,1,0,0:0:0:0:
189,191,71761,1,0,0:0:0:0:
260,347,71923,5,0,0:0:0:0:
353,357,72005,1,0,0:0:0:0:
426,313,72087,1,0,0:0:0:0:
453,242,72168,1,0,0:0:0:0:
435,175,72250,1,0,0:0:0:0:
387,140,72331,1,0,0:0:0:0:
336,130,72413,1,0,0:0:0:0:
278,140,72494,1,0,0:0:0:0:
233,157,72576,1,0,0:0:0:0:
193,172,72657,1,0,0:0:0:0:
450,165,72739,5,0,0:0:0:0:
502,97,72821,1,0,0:0:0:0:
470,28,72902,1,0,0:0:0:0:
402,18,72984,1,0,0:0:0:0:
358,43,73065,1,0,0:0:0:0:
114,199,73146,1,0,0:0:0:0:
114,199,73228,1,0,0:0:0:0:
153,179,73473,1,0,0:0:0:0:
114,199,73717,1,0,0:0:0:0:
205,382,73962,1,0,0:0:0:0:
154,364,74206,5,0,0:0:0:0:
324,274,74369,1,0,0:0:0:0:
215,246,74532,1,0,0:0:0:0:
106,217,74695,1,0,0:0:0:0:
106,217,74858,1,0,0:0:0:0:
106,217,75021,1,0,0:0:0:0:
106,217,75348,1,0,0:0:0:0:
106,217,75511,1,0,0:0:0:0:
106,217,75674,1,0,0:0:0:0:
454,245,75837,5,0,0:0:0:0:
202,82,76081,1,0,0:0:0:0:
497,28,76326,1,0,0:0:0:0:
340,152,76489,5,0,0:0:0:0:
341,161,76570,1,0,0:0:0:0:
342,170,76652,1,0,0:0:0:0:
343,179,76733,1,0,0:0:0:0:
299,187,76815,1,0,0:0:0:0:
109,226,77141,1,0,0:0:0:0:
126,156,77304,1,0,0:0:0:0:
177,143,77386,1,0,0:0:0:0:
212,181,77467,1,0,0:0:0:0:
116,296,77630,1,0,0:0:0:0:
109,226,77793,1,0,0:0:0:0:
109,226,77956,1,0,0:0:0:0:
42,201,78119,1,0,0:0:0:0:
319,213,78282,1,0,0:0:0:0:
42,201,78445,1,0,0:0:0:0:
282,71,78608,1,0,0:0:0:0:
42,201,78771,1,0,0:0:0:0:
487,354,78934,1,0,0:0:0:0:
42,201,79098,1,0,0:0:0:0:
323,324,79342,1,0,0:0:0:0:
42,201,79424,1,0,0:0:0:0:
42,201,79587,1,0,0:0:0:0:
297,65,79750,5,0,0:0:0:0:
375,42,79831,1,0,0:0:0:0:
439,81,79913,1,0,0:0:0:0:
467,149,79994,1,0,0:0:0:0:
443,212,80076,1,0,0:0:0:0:
386,230,80157,1,0,0:0:0:0:
336,212,80239,1,0,0:0:0:0:
329,167,80320,1,0,0:0:0:0:
42,201,80402,1,0,0:0:0:0:
42,201,80483,1,0,0:0:0:0:
42,201,80565,1,0,0:0:0:0:
230,360,80646,1,0,0:0:0:0:
185,349,80728,1,0,0:0:0:0:
158,322,80809,1,0,0:0:0:0:
147,293,80891,1,0,0:0:0:0:
148,270,80973,1,0,0:0:0:0:
42,201,81054,1,0,0:0:0:0:
42,201,81163,1,0,0:0:0:0:
379,344,81271,5,0,0:0:0:0:
449,304,81380,5,0,0:0:0:0:
459,224,81489,5,0,0:0:0:0:
393,178,81598,5,0,0:0:0:0:
326,134,81706,5,0,0:0:0:0:
342,55,81815,5,0,0:0:0:0:
416,25,81924,5,0,0:0:0:0:
376,55,82032,1,0,0:0:0:0:
346,78,82114,1,0,0:0:0:0:
316,100,82195,1,0,0:0:0:0:
273,133,82277,1,0,0:0:0:0:
240,156,82358,1,0,0:0:0:0:
440,360,82521,1,0,0:0:0:0:
383,360,82603,1,0,0:0:0:0:
327,362,82684,1,0,0:0:0:0:
405,222,82847,1,0,0:0:0:0:
165,216,83011,1,0,0:0:0:0:
165,216,83174,1,0,0:0:0:0:
165,216,83337,1,0,0:0:0:0:
165,216,83500,1,0,0:0:0:0:
165,216,83663,1,0,0:0:0:0:
273,285,83826,1,0,0:0:0:0:
279,229,83907,1,0,0:0:0:0:
165,216,83989,1,0,0:0:0:0:
165,216,84152,1,0,0:0:0:0:
165,216,84315,1,0,0:0:0:0:
165,216,84478,1,0,0:0:0:0:
165,216,84641,1,0,0:0:0:0:
165,216,84804,1,0,0:0:0:0:
165,216,84967,1,10,0:0:0:0:
165,216,85293,1,10,0:0:0:0:
165,216,85619,1,10,0:0:0:0:
465,173,85864,5,2,1:2:0:0:
165,216,85945,1,2,1:2:0:0:
165,216,86108,1,2,1:2:0:0:
165,216,86271,1,10,0:0:0:0:
28,184,86598,1,10,0:0:0:0:
28,184,86924,1,10,0:0:0:0:
28,184,87250,1,2,1:2:0:0:
28,184,87413,1,2,1:2:0:0:
28,184,87576,1,10,0:0:0:0:
28,184,87902,1,10,0:0:0:0:
28,184,88228,1,10,0:0:0:0:
249,352,88473,5,2,1:2:0:0:
28,184,88554,1,2,1:2:0:0:
28,184,88717,1,2,1:2:0:0:
28,184,88880,1,8,0:0:0:0:
28,184,89206,1,8,0:0:0:0:
28,184,89532,1,2,1:2:0:0:
204,177,89777,1,2,1:2:0:0:
28,184,90021,1,2,1:2:0:0:
28,184,90184,1,10,0:0:0:0:
216,283,90511,1,2,1:2:0:0:
115,230,90674,1,2,1:2:0:0:
94,219,90837,1,10,0:0:0:0:
216,283,91163,1,2,1:2:0:0:
115,230,91326,1,2,1:2:0:0:
94,219,91489,1,10,0:0:0:0:
216,283,91815,1,2,1:2:0:0:
115,230,91978,1,2,1:2:0:0:
94,219,92141,1,10,0:0:0:0:
216,283,92467,1,2,1:2:0:0:
115,230,92630,1,2,1:2:0:0:
94,219,92793,1,10,0:0:0:0:
216,283,93119,1,2,1:2:0:0:
115,230,93282,1,2,1:2:0:0:
94,219,93445,1,10,0:0:0:0:
94,219,93690,1,2,1:2:0:0:
94,219,93771,1,2,1:2:0:0:
94,219,93934,1,2,1:2:0:0:
199,207,94098,5,2,0:0:0:0:
181,365,94261,1,2,0:0:0:0:
22,347,94424,1,2,0:0:0:0:
40,189,94587,1,2,0:0:0:0:
199,207,94750,5,0,0:0:0:0:
278,176,94858,5,0,0:0:0:0:
362,187,94967,5,0,0:0:0:0:
429,239,95076,5,8,0:0:0:0:
373,238,95157,1,8,0:0:0:0:
327,209,95239,1,8,0:0:0:0:
296,160,95320,1,8,0:0:0:0:
238,177,95402,1,8,0:0:0:0:
123,212,95565,1,0,0:0:0:0:
288,295,95646,5,0,0:0:0:0:
239,280,95728,1,0,0:0:0:0:
55,120,95891,5,0,0:0:0:0:
105,114,95973,1,0,0:0:0:0:
94,151,96054,1,0,0:0:0:0:
68,241,96217,1,0,0:0:0:0:
68,241,96380,1,0,0:0:0:0:
68,241,96706,1,0,0:0:0:0:
68,241,97032,1,0,0:0:0:0:
68,241,97195,1,0,0:0:0:0:
68,241,97358,1,0,0:0:0:0:
68,241,97521,1,0,0:0:0:0:
68,241,97684,1,0,0:0:0:0:
68,241,97848,1,0,0:0:0:0:
68,241,98011,1,0,0:0:0:0:
76,121,98174,1,0,0:0:0:0:
157,30,98255,5,0,0:0:0:0:
133,74,98337,1,0,0:0:0:0:
88,279,98500,5,0,0:0:0:0:
88,279,98581,1,0,0:0:0:0:
82,252,98663,1,0,0:0:0:0:
71,197,99315,1,0,0:0:0:0:
382,31,99967,5,0,0:0:0:0:
183,116,100212,1,0,0:0:0:0:
366,229,100456,1,0,0:0:0:0:
59,208,100619,1,0,0:0:0:0:
161,145,100782,5,0,0:0:0:0:
464,248,100864,5,0,0:0:0:0:
59,208,100945,1,0,0:0:0:0:
151,273,101108,5,0,0:0:0:0:
199,285,101190,1,0,0:0:0:0:
158,255,101271,1,0,0:0:0:0:
70,192,101434,1,0,0:0:0:0:
70,192,101598,1,0,0:0:0:0:
70,192,101924,1,0,0:0:0:0:
70,192,102250,1,0,0:0:0:0:
70,192,102413,1,0,0:0:0:0:
150,340,102576,5,0,0:0:0:0:
104,319,102657,1,0,0:0:0:0:
145,290,102739,1,0,0:0:0:0:
70,192,102902,1,0,0:0:0:0:
70,192,103065,1,0,0:0:0:0:
70,192,103228,1,0,0:0:0:0:
70,192,103391,1,0,0:0:0:0:
261,346,103473,5,0,0:0:0:0:
70,192,103554,1,0,0:0:0:0:
454,177,103717,1,0,0:0:0:0:
454,177,103799,1,0,0:0:0:0:
454,177,103880,5,0,0:0:0:0:
432,156,103962,1,0,0:0:0:0:
396,138,104043,1,0,0:0:0:0:
345,138,104125,1,0,0:0:0:0:
292,165,104206,1,0,0:0:0:0:
261,228,104288,1,0,0:0:0:0:
204,284,104369,1,0,0:0:0:0:
113,284,104451,1,0,0:0:0:0:
94,248,104532,1,0,0:0:0:0:
72,216,104614,1,0,0:0:0:0:
56,184,104695,1,0,0:0:0:0:
385,350,104776,1,0,0:0:0:0:
433,326,104858,1,0,0:0:0:0:
466,269,104940,1,0,0:0:0:0:
455,193,105021,1,0,0:0:0:0:
387,137,105103,1,0,0:0:0:0:
292,165,105184,5,0,0:0:0:0:
292,165,105429,1,0,0:0:0:0:
292,165,105674,1,0,0:0:0:0:
379,139,105837,5,0,0:0:0:0:
387,144,105918,5,0,0:0:0:0:
383,153,106000,5,0,0:0:0:0:
391,158,106081,5,0,0:0:0:0:
385,166,106163,5,0,0:0:0:0:
393,171,106244,5,0,0:0:0:0:
389,180,106326,5,0,0:0:0:0:
397,185,106407,5,0,0:0:0:0:
331,191,106489,1,0,0:0:0:0:
60,228,106815,1,0,0:0:0:0:
60,228,106978,1,0,0:0:0:0:
60,228,107141,1,0,0:0:0:0:
60,228,107304,1,0,0:0:0:0:
60,228,107467,1,0,0:0:0:0:
60,228,107630,1,0,0:0:0:0:
60,228,107793,1,0,0:0:0:0:
60,228,107956,1,0,0:0:0:0:
60,228,108119,1,0,0:0:0:0:
60,228,108282,1,0,0:0:0:0:
60,228,108445,1,0,0:0:0:0:
60,228,108608,1,0,0:0:0:0:
119,378,108771,5,0,0:0:0:0:
109,318,108853,1,0,0:0:0:0:
97,259,108934,1,0,0:0:0:0:
121,203,109016,1,0,0:0:0:0:
78,213,109097,1,0,0:0:0:0:
78,213,109260,1,0,0:0:0:0:
78,213,109423,1,0,0:0:0:0:
78,213,109586,1,0,0:0:0:0:
78,213,109749,1,0,0:0:0:0:
78,213,109912,1,0,0:0:0:0:
78,213,110075,1,0,0:0:0:0:
78,213,110239,1,0,0:0:0:0:
78,213,110402,1,0,0:0:0:0:
78,213,110565,1,0,0:0:0:0:
78,213,110728,1,0,0:0:0:0:
78,213,110891,1,0,0:0:0:0:
78,213,111054,1,0,0:0:0:0:
161,158,111217,1,0,0:0:0:0:
161,158,111258,1,0,0:0:0:0:
161,158,111298,1,0,0:0:0:0:
161,158,111339,1,0,0:0:0:0:
138,168,111380,1,0,0:0:0:0:
161,158,111543,1,0,0:0:0:0:
161,158,111584,1,0,0:0:0:0:
161,158,111624,1,0,0:0:0:0:
161,158,111665,1,0,0:0:0:0:
138,168,111706,1,0,0:0:0:0:
138,168,111869,1,0,0:0:0:0:
138,168,112032,1,0,0:0:0:0:
138,168,112195,1,0,0:0:0:0:
138,168,112358,1,0,0:0:0:0:
72,193,112521,1,0,0:0:0:0:
251,227,112684,1,0,0:0:0:0:
149,219,112847,1,0,0:0:0:0:
94,234,113010,1,0,0:0:0:0:
94,234,113173,1,0,0:0:0:0:
94,234,113336,1,0,0:0:0:0:
94,234,113499,1,0,0:0:0:0:
94,234,113662,1,0,0:0:0:0:
94,234,113825,1,0,0:0:0:0:
85,264,113989,5,0,0:0:0:0:
143,269,114070,1,0,0:0:0:0:
196,242,114152,1,0,0:0:0:0:
225,191,114233,1,0,0:0:0:0:
222,131,114315,5,0,0:0:0:0:
182,199,114423,1,0,0:0:0:0:
246,246,114532,1,0,0:0:0:0:
209,317,114641,1,0,0:0:0:0:
204,325,114967,5,0,0:0:0:0:
261,270,115075,1,0,0:0:0:0:
340,256,115184,1,0,0:0:0:0:
418,272,115293,1,0,0:0:0:0:
221,234,115619,1,0,0:0:0:0:
73,207,115864,1,0,0:0:0:0:
220,234,116108,1,0,0:0:0:0:
298,370,116434,5,0,0:0:0:0:
298,370,116516,1,0,0:0:0:0:
298,370,116597,1,0,0:0:0:0:
431,284,116760,1,0,0:0:0:0:
298,172,116923,1,0,0:0:0:0:
110,214,121815,5,0,0:0:0:0:
110,214,122141,1,0,0:0:0:0:
110,214,122793,1,0,0:0:0:0:
110,214,123445,1,0,0:0:0:0:
136,277,124097,5,0,0:0:0:0:
110,214,124423,1,0,0:0:0:0:
419,328,124749,5,0,0:0:0:0:
294,182,124912,1,0,0:0:0:0:
502,259,125075,1,0,0:0:0:0:
273,360,125238,1,0,0:0:0:0:
458,147,125401,1,0,0:0:0:0:
456,137,125483,1,0,0:0:0:0:
454,127,125565,1,0,0:0:0:0:
452,117,125646,1,0,0:0:0:0:
450,107,125728,5,0,0:0:0:0:
403,89,125809,1,0,0:0:0:0:
335,107,125891,1,0,0:0:0:0:
290,172,125972,1,0,0:0:0:0:
309,262,126054,1,0,0:0:0:0:
30,349,126706,5,0,0:0:0:0:
119,341,126950,1,0,0:0:0:0:
208,333,127195,1,0,0:0:0:0:
266,261,127358,1,0,0:0:0:0:
37,289,127684,1,0,0:0:0:0:
116,294,127928,5,0,0:0:0:0:
37,289,128010,1,0,0:0:0:0:
37,289,128173,1,0,0:0:0:0:
37,289,128336,1,0,0:0:0:0:
37,289,128499,1,0,0:0:0:0:
72,74,128825,1,0,0:0:0:0:
52,193,128988,1,0,0:0:0:0:
97,94,129151,5,0,0:0:0:0:
317,25,129233,1,0,0:0:0:0:
277,53,129314,1,0,0:0:0:0:
192,113,129477,1,0,0:0:0:0:
104,176,129640,1,0,0:0:0:0:
49,217,129803,1,0,0:0:0:0:
49,217,130129,1,0,0:0:0:0:
49,217,130293,1,0,0:0:0:0:
248,356,130456,5,0,0:0:0:0:
218,301,130537,1,0,0:0:0:0:
49,217,130782,1,0,0:0:0:0:
49,217,130945,1,0,0:0:0:0:
49,217,131108,1,0,0:0:0:0:
49,217,131271,1,0,0:0:0:0:
49,217,131597,1,0,0:0:0:0:
492,92,131760,5,0,0:0:0:0:
474,82,131841,1,0,0:0:0:0:
434,74,131923,1,0,0:0:0:0:
386,89,132005,1,0,0:0:0:0:
339,107,132086,1,0,0:0:0:0:
292,125,132168,1,0,0:0:0:0:
49,217,132249,1,0,0:0:0:0:
49,217,132412,1,0,0:0:0:0:
49,217,132575,1,0,0:0:0:0:
49,217,132901,1,0,0:0:0:0:
222,348,133064,5,0,0:0:0:0:
111,351,133146,1,0,0:0:0:0:
96,313,133227,1,0,0:0:0:0:
112,254,133309,1,0,0:0:0:0:
151,196,133390,1,0,0:0:0:0:
175,119,133472,1,0,0:0:0:0:
49,217,133553,1,0,0:0:0:0:
49,217,133716,1,0,0:0:0:0:
49,217,133879,1,0,0:0:0:0:
49,217,134206,1,0,0:0:0:0:
405,277,134369,1,0,0:0:0:0:
411,295,134450,1,0,0:0:0:0:
405,287,134532,1,0,0:0:0:0:
433,233,134614,1,0,0:0:0:0:
319,256,134695,1,0,0:0:0:0:
354,194,134777,1,0,0:0:0:0:
49,217,134858,1,0,0:0:0:0:
49,217,135021,1,0,0:0:0:0:
49,217,135184,1,0,0:0:0:0:
49,217,135510,1,0,0:0:0:0:
49,217,135673,1,0,0:0:0:0:
49,217,135836,1,0,0:0:0:0:
49,217,136162,1,0,0:0:0:0:
49,217,136325,1,0,0:0:0:0:
49,217,136488,1,0,0:0:0:0:
49,217,136733,1,0,0:0:0:0:
49,217,136977,1,0,0:0:0:0:
140,167,137100,1,0,0:0:0:0:
50,162,137303,1,0,0:0:0:0:
71,183,137385,1,0,0:0:0:0:
38,223,137466,1,0,0:0:0:0:
194,238,137629,1,0,0:0:0:0:
82,243,137793,1,0,0:0:0:0:
50,245,138119,1,0,0:0:0:0:
204,350,138363,5,0,0:0:0:0:
50,245,138445,1,0,0:0:0:0:
50,245,138608,1,0,0:0:0:0:
50,245,138771,1,0,0:0:0:0:
50,245,138934,1,0,0:0:0:0:
50,245,139260,1,0,0:0:0:0:
50,245,139423,1,0,0:0:0:0:
75,131,139668,5,0,0:0:0:0:
50,245,139749,1,0,0:0:0:0:
50,245,139912,1,0,0:0:0:0:
50,245,140075,1,0,0:0:0:0:
50,245,140238,1,0,0:0:0:0:
50,245,140564,1,0,0:0:0:0:
50,245,140727,1,0,0:0:0:0:
279,73,140890,1,0,0:0:0:0:
50,245,140972,1,0,0:0:0:0:
161,139,141216,1,0,0:0:0:0:
81,215,141379,1,0,0:0:0:0:
81,215,141543,1,0,0:0:0:0:
81,215,141706,1,0,0:0:0:0:
81,215,142032,1,0,0:0:0:0:
175,343,142195,5,0,0:0:0:0:
194,349,142277,1,0,0:0:0:0:
233,354,142358,1,0,0:0:0:0:
283,355,142440,1,0,0:0:0:0:
341,345,142521,1,0,0:0:0:0:
407,321,142603,1,0,0:0:0:0:
363,300,142684,1,0,0:0:0:0:
266,255,142847,1,0,0:0:0:0:
136,194,143010,1,0,0:0:0:0:
136,194,143173,1,0,0:0:0:0:
136,194,143336,1,0,0:0:0:0:
325,56,143499,5,0,0:0:0:0:
348,81,143581,1,0,0:0:0:0:
300,73,143662,1,0,0:0:0:0:
231,95,143744,1,0,0:0:0:0:
154,129,143825,1,0,0:0:0:0:
61,100,143907,1,0,0:0:0:0:
136,194,143988,1,0,0:0:0:0:
136,194,144151,1,0,0:0:0:0:
231,206,144314,1,0,0:0:0:0:
179,199,144477,1,0,0:0:0:0:
179,199,144640,1,0,0:0:0:0:
195,43,144803,5,0,0:0:0:0:
167,42,144885,1,0,0:0:0:0:
131,47,144966,1,0,0:0:0:0:
83,73,145048,1,0,0:0:0:0:
344,237,145129,1,0,0:0:0:0:
370,313,145211,1,0,0:0:0:0:
94,204,145293,1,0,0:0:0:0:
189,191,145456,1,0,0:0:0:0:
399,90,145618,5,0,0:0:0:0:
304,49,145700,1,0,0:0:0:0:
426,313,145782,1,0,0:0:0:0:
383,294,145864,1,0,0:0:0:0:
78,128,145945,1,0,0:0:0:0:
24,99,146026,1,0,0:0:0:0:
1,53,146108,1,0,0:0:0:0:
11,14,146189,1,0,0:0:0:0:
233,157,146271,1,0,0:0:0:0:
193,172,146352,1,0,0:0:0:0:
114,266,146434,5,0,0:0:0:0:
190,299,146516,1,0,0:0:0:0:
246,268,146597,1,0,0:0:0:0:
256,213,146679,1,0,0:0:0:0:
238,180,146760,1,0,0:0:0:0:
114,199,146841,1,0,0:0:0:0:
114,199,146923,1,0,0:0:0:0:
153,179,147168,1,0,0:0:0:0:
114,199,147412,1,0,0:0:0:0:
205,382,147657,1,0,0:0:0:0:
153,357,147901,5,0,0:0:0:0:
341,243,148064,1,0,0:0:0:0:
225,241,148228,1,0,0:0:0:0:
93,240,148391,1,0,0:0:0:0:
77,159,148554,1,0,0:0:0:0:
77,159,148717,1,0,0:0:0:0:
154,368,149043,1,0,0:0:0:0:
111,252,149206,1,0,0:0:0:0:
111,252,149369,1,0,0:0:0:0:
184,336,149532,5,0,0:0:0:0:
474,198,149776,1,0,0:0:0:0:
203,21,150021,1,0,0:0:0:0:
368,274,150184,5,0,0:0:0:0:
368,263,150266,1,0,0:0:0:0:
368,252,150347,1,0,0:0:0:0:
345,243,150429,1,0,0:0:0:0:
291,248,150510,1,0,0:0:0:0:
302,97,150836,5,0,0:0:0:0:
313,138,150918,5,0,0:0:0:0:
279,111,150999,5,0,0:0:0:0:
306,128,151081,1,0,0:0:0:0:
262,159,151162,1,0,0:0:0:0:
