osu file format v14

[General]
AudioFilename: audio.mp3
AudioLeadIn: 0
PreviewTime: 0
Countdown: 1
SampleSet: Soft
StackLeniency: 0.7
Mode: 2
LetterboxInBreaks: 0
WidescreenStoryboard: 1

[Editor]
DistanceSpacing: 0.1
BeatDivisor: 4
GridSize: 16
TimelineZoom: 2.2

[Metadata]
Title:2016 Discord Spot: Keyboard Combos
TitleUnicode:2016 Discord Spot: Keyboard Combos
Artist:Arctures
ArtistUnicode:Arctures
Creator:Zetera
Version:DASH + FRUIT COMBO
Source:
Tags:
BeatmapID:1680447
BeatmapSetID:758486

[Difficulty]
HPDrainRate:6
CircleSize:4.5
OverallDifficulty:7
ApproachRate:9.6
SliderMultiplier:2.7
SliderTickRate:1

[Events]
//Background and Video events
0,0,"GAINZ.jpg",0,0
//Break Periods
//Storyboard Layer 0 (Background)
//Storyboard Layer 1 (Fail)
//Storyboard Layer 2 (Pass)
//Storyboard Layer 3 (Foreground)
//Storyboard Sound Samples

[TimingPoints]
2766,400,4,2,0,60,1,0
3166,400,4,2,1,65,1,0
14366,-133.333333333333,4,2,1,65,0,0
15566,-100,4,2,1,75,0,0
15566,-100,4,2,1,85,0,1
15966,-66.6666666666667,4,2,1,85,0,1

[HitObjects]
256,192,166,12,0,2566,0:0:0:0:
320,192,2766,5,2,0:0:0:0:
400,192,2866,1,2,0:0:0:0:
240,192,2966,5,2,0:0:0:0:
320,192,3066,1,2,0:0:0:0:
112,192,3166,6,0,B|64:128|64:128|64:32,1,135,4|2,1:2|0:0,0:0:0:0:
16,192,3466,1,0,0:0:0:0:
176,192,3566,5,12,1:2:0:0:
64,192,3766,1,2,0:0:0:0:
400,192,3966,6,0,B|448:128|448:128|448:32,1,135,4|2,1:2|0:0,0:0:0:0:
496,192,4266,1,0,0:0:0:0:
336,192,4366,5,12,1:2:0:0:
448,192,4566,1,2,0:0:0:0:
128,192,4766,5,4,1:2:0:0:
208,192,4866,2,0,L|224:32,1,135,2|0,0:0|0:0,0:0:0:0:
128,192,5166,2,0,L|208:64,1,135,12|0,1:2|0:0,0:0:0:0:
48,192,5466,1,2,0:0:0:0:
176,192,5566,1,4,1:2:0:0:
208,192,5666,1,0,0:0:0:0:
240,192,5766,1,2,0:0:0:0:
272,192,5866,1,2,0:0:0:0:
304,192,5966,5,12,1:2:0:0:
144,192,6066,1,0,0:0:0:0:
320,192,6166,1,2,0:0:0:0:
160,192,6266,1,0,0:0:0:0:
336,192,6366,2,0,L|480:192,1,135,4|2,1:2|0:0,0:0:0:0:
320,192,6666,2,0,L|400:192,1,67.5,2|12,0:0|1:2,0:0:0:0:
496,192,6866,2,0,L|416:192,1,67.5,0|2,0:0|0:0,0:0:0:0:
96,192,7166,6,0,L|240:192,1,135,4|2,1:2|0:0,0:0:0:0:
80,192,7466,2,0,L|-16:192,1,67.5,0|12,0:0|1:2,0:0:0:0:
240,192,7666,2,0,L|320:192,2,67.5,0|2|0,0:0|0:0|0:0,0:0:0:0:
112,192,7966,5,4,1:2:0:0:
192,192,8066,2,0,L|176:48,1,135,2|0,0:0|0:0,0:0:0:0:
32,192,8366,2,0,L|48:32,1,135,14|0,1:2|0:0,0:0:0:0:
352,192,8666,1,2,0:0:0:0:
272,80,8766,1,4,1:2:0:0:
256,192,8866,1,2,0:0:0:0:
240,192,8966,1,2,0:0:0:0:
224,192,9066,1,0,0:0:0:0:
32,192,9166,5,12,1:2:0:0:
96,192,9266,1,0,0:0:0:0:
160,192,9366,1,2,0:0:0:0:
224,192,9466,1,2,0:0:0:0:
368,192,9566,6,0,L|512:192,1,135,4|2,1:2|0:0,0:0:0:0:
320,192,9866,1,2,0:0:0:0:
469,113,9966,2,0,L|373:113,1,67.5,12|0,1:2|0:0,0:0:0:0:
272,192,10166,1,2,0:0:0:0:
144,192,10366,6,0,L|0:192,1,135,4|2,1:2|0:0,0:0:0:0:
192,192,10666,1,2,0:0:0:0:
43,113,10766,2,0,L|139:113,1,67.5,12|0,1:2|0:0,0:0:0:0:
240,192,10966,1,2,0:0:0:0:
224,192,11066,1,0,0:0:0:0:
192,192,11166,5,4,1:2:0:0:
384,192,11266,2,0,L|240:192,1,135,2|0,0:0|0:0,0:0:0:0:
448,192,11566,2,0,L|304:192,1,135,12|0,1:2|0:0,0:0:0:0:
512,192,11866,1,2,0:0:0:0:
256,112,11966,5,4,1:2:0:0:
288,96,12066,1,0,0:0:0:0:
400,96,12166,1,2,0:0:0:0:
368,112,12266,1,0,0:0:0:0:
48,80,12366,5,12,1:2:0:0:
80,64,12466,1,0,0:0:0:0:
192,64,12566,1,2,0:0:0:0:
160,80,12666,1,0,0:0:0:0:
0,192,12766,6,0,L|144:192,1,135,4|2,1:2|0:0,0:0:0:0:
96,144,13066,2,0,L|48:0,1,135,2|0,0:0|0:0,0:0:0:0:
0,192,13366,1,2,0:0:0:0:
32,192,13466,1,0,0:0:0:0:
512,192,13566,6,0,L|368:192,1,135,4|2,1:2|0:0,0:0:0:0:
416,144,13866,2,0,L|464:0,1,135,2|0,0:0|0:0,0:0:0:0:
512,192,14166,1,2,0:0:0:0:
256,192,14366,12,0,15366,0:0:0:0:
112,192,15566,5,8,0:0:0:0:
0,192,15666,1,8,0:0:0:0:
112,192,15766,5,8,0:0:0:0:
224,192,15866,1,8,0:0:0:0:
426,192,15966,6,2,L|182:192,1,202.500007724762,4|2,1:0|0:0,0:1:0:0:
426,192,16266,1,2,0:1:0:0:
48,48,16366,1,12,1:2:0:0:
64,48,16466,1,0,0:0:0:0:
224,320,16566,1,2,0:1:0:0:
208,320,16666,1,2,0:0:0:0:
0,192,16766,6,0,L|224:192,1,202.500007724762,4|2,1:2|0:2,0:0:0:0:
426,192,17066,1,2,0:1:0:0:
320,64,17166,2,0,L|160:64,1,101.250003862381,12|0,1:2|0:0,0:0:0:0:
64,320,17366,1,2,0:1:0:0:
80,320,17466,1,2,0:0:0:0:
282,192,17566,5,4,1:2:0:0:
80,192,17666,2,0,L|336:192,1,202.500007724762,2|0,0:1|0:0,0:0:0:0:
512,192,17966,2,2,L|448:0,1,202.500007724762,12|0,1:2|0:0,0:1:0:0:
368,0,18266,1,2,0:1:0:0:
176,192,18366,6,0,L|208:288,1,101.250003862381,4|0,1:2|0:0,0:0:0:0:
288,192,18566,2,0,L|256:96,1,101.250003862381,2|0,0:2|0:0,0:0:0:0:
0,192,18766,5,12,1:2:0:0:
16,192,18866,1,2,0:1:0:0:
32,192,18966,1,2,0:0:0:0:
48,192,19066,1,2,0:1:0:0:
64,192,19166,6,0,L|224:64,1,202.500007724762,4|2,1:2|0:0,0:0:0:0:
224,192,19466,1,0,0:0:0:0:
496,192,19566,2,0,L|416:128,1,101.250003862381,12|2,1:2|0:0,0:0:0:0:
288,192,19766,2,0,L|368:256,1,101.250003862381,2|0,0:2|0:0,0:0:0:0:
160,192,19966,6,0,L|0:48,1,202.500007724762,6|0,1:2|0:0,0:0:0:0:
0,176,20266,1,2,0:0:0:0:
384,192,20366,1,12,1:2:0:0:
400,192,20466,1,0,0:0:0:0:
416,192,20566,1,2,0:0:0:0:
368,192,20666,1,0,0:0:0:0:
304,192,20766,5,4,1:2:0:0:
432,192,20866,2,0,L|480:-16,1,202.500007724762,2|0,0:0|0:0,0:0:0:0:
192,224,21166,2,0,L|144:16,1,202.500007724762,12|2,1:2|0:0,0:0:0:0:
256,192,21466,1,2,0:0:0:0:
32,192,21566,6,0,L|144:176,1,101.250003862381,4|0,1:2|0:0,0:0:0:0:
356,206,21766,2,0,L|255:191,1,101.250003862381,2|0,0:2|0:0,0:0:0:0:
64,96,21966,5,12,1:2:0:0:
144,96,22066,1,2,0:0:0:0:
240,96,22166,1,2,0:0:0:0:
352,96,22266,1,2,0:0:0:0:
496,96,22366,6,0,L|272:80,1,202.500007724762,4|2,1:2|0:0,0:0:0:0:
144,96,22666,1,0,0:0:0:0:
225,49,22766,2,0,L|302:132,1,101.250003862381,12|0,1:2|0:0,0:0:0:0:
48,96,22966,1,2,0:0:0:0:
64,96,23066,1,0,0:0:0:0:
202,191,23166,6,0,L|-6:191,1,202.500007724762,4|0,1:2|0:0,0:0:0:0:
144,96,23466,1,2,0:0:0:0:
256,48,23566,2,0,L|336:128,1,101.250003862381,12|0,1:2|0:0,0:0:0:0:
480,192,23766,1,2,0:0:0:0:
464,192,23866,1,0,0:0:0:0:
202,191,23966,5,4,1:2:0:0:
298,192,24066,2,0,L|74:192,1,202.500007724762,2|0,0:0|0:0,0:0:0:0:
0,191,24366,6,0,L|208:191,1,202.500007724762,12|0,1:2|0:0,0:0:0:0:
95,192,24666,1,2,0:0:0:0:
288,192,24766,6,0,L|496:192,1,202.500007724762,4|2,1:2|0:0,0:0:0:0:
416,192,25066,1,0,0:0:0:0:
240,192,25166,1,12,1:2:0:0:
352,192,25266,1,0,0:0:0:0:
144,192,25366,1,2,0:0:0:0:
288,192,25466,1,0,0:0:0:0:
64,192,25566,6,0,L|-80:208,1,101.250003862381,4|0,1:0|0:0,0:0:0:0:
112,128,25766,2,0,L|32:16,1,101.250003862381,6|0,0:0|0:0,0:0:0:0:
192,128,25966,2,0,L|208:0,1,101.250003862381,12|0,0:0|0:0,0:0:0:0:
240,208,26166,2,0,L|240:336,1,101.250003862381,6|0,0:0|0:0,0:0:0:0:
448,192,26366,6,0,L|592:208,1,101.250003862381,4|0,1:0|0:0,0:0:0:0:
400,128,26566,2,0,L|480:16,1,101.250003862381,6|0,0:0|0:0,0:0:0:0:
320,128,26766,2,0,L|304:0,1,101.250003862381,12|0,0:0|0:0,0:0:0:0:
272,208,26966,2,0,L|272:336,1,101.250003862381,6|0,0:0|0:0,0:0:0:0:
96,192,27166,5,4,1:0:0:0:
16,192,27266,2,0,L|240:192,1,202.500007724762,2|2,0:0|0:0,0:0:0:0:
384,192,27566,1,12,0:0:0:0:
485,192,27666,2,0,L|373:192,1,101.250003862381,2|0,0:0|0:0,0:0:0:0:
218,192,27866,1,2,0:0:0:0:
118,190,27966,6,0,L|230:192,1,101.250003862381,12|0,1:2|0:0,0:0:0:0:
464,192,28166,2,0,L|353:192,1,101.250003862381,12|0,0:0|0:0,0:0:0:0:
16,190,28366,2,0,L|127:190,1,101.250003862381,12|0,0:0|0:0,0:0:0:0:
320,192,28566,2,0,L|190:192,1,101.250003862381
16,190,28766,5,4,1:2:0:0:
16,190,28866,1,0,1:0:0:0:
512,192,29066,1,12,0:0:0:0:
