osu file format v14

[General]
AudioFilename: audio.mp3
AudioLeadIn: 0
PreviewTime: 341
Countdown: 0
SampleSet: Soft
StackLeniency: 0.7
Mode: 0
LetterboxInBreaks: 0
WidescreenStoryboard: 1

[Editor]
DistanceSpacing: 1.3
BeatDivisor: 4
GridSize: 32
TimelineZoom: 2

[Metadata]
Title:The Bad Thing
TitleUnicode:The Bad Thing
Artist:Arctic Monkeys
ArtistUnicode:Arctic Monkeys
Creator:Milan-
Version:Hard
Source:
Tags:BOUYAAA my favorite worst nightmare english rock indie
BeatmapID:2072488
BeatmapSetID:870688

[Difficulty]
HPDrainRate:5
CircleSize:3.5
OverallDifficulty:6
ApproachRate:8
SliderMultiplier:1.3
SliderTickRate:1

[Events]
//Background and Video events
0,0,"maxresdefault.jpg",0,0
//Break Periods
//Storyboard Layer 0 (Background)
//Storyboard Layer 1 (Fail)
//Storyboard Layer 2 (Pass)
//Storyboard Layer 3 (Foreground)
//Storyboard Layer 4 (Overlay)
//Storyboard Sound Samples

[TimingPoints]
688,270.27027027027,4,2,1,60,1,0
2845,270.27027027027,4,2,1,60,1,0
8250,-125,4,2,1,60,0,0
9061,-83.3333333333333,4,2,1,60,0,0
9331,-100,4,2,1,60,0,0
17980,-133.333333333333,4,2,1,50,0,0
25547,-200,4,2,1,50,0,0
26628,-133.333333333333,4,2,1,50,0,0
35254,270.27027027027,4,2,1,50,1,0
35254,-133.333333333333,4,2,1,50,0,0
43092,-90.9090909090909,4,2,1,55,0,0
43362,-83.3333333333333,4,2,1,55,0,0
43632,-76.9230769230769,4,2,1,60,0,0
43902,-100,4,2,1,60,0,0
61191,270.27027027027,4,2,1,70,1,1
61191,-100,4,2,1,70,0,1
68745,-125,4,2,1,70,0,1
69826,-100,4,2,1,70,0,1
74163,-125,4,2,1,70,0,0
76326,-125,4,2,1,65,0,1
76393,-125,4,2,1,65,0,0
77293,270.27027027027,4,2,1,50,1,0
78272,270.27027027027,4,2,0,40,1,0
78272,-100,4,2,0,40,0,0

[Colours]
Combo1 : 168,196,159
Combo2 : 187,198,208
Combo3 : 226,215,173
Combo4 : 208,187,198

[HitObjects]
400,5,688,6,0,P|372:59|399:128,1,130,4|8,0:0|0:0,0:0:0:0:
459,68,1093,2,0,B|355:60|421:115|274:119,1,195,4|8,0:3|0:0,0:0:0:0:
202,78,1633,1,8,0:0:0:0:
286,131,1769,2,0,P|314:185|287:254,1,130,4|8,0:3|0:0,0:0:0:0:
351,308,2174,2,0,B|264:366|294:286|165:356,1,195,4|8,0:3|0:0,0:0:0:0:
136,275,2715,1,8,0:0:0:0:
56,303,2845,6,0,P|43:314|-5:331,1,65,4|0,0:3|0:0,0:0:0:0:
81,207,3115,1,8,0:0:0:0:
81,207,3250,2,0,B|113:165|166:168|166:168|139:120|168:48,1,195,4|8,0:3|0:0,0:0:0:0:
230,10,3791,1,8,0:0:0:0:
230,10,3926,6,0,P|248:46|246:85,1,65,2|0,0:1|0:0,0:0:0:0:
348,79,4196,2,0,P|341:113|308:150,1,65,10|0,0:1|0:0,0:0:0:0:
338,237,4466,2,0,P|416:246|455:292,1,130,2|8,0:1|0:0,0:0:0:0:
429,368,4872,1,8,0:0:0:0:
429,368,5007,6,0,P|392:360|284:345,1,130,6|8,0:1|0:0,0:0:0:0:
253,276,5412,2,0,P|197:301|130:315,1,130,2|0,0:1|0:0,0:0:0:0:
44,313,5818,2,0,L|23:391,1,65,8|8,0:0|0:0,0:0:0:0:
86,240,6088,2,0,L|65:88,1,130,4|8,0:3|0:0,0:0:0:0:
56,27,6493,1,0,0:0:0:0:
132,62,6628,2,0,P|194:72|318:10,1,195,4|8,0:3|0:0,0:0:0:0:
393,37,7169,6,0,P|470:113|487:210,1,195,4|0,0:3|0:0,0:0:0:0:
403,204,7710,2,0,P|389:245|358:277,1,65,4|0,0:3|0:0,0:0:0:0:
311,207,7980,2,0,P|276:242|254:253,1,65,8|0,0:0|0:0,0:0:0:0:
229,165,8250,6,0,L|115:126,1,104,4|8,0:0|0:0,0:0:0:0:
22,198,8655,2,0,L|120:231,1,104,4|0,0:0|0:0,0:0:0:0:
174,311,9061,2,0,P|145:337|112:360,1,77.999997619629,8|0,0:0|0:0,0:0:0:0:
262,340,9331,6,0,P|334:370|416:377,1,130,4|8,0:0|0:0,0:0:0:0:
400,293,9737,2,0,P|449:280|491:134,1,195,0|8,0:3|0:0,0:0:0:0:
490,73,10277,1,8,0:0:0:0:
406,85,10412,6,0,L|319:108,1,65,2|0,1:1|0:0,0:0:0:0:
276,49,10682,2,0,L|189:72,1,65,10|0,0:1|0:0,0:0:0:0:
142,18,10953,2,0,L|13:50,1,130,2|8,0:1|0:0,0:0:0:0:
129,112,11358,1,8,0:0:0:0:
129,112,11493,6,0,P|84:146|30:202,1,130,2|8,1:1|0:0,0:0:0:0:
79,269,11899,2,0,P|198:301|256:371,1,195,0|8,0:0|0:0,0:0:0:0:
323,320,12439,1,8,0:0:0:0:
401,350,12574,6,0,L|477:333,1,65,2|0,1:1|0:0,0:0:0:0:
491,235,12845,2,0,L|427:249,1,65,10|0,0:1|0:0,0:0:0:0:
348,174,13115,2,0,L|493:141,1,130,2|8,0:1|0:0,0:0:0:0:
381,75,13520,1,8,0:0:0:0:
381,75,13655,6,0,P|323:64|242:24,1,130,6|8,0:1|0:0,0:0:0:0:
187,81,14061,2,0,P|141:93|33:198,1,195,2|8,0:1|0:0,0:0:0:0:
115,220,14601,1,8,0:0:0:0:
139,301,14737,6,0,L|125:396,1,65,2|0,1:1|0:0,0:0:0:0:
233,318,15007,2,0,L|219:223,1,65,10|0,0:1|0:0,0:0:0:0:
336,229,15277,2,0,L|314:383,1,130,2|8,0:1|0:0,0:0:0:0:
425,384,15682,1,8,0:0:0:0:
425,384,15818,6,0,P|478:311|489:263,1,130,2|8,1:1|0:0,0:0:0:0:
437,205,16223,2,0,P|435:143|347:52,1,195,2|8,0:1|0:0,0:0:0:0:
266,22,16764,1,0,0:0:0:0:
266,22,16899,6,0,L|174:42,1,65,4|0,0:0|0:0,0:0:0:0:
128,107,17169,2,0,L|192:121,1,65,12|0,0:0|0:0,0:0:0:0:
305,178,17439,2,0,L|213:198,1,65,4|0,0:0|0:0,0:0:0:0:
167,263,17710,2,0,L|231:277,1,65,12|8,0:0|0:0,0:0:0:0:
321,302,17980,6,0,P|351:283|417:238,2,97.50000371933,4|8|4,0:0|0:0|0:3,0:0:0:0:
254,363,18655,1,0,0:0:0:0:
254,363,18791,1,8,0:0:0:0:
74,350,19061,2,0,P|83:302|97:255,1,97.50000371933,4|8,0:3|0:0,0:0:0:0:
48,186,19466,1,0,0:0:0:0:
48,186,19601,2,0,P|32:149|30:130,2,48.750001859665,4|0|8,0:3|0:0|0:0,0:0:0:0:
201,207,20142,6,0,P|251:220|307:239,2,97.50000371933,2|8|2,0:0|0:0|0:0,0:0:0:0:
222,124,20818,1,0,0:0:0:0:
222,124,20953,1,8,0:0:0:0:
380,211,21223,2,0,P|404:201|480:191,1,97.50000371933,2|10,0:0|0:0,0:0:0:0:
505,277,21628,1,0,0:0:0:0:
505,277,21764,2,0,P|447:314|415:351,1,97.50000371933,2|8,0:0|0:0,0:0:0:0:
348,371,22169,1,8,0:0:0:0:
348,371,22304,6,0,P|292:358|251:354,1,97.50000371933,4|8,0:3|0:0,0:0:0:0:
90,201,22845,2,0,P|79:129|78:89,1,97.50000371933,4|8,0:3|0:0,0:0:0:0:
281,25,23385,2,0,P|292:97|293:137,1,97.50000371933,4|8,0:3|0:0,0:0:0:0:
229,182,23791,1,0,0:0:0:0:
229,182,23926,2,0,L|158:171,2,48.750001859665,4|0|8,0:3|0:0|0:0,0:0:0:0:
471,134,24466,6,0,P|394:162|359:174,1,97.50000371933,2|8,0:0|0:0,0:0:0:0:
362,253,24872,1,0,0:0:0:0:
362,253,25007,2,0,P|403:276|422:289,2,48.750001859665,2|0|10,0:0|0:0|0:0,0:0:0:0:
210,91,25547,6,0,L|198:23,1,65,4|12,0:3|0:0,0:0:0:0:
139,222,26088,6,0,L|127:290,1,65,4|12,0:3|0:0,0:0:0:0:
0,117,26628,6,0,P|45:137|92:152,1,97.50000371933,4|8,0:0|0:0,0:0:0:0:
180,148,27034,1,0,0:0:0:0:
180,148,27169,1,4,0:3:0:0:
344,40,27439,1,8,0:0:0:0:
344,40,27574,2,0,L|323:151,1,97.50000371933,2|0,0:0|0:0,0:0:0:0:
397,182,27980,2,0,L|381:285,1,97.50000371933,8|4,0:0|0:3,0:0:0:0:
456,327,28385,1,0,0:0:0:0:
456,327,28520,1,8,0:0:0:0:
293,221,28791,6,0,L|244:227,2,48.750001859665,2|0|8,0:0|0:0|0:0,0:0:0:0:
302,305,29196,2,0,L|206:318,1,97.50000371933,0|0,0:0|0:0,0:0:0:0:
133,362,29601,1,8,0:0:0:0:
133,362,29737,2,0,P|88:342|71:288,1,97.50000371933,0|0,0:0|0:0,0:0:0:0:
13,235,30142,2,0,P|26:188|78:144,1,97.50000371933,10|2,0:0|0:0,0:0:0:0:
93,73,30547,2,0,L|61:18,2,48.750001859665,0|8|8,0:0|0:0|0:0,0:0:0:0:
182,98,30953,6,0,L|292:80,1,97.50000371933,4|8,0:3|0:0,0:0:0:0:
350,38,31358,1,0,0:0:0:0:
350,38,31493,1,0,0:0:0:0:
275,180,31764,1,8,0:0:0:0:
275,180,31899,2,0,L|379:196,1,97.50000371933,2|0,0:0|0:0,0:0:0:0:
439,245,32304,2,0,P|450:290|454:356,1,97.50000371933,8|4,0:0|0:3,0:0:0:0:
382,384,32710,1,0,0:0:0:0:
382,384,32845,1,8,0:0:0:0:
261,272,33115,6,0,P|272:353|276:390,1,97.50000371933,2|8,0:0|0:0,0:0:0:0:
187,384,33520,2,0,P|181:335|174:287,1,97.50000371933,2|0,0:0|0:0,0:0:0:0:
95,325,33926,2,0,P|102:378|103:388,1,48.750001859665,8|0,0:0|0:0,0:0:0:0:
16,360,34196,1,12,0:3:0:0:
45,345,35254,5,4,0:0:0:0:
45,345,35794,1,4,0:0:0:0:
45,345,36335,5,12,0:0:0:0:
91,255,36470,1,12,0:0:0:0:
91,255,36875,6,0,L|198:273,1,97.50000371933,4|0,0:0|0:0,0:0:0:0:
129,155,37416,2,0,L|236:173,1,97.50000371933,4|0,0:0|0:0,0:0:0:0:
169,52,37956,2,0,L|276:70,1,97.50000371933,4|0,0:0|0:0,0:0:0:0:
467,39,38497,5,12,0:0:0:0:
421,129,38632,1,12,0:0:0:0:
421,129,39037,5,12,0:0:0:0:
467,39,39172,1,12,0:0:0:0:
368,216,39578,6,0,L|389:321,1,97.50000371933,4|0,0:0|0:0,0:0:0:0:
244,203,40118,2,0,L|265:308,1,97.50000371933,4|0,0:0|0:0,0:0:0:0:
119,192,40659,1,12,0:0:0:0:
119,192,40794,2,0,L|140:297,1,97.50000371933,12|0,0:0|0:0,0:0:0:0:
46,277,41199,2,0,L|26:181,1,97.50000371933,4|0,0:0|0:0,0:0:0:0:
263,298,41740,6,0,L|242:193,1,97.50000371933,4|0,0:0|0:0,0:0:0:0:
493,310,42281,2,0,L|472:205,1,97.50000371933,4|0,0:0|0:0,0:0:0:0:
439,26,42821,5,12,0:0:0:0:
240,57,43091,5,10,0:1:0:0:
403,118,43362,5,10,0:1:0:0:
296,169,43632,5,10,0:1:0:0:
389,230,43902,6,0,L|373:366,1,130,4|8,0:0|0:0,0:0:0:0:
280,384,44308,2,0,L|265:240,1,130,2|0,0:0|0:0,0:0:0:0:
208,189,44713,2,0,L|137:178,1,65,8|8,0:0|0:0,0:0:0:0:
126,175,44916,1,0,0:0:0:0:
108,170,44983,6,0,P|146:114|217:95,1,130,2|8,1:1|0:0,0:0:0:0:
228,13,45389,2,0,P|265:72|335:87,1,130,2|0,0:0|0:0,0:0:0:0:
400,115,45794,2,0,P|445:104|468:88,1,65,8|8,0:0|0:0,0:0:0:0:
504,19,46064,5,2,1:1:0:0:
508,187,46335,1,8,0:0:0:0:
508,187,46470,1,2,0:1:0:0:
370,375,46875,1,8,0:0:0:0:
370,375,47010,1,8,0:0:0:0:
370,375,47145,6,0,L|282:366,1,65,2|0,1:1|0:0,0:0:0:0:
242,312,47416,2,0,L|238:227,1,65,10|0,0:1|0:0,0:0:0:0:
166,202,47686,2,0,L|169:137,1,65,2|0,0:1|0:0,0:0:0:0:
232,80,47956,2,0,L|296:73,1,65,8|8,0:0|0:0,0:0:0:0:
148,51,48226,6,0,L|-6:27,1,130,2|8,1:1|0:0,0:0:0:0:
4,114,48632,2,0,P|41:171|43:233,1,130,2|0,0:0|0:0,0:0:0:0:
110,283,49037,2,0,P|101:322|108:363,1,65,8|8,0:0|0:0,0:0:0:0:
117,358,49240,1,0,0:0:0:0:
133,367,49308,6,0,P|205:326|280:327,1,130,2|8,1:1|0:0,0:0:0:0:
330,349,49713,2,0,P|421:322|449:276,1,130,2|0,0:0|0:0,0:0:0:0:
468,216,50118,2,0,P|466:176|444:127,1,65,8|8,0:0|0:0,0:0:0:0:
494,76,50389,5,2,1:1:0:0:
382,204,50659,1,8,0:0:0:0:
382,204,50794,1,2,0:1:0:0:
191,36,51199,1,8,0:0:0:0:
191,36,51335,1,8,0:0:0:0:
191,36,51470,6,0,L|198:110,1,65,2|0,1:1|0:0,0:0:0:0:
278,126,51740,2,0,L|265:198,1,65,10|0,0:1|0:0,0:0:0:0:
318,256,52010,2,0,L|282:337,1,65,2|0,0:1|0:0,0:0:0:0:
207,345,52281,2,0,L|196:269,1,65,8|8,0:0|0:0,0:0:0:0:
95,312,52551,6,0,L|120:171,1,130,4|8,0:0|0:0,0:0:0:0:
44,141,52956,2,0,P|59:85|139:44,1,130,2|0,0:1|0:0,0:0:0:0:
193,12,53362,2,0,L|261:20,1,65,8|8,0:0|0:0,0:0:0:0:
331,95,53632,6,0,P|402:124|472:114,1,130,4|8,0:0|0:0,0:0:0:0:
473,202,54037,2,0,P|422:240|383:303,1,130,2|0,0:1|0:0,0:0:0:0:
311,248,54443,2,0,P|306:199|296:170,1,65,8|8,0:0|0:0,0:0:0:0:
248,117,54713,6,0,L|98:139,1,130,4|8,0:0|0:0,0:0:0:0:
70,213,55118,2,0,L|198:231,1,130,2|0,0:1|0:0,0:0:0:0:
309,338,55524,1,8,0:0:0:0:
308,338,55794,6,0,P|276:341|244:335,1,65,4|0,0:0|0:0,0:0:0:0:
373,278,56064,2,0,P|405:271|437:242,1,65,12|0,0:0|0:0,0:0:0:0:
293,206,56335,2,0,B|285:198|276:168|278:106,1,65,4|0,0:0|0:0,0:0:0:0:
398,71,56605,2,0,P|398:103|374:161,1,65,12|0,0:0|0:0,0:0:0:0:
294,205,56875,6,0,L|147:191,1,130,2|10,1:1|0:1,0:0:0:0:
142,117,57281,1,0,0:0:0:0:
142,117,57416,2,0,L|-3:139,1,130,2|10,1:1|0:1,0:0:0:0:
50,221,57821,1,0,0:0:0:0:
50,221,57956,6,0,L|22:355,1,130,2|10,1:1|0:1,0:0:0:0:
116,384,58362,1,0,0:0:0:0:
116,384,58497,2,0,L|182:264,1,130,2|10,1:1|0:1,0:0:0:0:
234,356,58902,1,0,0:0:0:0:
234,356,59037,6,0,L|310:326,1,65,10|0,1:1|0:0,0:0:0:0:
389,358,59308,2,0,L|404:281,1,65,10|0,1:1|0:0,0:0:0:0:
499,256,59578,2,0,L|472:185,1,65,10|0,1:1|0:0,0:0:0:0:
511,92,59848,2,0,L|435:48,1,65,10|4,1:1|0:3,0:0:0:0:
454,59,60051,1,8,0:3:0:0:
454,59,60118,1,4,0:3:0:0:
82,36,61191,6,0,P|144:41|193:102,1,130,4|8,0:0|0:0,0:0:0:0:
277,105,61597,1,0,0:0:0:0:
277,105,61732,2,0,P|262:164|278:233,1,130,2|0,0:1|0:0,0:0:0:0:
335,300,62137,1,10,0:1:0:0:
335,300,62273,6,0,L|465:294,2,130,2|0|0,1:1|0:0|0:0,0:0:0:0:
267,354,62948,1,0,0:0:0:0:
183,341,63083,2,0,L|111:333,1,65,8|0,0:1|0:0,0:0:0:0:
101,330,63286,1,8,0:0:0:0:
84,325,63354,6,0,P|80:308|76:257,1,65,4|0,0:0|0:0,0:0:0:0:
145,165,63624,2,0,P|149:182|153:233,1,65,8|0,0:0|0:0,0:0:0:0:
245,205,63894,2,0,P|246:237|253:269,2,65,2|0|8,0:1|0:0|0:0,0:0:0:0:
248,112,64300,1,8,0:0:0:0:
248,112,64435,6,0,L|395:128,1,130,4|8,0:0|0:0,0:0:0:0:
417,12,64840,2,0,L|270:28,1,130,4|0,0:0|0:0,0:0:0:0:
193,30,65245,2,0,L|121:13,1,65,10|8,0:1|0:0,0:0:0:0:
37,62,65516,6,0,P|5:116|14:197,1,130,4|0,0:0|0:0,0:0:0:0:
64,263,65921,2,0,P|104:215|183:191,1,130,4|0,0:0|0:0,0:0:0:0:
249,175,66327,2,0,L|329:199,1,65,10|8,0:1|0:0,0:0:0:0:
416,176,66597,6,0,P|461:251|472:311,1,130,4|8,0:0|0:0,0:0:0:0:
421,369,67002,2,0,P|388:329|305:312,1,130,4|0,0:0|0:0,0:0:0:0:
233,285,67408,2,0,P|198:307|173:329,1,65,10|0,0:1|0:0,0:0:0:0:
107,278,67678,6,0,P|73:309|0:369,2,130,4|0|0,0:0|0:0|0:0,0:0:0:0:
140,199,68354,1,0,0:0:0:0:
140,199,68489,2,0,L|131:116,1,65,8|0,0:1|0:0,0:0:0:0:
247,24,68759,6,0,L|239:141,1,104,4|0,0:0|0:0,0:0:0:0:
364,277,69300,6,0,L|372:160,1,104,4|0,0:0|0:0,0:0:0:0:
472,52,69840,6,0,P|423:81|351:88,1,130,4|8,0:0|0:0,0:0:0:0:
264,106,70245,2,0,P|218:97|123:83,1,130,4|0,0:0|0:0,0:0:0:0:
49,106,70651,2,0,P|33:130|5:174,1,65,10|0,0:1|0:0,0:0:0:0:
16,179,70854,1,8,0:0:0:0:
19,197,70921,2,0,P|-5:271|-13:337,1,130,4|8,0:0|0:1,0:0:0:0:
64,358,71327,2,0,P|107:299|154:261,1,130,0|0,0:0|0:0,0:0:0:0:
281,247,71732,1,10,0:1:0:0:
281,247,72002,6,0,L|227:315,1,65,14|0,0:1|0:0,0:0:0:0:
364,267,72273,2,0,L|374:343,1,65,8|0,1:1|0:1,0:0:0:0:
430,216,72543,2,0,L|489:265,1,65,10|0,1:1|0:0,0:0:0:0:
448,137,72813,2,0,L|522:124,1,65,8|0,1:0|0:0,0:0:0:0:
387,70,73083,6,0,L|236:54,1,130,10|8,1:1|1:1,0:0:0:0:
178,18,73489,1,0,0:0:0:0:
178,18,73624,2,0,P|139:34|107:44,1,65,8|0,1:1|0:0,0:0:0:0:
27,95,73894,2,0,P|57:105|87:118,1,65,10|0,1:1|0:0,0:0:0:0:
45,201,74164,6,0,L|61:312,1,104,4|8,0:0|0:0,0:0:0:0:
161,351,74570,1,8,0:0:0:0:
161,351,74637,1,8,0:0:0:0:
161,351,74705,2,0,L|146:248,1,104,4|0,0:0|0:0,0:0:0:0:
228,172,75110,1,8,0:0:0:0:
228,172,75178,1,8,0:0:0:0:
228,172,75245,6,0,L|244:283,1,104,4|8,0:0|0:0,0:0:0:0:
324,340,75651,1,8,0:0:0:0:
324,340,75718,1,8,0:0:0:0:
324,340,75786,2,0,L|448:314,1,104,4|0,0:0|0:0,0:0:0:0:
442,314,76124,1,8,0:0:0:0:
458,310,76191,2,0,L|505:318,2,26,8|8|4,0:0|0:0|0:0,0:0:0:0:
369,17,77293,5,4,0:0:0:0:
37,140,78272,5,6,0:1:0:0:
