osu file format v14

[General]
AudioFilename: audio.mp3
AudioLeadIn: 0
PreviewTime: 26041
Countdown: 0
SampleSet: Normal
StackLeniency: 0.7
Mode: 0
LetterboxInBreaks: 1
WidescreenStoryboard: 1

[Editor]
Bookmarks: 8258,21417,25985,28036,34576,52425,56898,61274,65705,83292,96503,105334,109875,114187,118545,136136,144944,149347,167031
DistanceSpacing: 1
BeatDivisor: 2
GridSize: 32
TimelineZoom: 1.700003

[Metadata]
Title:Still Take You Home
TitleUnicode:Still Take You Home
Artist:Arctic Monkeys
ArtistUnicode:Arctic Monkeys
Creator:Milan-
Version:Normal
Source:
Tags:rock alternative punk garage blues whatever people say that's what i'm not bouyaaa
BeatmapID:1507183
BeatmapSetID:631466

[Difficulty]
HPDrainRate:3
CircleSize:3
OverallDifficulty:4
ApproachRate:5.5
SliderMultiplier:1
SliderTickRate:1

[Events]
//Background and Video events
0,0,"mcOzISY.jpg",0,0
//Break Periods
2,21768,24909
2,83561,95234
//Storyboard Layer 0 (Background)
//Storyboard Layer 1 (Fail)
//Storyboard Layer 2 (Pass)
//Storyboard Layer 3 (Foreground)
//Storyboard Sound Samples

[TimingPoints]
7394,275.229357798165,4,2,1,30,1,0
8220,-100,4,1,1,40,0,0
8357,-100,4,1,1,40,0,0
26109,-100,4,1,1,40,0,0
26110,-100,4,1,1,45,0,0
34917,-100,4,1,1,45,0,0
35192,-100,4,1,1,35,0,0
52531,300,4,1,1,35,1,0
52532,-100,4,1,1,35,0,0
52831,275.229357798165,4,1,1,35,1,0
52968,-100,4,1,1,35,0,0
53656,275.229357798165,4,1,1,35,1,0
53656,-100,4,1,1,35,0,0
53931,-100,4,1,1,35,0,0
54756,-100,4,1,1,35,0,0
55857,-100,4,1,1,45,0,0
56959,-100,4,1,1,45,0,0
61362,-100,4,1,1,35,0,0
62463,-100,4,1,1,35,0,0
63564,-100,4,1,1,35,0,0
64665,-100,4,1,1,45,0,0
65766,-125,4,2,1,35,0,0
68504,275.229357798165,4,2,1,35,1,0
68504,-125,4,2,1,35,0,0
69054,275.229357798165,4,2,1,35,1,0
69054,-125,4,2,1,35,0,0
71769,275.229357798165,4,2,1,35,1,0
71769,-125,4,2,1,35,0,0
72319,275.229357798165,4,2,1,35,1,0
72319,-125,4,2,1,35,0,0
74554,275.229357798165,4,2,1,35,1,0
74554,-111.111111111111,4,2,1,35,0,0
96434,-100,4,1,1,40,0,0
105379,-100,4,1,1,45,0,0
109783,-100,4,1,1,45,0,0
114187,-100,4,1,1,45,0,0
118590,-100,4,1,1,45,0,0

[Colours]
Combo1 : 168,196,159
Combo2 : 187,198,208
Combo3 : 226,215,173
Combo4 : 208,187,198

[HitObjects]
461,78,8357,6,0,L|352:89,1,100,6|2,1:1|1:0,0:0:0:0:
322,119,8770,1,14,0:0:0:0:
238,63,9045,2,0,L|129:52,1,100,2|10,0:0|0:0,0:0:0:0:
99,84,9458,2,0,P|55:127|52:226,1,150,6|10,0:0|0:0,0:0:0:0:
100,296,10146,2,0,L|202:279,1,100,2|10,0:0|0:0,0:0:0:0:
235,245,10559,6,0,P|331:247|374:328,1,150,2|10,0:0|0:0,0:0:0:0:
454,325,11247,2,0,B|465:279|465:279|441:219,1,100,2|10,0:0|0:0,0:0:0:0:
482,196,11660,2,0,P|448:163|438:48,1,150,2|10,0:0|0:0,0:0:0:0:
343,17,12348,2,0,L|238:47,1,100,2|10,0:0|0:0,0:0:0:0:
221,87,12760,6,0,L|334:131,1,100,6|2,0:0|0:0,0:0:0:0:
341,165,13173,1,14,0:0:0:0:
256,219,13449,1,2,0:0:0:0:
309,303,13724,1,10,0:0:0:0:
309,303,13861,2,0,P|243:330|145:320,1,150,2|10,0:0|0:0,0:0:0:0:
78,277,14549,2,0,L|66:144,1,100,2|10,0:0|0:0,0:0:0:0:
28,147,14962,6,0,P|44:109|153:53,1,150,2|10,0:0|0:0,0:0:0:0:
227,20,15650,2,0,L|235:119,1,100,2|10,0:0|0:0,0:0:0:0:
278,146,16063,2,0,L|321:47,1,100,6|2,0:0|0:0,0:0:0:0:
363,34,16476,1,14,0:0:0:0:
452,77,16751,1,2,0:0:0:0:
491,169,17027,1,10,0:0:0:0:
491,169,17164,6,0,L|390:200,1,100,6|2,0:0|0:0,0:0:0:0:
367,239,17577,1,14,0:0:0:0:
381,337,17852,1,2,0:0:0:0:
285,365,18127,1,10,0:0:0:0:
285,365,18265,2,0,P|232:318|128:320,1,150,2|10,0:0|0:0,0:0:0:0:
75,370,18953,2,0,B|53:328|53:328|59:261,1,100,6|10,0:0|0:0,0:0:0:0:
16,246,19366,6,0,P|58:221|91:109,1,150,2|14,0:0|0:0,0:0:0:0:
46,42,20054,1,2,0:0:0:0:
144,23,20329,1,10,0:0:0:0:
144,23,20467,2,0,L|318:38,1,150,2|10,0:0|0:0,0:0:0:0:
328,129,21155,2,0,L|456:121,1,100,2|10,0:0|0:0,0:0:0:0:
471,147,21568,5,4,0:0:0:0:
103,90,26109,6,0,P|55:130|17:131,2,100,4|12|0,0:0|0:2|0:0,0:0:0:0:
191,42,26935,2,0,P|239:48|274:83,1,100,8|0,0:0|0:0,0:0:0:0:
374,76,27486,1,8,0:0:0:0:
374,76,27623,2,0,L|388:258,1,150,0|8,0:0|0:0,0:0:0:0:
359,322,28311,5,2,0:0:0:0:
261,298,28586,1,10,0:0:0:0:
164,274,28861,2,0,B|114:269|114:269|48:310,1,100,2|10,0:0|0:0,0:0:0:0:
1,223,29412,5,2,0:0:0:0:
86,170,29687,1,10,0:0:0:0:
29,87,29962,2,0,B|34:40|34:40|83:2,1,100,2|10,0:0|0:0,0:0:0:0:
164,54,30513,6,0,P|232:50|274:30,2,100,6|12|2,0:0|0:2|0:0,0:0:0:0:
178,152,31338,1,10,0:0:0:0:
272,185,31614,2,0,P|317:214|338:272,2,100,2|10|2,0:0|0:0|0:0,0:0:0:0:
195,249,32439,1,10,0:0:0:0:
139,332,32715,6,0,P|43:312|17:288,1,100,2|8,0:0|0:0,0:0:0:0:
34,212,33265,2,0,P|77:187|126:182,1,100,2|10,0:0|0:0,0:0:0:0:
181,98,33816,2,0,P|242:107|283:135,1,100,2|10,0:0|0:0,0:0:0:0:
366,88,34366,2,0,L|355:35,2,50,2|2|12,0:0|0:0|0:0,0:0:0:0:
458,125,34916,5,4,0:2:0:0:
485,221,35192,2,0,B|428:262|428:262|283:230,1,200,8|8,0:0|0:0,0:0:0:0:
214,183,36017,2,0,B|117:196|117:196|62:256,2,150,0|2|8,0:0|0:0|0:0,0:0:0:0:
282,109,37118,5,2,0:0:0:0:
200,50,37393,2,0,P|87:21|38:109,1,200,10|8,0:0|0:0,0:0:0:0:
120,137,38219,2,0,P|177:183|161:289,2,150,2|2|8,0:0|0:0|0:0,0:0:0:0:
27,174,39320,5,6,0:0:0:0:
7,272,39595,2,0,B|54:282|91:247|91:247|88:318|166:352,1,200,8|8,0:0|0:0,0:0:0:0:
183,361,40283,2,0,P|276:340|288:268,1,150,2|8,0:0|0:0,0:0:0:0:
254,203,40971,2,0,P|248:153|274:91,1,100,0|8,0:0|0:0,0:0:0:0:
350,57,41522,6,0,L|463:60,1,100,2|10,0:0|0:0,0:0:0:0:
479,154,42072,2,0,L|379:156,1,100,2|10,0:0|0:0,0:0:0:0:
355,254,42623,2,0,B|452:256|452:256|493:316,2,150,2|2|12,0:0|0:0|0:0,0:0:0:0:
281,321,43724,5,4,0:2:0:0:
182,340,43999,2,0,P|105:312|100:191,1,200,14|8,0:0|0:0,0:0:0:0:
56,110,44825,2,0,P|87:32|173:7,2,150,2|2|8,0:1|0:1|0:0,0:0:0:0:
154,126,45926,5,2,0:0:0:0:
227,194,46201,2,0,L|438:168,1,200,10|8,0:0|0:0,0:0:0:0:
493,243,47027,2,0,L|477:360,1,100,2|8,0:0|0:0,0:0:0:0:
434,363,47439,2,0,P|382:325|278:347,1,150,2|8,0:0|0:0,0:0:0:0:
209,288,48127,6,0,L|96:325,1,100,6|8,0:0|0:0,0:0:0:0:
41,249,48678,2,0,L|65:132,1,100,0|8,0:0|0:0,0:0:0:0:
157,123,49228,2,0,L|245:202,1,100,0|8,0:0|0:0,0:0:0:0:
280,200,49641,2,0,P|351:197|414:112,1,150,2|8,0:0|0:0,0:0:0:0:
443,51,50329,5,2,0:0:0:0:
343,62,50605,2,0,P|287:74|159:-8,1,200,10|10,0:0|0:0,0:0:0:0:
98,80,51430,2,0,L|-11:93,1,100,2|8,0:0|0:0,0:0:0:0:
26,133,51843,2,0,P|63:176|62:288,1,150,2|8,0:0|0:0,0:0:0:0:
38,361,52531,5,6,0:2:0:0:
185,302,52968,1,2,0:2:0:0:
322,241,53381,1,8,0:0:0:0:
413,280,53656,6,0,L|400:393,1,100,8|8,0:0|0:0,0:0:0:0:
301,374,54206,2,0,B|265:316|265:316|181:301,1,150,8|0,0:0|0:0,0:0:0:0:
142,329,54756,6,0,P|111:350|-12:320,1,150,4|2,0:0|0:2,0:0:0:0:
26,87,55857,6,0,B|76:83|76:83|125:34,3,100,8|8|8|8,0:0|0:0|0:0|0:0,0:0:0:0:
203,8,56958,6,0,P|250:23|318:8,1,100,4|8,0:0|0:0,0:0:0:0:
314,115,57509,2,0,P|387:69|398:39,1,100,0|8,0:0|0:0,0:0:0:0:
478,109,58059,2,0,L|487:230,1,100,2|10,0:0|0:0,0:0:0:0:
485,309,58610,1,0,0:0:0:0:
414,380,58885,6,0,P|380:308|233:282,1,200,8|8,0:0|0:0,0:0:0:0:
188,325,59711,2,0,P|136:355|60:350,1,100,0|8,0:0|0:0,0:0:0:0:
5,318,60261,2,0,P|5:257|47:194,1,100,2|10,0:0|0:0,0:0:0:0:
101,163,60811,2,0,P|152:193|186:261,1,100,0|8,0:0|0:0,0:0:0:0:
265,268,61362,5,6,0:2:0:0:
394,191,61775,1,2,0:2:0:0:
429,45,62188,1,0,0:0:0:0:
337,84,62463,6,0,L|222:69,1,100,8|8,0:0|0:0,0:0:0:0:
147,29,63013,2,0,B|73:16|73:16|4:72,1,150,8|0,0:0|0:0,0:0:0:0:
38,107,63564,6,0,P|95:132|154:214,1,150,4|2,0:0|0:2,0:0:0:0:
320,16,64665,6,0,B|351:55|351:55|350:105,3,100,8|8|8|8,0:0|0:0|0:0|0:0,0:0:0:0:
280,145,65766,5,4,0:0:0:0:
259,303,66316,2,0,L|337:289,1,80,8|2,0:0|0:0,0:0:0:0:
383,305,66729,1,12,0:0:0:0:
423,218,67004,1,12,0:0:0:0:
455,127,67279,2,0,L|439:68,2,40,10|8|2,0:0|0:0|0:0,0:0:0:0:
407,123,67692,2,0,P|381:109|298:115,1,80,2|2,0:3|0:0,0:0:0:0:
158,31,68504,6,0,L|176:141,1,80,8|2,0:0|0:0,0:0:0:0:
146,150,68916,1,12,0:0:0:0:
88,227,69192,1,12,0:0:0:0:
39,309,69467,2,0,L|-26:334,2,40,10|8|2,0:0|0:0|0:0,0:0:0:0:
82,329,69880,6,0,P|131:358|175:359,1,80,4|4,0:0|0:0,0:0:0:0:
309,249,70705,6,0,L|418:268,1,80,8|2,0:0|0:0,0:0:0:0:
433,277,71118,1,12,0:0:0:0:
483,195,71393,1,12,0:0:0:0:
463,100,71669,2,0,B|432:120|432:120|339:112,1,109,10|8,0:0|0:0,0:0:0:0:
324,82,72181,2,0,L|331:18,2,40,8|8|8,0:0|0:0|0:0,0:0:0:0:
281,105,72594,2,0,L|183:91,1,80,2|10,0:3|0:0,0:0:0:0:
68,38,73282,6,0,P|82:71|92:143,2,80,12|12|10,0:0|0:0|0:0,0:0:0:0:
24,58,73970,2,0,P|-2:117|-1:151,1,80,8|2,0:0|0:3,0:0:0:0:
21,240,74554,5,4,0:0:0:0:
189,343,75104,2,0,L|334:322,1,134.999995880127,8|8,0:0|0:0,0:0:0:0:
314,224,75792,2,0,L|459:245,1,134.999995880127,8|8,0:0|0:0,0:0:0:0:
485,151,76480,1,2,0:3:0:0:
423,73,76755,6,0,L|317:93,1,89.999997253418,2|2,0:0|0:0,0:0:0:0:
249,140,77306,2,0,L|143:120,1,89.999997253418,8|2,0:0|0:0,0:0:0:0:
111,132,77719,2,0,P|48:81|33:49,2,89.999997253418,8|8|0,0:0|0:0|0:0,0:0:0:0:
127,178,78407,2,0,P|147:251|146:300,1,89.999997253418,8|2,0:0|0:3,0:0:0:0:
88,344,78957,5,4,0:0:0:0:
284,369,79508,2,0,L|377:349,1,89.999997253418,8|2,0:0|0:0,0:0:0:0:
400,310,79920,2,0,P|447:282|467:236,2,89.999997253418,8|8|2,0:0|0:0|0:0,0:0:0:0:
351,296,80609,2,0,P|319:245|309:203,1,89.999997253418,8|2,0:0|0:3,0:0:0:0:
366,135,81159,6,0,P|309:187|195:181,1,179.999994506836,2|8,0:0|0:0,0:0:0:0:
82,112,82122,2,0,P|104:73|138:43,2,89.999997253418,8|8|2,0:0|0:0|0:0,0:0:0:0:
49,149,82810,2,0,P|96:214|101:255,1,89.999997253418,8|2,0:0|0:0,0:0:0:0:
92,321,83361,5,4,0:0:0:0:
51,306,96434,6,0,L|160:295,1,100,6|2,1:1|1:0,0:0:0:0:
190,265,96847,1,14,0:0:0:0:
274,321,97122,2,0,L|383:332,1,100,2|10,0:0|0:0,0:0:0:0:
413,300,97535,2,0,P|457:257|460:158,1,150,2|10,0:0|0:0,0:0:0:0:
412,88,98223,2,0,L|310:105,1,100,2|10,0:0|0:0,0:0:0:0:
277,139,98636,6,0,P|181:137|138:56,1,150,2|10,0:0|0:0,0:0:0:0:
58,59,99324,2,0,B|47:105|47:105|71:165,1,100,2|10,0:0|0:0,0:0:0:0:
30,188,99737,2,0,P|64:221|74:336,1,150,2|10,0:0|0:0,0:0:0:0:
169,367,100425,2,0,L|274:337,1,100,2|10,0:0|0:0,0:0:0:0:
291,297,100837,6,0,L|178:253,1,100,6|2,0:0|0:0,0:0:0:0:
171,219,101250,1,14,0:0:0:0:
256,165,101526,1,2,0:0:0:0:
203,81,101801,1,10,0:0:0:0:
203,81,101939,2,0,P|269:54|367:64,1,150,2|10,0:0|0:0,0:0:0:0:
434,107,102626,2,0,L|446:240,1,100,2|10,0:0|0:0,0:0:0:0:
484,237,103040,6,0,P|468:275|359:331,1,150,2|10,0:0|0:0,0:0:0:0:
283,363,103728,2,0,L|159:351,1,100,2|10,0:0|0:0,0:0:0:0:
137,373,104141,2,0,P|88:354|76:234,1,150,2|10,0:0|0:0,0:0:0:0:
123,190,104829,2,0,L|121:60,1,100,2|10,0:0|0:0,0:0:0:0:
209,42,105379,5,12,0:0:0:0:
305,67,105654,1,8,0:0:0:0:
342,159,105930,1,8,0:0:0:0:
438,184,106205,1,8,0:0:0:0:
399,276,106480,6,0,L|412:395,1,100,8|8,0:0|0:0,0:0:0:0:
313,350,107031,2,0,L|302:250,1,100,8|8,0:0|0:0,0:0:0:0:
204,231,107581,5,12,0:0:0:0:
122,289,107856,1,8,0:0:0:0:
55,214,108131,1,8,0:0:0:0:
134,156,108406,1,8,0:0:0:0:
84,68,108682,6,0,L|198:63,1,100,8|8,0:0|0:0,0:0:0:0:
260,127,109232,2,0,L|374:122,1,100,8|8,0:0|0:0,0:0:0:0:
445,175,109783,6,0,P|475:222|482:292,2,100,4|8|0,0:0|0:0|0:0,0:0:0:0:
387,257,110609,1,8,0:0:0:0:
311,322,110884,2,0,P|246:343|182:333,1,100,2|10,0:0|0:0,0:0:0:0:
121,305,111434,2,0,L|60:343,2,50,0|0|8,0:0|0:0|0:0,0:0:0:0:
200,243,111985,6,0,P|207:175|190:114,1,100,0|8,0:0|0:0,0:0:0:0:
119,87,112535,2,0,L|45:66,2,50,0|0|8,0:0|0:0|0:0,0:0:0:0:
209,44,113086,6,0,P|273:12|343:15,1,100,2|10,0:0|0:0,0:0:0:0:
358,90,113636,2,0,P|422:122|492:119,1,100,0|8,0:0|0:0,0:0:0:0:
482,219,114187,5,12,0:0:0:0:
430,304,114462,1,8,0:0:0:0:
342,255,114737,1,8,0:0:0:0:
290,340,115012,1,8,0:0:0:0:
193,314,115287,6,0,L|63:314,1,100,8|8,0:0|0:0,0:0:0:0:
63,218,115838,2,0,L|163:218,1,100,8|12,0:0|0:0,0:0:0:0:
242,157,116388,5,12,0:0:0:0:
224,58,116664,1,8,0:0:0:0:
320,85,116939,1,8,0:0:0:0:
338,184,117215,1,8,0:0:0:0:
434,211,117489,5,8,0:0:0:0:
46,264,118590,6,0,P|35:297|50:391,2,100,4|8|2,0:0|0:0|0:0,0:0:0:0:
112,189,119416,1,8,0:0:0:0:
171,268,119691,2,0,P|255:312|280:314,1,100,2|10,0:0|0:0,0:0:0:0:
345,261,120242,2,0,L|413:251,2,50,0|0|8,0:0|0:0|0:0,0:0:0:0:
271,193,120792,6,0,B|250:150|250:150|260:88,1,100,0|8,0:0|0:0,0:0:0:0:
351,135,121342,2,0,B|359:83|359:83|338:40,1,100,0|8,0:0|0:0,0:0:0:0:
246,0,121893,2,0,L|124:16,1,100,2|10,0:0|0:0,0:0:0:0:
66,72,122443,2,0,L|-25:51,2,50,0|0|8,0:0|0:0|0:0,0:0:0:0:
100,166,122994,6,0,L|34:200,2,50,4|0|8,0:0|0:0|0:0,0:0:0:0:
198,179,123544,2,0,P|265:238|265:257,1,100,2|0,0:0|0:0,0:0:0:0:
364,253,124095,2,0,P|346:340|329:350,1,100,2|10,0:0|0:0,0:0:0:0:
248,371,124645,1,0,0:0:0:0:
148,357,124920,1,8,0:0:0:0:
48,341,125196,6,0,L|-11:374,2,50,2|0|10,0:0|0:0|0:0,0:0:0:0:
108,261,125746,2,0,P|105:208|77:152,1,100,2|10,0:0|0:0,0:0:0:0:
76,65,126297,2,0,P|171:65|203:45,1,100,2|8,0:0|0:0,0:0:0:0:
221,75,126709,2,0,P|303:68|346:88,1,100,2|0,0:0|0:0,0:0:0:0:
368,69,127122,1,8,0:0:0:0:
445,132,127398,6,0,B|468:86|468:86|457:23,2,100,0|12|0,0:0|0:0|0:0,0:0:0:0:
420,176,128086,1,0,0:0:0:0:
420,176,128223,1,8,0:0:0:0:
321,194,128498,2,0,L|261:170,2,50,0|0|8,0:0|0:0|0:0,0:0:0:0:
346,290,129049,2,0,L|371:352,2,50,0|0|8,0:0|0:0|0:0,0:0:0:0:
246,276,129599,6,0,P|183:315|130:315,2,100,0|10|2,0:0|0:0|0:0,0:0:0:0:
175,204,130425,1,8,0:0:0:0:
75,198,130700,2,0,P|44:158|48:67,1,100,2|8,0:0|0:0,0:0:0:0:
98,32,131251,2,0,P|151:40|200:72,1,100,2|8,0:0|0:0,0:0:0:0:
290,66,131801,6,0,L|275:11,2,50,0|0|8,0:0|0:0|0:0,0:0:0:0:
367,129,132352,2,0,L|473:113,1,100,2|10,0:0|0:0,0:0:0:0:
493,210,132902,2,0,L|508:265,2,50,0|0|8,0:0|0:0|0:0,0:0:0:0:
395,234,133453,2,0,L|289:250,2,100,2|10|0,0:0|0:0|0:0,0:0:0:0:
428,328,134278,6,0,L|329:342,1,100,8|0,0:0|0:0,0:0:0:0:
283,364,134691,1,0,0:0:0:0:
283,364,134829,1,8,0:0:0:0:
186,339,135104,6,0,L|118:358,1,50,10|2,0:0|0:0,0:0:0:0:
162,204,135654,6,0,L|210:190,1,50,10|2,0:0|0:0,0:0:0:0:
86,104,136205,5,4,0:0:0:0:
