osu file format v14

[General]
AudioFilename: audio.mp3
AudioLeadIn: 0
PreviewTime: 26041
Countdown: 0
SampleSet: Normal
StackLeniency: 0.7
Mode: 0
LetterboxInBreaks: 1
WidescreenStoryboard: 1

[Editor]
Bookmarks: 8258,21417,25985,28036,34576,52425,56898,61274,65705,83292,96503,105334,109875,114187,118545,136136,144944,149347,167031
DistanceSpacing: 1.3
BeatDivisor: 2
GridSize: 32
TimelineZoom: 1.100003

[Metadata]
Title:Still Take You Home
TitleUnicode:Still Take You Home
Artist:Arctic Monkeys
ArtistUnicode:Arctic Monkeys
Creator:Milan-
Version:Easy
Source:
Tags:rock alternative punk garage blues whatever people say that's what i'm not bouyaaa
BeatmapID:1512341
BeatmapSetID:631466

[Difficulty]
HPDrainRate:1
CircleSize:2.5
OverallDifficulty:2
ApproachRate:3
SliderMultiplier:0.7
SliderTickRate:1

[Events]
//Background and Video events
0,0,"mcOzISY.jpg",0,0
//Break Periods
2,21767,24669
2,83561,94994
//Storyboard Layer 0 (Background)
//Storyboard Layer 1 (Fail)
//Storyboard Layer 2 (Pass)
//Storyboard Layer 3 (Foreground)
//Storyboard Sound Samples

[TimingPoints]
7394,275.229357798165,4,2,1,30,1,0
8220,-100,4,1,1,40,0,0
8357,-100,4,1,1,40,0,0
26109,-100,4,1,1,40,0,0
26110,-100,4,1,1,45,0,0
34917,-100,4,1,1,45,0,0
35192,-100,4,1,1,35,0,0
52531,300,4,1,1,35,1,0
52532,-100,4,1,1,35,0,0
52831,275.229357798165,4,1,1,35,1,0
52968,-100,4,1,1,35,0,0
53656,275.229357798165,4,1,1,35,1,0
53656,-100,4,1,1,35,0,0
53931,-100,4,1,1,35,0,0
54756,-100,4,1,1,35,0,0
55857,-100,4,1,1,45,0,0
56959,-100,4,1,1,45,0,0
61362,-100,4,1,1,35,0,0
62463,-100,4,1,1,35,0,0
63564,-100,4,1,1,35,0,0
64665,-100,4,1,1,45,0,0
65766,-100,4,2,1,35,0,0
68504,275.229357798165,4,2,1,35,1,0
68504,-100,4,2,1,35,0,0
69054,275.229357798165,4,2,1,35,1,0
71769,275.229357798165,4,2,1,35,1,0
71769,-100,4,2,1,35,0,0
72319,275.229357798165,4,2,1,35,1,0
74554,275.229357798165,4,2,1,35,1,0
74554,-100,4,2,1,35,0,0
96434,-100,4,1,1,40,0,0
105379,-100,4,1,1,45,0,0
109783,-100,4,1,1,45,0,0
114187,-100,4,1,1,45,0,0
118590,-100,4,1,1,45,0,0

[Colours]
Combo1 : 168,196,159
Combo2 : 187,198,208
Combo3 : 226,215,173
Combo4 : 208,187,198

[HitObjects]
489,73,8357,6,0,L|359:88,1,105,6|14,1:1|0:0,0:0:0:0:
296,109,9045,2,0,L|179:92,2,105,2|6|10,0:0|0:0|0:0,0:0:0:0:
360,174,10146,2,0,B|383:222|383:222|383:298,2,105,2|2|10,0:0|0:0|0:0,0:0:0:0:
272,198,11247,2,0,L|155:181,2,105,2|2|10,0:0|0:0|0:0,0:0:0:0:
278,289,12348,1,2,0:0:0:0:
148,330,12760,5,6,0:0:0:0:
46,239,13173,2,0,L|58:154,1,70,14|2,0:0|0:0,0:0:0:0:
136,59,13861,2,0,P|187:90|252:87,1,105,2|10,0:0|0:0,0:0:0:0:
312,51,14549,2,0,L|446:55,2,105,2|2|10,0:0|0:0|0:0,0:0:0:0:
312,142,15650,1,2,0:0:0:0:
438,192,16063,2,0,B|460:237|460:237|448:302,1,105,6|14,0:0|0:0,0:0:0:0:
381,351,16751,1,2,0:0:0:0:
257,292,17164,6,0,L|136:303,1,105,6|14,0:0|0:0,0:0:0:0:
74,349,17852,1,2,0:0:0:0:
15,225,18265,2,0,L|29:106,1,105,2|10,0:0|0:0,0:0:0:0:
95,60,18953,1,6,0:0:0:0:
212,129,19366,2,0,B|264:127|264:127|311:82,1,105,2|14,0:0|0:0,0:0:0:0:
386,55,20054,1,2,0:0:0:0:
437,181,20467,2,0,B|385:183|385:183|338:228,1,105,2|10,0:0|0:0,0:0:0:0:
272,272,21155,2,0,P|234:241|148:242,1,105,2|4,0:0|0:0,0:0:0:0:
44,37,26109,6,0,L|54:126,1,70,4|12,0:0|0:2,0:0:0:0:
71,287,26935,2,0,P|112:241|216:242,1,140,8|8,0:0|0:0,0:0:0:0:
341,133,28036,1,8,0:0:0:0:
417,181,28311,6,0,L|432:334,1,140,2|2,0:0|0:0,0:0:0:0:
358,375,29137,1,10,0:0:0:0:
279,329,29412,2,0,B|165:279|200:365|50:314,1,210,2|10,0:0|0:0,0:0:0:0:
23,246,30513,5,6,0:0:0:0:
103,201,30788,2,0,P|126:160|102:68,1,140,12|10,0:2|0:0,0:0:0:0:
172,9,31614,2,0,P|226:42|310:29,1,140,2|2,0:0|0:0,0:0:0:0:
388,53,32439,1,10,0:0:0:0:
465,4,32715,5,2,0:0:0:0:
479,185,33265,1,2,0:0:0:0:
491,365,33816,1,2,0:0:0:0:
326,287,34366,2,0,L|231:311,1,70,2|12,0:0|0:0,0:0:0:0:
180,349,34916,6,0,P|117:356|47:218,1,210,4|8,0:2|0:0,0:0:0:0:
75,164,36017,2,0,L|54:37,2,105,0|2|8,0:0|0:0|0:0,0:0:0:0:
164,182,37118,6,0,P|252:175|319:69,1,210,2|8,0:0|0:0,0:0:0:0:
395,33,38219,2,0,P|443:9|516:26,2,105,2|2|8,0:0|0:0|0:0,0:0:0:0:
458,97,39320,6,0,B|476:177|476:177|425:242|425:242|448:346,1,245,6|2,0:0|0:0,0:0:0:0:
358,355,40559,2,0,L|321:173,1,175,0|8,0:0|0:0,0:0:0:0:
351,97,41522,5,2,0:0:0:0:
187,16,42072,1,2,0:0:0:0:
69,155,42623,2,0,P|31:138|11:74,2,105,2|2|12,0:0|0:0|0:0,0:0:0:0:
157,178,43724,5,4,0:2:0:0:
96,245,43999,2,0,P|63:304|84:378,1,140,14|8,0:0|0:0,0:0:0:0:
170,371,44825,2,0,L|291:375,2,105,2|2|8,0:1|0:1|0:0,0:0:0:0:
190,282,45926,6,0,P|275:255|322:125,1,210,2|8,0:0|0:0,0:0:0:0:
398,97,47027,2,0,P|395:22|360:-19,2,105,2|2|8,0:0|0:0|0:0,0:0:0:0:
414,186,48127,5,6,0:0:0:0:
264,82,48678,1,0,0:0:0:0:
91,23,49228,2,0,P|39:74|26:140,1,140,0|2,0:0|0:0,0:0:0:0:
203,178,50329,6,0,P|264:220|292:361,1,210,2|10,0:0|0:0,0:0:0:0:
386,359,51430,2,0,L|511:373,2,105,2|2|8,0:0|0:0|0:0,0:0:0:0:
388,267,52531,5,6,0:2:0:0:
81,56,53656,5,8,0:0:0:0:
165,89,53931,2,0,B|185:135|185:135|156:237,1,140,8|8,0:0|0:3,0:0:0:0:
132,307,54756,1,4,0:0:0:0:
392,47,55857,6,0,L|483:26,1,70,8|8,0:0|0:0,0:0:0:0:
499,113,56408,2,0,L|430:128,1,70,8|8,0:0|0:0,0:0:0:0:
342,149,56958,6,0,P|315:199|330:289,2,140,4|0|2,0:0|0:0|0:0,0:0:0:0:
264,100,58334,2,0,P|197:109|125:66,1,140,10|8,0:0|0:0,0:0:0:0:
47,102,59160,5,0,0:0:0:0:
76,281,59711,1,0,0:0:0:0:
242,353,60261,1,2,0:0:0:0:
301,284,60536,2,0,P|362:252|430:260,1,140,10|8,0:0|0:0,0:0:0:0:
501,203,61362,5,6,0:2:0:0:
143,272,62463,5,8,0:0:0:0:
225,235,62738,2,0,B|245:189|245:189|231:83,1,140,8|8,0:0|0:3,0:0:0:0:
210,12,63563,1,4,0:0:0:0:
330,355,64664,6,0,L|421:376,1,70,8|8,0:0|0:0,0:0:0:0:
437,289,65215,2,0,L|368:273,1,70,8|8,0:0|0:0,0:0:0:0:
279,254,65766,5,4,0:0:0:0:
117,336,66316,1,8,0:0:0:0:
43,220,66729,2,0,B|111:178|111:178|184:193|184:193|276:148,1,245,12|2,0:0|0:3,0:0:0:0:
339,100,67967,5,2,0:0:0:0:
478,209,68504,1,8,0:0:0:0:
470,344,68916,2,0,B|401:302|401:302|328:317|328:317|236:272,1,245,12|4,0:0|0:0,0:0:0:0:
156,287,70155,5,4,0:0:0:0:
63,130,70705,1,8,0:0:0:0:
169,44,71118,2,0,B|232:71|232:71|307:43,1,140,12|10,0:0|0:0,0:0:0:0:
400,117,72044,2,0,B|444:170|444:170|412:259,1,140,8|2,0:0|0:3,0:0:0:0:
380,318,72869,5,10,0:0:0:0:
244,337,73282,2,0,B|200:340|175:321|175:321|92:393|0:321,1,245,12|2,0:0|0:3,0:0:0:0:
2,231,74554,5,4,0:0:0:0:
64,60,75104,2,0,L|187:32,1,105,8|8,0:0|0:0,0:0:0:0:
198,121,75792,2,0,L|95:144,1,105,8|8,0:0|0:0,0:0:0:0:
51,321,76755,5,2,0:0:0:0:
226,271,77306,1,8,0:0:0:0:
336,351,77719,2,0,B|400:363|400:363|489:299|489:299|488:212,1,245,8|2,0:0|0:3,0:0:0:0:
478,138,78957,5,4,0:0:0:0:
297,116,79508,1,8,0:0:0:0:
180,186,79920,2,0,B|160:132|160:132|185:50|185:50|77:37,1,245,8|2,0:0|0:3,0:0:0:0:
17,100,81159,6,0,P|-1:148|49:234,1,140,2|8,0:0|0:0,0:0:0:0:
124,327,82122,2,0,L|311:300,1,175,8|8,0:0|0:0,0:0:0:0:
365,241,83086,2,0,L|443:268,1,70,2|4,0:0|0:0,0:0:0:0:
23,311,96434,6,0,L|153:296,1,105,6|14,1:1|0:0,0:0:0:0:
216,275,97122,2,0,L|333:292,2,105,2|2|10,0:0|0:0|0:0,0:0:0:0:
152,210,98223,2,0,B|129:162|129:162|129:86,2,105,2|2|10,0:0|0:0|0:0,0:0:0:0:
240,186,99324,2,0,L|357:203,2,105,2|2|10,0:0|0:0|0:0,0:0:0:0:
234,95,100425,1,2,0:0:0:0:
364,54,100837,5,6,0:0:0:0:
466,145,101250,2,0,L|454:230,1,70,14|2,0:0|0:0,0:0:0:0:
376,325,101939,2,0,P|325:294|260:297,1,105,2|10,0:0|0:0,0:0:0:0:
200,333,102627,2,0,L|66:329,2,105,2|2|10,0:0|0:0|0:0,0:0:0:0:
200,242,103727,1,2,0:0:0:0:
74,192,104140,2,0,B|52:147|52:147|64:82,1,105,2|10,0:0|0:0,0:0:0:0:
131,33,104828,1,2,0:0:0:0:
256,192,105379,12,8,107306,0:0:0:0:
256,192,107581,12,4,109783,0:0:0:0:
316,133,110884,6,0,P|350:136|384:127,2,70,2|8|0,0:0|0:0|0:0,0:0:0:0:
236,88,111709,2,0,P|182:38|95:45,1,140,8|8,0:0|0:0,0:0:0:0:
48,93,112535,1,0,0:0:0:0:
206,182,113086,2,0,L|214:280,1,70,2|10,0:0|0:0,0:0:0:0:
125,281,113636,2,0,L|119:211,1,70,0|8,0:0|0:0,0:0:0:0:
256,192,114187,12,12,116388,0:0:0:0:
428,117,117489,5,8,0:0:0:0:
102,279,118590,6,0,P|66:222|71:128,1,140,4|2,0:0|0:0,0:0:0:0:
132,92,119416,1,8,0:0:0:0:
210,138,119691,2,0,P|256:150|362:100,1,140,2|0,0:0|0:0,0:0:0:0:
414,67,120517,1,8,0:0:0:0:
469,138,120792,5,0,0:0:0:0:
442,317,121342,1,0,0:0:0:0:
262,346,121893,1,2,0:0:0:0:
289,167,122443,1,0,0:0:0:0:
99,195,122994,6,0,P|60:162|54:75,1,140,4|2,0:0|0:0,0:0:0:0:
120,16,123820,2,0,P|159:49|165:136,1,140,0|10,0:0|0:0,0:0:0:0:
193,219,124645,2,0,L|206:310,1,70,0|8,0:0|0:0,0:0:0:0:
262,357,125196,6,0,P|310:313|385:314,1,140,2|2,0:0|0:0,0:0:0:0:
469,287,126021,1,10,0:0:0:0:
398,228,126297,1,2,0:0:0:0:
440,51,126847,2,0,P|406:58|348:67,1,70,0|8,0:0|0:0,0:0:0:0:
287,28,127398,1,0,0:0:0:0:
196,38,127673,6,0,B|139:73|139:73|111:152,1,140,12|8,0:0|0:0,0:0:0:0:
36,187,128498,1,0,0:0:0:0:
91,259,128774,2,0,B|104:308|104:308|48:386,2,140,8|8|10,0:0|0:0|0:0,0:0:0:0:
267,214,130425,1,8,0:0:0:0:
311,294,130700,2,0,L|406:286,1,70,2|8,0:0|0:0,0:0:0:0:
438,358,131251,2,0,L|533:350,1,70,2|8,0:0|0:0,0:0:0:0:
494,262,131801,6,0,B|473:187|473:187|521:51,1,210,0|10,0:0|0:0,0:0:0:0:
445,5,132902,2,0,B|320:48|320:48|245:27,1,210,0|10,0:0|0:0,0:0:0:0:
160,61,134003,1,0,0:0:0:0:
229,120,134278,2,0,P|252:200|230:264,1,140,8|8,0:0|0:0,0:0:0:0:
161,303,135104,5,10,0:0:0:0:
24,182,135654,1,10,0:0:0:0:
160,61,136205,1,4,0:0:0:0:
