osu file format v14

[General]
AudioFilename: audio.mp3
AudioLeadIn: 0
PreviewTime: 26041
Countdown: 0
SampleSet: Normal
StackLeniency: 0.4
Mode: 0
LetterboxInBreaks: 1
WidescreenStoryboard: 1

[Editor]
Bookmarks: 8258,21417,25985,28036,34576,52425,56898,61274,65705,83292,96503,105334,109875,114187,118545,136136,144944,149347,167031
DistanceSpacing: 0.3
BeatDivisor: 4
GridSize: 32
TimelineZoom: 2.700002

[Metadata]
Title:Still Take You Home
TitleUnicode:Still Take You Home
Artist:Arctic Monkeys
ArtistUnicode:Arctic Monkeys
Creator:Milan-
Version:BOUYAAA's Insane
Source:
Tags:rock alternative punk garage blues whatever people say that's what i'm not bouyaaa
BeatmapID:1491730
BeatmapSetID:631466

[Difficulty]
HPDrainRate:5
CircleSize:4.2
OverallDifficulty:8
ApproachRate:9
SliderMultiplier:1.6
SliderTickRate:1

[Events]
//Background and Video events
0,0,"mcOzISY.jpg",0,0
//Break Periods
2,21768,24430
2,83561,93791
//Storyboard Layer 0 (Background)
//Storyboard Layer 1 (Fail)
//Storyboard Layer 2 (Pass)
//Storyboard Layer 3 (Foreground)
//Storyboard Sound Samples

[TimingPoints]
7394,275.229357798165,4,2,1,30,1,0
8220,-100,4,1,1,40,0,0
8357,-83.3333333333333,4,1,1,40,0,0
26110,-100,4,1,1,45,0,0
28311,-200,4,1,1,45,0,0
28587,-100,4,1,1,45,0,0
34917,-100,4,1,1,45,0,0
35192,-100,4,1,1,35,0,0
37119,-200,4,1,1,35,0,0
37394,-100,4,1,1,35,0,0
43724,-200,4,1,1,35,0,0
43999,-100,4,1,1,35,0,0
48128,-200,4,1,1,35,0,0
48403,-100,4,1,1,35,0,0
50330,-200,4,1,1,35,0,0
50605,-100,4,1,1,35,0,0
52531,300,4,1,1,35,1,0
52531,-125,4,1,1,35,0,0
52831,275.229357798165,4,1,1,35,1,0
52968,-125,4,1,1,35,0,0
53519,-125,4,1,1,35,0,0
53656,275.229357798165,4,1,1,35,1,0
53656,-100,4,1,1,35,0,0
53931,-100,4,1,1,35,0,0
54756,-125,4,1,1,35,0,0
55169,-125,4,1,1,35,0,0
55857,-100,4,1,1,45,0,0
56133,-86.9565217391304,4,1,1,45,0,0
56408,-76.9230769230769,4,1,1,45,0,0
56959,-83.3333333333333,4,1,1,45,0,0
61362,-125,4,1,1,35,0,0
61775,-125,4,1,1,35,0,0
62463,-83.3333333333333,4,1,1,35,0,0
62738,-83.3333333333333,4,1,1,35,0,0
63564,-125,4,1,1,35,0,0
63977,-125,4,1,1,35,0,0
64665,-100,4,1,1,45,0,0
64940,-86.9565217391304,4,1,1,45,0,0
65215,-83.3333333333333,4,1,1,45,0,0
65766,-142.857142857143,4,2,1,35,0,0
68504,275.229357798165,4,2,1,35,1,0
68504,-142.857142857143,4,2,1,35,0,0
69054,275.229357798165,4,2,1,35,1,0
69054,-142.857142857143,4,2,1,35,0,0
71769,275.229357798165,4,2,1,35,1,0
71769,-142.857142857143,4,2,1,35,0,0
72319,275.229357798165,4,2,1,35,1,0
72319,-142.857142857143,4,2,1,35,0,0
74554,275.229357798165,4,2,1,35,1,0
74554,-125,4,2,1,35,0,0
96434,-83.3333333333333,4,1,1,40,0,0
105104,-142.857142857143,4,1,1,40,0,0
105379,-100,4,1,1,45,0,0
109783,-83.3333333333333,4,1,1,45,0,0
114187,-100,4,1,1,45,0,0
117489,-50,4,1,1,45,0,0
118590,-76.9230769230769,4,1,1,45,0,1
136205,-55.5555555555556,4,1,1,45,0,0

[Colours]
Combo1 : 168,196,159
Combo2 : 187,198,208
Combo3 : 226,215,173
Combo4 : 208,187,198

[HitObjects]
127,296,8357,6,0,B|178:292|178:292|205:305|205:305|279:298,1,143.999995605469,6|0,1:1|2:0,0:0:0:0:
288,295,8633,1,2,1:0:0:0:
463,283,8770,2,0,P|471:344|433:390,1,95.9999970703126,14|0,0:0|0:0,0:0:0:0:
256,215,9045,2,0,B|307:211|307:211|334:224|334:224|408:217,1,143.999995605469,2|0,0:0|2:0,0:0:0:0:
414,214,9320,1,10,0:0:0:0:
175,186,9458,6,0,P|159:122|229:56,1,143.999995605469,6|0,0:0|2:0,0:0:0:0:
221,68,9734,1,2,0:1:0:0:
317,26,9871,2,0,L|304:133,1,95.9999970703126,10|0,0:0|0:0,0:0:0:0:
67,355,10146,2,0,B|35:315|35:315|159:302,1,143.999995605469,2|0,0:0|2:0,0:0:0:0:
146,304,10422,1,10,0:0:0:0:
317,361,10559,6,0,P|387:368|433:311,1,143.999995605469,2|0,0:0|2:0,0:0:0:0:
420,299,10834,1,2,1:0:0:0:
218,245,10972,2,0,B|237:274|237:274|231:352,1,95.9999970703126,10|0,0:0|0:0,0:0:0:0:
75,230,11247,2,0,B|68:168|68:168|86:143|86:143|77:83,1,143.999995605469,2|0,0:0|2:0,0:0:0:0:
77,76,11523,1,10,0:0:0:0:
261,27,11660,6,0,P|275:88|211:151,1,143.999995605469,2|0,0:0|2:0,0:0:0:0:
211,137,11935,1,2,0:0:0:0:
45,44,12073,2,0,L|172:50,1,95.9999970703126,10|0,0:0|0:0,0:0:0:0:
332,188,12348,2,0,B|357:161|357:161|466:152,1,143.999995605469,2|0,0:0|2:0,0:0:0:0:
483,151,12623,1,10,0:0:0:0:
231,289,12761,6,0,L|225:123,1,143.999995605469,6|0,0:0|2:0,0:0:0:0:
225,125,13036,1,2,0:0:0:0:
81,270,13174,2,0,L|68:378,1,95.9999970703126,14|0,0:0|0:0,0:0:0:0:
132,164,13449,2,0,B|107:137|107:137|-2:128,1,143.999995605469,2|0,0:0|2:0,0:0:0:0:
0,146,13724,1,10,0:0:0:0:
169,56,13862,6,0,B|194:29|194:29|303:20,1,143.999995605469,2|0,0:0|2:0,0:0:0:0:
300,38,14137,1,2,0:0:0:0:
430,84,14275,2,0,P|448:146|425:187,1,95.9999970703126,10|0,0:0|0:0,0:0:0:0:
240,268,14550,2,0,L|250:98,1,143.999995605469,2|0,0:0|2:0,0:0:0:0:
249,105,14825,1,10,0:0:0:0:
344,300,14963,6,0,P|404:316|472:251,1,143.999995605469,2|0,0:0|2:0,0:0:0:0:
458,253,15238,1,2,1:0:0:0:
345,103,15376,2,0,L|339:203,1,95.9999970703126,10|0,0:0|0:0,0:0:0:0:
189,368,15651,2,0,B|166:338|166:338|160:225,1,143.999995605469,2|0,0:0|2:0,0:0:0:0:
159,210,15926,1,10,0:0:0:0:
52,53,16064,6,0,P|27:118|84:181,1,143.999995605469,6|0,0:0|2:0,0:0:0:0:
86,168,16339,1,2,0:0:0:0:
233,39,16477,2,0,L|237:162,1,95.9999970703126,14|0,0:0|0:0,0:0:0:0:
369,284,16752,2,0,B|341:251|341:251|361:132,1,143.999995605469,2|0,0:0|2:0,0:0:0:0:
362,135,17027,1,10,0:0:0:0:
465,277,17165,6,0,P|451:349|359:384,1,143.999995605469,6|0,0:0|2:0,0:0:0:0:
374,376,17440,1,2,0:0:0:0:
246,268,17578,2,0,L|254:373,1,95.9999970703126,14|0,0:0|0:0,0:0:0:0:
143,206,17853,2,0,L|132:352,1,143.999995605469,2|0,0:0|2:2,0:0:0:0:
132,369,18128,1,10,0:0:0:0:
57,138,18266,6,0,B|97:109|97:109|220:117,1,143.999995605469,2|0,0:0|2:0,0:0:0:0:
208,117,18541,1,2,0:0:0:0:
350,73,18679,2,0,L|358:182,1,95.9999970703126,10|0,0:0|0:0,0:0:0:0:
274,350,18954,2,0,P|237:299|260:216,1,143.999995605469,6|0,0:0|2:0,0:0:0:0:
268,215,19229,1,10,0:0:0:0:
491,289,19367,6,0,L|322:276,1,143.999995605469,2|0,0:0|2:0,0:0:0:0:
329,276,19642,1,2,1:0:0:0:
375,177,19779,2,0,L|484:170,1,95.9999970703126,14|0,0:0|0:0,0:0:0:0:
279,59,20055,2,0,B|255:107|255:107|280:221,1,143.999995605469,2|0,0:0|2:0,0:0:0:0:
279,214,20330,1,10,0:0:0:0:
162,345,20468,6,0,P|97:363|41:288,1,143.999995605469,2|0,0:0|2:0,0:0:0:0:
52,302,20743,1,2,0:0:0:0:
117,181,20880,2,0,L|-10:193,1,95.9999970703126,10|0,0:0|0:0,0:0:0:0:
93,37,21156,2,0,B|122:62|122:62|239:66,1,143.999995605469,2|0,0:0|2:0,0:0:0:0:
247,66,21431,1,10,0:0:0:0:
116,268,21568,5,4,0:0:0:0:
76,119,26110,6,0,L|80:209,1,80,4|0,0:0|0:0,0:0:0:0:
196,86,26385,2,0,L|179:246,1,160,12|0,0:2|0:0,0:0:0:0:
18,275,26798,1,0,0:0:0:0:
79,198,26935,1,8,0:0:0:0:
141,335,27073,6,0,P|177:368|293:330,1,160,2|0,0:0|0:0,0:0:0:0:
400,256,27486,1,8,0:0:0:0:
321,268,27623,1,0,0:0:0:0:
355,184,27761,1,2,0:0:0:0:
405,246,27898,1,0,0:0:0:0:
312,259,28036,1,8,0:0:0:0:
340,184,28173,1,0,0:0:0:0:
220,253,28311,6,0,L|226:310,1,40,2|0,0:0|2:0,0:0:0:0:
224,292,28587,6,0,B|237:167|237:167|206:125,1,160,10|2,0:0|0:0,0:0:0:0:
123,155,28999,1,2,0:0:0:0:
201,54,29137,2,0,L|290:50,1,80,10|0,0:0|2:0,0:0:0:0:
491,116,29412,5,2,0:0:0:0:
419,74,29550,1,2,0:0:0:0:
419,158,29687,1,10,0:0:0:0:
502,116,29825,1,2,0:0:0:0:
341,115,29963,2,0,P|333:185|377:235,1,120,2|0,0:0|0:0,0:0:0:0:
381,231,30238,2,0,L|376:330,1,80,10|0,0:0|0:0,0:0:0:0:
166,366,30513,6,0,P|151:326|176:268,1,80,6|0,0:0|0:0,0:0:0:0:
40,299,30788,2,0,P|51:257|105:225,1,80,12|0,0:2|0:0,0:0:0:0:
181,200,31064,1,2,0:0:0:0:
181,200,31201,1,2,0:0:0:0:
246,266,31339,1,10,0:0:0:0:
246,266,31476,1,0,0:0:0:0:
281,170,31614,2,0,L|287:81,1,80,2|0,0:0|0:0,0:0:0:0:
157,294,31889,2,0,L|162:373,1,80,10|0,0:0|0:0,0:0:0:0:
337,368,32165,6,0,P|352:317|347:286,1,80,2|0,0:0|0:0,0:0:0:0:
426,188,32440,2,0,P|454:232|458:264,1,80,10|0,0:0|0:0,0:0:0:0:
249,251,32715,6,0,L|99:248,1,120,2|0,0:0|0:0,0:0:0:0:
113,243,32990,2,0,P|92:207|106:153,1,80,8|0,0:0|0:0,0:0:0:0:
230,56,33265,6,0,L|219:161,1,80,2|2,0:0|0:0,0:0:0:0:
309,351,33541,1,10,0:0:0:0:
375,295,33678,1,0,0:0:0:0:
371,208,33816,2,0,P|350:173|285:145,1,80,2|2,0:0|0:0,0:0:0:0:
85,294,34091,1,10,0:0:0:0:
176,278,34229,1,0,0:0:0:0:
267,262,34366,1,2,0:0:0:0:
267,262,34504,1,2,0:0:0:0:
35,140,34642,2,0,P|21:192|41:230,1,80,12|0,0:0|0:0,0:0:0:0:
171,357,34917,6,0,L|177:260,1,80,4|0,0:2|0:0,0:0:0:0:
312,111,35192,2,0,L|319:216,1,80,8|0,0:0|0:0,0:0:0:0:
339,352,35467,1,0,0:0:0:0:
430,343,35605,1,0,0:0:0:0:
269,289,35743,1,8,0:0:0:0:
423,201,35880,6,0,B|475:223|475:223|360:269,1,160,2|0,0:0|0:0,0:0:0:0:
177,239,36293,1,8,0:0:0:0:
309,140,36431,2,0,B|301:202|301:202|277:225|277:225|267:304,1,160,2|0,0:0|0:0,0:0:0:0:
100,361,36843,2,0,P|84:323|96:275,1,80,8|0,0:0|0:0,0:0:0:0:
191,182,37119,6,0,L|152:177,1,40,2|0,0:0|0:0,0:0:0:0:
141,168,37394,6,0,B|187:152|187:152|61:134,1,160,10|0,0:0|0:0,0:0:0:0:
7,197,37807,1,0,0:0:0:0:
16,63,37944,2,0,P|66:46|103:53,1,80,8|0,0:0|0:0,0:0:0:0:
254,210,38220,5,2,0:0:0:0:
287,35,38357,2,0,B|315:68|315:68|305:163,1,120,0|0,0:0|0:0,0:0:0:0:
339,225,38632,2,0,P|398:246|470:182,1,160,2|0,0:0|0:0,0:0:0:0:
388,82,39045,2,0,L|395:195,1,80,8|0,0:0|0:0,0:0:0:0:
251,358,39321,6,0,B|238:268|238:268|256:215,1,120,6|0,0:0|0:0,0:0:0:0:
258,234,39596,2,0,L|145:224,1,80,8|0,0:0|0:0,0:0:0:0:
0,294,39871,1,0,0:0:0:0:
70,359,40009,1,0,0:0:0:0:
158,322,40146,1,8,0:0:0:0:
139,147,40284,6,0,B|29:159|29:159|78:194,1,160,2|0,0:0|0:0,0:0:0:0:
158,232,40697,1,8,0:0:0:0:
39,59,40834,2,0,L|203:70,1,160,2|0,0:0|0:0,0:0:0:0:
336,27,41247,2,0,P|312:70|311:114,1,80,8|0,0:0|0:0,0:0:0:0:
276,344,41522,6,0,P|253:289|206:266,1,80,2|0,0:0|0:0,0:0:0:0:
365,306,41798,2,0,P|357:246|317:212,1,80,10|0,0:0|0:0,0:0:0:0:
460,292,42073,2,0,P|467:232|438:189,1,80,2|0,0:0|0:0,0:0:0:0:
305,114,42348,2,0,L|410:122,1,80,10|0,0:0|0:0,0:0:0:0:
221,286,42623,6,0,B|119:294|119:294|78:270,1,120,2|0,0:0|0:0,0:0:0:0:
46,240,42898,2,0,P|25:267|19:293,1,40,8|0,0:0|0:0,0:0:0:0:
26,370,43036,6,0,P|-1:319|66:219,1,160,2|0,0:0|0:0,0:0:0:0:
158,210,43449,2,0,P|176:174|166:114,1,80,12|0,0:0|0:0,0:0:0:0:
47,53,43724,6,0,L|52:104,1,40,4|0,0:2|0:0,0:0:0:0:
23,79,43999,6,0,B|54:117|54:117|180:106,1,160,14|0,0:0|0:0,0:0:0:0:
232,33,44412,1,0,0:0:0:0:
359,223,44550,6,0,P|365:296|346:323,1,80,8|0,0:0|0:0,0:0:0:0:
279,140,44825,2,0,L|419:132,1,120,2|0,0:1|0:0,0:0:0:0:
506,99,45100,2,0,L|445:96,1,40,8|0,0:0|0:0,0:0:0:0:
275,119,45238,6,0,B|300:89|300:89|285:216,1,160,2|0,0:1|0:0,0:0:0:0:
74,366,45651,2,0,P|40:322|69:231,1,120,8|0,0:0|0:0,0:0:0:0:
67,238,45926,6,0,L|172:243,1,80,2|0,0:0|0:0,0:0:0:0:
314,300,46201,2,0,B|252:306|252:306|223:330|223:330|141:339,1,160,10|0,0:0|0:0,0:0:0:0:
290,384,46614,1,0,0:0:0:0:
245,223,46752,1,8,0:0:0:0:
328,300,46889,1,0,0:0:0:0:
436,176,47027,6,0,P|444:122|407:77,1,80,2|0,0:0|0:0,0:0:0:0:
319,79,47302,1,8,0:0:0:0:
370,217,47440,2,0,B|487:203|487:203|479:245,1,160,2|0,0:0|0:0,0:0:0:0:
324,296,47853,2,0,L|234:291,1,80,8|0,0:0|0:0,0:0:0:0:
46,255,48128,6,0,P|67:249|90:246,1,40,6|0,0:0|0:0,0:0:0:0:
60,269,48403,6,0,P|63:328|166:356,1,160,8|0,0:0|0:0,0:0:0:0:
223,287,48816,1,0,0:0:0:0:
185,204,48954,1,8,0:0:0:0:
221,120,49091,1,2,0:0:0:0:
315,104,49229,5,0,0:0:0:0:
254,33,49366,1,0,0:0:0:0:
321,114,49504,1,8,0:0:0:0:
218,131,49642,1,2,0:0:0:0:
354,22,49779,2,0,L|439:26,1,80,0|0,0:0|0:0,0:0:0:0:
496,143,50054,2,0,L|411:147,1,80,8|0,0:0|0:0,0:0:0:0:
260,210,50330,6,0,P|272:232|279:256,1,40,2|0,0:0|0:0,0:0:0:0:
276,263,50605,6,0,B|150:257|150:257|173:289,1,160,10|2,0:0|0:0,0:0:0:0:
185,366,51018,1,0,0:0:0:0:
27,346,51155,2,0,P|27:305|69:258,1,80,10|0,0:0|0:0,0:0:0:0:
179,173,51431,6,0,L|79:177,1,80,2|2,0:0|0:0,0:0:0:0:
15,181,51706,1,8,0:0:0:0:
156,78,51843,2,0,B|226:85|226:85|249:110|249:110|336:123,1,160,2|0,0:0|0:0,0:0:0:0:
89,19,52256,2,0,P|63:81|77:115,1,80,8|2,0:0|0:2,0:0:0:0:
236,230,52531,6,0,P|301:215|350:216,1,96,6|0,0:2|0:0,0:0:0:0:
340,217,52831,1,8,0:0:0:0:
437,184,52968,2,0,L|426:317,1,128,2|4,0:2|0:3,0:0:0:0:
334,153,53381,2,0,L|340:226,1,64,8|8,0:0|0:3,0:0:0:0:
136,294,53656,6,0,P|116:259|131:222,1,80,8|0,0:0|0:0,0:0:0:0:
210,204,53931,2,0,P|237:231|234:270,1,80,8|0,0:0|0:0,0:0:0:0:
215,369,54206,5,8,0:0:0:0:
261,345,54297,1,8,0:0:0:0:
312,356,54389,1,8,0:0:0:0:
342,343,54481,5,8,0:3:0:0:
393,353,54572,1,8,0:3:0:0:
439,330,54664,1,4,0:3:0:0:
446,286,54756,6,0,B|452:191|452:191|416:157,1,128,4|8,0:0|0:0,0:0:0:0:
345,188,55169,2,0,B|321:165|321:165|327:70,1,128,2|4,0:2|0:3,0:0:0:0:
412,62,55582,2,0,P|448:69|485:59,1,64,0|4,0:0|0:3,0:0:0:0:
235,131,55857,6,0,P|219:90|225:22,1,80,8|0,0:0|0:0,0:0:0:0:
122,9,56133,2,0,P|108:75|111:135,1,92.0000017547608,8|0,0:0|0:0,0:0:0:0:
19,189,56408,2,0,P|3:126|8:68,1,103.999995239258,8|0,0:0|0:0,0:0:0:0:
235,131,56683,2,0,L|359:141,1,103.999995239258,8|0,0:0|0:0,0:0:0:0:
280,306,56958,5,4,0:0:0:0:
390,276,57096,1,0,0:0:0:0:
251,222,57233,2,0,B|201:232|201:232|156:273,1,95.9999970703126,8|0,0:0|0:0,0:0:0:0:
390,276,57509,5,0,0:0:0:0:
364,375,57646,1,0,0:0:0:0:
483,283,57784,2,0,B|478:232|478:232|452:196,1,95.9999970703126,8|0,0:0|0:0,0:0:0:0:
375,52,58059,5,2,0:0:0:0:
479,82,58197,1,0,0:0:0:0:
281,98,58334,2,0,B|273:49|273:49|294:-4,1,95.9999970703126,10|0,0:0|0:0,0:0:0:0:
345,188,58610,5,0,0:0:0:0:
447,202,58747,1,0,0:0:0:0:
344,288,58885,2,0,L|218:272,1,95.9999970703126,8|0,0:0|0:0,0:0:0:0:
86,211,59160,6,0,B|48:239|48:239|21:299,1,95.9999970703126,0|0,0:0|0:0,0:0:0:0:
195,357,59435,1,8,0:0:0:0:
100,372,59573,1,0,0:0:0:0:
227,269,59711,2,0,L|220:160,1,95.9999970703126,0|0,0:0|0:0,0:0:0:0:
377,116,59986,1,8,0:0:0:0:
330,188,60123,1,0,0:0:0:0:
465,117,60261,6,0,B|474:67|474:67|445:22,1,95.9999970703126,2|0,0:0|0:0,0:0:0:0:
330,188,60536,2,0,B|368:220|368:220|422:218,1,95.9999970703126,10|0,0:0|0:0,0:0:0:0:
336,35,60811,2,0,B|288:52|288:52|263:99,1,95.9999970703126,0|0,0:0|0:0,0:0:0:0:
465,117,61087,2,0,B|474:67|474:67|445:22,1,95.9999970703126,8|0,0:0|0:0,0:0:0:0:
330,188,61362,6,0,L|337:313,1,96,6|0,0:2|0:0,0:0:0:0:
336,295,61637,1,8,0:0:0:0:
410,364,61775,2,0,P|484:356|514:311,1,128,2|4,0:2|0:3,0:0:0:0:
439,223,62188,2,0,L|437:312,1,64,0|4,0:0|0:3,0:0:0:0:
273,367,62463,6,0,B|247:342|247:342|156:334,1,95.9999970703126,8|0,0:0|0:0,0:0:0:0:
111,306,62738,2,0,B|52:301|52:301|26:276,1,95.9999970703126,8|0,0:0|0:0,0:0:0:0:
76,162,63013,5,8,0:0:0:0:
125,147,63104,1,8,0:0:0:0:
173,167,63196,1,8,0:0:0:0:
205,160,63288,5,8,0:3:0:0:
253,180,63379,1,0,0:0:0:0:
303,166,63471,1,4,0:3:0:0:
316,135,63564,6,0,P|366:104|438:136,1,128,4|8,0:0|0:0,0:0:0:0:
482,199,63977,2,0,L|472:309,1,96,2|0,0:2|0:0,0:0:0:0:
462,317,64252,2,0,B|433:296|433:296|352:309,1,96,4|0,0:3|0:0,0:0:0:0:
351,313,64527,1,4,0:3:0:0:
266,256,64665,6,0,P|244:318|249:362,1,80,8|0,0:0|0:0,0:0:0:0:
152,376,64940,2,0,P|131:326|126:269,1,92.0000017547608,8|0,0:0|0:0,0:0:0:0:
28,182,65215,2,0,P|3:246|4:303,1,95.9999970703126,8|0,0:0|0:0,0:0:0:0:
218,229,65490,2,0,L|331:221,1,95.9999970703126,8|0,0:0|0:0,0:0:0:0:
165,88,65766,5,4,0:0:0:0:
165,88,66316,6,0,L|289:94,1,111.999996582031,8|2,0:0|0:0,0:0:0:0:
345,23,66729,2,0,P|374:52|383:73,1,55.9999982910157,12|0,0:0|0:0,0:0:0:0:
472,51,67004,2,0,P|472:92|463:113,1,55.9999982910157,12|0,0:0|0:0,0:0:0:0:
393,202,67279,6,0,L|407:318,1,111.999996582031,10|2,0:0|0:0,0:0:0:0:
304,367,67692,2,0,L|307:301,1,55.9999982910157,2|0,0:3|0:0,0:0:0:0:
251,184,67967,6,0,P|183:182|140:222,1,111.999996582031,2|2,0:0|0:0,0:0:0:0:
126,281,68380,1,0,0:0:0:0:
49,197,68504,2,0,L|62:116,1,55.9999982910157,8|0,0:0|0:0,0:0:0:0:
119,20,68779,1,2,0:0:0:0:
119,20,68916,6,0,B|143:41|143:41|217:35,1,83.9999974365235,12|0,0:0|0:0,0:0:0:0:
213,35,69192,2,0,B|264:30|264:30|288:51,1,83.9999974365235,12|0,0:0|0:0,0:0:0:0:
294,64,69467,1,10,0:0:0:0:
404,53,69604,1,8,0:0:0:0:
404,53,69742,1,2,0:0:0:0:
404,53,69880,2,0,L|398:134,1,55.9999982910157,4|0,0:0|0:0,0:0:0:0:
301,322,70155,6,0,B|275:298|275:298|270:209,1,111.999996582031,4|2,0:0|0:0,0:0:0:0:
264,141,70568,1,0,0:0:0:0:
176,244,70705,2,0,L|170:357,1,111.999996582031,8|2,0:0|0:0,0:0:0:0:
75,309,71118,2,0,P|70:278|81:241,1,55.9999982910157,12|0,0:0|0:0,0:0:0:0:
16,199,71393,2,0,P|36:175|71:159,1,55.9999982910157,12|0,0:0|0:0,0:0:0:0:
109,88,71669,1,10,0:0:0:0:
109,88,71769,6,0,L|207:96,1,83.9999974365235,8|0,0:0|0:0,0:0:0:0:
269,103,72044,5,8,0:0:0:0:
296,105,72181,1,8,0:0:0:0:
324,107,72319,1,8,0:0:0:0:
352,109,72457,1,8,0:0:0:0:
352,109,72869,6,0,B|390:89|390:89|396:2,1,111.999996582031,10|2,0:0|0:0,0:0:0:0:
475,78,73282,2,0,L|483:144,1,55.9999982910157,12|0,0:0|0:0,0:0:0:0:
456,207,73557,2,0,L|464:273,1,55.9999982910157,12|0,0:0|0:0,0:0:0:0:
372,364,73833,5,10,0:0:0:0:
342,342,73970,1,8,0:0:0:0:
327,308,74108,1,2,0:0:0:0:
332,272,74246,2,0,B|374:273|374:273|332:303,1,83.9999974365235,2|0,0:3|0:0,0:0:0:0:
339,297,74554,6,0,B|292:296|292:296|271:280|271:280|207:278,1,128,4|2,0:0|0:0,0:0:0:0:
217,278,75104,2,0,P|173:322|111:320,1,128,8|2,0:0|0:0,0:0:0:0:
44,265,75517,2,0,L|51:177,1,64,8|0,0:0|0:0,0:0:0:0:
141,245,75792,1,8,0:0:0:0:
141,245,75930,2,0,L|134:87,1,128,2|8,0:0|0:0,0:0:0:0:
210,38,76342,1,2,0:0:0:0:
270,85,76480,1,2,0:3:0:0:
346,91,76618,1,2,0:0:0:0:
408,46,76755,6,0,L|480:40,1,64,2|0,0:0|0:0,0:0:0:0:
419,55,77031,2,0,L|491:49,1,64,2|0,0:0|0:0,0:0:0:0:
415,161,77306,5,8,0:0:0:0:
392,234,77443,1,2,0:0:0:0:
430,301,77581,1,2,0:0:0:0:
399,231,77719,1,8,0:0:0:0:
415,161,77856,6,0,L|487:155,1,64,2|8,0:0|0:0,0:0:0:0:
426,170,78132,2,0,L|498:164,1,64,2|0,0:0|0:0,0:0:0:0:
349,298,78407,5,8,0:0:0:0:
273,284,78544,1,2,0:0:0:0:
205,320,78682,1,2,0:3:0:0:
205,320,78820,1,2,0:0:0:0:
106,372,78957,6,0,L|32:359,1,64,4|0,0:0|0:0,0:0:0:0:
161,238,79232,5,2,0:0:0:0:
165,161,79370,1,2,0:0:0:0:
166,84,79508,1,8,0:0:0:0:
258,339,79783,5,2,0:0:0:0:
254,262,79921,1,8,0:0:0:0:
249,185,80058,2,0,L|245:93,1,64,2|8,0:0|0:0,0:0:0:0:
377,95,80333,5,2,0:0:0:0:
302,74,80471,1,2,0:0:0:0:
377,87,80609,1,8,0:0:0:0:
432,34,80746,2,0,P|474:34|497:41,1,64,2|2,0:0|0:3,0:0:0:0:
361,169,81021,6,0,L|366:311,1,128,0|2,0:0|0:0,0:0:0:0:
460,349,81434,2,0,L|464:256,1,64,2|0,0:0|0:0,0:0:0:0:
299,364,81709,2,0,B|216:390|224:319|151:362,1,128,8|2,0:0|0:0,0:0:0:0:
86,378,82122,1,8,0:0:0:0:
51,293,82260,5,2,0:0:0:0:
68,285,82398,1,8,0:0:0:0:
85,277,82535,1,2,0:0:0:0:
102,269,82673,2,0,P|118:234|123:198,1,64,2|8,0:0|0:0,0:0:0:0:
204,82,82948,2,0,P|213:135|230:164,1,64,2|2,0:0|0:0,0:0:0:0:
282,210,83223,1,2,0:0:0:0:
93,101,83361,5,4,0:0:0:0:
165,133,95471,5,8,0:0:0:0:
258,122,95746,1,8,0:0:0:0:
353,111,96022,1,8,0:0:0:0:
81,61,96297,1,8,0:0:0:0:
17,196,96434,6,0,P|79:238|151:203,1,143.999995605469,6|0,1:1|2:0,0:0:0:0:
160,128,96709,1,2,1:0:0:0:
232,222,96847,2,0,L|224:319,1,95.9999970703126,14|0,0:0|0:0,0:0:0:0:
336,227,97122,2,0,B|325:154|325:154|298:132|298:132|288:66,1,143.999995605469,2|0,0:0|2:0,0:0:0:0:
290,71,97398,1,10,0:0:0:0:
463,32,97535,6,0,P|483:93|440:157,1,143.999995605469,2|0,0:0|2:0,0:0:0:0:
279,170,97810,1,2,0:1:0:0:
339,232,97948,2,0,L|476:242,1,95.9999970703126,10|0,0:0|0:0,0:0:0:0:
347,329,98223,2,0,B|293:327|293:327|259:341|259:341|181:340,1,143.999995605469,2|0,0:0|2:0,0:0:0:0:
183,339,98498,1,10,0:0:0:0:
156,127,98636,6,0,B|190:99|190:99|208:205,1,143.999995605469,2|0,0:0|2:0,0:0:0:0:
142,254,98911,1,2,1:0:0:0:
56,138,99049,2,0,P|58:92|106:52,1,95.9999970703126,10|0,0:0|0:0,0:0:0:0:
255,35,99324,2,0,B|296:61|296:61|410:54,1,143.999995605469,2|0,0:0|2:0,0:0:0:0:
415,50,99599,1,10,0:0:0:0:
495,172,99737,6,0,B|454:198|454:198|340:191,1,143.999995605469,2|0,0:0|2:0,0:0:0:0:
295,149,100012,1,2,0:0:0:0:
220,258,100150,2,0,L|231:362,1,95.9999970703126,10|0,0:0|0:0,0:0:0:0:
385,314,100425,2,0,P|403:268|338:184,1,143.999995605469,2|0,0:0|2:0,0:0:0:0:
275,185,100700,1,10,0:0:0:0:
130,333,100838,6,0,B|16:319|16:319|-5:285,1,143.999995605469,6|0,0:0|2:0,0:0:0:0:
36,217,101113,1,2,0:0:0:0:
196,276,101251,2,0,P|212:302|196:382,1,95.9999970703126,14|0,0:0|0:0,0:0:0:0:
131,193,101526,2,0,L|305:183,1,143.999995605469,2|0,0:0|2:0,0:0:0:0:
296,182,101801,1,10,0:0:0:0:
190,78,101939,6,0,P|118:96|67:45,1,143.999995605469,2|0,0:0|2:0,0:0:0:0:
139,22,102214,1,2,0:0:0:0:
22,130,102352,2,0,B|36:163|36:163|30:224,1,95.9999970703126,10|0,0:0|0:0,0:0:0:0:
162,348,102627,6,0,B|126:320|126:320|120:184,1,143.999995605469,2|0,0:0|2:0,0:0:0:0:
191,169,102902,1,10,0:0:0:0:
252,291,103040,2,0,P|318:313|385:253,1,143.999995605469,2|0,0:0|2:0,0:0:0:0:
353,192,103315,1,2,1:0:0:0:
467,257,103453,2,0,L|476:368,1,95.9999970703126,10|0,0:0|0:0,0:0:0:0:
445,163,103728,6,0,B|488:137|488:137|496:14,1,143.999995605469,2|0,0:0|2:0,0:0:0:0:
423,3,104003,1,10,0:0:0:0:
353,192,104141,6,0,L|193:182,1,143.999995605469,2|0,0:0|2:0,0:0:0:0:
130,177,104416,1,2,0:0:0:0:
254,82,104553,2,0,B|313:79|313:79|350:60,1,95.9999970703126,10|0,0:0|0:0,0:0:0:0:
125,33,104829,6,0,L|130:186,1,143.999995605469,2|0,0:0|2:0,0:0:0:0:
133,259,105104,6,0,L|136:334,1,55.9999982910157,10|0,0:0|0:0,0:0:0:0:
388,348,105379,6,0,P|396:311|383:252,1,80,12|0,0:0|2:0,0:0:0:0:
242,157,105654,2,0,P|292:160|340:190,1,80,8|0,0:0|2:0,0:0:0:0:
511,287,105930,2,0,P|487:239|455:217,1,80,8|0,0:0|2:0,0:0:0:0:
343,49,106205,2,0,P|380:95|385:146,1,80,8|0,0:0|2:0,0:0:0:0:
184,344,106480,6,0,P|142:379|91:384,1,80,8|0,0:0|2:0,0:0:0:0:
92,314,106755,2,0,P|37:309|-2:276,1,80,8|0,0:0|2:0,0:0:0:0:
48,227,107031,2,0,P|13:184|8:133,1,80,8|0,0:0|2:0,0:0:0:0:
78,134,107306,2,0,P|82:79|115:39,1,80,8|0,0:0|2:0,0:0:0:0:
265,199,107581,6,0,B|226:206|226:206|170:175,1,80,12|0,0:0|2:0,0:0:0:0:
368,206,107856,2,0,B|404:220|404:220|465:200,1,80,8|0,0:0|2:0,0:0:0:0:
323,48,108131,2,0,L|319:138,1,80,8|0,0:0|2:0,0:0:0:0:
307,356,108407,2,0,L|311:266,1,80,8|0,0:0|2:0,0:0:0:0:
121,236,108682,6,0,P|123:302|147:339,1,80,8|0,0:0|2:0,0:0:0:0:
51,201,108957,2,0,P|24:261|31:305,1,80,8|0,0:0|2:0,0:0:0:0:
155,86,109232,2,0,P|128:146|135:190,1,80,8|0,0:0|2:0,0:0:0:0:
106,24,109507,2,0,P|56:67|43:110,1,80,8|0,0:0|2:0,0:0:0:0:
309,275,109783,5,4,0:0:0:0:
236,202,109920,1,0,0:0:0:0:
399,230,110058,2,0,B|420:276|420:276|400:340,1,95.9999970703126,8|0,0:0|0:0,0:0:0:0:
312,61,110333,5,0,0:0:0:0:
322,155,110470,1,0,0:0:0:0:
399,100,110609,1,8,0:0:0:0:
312,61,110746,1,0,0:0:0:0:
464,36,110884,6,0,B|488:78|488:78|484:152,1,95.9999970703126,2|0,0:0|0:0,0:0:0:0:
207,82,111159,2,0,B|217:35|217:35|252:1,1,95.9999970703126,10|0,0:0|0:0,0:0:0:0:
399,100,111434,1,0,0:0:0:0:
234,180,111572,2,0,B|171:176|171:176|126:147|126:147|74:174|79:251,1,191.999994140625,0|0,0:0|0:0,0:0:0:0:
253,276,111985,5,0,0:0:0:0:
333,217,112122,1,0,0:0:0:0:
281,367,112260,2,0,B|229:369|229:369|178:337,1,95.9999970703126,8|0,0:0|0:0,0:0:0:0:
244,86,112535,5,0,0:0:0:0:
234,180,112672,1,0,0:0:0:0:
157,125,112811,1,8,0:0:0:0:
244,86,112948,1,0,0:0:0:0:
297,243,113086,6,0,P|251:272|196:262,1,95.9999970703126,2|0,0:0|0:0,0:0:0:0:
266,3,113361,2,0,P|314:28|332:80,1,95.9999970703126,10|0,0:0|0:0,0:0:0:0:
74,150,113636,2,0,P|71:95|108:53,1,95.9999970703126,0|0,0:0|0:0,0:0:0:0:
410,97,113911,2,0,P|351:154|268:120,1,143.999995605469,8|0,0:0|0:0,0:0:0:0:
241,76,114187,6,0,P|216:104|200:163,1,80,12|0,0:0|2:0,0:0:0:0:
280,313,114462,2,0,P|237:286|208:237,1,80,8|0,0:0|2:0,0:0:0:0:
103,72,114738,2,0,P|101:125|119:160,1,80,8|0,0:0|2:0,0:0:0:0:
140,361,115013,2,0,P|128:303|148:255,1,80,8|0,0:0|2:0,0:0:0:0:
327,76,115287,6,0,P|369:41|420:36,1,80,8|0,0:0|2:0,0:0:0:0:
419,106,115562,2,0,P|474:111|513:144,1,80,8|0,0:0|2:0,0:0:0:0:
463,193,115838,2,0,P|498:236|503:287,1,80,8|0,0:0|2:0,0:0:0:0:
433,286,116113,2,0,P|429:341|396:381,1,80,12|0,0:0|2:0,0:0:0:0:
123,117,116388,6,0,B|160:127|160:127|207:167,1,80,12|0,0:0|2:0,0:0:0:0:
285,118,116664,2,0,B|286:156|286:156|263:213,1,80,8|0,0:0|2:0,0:0:0:0:
334,272,116938,2,0,B|298:285|298:285|236:280,1,80,8|0,0:0|2:0,0:0:0:0:
202,366,117214,2,0,B|177:336|177:336|163:276,1,80,8|0,0:0|2:0,0:0:0:0:
72,270,117489,6,0,B|92:237|92:237|145:205,1,80,8|0,0:0|0:0,0:0:0:0:
127,215,118590,5,4,0:0:0:0:
250,291,118728,1,0,0:0:0:0:
371,212,118865,2,0,B|404:197|404:197|496:204,1,103.999995239258,8|0,0:0|0:0,0:0:0:0:
370,329,119141,6,0,B|343:272|343:272|360:113,1,207.999990478516,2|8,0:0|0:0,0:0:0:0:
460,80,119553,1,0,0:0:0:0:
258,21,119691,2,0,P|237:66|267:122,1,103.999995239258,2|0,0:0|0:0,0:0:0:0:
317,213,119966,2,0,L|197:221,1,103.999995239258,10|0,0:0|0:0,0:0:0:0:
8,115,120242,2,0,B|72:126|72:126|99:171,1,103.999995239258,0|0,0:0|0:0,0:0:0:0:
94,354,120517,5,8,0:0:0:0:
121,250,120654,1,0,0:0:0:0:
208,360,120792,2,0,P|256:359|295:300,1,103.999995239258,0|0,0:0|0:0,0:0:0:0:
121,250,121067,2,0,L|11:256,1,103.999995239258,8|0,0:0|0:0,0:0:0:0:
226,185,121342,6,0,B|293:193|293:193|318:215|318:215|378:222,1,155.999992858887,0|0,0:0|0:0,0:0:0:0:
403,222,121618,1,8,0:0:0:0:
479,148,121755,1,0,0:0:0:0:
452,334,121893,6,0,P|399:377|348:360,1,103.999995239258,2|0,0:0|0:0,0:0:0:0:
291,319,122168,1,10,0:0:0:0:
403,222,122306,6,0,B|387:131|387:131|399:98|399:98|386:13,1,207.999990478516,0|0,0:0|0:0,0:0:0:0:
256,58,122719,2,0,L|244:174,1,103.999995239258,8|0,0:0|0:0,0:0:0:0:
53,342,122994,6,0,P|41:292|92:243,1,103.999995239258,4|0,0:0|0:0,0:0:0:0:
195,261,123269,1,8,0:0:0:0:
132,160,123407,1,0,0:0:0:0:
214,260,123544,2,0,L|332:257,1,103.999995239258,2|0,0:0|0:0,0:0:0:0:
482,330,123820,5,0,0:0:0:0:
373,352,123957,1,0,0:0:0:0:
500,318,124095,2,0,P|514:266|467:206,1,103.999995239258,2|0,0:0|0:0,0:0:0:0:
354,170,124370,2,0,B|390:187|401:215|401:215|434:42,1,207.999990478516,10|0,0:0|0:0,0:0:0:0:
370,18,124783,1,0,0:0:0:0:
240,216,124920,2,0,P|272:260|325:252,1,103.999995239258,8|0,0:0|0:0,0:0:0:0:
287,73,125196,6,0,L|177:78,1,103.999995239258,2|0,0:0|0:0,0:0:0:0:
6,74,125471,2,0,B|64:81|64:81|99:115,1,103.999995239258,10|0,0:0|0:0,0:0:0:0:
149,293,125746,6,0,P|169:243|125:195,1,103.999995239258,2|0,0:0|0:0,0:0:0:0:
53,210,126021,2,0,P|33:260|77:308,1,103.999995239258,10|0,0:0|0:0,0:0:0:0:
220,370,126297,6,0,B|248:324|248:324|346:305,1,103.999995239258,2|0,0:0|0:0,0:0:0:0:
402,376,126572,1,8,0:0:0:0:
487,258,126709,2,0,B|471:204|391:180|356:223|356:223|381:240|388:267,1,207.999990478516,2|0,0:0|0:0,0:0:0:0:
398,367,127122,1,8,0:0:0:0:
297,314,127260,6,0,L|192:309,1,103.999995239258,0|0,0:0|0:0,0:0:0:0:
35,280,127535,2,0,B|26:250|26:250|40:182|127:152|182:230,1,207.999990478516,0|0,0:0|0:0,0:0:0:0:
198,312,127948,1,0,0:0:0:0:
198,312,128086,1,0,0:0:0:0:
262,171,128223,6,0,L|254:67,1,103.999995239258,8|0,0:0|0:0,0:0:0:0:
446,209,128498,2,0,B|401:235|401:235|327:224,1,103.999995239258,0|0,0:0|0:0,0:0:0:0:
188,308,128774,2,0,B|231:285|231:285|420:318,1,207.999990478516,8|0,0:0|0:0,0:0:0:0:
434,378,129187,1,0,0:0:0:0:
446,209,129324,2,0,B|394:201|394:201|349:227,1,103.999995239258,8|0,0:0|0:0,0:0:0:0:
159,201,129599,6,0,P|142:144|192:84,1,103.999995239258,0|0,0:0|0:0,0:0:0:0:
360,97,129875,2,0,P|327:57|277:48,1,103.999995239258,10|0,0:0|0:0,0:0:0:0:
266,274,130150,2,0,P|316:265|348:226,1,103.999995239258,2|0,0:0|0:0,0:0:0:0:
269,164,130425,1,8,0:0:0:0:
269,164,130563,1,0,0:0:0:0:
77,255,130700,6,0,B|49:306|96:350|96:350|149:333|149:333|226:345,1,207.999990478516,2|8,0:0|0:0,0:0:0:0:
289,358,131113,1,0,0:0:0:0:
354,201,131251,2,0,P|409:197|457:243,1,103.999995239258,2|0,0:0|0:0,0:0:0:0:
391,384,131526,2,0,L|384:268,1,103.999995239258,8|0,0:0|0:0,0:0:0:0:
223,170,131801,5,0,0:0:0:0:
275,256,131939,1,0,0:0:0:0:
311,122,132076,2,0,L|317:13,1,103.999995239258,8|0,0:0|0:0,0:0:0:0:
98,101,132352,6,0,B|125:151|125:151|244:173,1,155.999992858887,2|0,0:0|2:0,0:0:0:0:
301,213,132627,2,0,L|466:189,1,155.999992858887,10|0,0:0|0:0,0:0:0:0:
512,97,132902,1,0,0:0:0:0:
390,91,133040,1,0,0:0:0:0:
440,204,133177,2,0,P|462:248|512:253,1,103.999995239258,8|0,0:0|0:0,0:0:0:0:
435,363,133453,2,0,B|424:312|361:303|334:337|334:337|295:368|246:332,1,207.999990478516,2|10,0:0|0:0,0:0:0:0:
189,263,133865,1,0,0:0:0:0:
60,364,134003,6,0,P|114:382|157:340,1,103.999995239258,0|0,0:0|0:0,0:0:0:0:
176,159,134278,2,0,L|189:268,1,103.999995239258,8|0,0:0|0:0,0:0:0:0:
260,341,134553,1,0,0:0:0:0:
260,341,134691,1,0,0:0:0:0:
370,204,134829,2,0,B|323:178|323:178|264:192,1,103.999995239258,8|0,0:0|0:0,0:0:0:0:
70,234,135104,5,10,0:0:0:0:
106,68,135242,1,2,0:0:0:0:
150,158,135655,5,10,0:0:0:0:
30,135,135792,1,2,0:0:0:0:
308,269,136205,5,4,0:0:0:0:
