osu file format v14

[General]
AudioFilename: audio.mp3
AudioLeadIn: 0
PreviewTime: 26041
Countdown: 0
SampleSet: Normal
StackLeniency: 0.7
Mode: 0
LetterboxInBreaks: 1
WidescreenStoryboard: 1

[Editor]
Bookmarks: 8258,21417,25985,34576,52425,56898,61274,65705,74554,83292,96503,105334,109875,114187,118545,136136,144944,149347,167031
DistanceSpacing: 1
BeatDivisor: 4
GridSize: 32
TimelineZoom: 4.5

[Metadata]
Title:Still Take You Home
TitleUnicode:Still Take You Home
Artist:Arctic Monkeys
ArtistUnicode:Arctic Monkeys
Creator:Milan-
Version:Expert
Source:
Tags:rock alternative punk garage blues whatever people say that's what i'm not bouyaaa
BeatmapID:1491731
BeatmapSetID:631466

[Difficulty]
HPDrainRate:6
CircleSize:4.1
OverallDifficulty:8
ApproachRate:9.2
SliderMultiplier:0.999999999999999
SliderTickRate:1

[Events]
//Background and Video events
0,0,"mcOzISY.jpg",0,0
//Break Periods
2,21768,25540
2,83561,94901
//Storyboard Layer 0 (Background)
//Storyboard Layer 1 (Fail)
//Storyboard Layer 2 (Pass)
//Storyboard Layer 3 (Foreground)
//Storyboard Sound Samples

[TimingPoints]
7394,275.229357798165,4,2,1,30,1,0
8220,-50,4,1,1,40,0,0
26110,-133.333333333333,4,1,1,45,0,0
26385,-58.8235294117647,4,1,1,45,0,0
30513,-133.333333333333,4,1,1,45,0,0
30788,-58.8235294117647,4,1,1,45,0,0
34642,-50,4,1,1,45,0,0
34917,-133.333333333333,4,1,1,45,0,0
35192,-66.6666666666667,4,1,1,35,0,0
39045,-133.333333333333,4,1,1,35,0,0
39145,-66.6666666666667,4,1,1,35,0,0
43449,-133.333333333333,4,1,1,35,0,0
43724,-66.6666666666667,4,1,1,35,0,0
52531,300,4,1,1,35,1,0
52531,-100,4,1,1,35,0,0
52831,275.229357798165,4,1,1,35,1,0
52968,-100,4,1,1,35,0,0
53656,275.229357798165,4,1,1,35,1,0
53656,-50,4,1,1,35,0,0
54756,-100,4,1,1,35,0,0
55857,-50,4,1,1,45,0,0
56959,-55.5555555555556,4,1,1,45,0,0
61362,-100,4,1,1,35,0,0
62463,-50,4,1,1,35,0,0
63564,-100,4,1,1,35,0,0
64665,-50,4,1,1,45,0,0
65766,-100,4,2,1,35,0,0
66729,-66.6666666666667,4,2,1,35,0,0
67967,-100,4,2,1,35,0,0
68504,275.229357798165,4,2,1,35,1,0
68916,-66.6666666666667,4,2,1,35,0,0
69054,275.229357798165,4,2,1,35,1,0
69054,-66.6666666666667,4,2,1,35,0,0
70155,-100,4,2,1,35,0,0
71118,-66.6666666666667,4,2,1,35,0,0
71769,275.229357798165,4,2,1,35,1,0
71769,-66.6666666666667,4,2,1,35,0,0
72319,275.229357798165,4,2,1,35,1,0
72319,-66.6666666666667,4,2,1,35,0,0
72869,-100,4,2,1,35,0,0
73282,-66.6666666666667,4,2,1,35,0,0
74554,275.229357798165,4,2,1,35,1,0
74554,-100,4,2,1,35,0,0
75517,-83.3333333333333,4,2,1,35,0,0
96434,-50,4,1,1,40,0,0
105379,-50,4,1,1,45,0,0
109783,-55.5555555555556,4,1,1,45,0,0
114187,-50,4,1,1,45,0,0
118590,-55.5555555555556,4,1,1,45,0,0

[Colours]
Combo1 : 168,196,159
Combo2 : 187,198,208
Combo3 : 226,215,173
Combo4 : 208,187,198

[HitObjects]
54,110,7394,5,2,0:0:0:0:
54,110,7669,1,2,0:0:0:0:
54,110,7945,1,2,0:0:0:0:
54,110,8220,6,0,L|60:159,1,50,2|0,2:0|2:0,0:0:0:0:
13,229,8357,2,0,B|64:176|64:176|140:182,1,150,6|0,1:1|2:0,0:0:0:0:
212,146,8633,2,0,L|200:79,1,50,2|0,1:0|2:0,0:0:0:0:
108,324,8770,6,0,P|96:272|179:196,1,150,14|0,0:0|2:0,0:0:0:0:
174,367,9045,2,0,P|128:338|133:226,1,150,2|0,0:0|2:0,0:0:0:0:
221,244,9321,6,0,L|211:301,1,50,10|0,0:0|2:0,0:0:0:0:
281,354,9458,2,0,L|313:193,1,150,6|0,0:0|2:0,0:0:0:0:
376,304,9734,2,0,L|384:254,1,50,2|0,0:1|2:0,0:0:0:0:
433,171,9871,6,0,B|351:138|366:198|288:170,1,150,10|0,0:0|2:0,0:0:0:0:
289,170,10146,2,0,B|368:141|353:201|435:169,1,150,2|0,0:0|2:0,0:0:0:0:
385,84,10422,6,0,P|358:75|316:73,1,50,10|0,0:0|2:0,0:0:0:0:
373,0,10559,2,0,P|323:53|250:56,1,150,2|0,0:0|2:0,0:0:0:0:
169,18,10834,2,0,P|173:41|178:92,1,50,2|0,1:0|2:0,0:0:0:0:
168,168,10972,6,0,B|106:132|106:132|80:56,1,150,10|0,0:0|2:0,0:0:0:0:
80,57,11247,2,0,B|141:92|141:92|166:167,1,150,2|0,0:0|2:0,0:0:0:0:
108,231,11523,6,0,L|46:198,1,50,10|0,0:0|2:0,0:0:0:0:
195,257,11660,2,0,P|251:210|324:218,1,150,2|0,0:0|2:0,0:0:0:0:
276,290,11935,2,0,P|257:312|252:349,1,50,2|0,0:0|2:2,0:0:0:0:
359,296,12073,6,0,P|415:342|488:334,1,150,10|0,0:0|2:0,0:0:0:0:
488,334,12348,2,0,P|431:287|358:295,1,150,2|0,0:0|2:0,0:0:0:0:
403,149,12623,6,0,L|410:198,1,50,10|0,0:0|2:0,0:0:0:0:
280,137,12761,2,0,B|233:77|287:23|287:23|298:50|311:69,1,150,6|0,0:0|2:0,0:0:0:0:
180,56,13036,2,0,L|172:6,1,50,2|0,0:0|2:0,0:0:0:0:
302,50,13174,6,0,B|349:110|295:164|295:164|284:137|271:118,1,150,14|0,0:0|2:0,0:0:0:0:
285,143,13449,2,0,B|238:83|292:29|292:29|303:56|316:75,1,150,2|0,0:0|2:0,0:0:0:0:
193,145,13724,6,0,L|121:130,1,50,10|0,0:0|2:0,0:0:0:0:
79,196,13862,2,0,B|149:180|149:180|211:227,1,150,2|0,0:0|2:0,0:0:0:0:
206,357,14137,2,0,P|201:328|202:294,1,50,2|0,0:0|2:0,0:0:0:0:
296,226,14275,6,0,B|325:305|265:290|297:372,1,150,10|0,0:0|2:0,0:0:0:0:
296,371,14550,2,0,B|327:290|267:305|296:226,1,150,2|0,0:0|2:0,0:0:0:0:
397,216,14825,6,0,P|388:243|386:285,1,50,10|0,0:0|2:0,0:0:0:0:
475,184,14962,2,0,P|402:186|348:136,1,150,2|0,0:0|2:0,0:0:0:0:
268,146,15238,2,0,P|245:150|194:155,1,50,2|0,1:0|2:0,0:0:0:0:
151,95,15375,6,0,B|132:164|132:164|167:236,1,150,10|0,0:0|2:0,0:0:0:0:
167,235,15650,2,0,B|185:167|185:167|150:96,1,150,2|0,0:0|2:0,0:0:0:0:
243,15,15926,6,0,L|228:66,1,50,10|0,0:0|2:0,0:0:0:0:
167,235,16063,2,0,P|111:188|38:196,1,150,6|0,0:0|2:0,0:0:0:0:
50,300,16339,2,0,P|65:280|87:269,1,50,2|0,0:0|2:2,0:0:0:0:
207,311,16476,6,0,P|279:303|325:246,1,150,14|0,0:0|2:0,0:0:0:0:
304,169,16752,2,0,P|312:241|266:298,1,150,2|0,0:0|2:0,0:0:0:0:
362,379,17027,6,0,L|307:374,1,50,10|0,0:0|2:0,0:0:0:0:
457,326,17165,2,0,B|448:301|431:284|431:284|483:261|477:158,1,150,6|0,0:0|2:0,0:0:0:0:
417,140,17440,2,0,L|370:126,1,50,2|0,0:0|2:0,0:0:0:0:
484,207,17578,6,0,B|493:232|510:249|510:249|458:272|464:375,1,150,14|0,0:0|2:0,0:0:0:0:
465,333,17853,2,4,B|456:308|439:291|439:291|491:268|485:165,1,150,2|0,0:0|2:2,0:2:0:0:
392,216,18128,6,0,L|337:225,1,50,10|0,0:0|2:0,0:0:0:0:
309,302,18265,2,0,B|298:224|298:224|237:186,1,150,2|0,0:0|2:0,0:0:0:0:
292,119,18541,2,0,P|287:90|288:56,1,50,2|0,0:0|2:0,0:0:0:0:
208,113,18678,6,0,B|129:142|144:82|62:114,1,150,10|0,0:0|2:0,0:0:0:0:
64,113,18953,2,0,B|144:144|129:84|208:113,1,150,6|0,0:0|2:0,0:0:0:0:
95,201,19229,6,0,P|86:228|84:270,1,50,10|0,0:0|2:0,0:0:0:0:
175,220,19366,2,0,P|248:218|302:268,1,150,2|0,0:0|2:0,0:0:0:0:
264,336,19642,2,0,P|241:340|190:345,1,50,2|0,1:0|2:0,0:0:0:0:
355,354,19779,6,0,P|350:269|406:221,1,150,14|0,0:0|2:0,0:0:0:0:
474,230,20055,2,0,P|401:235|357:293,1,150,2|0,0:0|2:0,0:0:0:0:
335,164,20330,6,0,P|346:142|352:111,1,50,10|0,0:0|2:0,0:0:0:0:
392,34,20467,2,0,P|336:81|263:73,1,150,2|0,0:0|2:0,0:0:0:0:
195,115,20743,2,0,P|210:135|232:146,1,50,2|0,0:0|2:2,0:0:0:0:
185,33,20880,6,0,P|139:90|66:98,1,150,10|0,0:0|2:0,0:0:0:0:
66,98,21156,2,0,P|111:40|184:32,1,150,2|0,0:0|2:0,0:0:0:0:
131,169,21431,6,0,L|134:233,1,50,10|0,0:0|2:0,0:0:0:0:
0,24,21568,1,4,0:0:0:0:
464,90,26110,6,0,P|436:86|410:75,1,56.2500021457672,4|0,0:0|2:0,0:0:0:0:
467,104,26385,6,0,P|387:90|325:144,1,170.000003242493,12|0,0:2|0:0,0:0:0:0:
252,119,26798,1,0,0:0:0:0:
198,173,26935,1,8,0:0:0:0:
53,15,27073,6,0,P|134:28|176:99,1,170.000003242493,2|0,0:0|0:0,0:0:0:0:
71,268,27486,1,8,0:0:0:0:
198,173,27623,1,0,0:0:0:0:
123,154,27761,2,0,P|134:223|140:266,1,85.0000016212463,2|0,0:0|0:0,0:0:0:0:
390,251,28036,2,0,P|383:292|376:334,1,85.0000016212463,8|0,0:0|0:0,0:0:0:0:
190,312,28311,6,0,P|222:306|279:286,1,85.0000016212463,2|0,0:0|2:0,0:0:0:0:
289,91,28587,2,0,P|330:99|370:113,1,85.0000016212463,10|0,0:0|2:0,0:0:0:0:
231,217,28862,1,2,0:0:0:0:
428,169,28999,1,2,0:0:0:0:
231,217,29137,2,0,P|260:202|310:168,1,85.0000016212463,10|0,0:0|2:0,0:0:0:0:
453,70,29412,5,2,0:0:0:0:
447,90,29550,1,2,0:0:0:0:
371,31,29687,5,10,0:0:0:0:
349,108,29825,1,2,0:0:0:0:
284,0,29963,5,2,0:0:0:0:
251,122,30101,1,2,0:0:0:0:
157,39,30238,6,0,P|121:50|50:67,1,85.0000016212463,10|0,0:0|0:0,0:0:0:0:
22,209,30513,6,0,P|68:223|85:233,1,56.2500021457672,6|0,0:0|2:0,0:0:0:0:
35,233,30788,6,0,P|73:265|94:306,1,85.0000016212463,12|0,0:2|0:0,0:0:0:0:
185,185,31064,1,2,0:0:0:0:
165,335,31201,1,2,0:0:0:0:
241,244,31339,2,0,P|257:290|255:336,1,85.0000016212463,10|0,0:0|0:0,0:0:0:0:
389,187,31614,6,0,P|339:191|304:182,1,85.0000016212463,2|0,0:0|0:0,0:0:0:0:
448,115,31889,2,0,P|449:72|464:33,1,85.0000016212463,10|0,0:0|0:0,0:0:0:0:
234,0,32165,2,0,P|249:39|250:81,1,85.0000016212463,2|0,0:0|0:0,0:0:0:0:
110,154,32440,2,0,P|152:158|193:149,1,85.0000016212463,10|0,0:0|0:0,0:0:0:0:
327,270,32715,6,0,P|244:261|177:309,1,170.000003242493,2|8,0:0|0:0,0:0:0:0:
177,309,33128,1,0,0:0:0:0:
10,211,33265,1,2,0:0:0:0:
124,243,33403,1,2,0:0:0:0:
29,207,33541,1,10,0:0:0:0:
112,228,33678,1,0,0:0:0:0:
269,110,33816,5,2,0:0:0:0:
155,142,33954,1,2,0:0:0:0:
250,106,34092,1,10,0:0:0:0:
167,127,34229,1,0,0:0:0:0:
239,232,34366,5,2,0:0:0:0:
188,41,34504,1,2,0:0:0:0:
239,232,34642,6,0,B|248:289|224:328|224:328|244:298|297:308,1,150,12|0,0:0|2:0,0:0:0:0:
278,318,34917,6,0,P|257:340|244:376,1,56.2500021457672,4|0,0:2|2:0,0:0:0:0:
297,322,35192,6,0,P|336:288|379:282,1,75.000002861023,8|0,0:0|0:0,0:0:0:0:
475,211,35467,1,0,0:0:0:0:
469,231,35605,1,0,0:0:0:0:
398,205,35743,1,8,0:0:0:0:
481,107,35880,6,0,P|413:122|299:142,1,150.000005722046,2|0,0:0|0:0,0:0:0:0:
280,83,36293,1,8,0:0:0:0:
128,207,36431,2,0,P|196:222|310:242,1,150.000005722046,2|0,0:0|0:0,0:0:0:0:
341,269,36843,2,0,P|359:337|363:357,1,75.000002861023,8|0,0:0|0:0,0:0:0:0:
177,139,37119,6,0,P|193:66|201:33,1,75.000002861023,2|0,0:0|0:0,0:0:0:0:
73,142,37394,2,0,P|44:147|-14:160,1,75.000002861023,10|0,0:0|0:0,0:0:0:0:
111,57,37669,1,0,0:0:0:0:
111,57,37807,1,0,0:0:0:0:
128,207,37944,2,0,P|123:241|114:302,1,75.000002861023,8|0,0:0|0:0,0:0:0:0:
293,176,38220,5,2,0:0:0:0:
284,193,38357,1,0,0:0:0:0:
217,148,38495,1,8,0:0:0:0:
364,216,38632,2,0,P|425:205|498:129,1,150.000005722046,2|0,0:0|0:0,0:0:0:0:
351,98,39045,6,0,P|335:118|292:131,1,56.2500021457672,8|0,0:0|2:0,0:0:0:0:
326,148,39321,6,0,L|225:130,1,75.000002861023,6|0,0:0|0:0,0:0:0:0:
100,4,39596,2,0,P|107:41|115:86,1,75.000002861023,8|0,0:0|0:0,0:0:0:0:
168,165,39871,1,0,0:0:0:0:
154,144,40009,1,0,0:0:0:0:
98,194,40146,1,8,0:0:0:0:
273,362,40284,6,0,P|269:287|260:213,1,150.000005722046,2|0,0:0|0:0,0:0:0:0:
331,189,40697,1,8,0:0:0:0:
158,235,40834,2,0,P|153:309|144:384,1,150.000005722046,2|0,0:0|0:0,0:0:0:0:
77,348,41247,2,0,P|69:301|66:250,1,75.000002861023,8|0,0:0|0:0,0:0:0:0:
205,59,41522,6,0,P|201:96|194:133,1,75.000002861023,2|0,0:0|0:0,0:0:0:0:
30,167,41797,2,0,P|66:158|103:152,1,75.000002861023,10|0,0:0|0:0,0:0:0:0:
294,82,42073,2,0,P|300:118|304:156,1,75.000002861023,2|0,0:0|0:0,0:0:0:0:
164,210,42348,2,0,P|200:218|237:224,1,75.000002861023,10|0,0:0|0:0,0:0:0:0:
463,196,42623,6,0,P|392:218|349:278,1,150.000005722046,2|8,0:0|0:0,0:0:0:0:
194,133,43036,2,0,P|171:63|106:30,1,150.000005722046,2|0,0:0|0:0,0:0:0:0:
333,38,43449,6,0,P|325:65|320:106,1,56.2500021457672,12|0,0:0|2:0,0:0:0:0:
345,57,43724,6,0,P|341:96|346:167,1,75.000002861023,4|0,0:2|0:0,0:0:0:0:
482,266,43999,2,0,P|446:223|340:216,1,150.000005722046,14|0,0:0|0:0,0:0:0:0:
294,251,44412,1,0,0:0:0:0:
387,360,44550,2,0,P|426:355|484:344,1,75.000002861023,8|0,0:0|0:0,0:0:0:0:
316,327,44825,6,0,P|267:328|139:340,1,150.000005722046,2|8,0:1|0:0,0:0:0:0:
111,162,45238,2,0,P|185:168|260:171,1,150.000005722046,2|0,0:1|0:0,0:0:0:0:
325,132,45651,2,0,P|339:89|353:42,1,75.000002861023,8|0,0:0|0:0,0:0:0:0:
173,40,45926,6,0,P|210:34|268:25,1,75.000002861023,2|0,0:0|0:0,0:0:0:0:
111,162,46201,2,0,P|148:167|206:177,1,75.000002861023,10|0,0:0|0:0,0:0:0:0:
88,79,46476,1,0,0:0:0:0:
88,79,46614,1,0,0:0:0:0:
155,266,46752,2,0,P|192:260|250:251,1,75.000002861023,8|0,0:0|0:0,0:0:0:0:
360,279,47027,5,2,0:0:0:0:
377,288,47164,1,0,0:0:0:0:
332,355,47302,1,8,0:0:0:0:
406,203,47440,2,0,P|395:132|336:72,1,150.000005722046,2|0,0:0|0:0,0:0:0:0:
301,229,47853,2,0,P|315:182|313:129,1,75.000002861023,8|0,0:0|0:0,0:0:0:0:
173,18,48128,6,0,P|211:24|246:31,1,75.000002861023,6|0,0:0|0:0,0:0:0:0:
96,59,48403,2,0,P|103:96|111:141,1,75.000002861023,8|0,0:0|0:0,0:0:0:0:
235,175,48678,1,0,0:0:0:0:
221,154,48816,1,0,0:0:0:0:
165,204,48953,1,8,0:0:0:0:
306,126,49091,6,0,P|344:118|402:110,1,75.000002861023,2|0,0:0|0:0,0:0:0:0:
441,156,49366,1,0,0:0:0:0:
311,206,49504,1,8,0:0:0:0:
481,306,49642,2,0,P|367:283|315:282,1,150.000005722046,2|0,0:0|0:0,0:0:0:0:
264,310,50054,2,0,P|271:347|274:384,1,75.000002861023,8|0,0:0|0:0,0:0:0:0:
135,260,50329,6,0,P|141:223|146:185,1,75.000002861023,2|0,0:0|0:0,0:0:0:0:
12,344,50605,2,0,P|48:335|85:329,1,75.000002861023,10|0,0:0|0:0,0:0:0:0:
231,208,50880,2,0,P|227:170|221:134,1,75.000002861023,2|0,0:0|0:0,0:0:0:0:
305,254,51155,2,0,P|341:262|378:268,1,75.000002861023,10|0,0:0|0:0,0:0:0:0:
436,71,51431,5,2,0:0:0:0:
417,82,51568,1,2,0:0:0:0:
386,13,51706,1,8,0:0:0:0:
469,144,51843,2,0,P|426:163|320:168,1,150.000005722046,2|0,0:0|0:0,0:0:0:0:
227,277,52256,2,0,P|233:312|243:366,1,75.000002861023,8|2,0:0|0:2,0:0:0:0:
322,346,52532,6,0,B|329:295|329:295|302:253,1,99.9999999999999,6|8,0:2|0:0,0:0:0:0:
145,285,52968,2,0,B|137:335|137:335|166:383,1,99.9999999999999,2|4,0:2|0:3,0:0:0:0:
237,316,53381,1,8,0:0:0:0:
237,316,53450,1,8,0:0:0:0:
237,316,53519,1,8,0:3:0:0:
283,166,53656,6,0,P|240:205|138:155,1,150,8|0,0:0|2:0,0:0:0:0:
88,209,53931,2,0,P|156:186|214:229,1,150,8|0,0:0|2:0,0:0:0:0:
211,129,54206,6,0,P|213:110|237:55,1,66.6666666666666,8|8,0:0|0:0,0:0:0:0:
357,0,54389,1,8,0:0:0:0:
357,0,54481,2,0,P|321:25|289:88,1,66.6666666666666,8|8,0:3|0:3,0:0:0:0:
465,86,54665,1,4,0:3:0:0:
465,86,54756,6,0,B|418:101|418:101|363:79,1,99.9999999999999,4|8,0:0|0:0,0:0:0:0:
365,234,55169,2,0,B|412:219|412:219|467:241,2,99.9999999999999,2|4|4,0:2|0:3|0:3,0:0:0:0:
244,80,55857,6,0,P|295:126|271:204,1,150,8|0,0:0|2:0,0:0:0:0:
346,230,56133,2,0,P|281:251|226:191,1,150,8|0,0:0|2:0,0:0:0:0:
165,244,56408,2,0,P|179:177|258:159,1,150,8|0,0:0|2:0,0:0:0:0:
254,190,56683,1,8,0:0:0:0:
482,23,56958,5,4,0:0:0:0:
351,91,57096,1,0,0:0:0:0:
471,44,57233,1,8,0:0:0:0:
364,76,57371,1,0,0:0:0:0:
443,154,57509,2,0,P|451:196|451:259,1,89.999997253418
258,109,57784,2,0,P|259:64|267:19,1,89.999997253418,8|0,0:0|0:0,0:0:0:0:
368,223,58059,6,0,P|303:206|205:204,1,134.999995880127,2|0,0:0|2:0,0:0:0:0:
216,213,58334,2,0,P|170:227|115:236,1,89.999997253418,10|0,0:0|0:0,0:0:0:0:
18,124,58610,1,0,0:0:0:0:
82,68,58747,2,0,P|95:121|99:179,1,89.999997253418,0|8,0:0|0:0,0:0:0:0:
7,46,59022,1,0,0:0:0:0:
176,102,59160,5,0,0:0:0:0:
176,102,59298,1,0,0:0:0:0:
250,51,59435,2,0,L|382:32,1,89.999997253418,8|0,0:0|0:0,0:0:0:0:
255,139,59711,1,0,0:0:0:0:
255,139,59849,1,0,0:0:0:0:
329,190,59986,2,0,L|461:209,1,89.999997253418,8|0,0:0|0:0,0:0:0:0:
249,227,60261,6,0,P|218:306|201:374,1,134.999995880127,2|0,0:0|2:2,0:0:0:0:
181,348,60536,2,0,P|168:305|149:253,1,89.999997253418,10|0,0:0|0:0,0:0:0:0:
21,288,60811,1,0,0:0:0:0:
152,244,60949,1,0,0:0:0:0:
10,276,61087,2,0,P|23:233|42:181,1,89.999997253418,8|0,0:0|0:0,0:0:0:0:
173,0,61362,6,0,B|122:-7|122:-7|74:21,1,99.9999999999999,6|8,0:2|0:0,0:0:0:0:
111,177,61775,2,0,B|160:185|160:185|209:156,2,99.9999999999999,2|4|4,0:2|0:3|0:3,0:0:0:0:
179,82,62463,6,0,P|236:84|273:192,1,150,8|0,0:0|2:0,0:0:0:0:
347,189,62738,2,0,P|282:157|272:85,1,150,8|0,0:0|2:0,0:0:0:0:
203,159,63013,6,0,P|192:188|200:239,1,66.6666666666666,8|8,0:0|0:0,0:0:0:0:
171,360,63197,1,8,0:0:0:0:
171,360,63289,2,0,P|125:332|100:276,1,66.6666666666666,8|8,0:3|0:3,0:0:0:0:
247,304,63472,1,4,0:3:0:0:
247,304,63564,6,0,B|294:322|294:322|341:307,1,99.9999999999999,4|8,0:0|0:0,0:0:0:0:
501,247,63976,2,0,B|453:228|453:228|406:243,2,99.9999999999999,2|4|4,0:2|0:3|0:3,0:0:0:0:
313,219,64665,6,0,P|316:150|244:112,1,150,8|0,0:0|2:0,0:0:0:0:
279,40,64940,2,0,P|218:71|221:152,1,150,8|0,0:0|2:0,0:0:0:0:
141,158,65215,2,0,P|198:195|266:152,1,150,8|0,0:0|2:0,0:0:0:0:
242,134,65490,1,8,0:0:0:0:
13,363,65766,6,0,P|54:334|103:334,1,99.9999999999999,4|2,0:0|0:0,0:0:0:0:
279,281,66316,2,0,P|319:309|368:309,1,99.9999999999999,8|2,0:0|0:0,0:0:0:0:
197,338,66729,6,0,B|174:288|174:288|196:218,1,112.500004291534,12|0,0:0|0:0,0:0:0:0:
139,257,67004,2,0,B|170:212|170:212|242:196,1,112.500004291534,12|0,0:0|0:0,0:0:0:0:
299,203,67279,1,10,0:0:0:0:
221,112,67417,1,8,0:0:0:0:
235,96,67555,1,2,0:0:0:0:
303,207,67692,1,2,0:3:0:0:
303,207,67967,6,0,P|350:223|398:211,1,99.9999999999999,2|2,0:0|0:0,0:0:0:0:
134,138,68504,2,0,P|86:126|39:141,1,99.9999999999999,8|2,0:0|0:0,0:0:0:0:
217,191,68916,6,0,B|238:136|238:136|209:70,1,112.500004291534,12|0,0:0|0:0,0:0:0:0:
197,44,69192,2,0,B|247:67|247:67|278:134,1,112.500004291534,12|0,0:0|0:0,0:0:0:0:
300,197,69467,1,10,0:0:0:0:
402,155,69604,1,8,0:0:0:0:
380,149,69742,1,2,0:0:0:0:
488,130,69880,1,4,0:0:0:0:
488,130,70155,6,0,P|464:187|481:231,1,99.9999999999999,4|2,0:0|0:0,0:0:0:0:
334,384,70705,2,0,P|343:335|320:292,1,99.9999999999999,8|2,0:0|0:0,0:0:0:0:
389,159,71118,6,0,B|350:199|350:199|265:192,1,112.500004291534,12|0,0:0|0:0,0:0:0:0:
320,221,71393,2,0,B|265:207|265:207|229:130,1,112.500004291534,12|0,0:0|0:0,0:0:0:0:
303,108,71669,1,10,0:0:0:0:
172,231,71769,2,0,P|160:262|155:311,1,75.000002861023,8|2,0:0|0:0,0:0:0:0:
241,156,72044,5,8,0:0:0:0:
91,174,72181,1,8,0:0:0:0:
232,171,72319,1,8,0:0:0:0:
105,185,72456,1,8,0:0:0:0:
209,85,72594,1,2,0:3:0:0:
209,85,72869,6,0,P|232:64|309:48,1,99.9999999999999,10|2,0:0|0:0,0:0:0:0:
481,127,73282,6,0,B|445:95|445:95|378:101,1,112.500004291534,12|0,0:0|0:0,0:0:0:0:
423,123,73557,2,0,B|374:143|374:143|352:216,1,112.500004291534,12|0,0:0|0:0,0:0:0:0:
420,243,73833,1,10,0:0:0:0:
356,325,73970,1,8,0:0:0:0:
375,314,74108,1,2,0:0:0:0:
299,382,74246,1,2,0:3:0:0:
299,382,74554,6,0,P|266:332|217:321,1,99.9999999999999,4|2,0:0|0:0,0:0:0:0:
41,250,75104,2,0,P|86:231|110:188,1,99.9999999999999,8|2,0:0|0:0,0:0:0:0:
257,219,75517,6,0,L|180:228,1,59.9999981689453,8|0,0:0|0:0,0:0:0:0:
285,113,75792,1,8,0:0:0:0:
139,92,75930,2,0,L|198:98,1,59.9999981689453,2|0,0:0|0:0,0:0:0:0:
425,69,76205,1,8,0:0:0:0:
387,130,76342,1,2,0:0:0:0:
425,47,76480,1,2,0:3:0:0:
390,154,76618,1,2,0:0:0:0:
485,225,76755,6,0,P|489:282|489:333,1,89.999997253418,2|0,0:0|0:0,0:0:0:0:
476,329,77031,2,0,P|447:331|397:343,1,59.9999981689453,2|0,0:0|0:0,0:0:0:0:
256,263,77306,1,8,0:0:0:0:
323,291,77443,1,2,0:0:0:0:
254,238,77581,1,2,0:0:0:0:
332,315,77719,1,8,0:0:0:0:
173,245,77856,6,0,L|181:318,1,59.9999981689453,2|8,0:0|0:0,0:0:0:0:
312,152,78131,2,0,L|320:225,1,59.9999981689453,2|0,0:0|0:0,0:0:0:0:
156,86,78407,1,8,0:0:0:0:
223,114,78544,1,2,0:0:0:0:
135,94,78682,1,2,0:3:0:0:
246,110,78820,1,2,0:0:0:0:
86,159,78957,6,0,L|16:141,1,59.9999981689453,4|0,0:0|0:0,0:0:0:0:
10,73,79232,1,2,0:0:0:0:
10,73,79370,1,2,0:0:0:0:
69,241,79508,2,0,L|139:223,1,59.9999981689453,8|0,0:0|0:0,0:0:0:0:
199,259,79783,1,2,0:0:0:0:
199,259,79920,1,8,0:0:0:0:
27,379,80058,6,0,L|32:312,1,59.9999981689453,2|8,0:0|0:0,0:0:0:0:
169,340,80333,1,2,0:0:0:0:
240,345,80471,1,2,0:0:0:0:
169,340,80609,2,0,L|110:354,2,59.9999981689453,8|2|2,0:0|0:0|0:3,0:0:0:0:
352,314,81021,1,0,0:0:0:0:
289,209,81159,6,0,P|287:235|284:279,1,59.9999981689453,2|2,0:0|0:0,0:0:0:0:
427,152,81434,2,0,P|421:117|407:21,2,119.999996337891,2|8|2,0:0|0:0|0:0,0:0:0:0:
246,121,82122,5,8,0:0:0:0:
316,136,82260,1,2,0:0:0:0:
225,129,82398,1,8,0:0:0:0:
341,126,82535,1,2,0:0:0:0:
199,56,82673,1,2,0:0:0:0:
268,203,82810,2,0,P|236:213|191:223,1,59.9999981689453,8|2,0:0|0:0,0:0:0:0:
272,16,83086,2,0,P|301:23|329:32,1,59.9999981689453,2|2,0:0|0:0,0:0:0:0:
143,262,83361,5,4,0:0:0:0:
291,244,95471,5,8,0:0:0:0:
291,244,95746,1,8,0:0:0:0:
291,244,96021,1,8,0:0:0:0:
291,244,96297,1,8,0:0:0:0:
499,229,96434,6,0,B|448:176|448:176|372:182,1,150,6|0,1:1|2:0,0:0:0:0:
300,146,96710,2,0,L|312:79,1,50,2|0,1:0|2:0,0:0:0:0:
404,324,96847,6,0,P|416:272|333:196,1,150,14|0,0:0|2:0,0:0:0:0:
338,367,97122,2,0,P|384:338|379:226,1,150,2|0,0:0|2:0,0:0:0:0:
291,244,97398,6,0,L|301:301,1,50,10|0,0:0|2:0,0:0:0:0:
231,354,97535,2,0,L|199:193,1,150,2|0,0:0|2:0,0:0:0:0:
136,304,97811,2,0,L|128:254,1,50,2|0,0:1|2:0,0:0:0:0:
79,171,97948,6,0,P|152:203|216:164,1,150,10|0,0:0|2:0,0:0:0:0:
209,172,98223,2,0,P|136:140|72:179,1,150,2|0,0:0|2:0,0:0:0:0:
79,77,98499,6,0,P|106:68|148:66,1,50,10|0,0:0|2:0,0:0:0:0:
174,0,98636,2,0,P|224:53|297:56,1,150,2|0,0:0|2:0,0:0:0:0:
386,17,98911,2,0,P|382:40|377:91,1,50,2|0,1:0|2:0,0:0:0:0:
344,163,99049,6,0,B|377:120|377:120|487:121,1,150,10|0,0:0|2:0,0:0:0:0:
472,120,99324,2,0,B|439:163|439:163|329:162,1,150,2|0,0:0|2:0,0:0:0:0:
403,241,99600,6,0,L|442:298,1,50,10|0,0:0|2:0,0:0:0:0:
317,257,99737,2,0,P|261:210|188:218,1,150,2|0,0:0|2:0,0:0:0:0:
236,290,100012,2,0,P|255:312|260:349,1,50,2|0,0:0|2:2,0:0:0:0:
153,295,100150,6,0,P|97:341|24:333,1,150,10|0,0:0|2:0,0:0:0:0:
23,332,100425,2,0,P|80:285|153:293,1,150,2|0,0:0|2:0,0:0:0:0:
109,149,100700,6,0,L|102:198,1,50,10|0,0:0|2:0,0:0:0:0:
218,139,100838,2,0,B|234:24|234:24|216:57|187:71,1,150,6|0,0:0|2:0,0:0:0:0:
317,60,101113,2,0,L|325:10,1,50,2|0,0:0|2:0,0:0:0:0:
207,55,101251,6,0,B|191:170|191:170|209:137|238:123,1,150,14|0,0:0|2:0,0:0:0:0:
218,139,101526,2,0,B|234:24|234:24|216:57|187:71,1,150,2|0,0:0|2:0,0:0:0:0:
319,145,101801,6,0,L|391:130,1,50,10|0,0:0|2:0,0:0:0:0:
433,196,101939,2,0,B|363:180|363:180|301:227,1,150,2|0,0:0|2:0,0:0:0:0:
306,357,102214,2,0,P|311:328|310:294,1,50,2|0,0:0|2:0,0:0:0:0:
216,226,102352,6,0,B|187:305|247:290|215:372,1,150,10|0,0:0|2:0,0:0:0:0:
216,371,102627,2,0,B|185:290|245:305|216:226,1,150,2|0,0:0|2:0,0:0:0:0:
115,216,102902,6,0,P|124:243|126:285,1,50,10|0,0:0|2:0,0:0:0:0:
37,184,103039,2,0,P|110:186|164:136,1,150,2|0,0:0|2:0,0:0:0:0:
244,146,103315,2,0,P|267:150|318:155,1,50,2|0,1:0|2:0,0:0:0:0:
361,95,103452,6,0,B|380:164|380:164|345:236,1,150,10|0,0:0|2:0,0:0:0:0:
345,235,103728,2,0,B|327:167|327:167|362:96,1,150,2|0,0:0|2:0,0:0:0:0:
269,15,104003,6,0,L|284:66,1,50,10|0,0:0|2:0,0:0:0:0:
345,235,104140,2,0,P|401:188|474:196,1,150,2|0,0:0|2:0,0:0:0:0:
446,327,104416,2,0,P|440:300|418:249,1,50,2|0,0:0|2:2,0:0:0:0:
247,264,104553,6,0,P|319:272|365:329,1,150,10|0,0:0|2:0,0:0:0:0:
366,330,104829,2,0,P|294:322|248:265,1,150,2|0,0:0|2:0,0:0:0:0:
271,115,105104,1,10,0:0:0:0:
271,115,105379,6,0,P|292:70|333:41,1,99.9999999999999,12|0,0:0|2:0,0:0:0:0:
332,207,105654,2,0,P|377:228|406:269,1,99.9999999999999,8|0,0:0|2:0,0:0:0:0:
240,268,105930,2,0,P|219:313|178:342,1,99.9999999999999,8|0,0:0|2:0,0:0:0:0:
179,176,106205,2,0,P|134:155|105:114,1,99.9999999999999,8|0,0:0|2:0,0:0:0:0:
392,45,106480,6,0,P|345:61|313:99,1,99.9999999999999,8|0,0:0|2:0,0:0:0:0:
109,56,106755,2,0,P|125:102|163:134,1,99.9999999999999,8|0,0:0|2:0,0:0:0:0:
120,339,107031,2,0,P|166:322|198:284,1,99.9999999999999,8|0,0:0|2:0,0:0:0:0:
403,328,107306,2,0,P|386:281|348:249,1,99.9999999999999,8|0,0:0|2:0,0:0:0:0:
50,135,107581,5,12,0:0:0:0:
195,56,107719,1,0,2:0:0:0:
109,199,107856,5,8,0:0:0:0:
267,245,107994,1,0,2:0:0:0:
60,269,108131,5,8,0:0:0:0:
205,190,108269,1,0,2:0:0:0:
119,333,108406,5,8,0:0:0:0:
277,379,108544,1,0,2:0:0:0:
462,135,108682,5,8,0:0:0:0:
317,56,108820,1,0,2:0:0:0:
403,199,108957,5,8,0:0:0:0:
245,245,109095,1,0,2:0:0:0:
447,271,109232,5,8,0:0:0:0:
302,192,109370,1,0,2:0:0:0:
388,335,109508,6,0,P|313:355|273:344,1,99.9999999999999,8|0,0:0|2:0,0:0:0:0:
72,62,109783,5,4,0:0:0:0:
78,194,109921,1,0,0:0:0:0:
95,70,110058,1,8,0:0:0:0:
60,180,110196,1,0,0:0:0:0:
222,171,110334,2,0,P|230:213|230:276,1,89.999997253418
357,90,110609,2,0,P|358:45|366:0,1,89.999997253418,8|0,0:0|0:0,0:0:0:0:
512,207,110884,6,0,P|447:190|349:188,1,134.999995880127,2|0,0:0|2:0,0:0:0:0:
360,197,111159,2,0,P|321:195|250:184,1,89.999997253418,10|0,0:0|0:0,0:0:0:0:
124,299,111435,1,0,0:0:0:0:
188,355,111572,2,0,P|201:302|205:244,1,89.999997253418,0|8,0:0|0:0,0:0:0:0:
45,311,111847,1,0,0:0:0:0:
189,186,111985,5,0,0:0:0:0:
189,186,112123,1,0,0:0:0:0:
110,214,112260,2,0,L|-22:195,1,89.999997253418,8|0,0:0|0:0,0:0:0:0:
189,66,112536,1,0,0:0:0:0:
189,66,112674,1,0,0:0:0:0:
263,117,112811,2,0,L|394:96,1,89.999997253418,8|0,0:0|0:0,0:0:0:0:
255,242,113086,6,0,P|286:321|303:389,1,134.999995880127,2|0,0:0|2:2,0:0:0:0:
323,363,113361,2,0,P|336:320|355:268,1,89.999997253418,10|0,0:0|0:0,0:0:0:0:
512,185,113636,1,0,0:0:0:0:
434,319,113774,1,0,0:0:0:0:
504,166,113911,2,0,P|404:185|376:191,1,89.999997253418,8|0,0:0|0:0,0:0:0:0:
203,5,114187,6,0,P|238:39|253:86,1,99.9999999999999,12|0,0:0|2:0,0:0:0:0:
312,323,114462,2,0,P|276:288|261:241,1,99.9999999999999,8|0,0:0|2:0,0:0:0:0:
417,109,114738,2,0,P|382:144|335:159,1,99.9999999999999,8|0,0:0|2:0,0:0:0:0:
98,219,115013,2,0,P|132:183|179:168,1,99.9999999999999,8|0,0:0|2:0,0:0:0:0:
371,329,115288,6,0,P|327:305|301:263,1,99.9999999999999,8|0,0:0|2:0,0:0:0:0:
143,0,115563,2,0,P|187:22|213:63,1,99.9999999999999,8|0,0:0|2:0,0:0:0:0:
92,278,115838,2,0,P|115:234|156:207,1,99.9999999999999,8|0,0:0|2:0,0:0:0:0:
421,50,116114,2,0,P|398:93|356:119,1,99.9999999999999,12|0,0:0|2:0,0:0:0:0:
0,67,116388,5,12,0:0:0:0:
46,225,116526,1,0,2:0:0:0:
189,112,116663,5,8,0:0:0:0:
143,270,116801,1,0,2:0:0:0:
272,52,116939,5,8,0:0:0:0:
318,210,117077,1,0,2:0:0:0:
461,97,117214,5,8,0:0:0:0:
415,255,117352,1,0,2:0:0:0:
275,139,117490,5,8,0:0:0:0:
327,50,118590,5,4,0:0:0:0:
471,40,118728,1,0,0:0:0:0:
336,32,118865,1,8,0:0:0:0:
460,61,119003,1,0,0:0:0:0:
321,151,119141,2,0,P|313:193|313:256,1,89.999997253418,2|0,0:0|0:0,0:0:0:0:
176,89,119416,2,0,P|175:44|167:-1,1,89.999997253418,8|0,0:0|0:0,0:0:0:0:
0,183,119691,6,0,P|65:166|163:164,1,134.999995880127,2|0,0:0|2:0,0:0:0:0:
152,173,119966,2,0,P|191:171|262:160,1,89.999997253418,10|0,0:0|0:0,0:0:0:0:
320,324,120242,1,0,0:0:0:0:
223,259,120379,2,0,P|236:312|240:370,1,89.999997253418,0|8,0:0|0:0,0:0:0:0:
311,240,120654,1,0,0:0:0:0:
156,326,120792,6,0,P|104:323|49:319,1,89.999997253418
105,201,121067,2,0,P|53:198|-2:194,1,89.999997253418,8|0,0:0|0:0,0:0:0:0:
235,104,121342,2,0,P|287:107|342:111,1,89.999997253418
202,239,121617,2,0,P|254:242|309:246,1,89.999997253418,8|0,0:0|0:0,0:0:0:0:
113,134,121893,6,0,P|106:74|101:-13,1,134.999995880127,2|0,0:0|2:2,0:0:0:0:
122,28,122168,2,0,P|125:77|132:136,1,89.999997253418,10|0,0:0|0:0,0:0:0:0:
274,24,122443,1,0,0:0:0:0:
227,141,122581,1,0,0:0:0:0:
288,14,122718,2,0,L|382:9,1,89.999997253418,8|0,0:0|0:0,0:0:0:0:
512,111,122994,5,4,0:0:0:0:
354,88,123131,1,0,0:0:0:0:
497,91,123269,1,8,0:0:0:0:
368,111,123407,1,0,0:0:0:0:
478,212,123544,2,0,P|480:256|482:309,1,89.999997253418,2|0,0:0|0:0,0:0:0:0:
289,190,123820,1,0,0:0:0:0:
392,206,123957,1,0,0:0:0:0:
273,204,124095,6,0,P|287:262|300:343,1,134.999995880127,2|0,0:0|2:0,0:0:0:0:
284,350,124370,2,0,P|236:358|192:368,1,89.999997253418,10|0,0:0|0:0,0:0:0:0:
38,277,124645,1,0,0:0:0:0:
117,320,124783,2,0,P|114:279|112:203,1,89.999997253418,0|8,0:0|0:0,0:0:0:0:
46,354,125058,1,0,0:0:0:0:
0,109,125196,6,0,P|91:121|149:129,1,134.999995880127,2|0,0:0|2:0,0:0:0:0:
151,115,125471,2,0,L|251:128,1,89.999997253418,10|0,0:0|0:0,0:0:0:0:
421,7,125746,2,0,P|330:19|272:27,1,134.999995880127,2|0,0:0|2:0,0:0:0:0:
270,13,126021,2,0,L|170:26,1,89.999997253418,10|0,0:0|0:0,0:0:0:0:
386,89,126297,6,0,P|399:142|403:184,1,89.999997253418,2|0,0:0|0:0,0:0:0:0:
317,147,126572,1,8,0:0:0:0:
466,237,126709,2,0,P|401:231|268:230,1,179.999994506836,2|0,0:0|0:0,0:0:0:0:
420,326,127122,2,0,P|383:322|323:322,1,89.999997253418,8|0,0:0|0:0,0:0:0:0:
330,321,127329,1,0,0:0:0:0:
330,321,127398,5,0,0:0:0:0:
317,147,127535,1,0,0:0:0:0:
227,154,127673,2,0,P|233:244|239:333,1,179.999994506836,12|0,0:0|0:0,0:0:0:0:
72,256,128086,1,0,0:0:0:0:
152,294,128223,2,0,P|149:248|132:92,1,179.999994506836,8|0,0:0|0:0,0:0:0:0:
28,11,128636,1,0,0:0:0:0:
114,107,128774,2,0,P|78:102|1:91,1,89.999997253418,8|0,0:0|0:0,0:0:0:0:
224,139,129049,2,0,L|234:49,1,89.999997253418
334,147,129325,2,0,P|370:142|447:131,1,89.999997253418,8|0,0:0|0:0,0:0:0:0:
384,343,129599,5,0,0:0:0:0:
266,284,129737,1,0,0:0:0:0:
378,362,129875,2,0,P|371:303|360:207,1,134.999995880127,10|0,0:0|2:0,0:0:0:0:
373,207,130150,2,0,P|366:156|356:87,1,89.999997253418,2|0,0:0|0:0,0:0:0:0:
151,4,130425,2,0,P|157:54|168:124,1,89.999997253418,8|0,0:0|0:0,0:0:0:0:
359,17,130700,5,2,0:0:0:0:
244,17,130838,1,0,0:0:0:0:
369,31,130976,2,0,L|471:21,1,89.999997253418,8|0,0:0|0:0,0:0:0:0:
294,123,131251,1,2,0:0:0:0:
408,125,131389,1,0,0:0:0:0:
283,139,131527,2,0,L|181:129,1,89.999997253418,8|0,0:0|0:0,0:0:0:0:
370,313,131801,5,0,0:0:0:0:
358,190,131939,1,0,0:0:0:0:
353,299,132076,1,8,0:0:0:0:
377,201,132214,1,0,0:0:0:0:
268,338,132352,2,0,P|224:335|91:325,1,134.999995880127,2|0,0:0|2:0,0:0:0:0:
119,315,132627,2,0,P|78:310|3:305,1,89.999997253418,10|0,0:0|0:0,0:0:0:0:
138,94,132902,5,0,0:0:0:0:
126,217,133040,1,0,0:0:0:0:
119,105,133177,1,8,0:0:0:0:
143,203,133315,1,0,0:0:0:0:
274,250,133453,2,0,P|317:247|451:237,1,134.999995880127,2|0,0:0|2:0,0:0:0:0:
423,227,133728,2,0,P|463:222|539:217,1,89.999997253418,10|0,0:0|0:0,0:0:0:0:
460,25,134003,6,0,L|351:44,1,89.999997253418
303,160,134278,2,0,P|297:109|289:50,1,89.999997253418,8|0,0:0|0:0,0:0:0:0:
44,95,134553,2,0,L|153:114,1,89.999997253418
201,230,134829,2,0,P|207:179|215:120,1,89.999997253418,8|0,0:0|0:0,0:0:0:0:
327,235,135104,5,10,0:0:0:0:
261,33,135242,1,2,0:0:0:0:
428,169,135654,5,10,0:0:0:0:
362,371,135792,1,2,0:0:0:0:
512,263,136205,5,4,0:0:0:0:
