osu file format v14

[General]
AudioFilename: audio.mp3
AudioLeadIn: 0
PreviewTime: -1
Countdown: 0
SampleSet: None
StackLeniency: 0.7
Mode: 0
LetterboxInBreaks: 0
WidescreenStoryboard: 0

[Editor]
DistanceSpacing: 1.4
BeatDivisor: 8
GridSize: 16
TimelineZoom: 3.399999

[Metadata]
Title:Remote Tumour Seeker
TitleUnicode:Remote Tumour Seeker
Artist:Archspire
ArtistUnicode:Archspire
Creator:InfinityGhost
Version:Insane
Source:
Tags:
BeatmapID:1994453
BeatmapSetID:955009

[Difficulty]
HPDrainRate:6
CircleSize:4
OverallDifficulty:8
ApproachRate:9.3
SliderMultiplier:1.4
SliderTickRate:1

[Events]
//Background and Video events
0,0,"archspire.png",0,0
//Break Periods
//Storyboard Layer 0 (Background)
//Storyboard Layer 1 (Fail)
//Storyboard Layer 2 (Pass)
//Storyboard Layer 3 (Foreground)
//Storyboard Sound Samples

[TimingPoints]
11392,352.422907488987,4,3,0,100,1,0
21964,-83.3333333333333,4,3,0,100,0,0
22669,-100,4,3,0,100,0,0
25136,-83.3333333333333,4,3,0,100,0,0

[HitObjects]
133,56,11041,5,2,0:0:0:0:
133,56,11391,5,8,0:0:0:0:
130,73,11480,1,0,0:0:0:0:
127,91,11568,1,0,0:0:0:0:
124,108,11656,1,0,0:0:0:0:
121,125,11744,2,0,L|129:172,1,35,2|0,0:0|0:0,0:0:0:0:
258,229,11920,1,0,0:0:0:0:
258,229,12096,5,8,0:0:0:0:
261,211,12184,1,0,0:0:0:0:
264,194,12273,1,0,0:0:0:0:
267,177,12361,1,0,0:0:0:0:
270,160,12449,2,0,L|261:112,1,35,2|0,0:0|0:0,0:0:0:0:
189,288,12625,1,0,0:0:0:0:
189,288,12801,5,8,0:0:0:0:
215,310,12889,1,0,0:0:0:0:
248,321,12977,1,0,0:0:0:0:
283,318,13066,1,0,0:0:0:0:
314,302,13154,1,2,0:0:0:0:
344,286,13242,1,0,0:0:0:0:
379,283,13330,1,0,0:0:0:0:
412,293,13418,1,0,0:0:0:0:
439,316,13506,6,0,L|445:350,1,35,8|0,0:0|0:0,0:0:0:0:
258,229,13682,2,0,L|264:194,1,35
283,88,13858,1,10,0:0:0:0:
350,266,14035,1,0,0:0:0:0:
382,57,14211,5,8,0:0:0:0:
386,74,14299,1,0,0:0:0:0:
389,91,14387,1,0,0:0:0:0:
392,108,14475,1,0,0:0:0:0:
395,125,14563,2,0,L|386:172,1,35,2|0,0:0|0:0,0:0:0:0:
258,229,14740,1,0,0:0:0:0:
258,229,14916,5,8,0:0:0:0:
255,211,15004,1,0,0:0:0:0:
252,194,15092,1,0,0:0:0:0:
249,177,15180,1,0,0:0:0:0:
246,160,15268,2,0,L|254:112,1,35,2|0,0:0|0:0,0:0:0:0:
327,288,15444,1,0,0:0:0:0:
327,288,15621,5,8,0:0:0:0:
301,310,15709,1,0,0:0:0:0:
268,321,15797,1,0,0:0:0:0:
233,318,15885,1,0,0:0:0:0:
202,302,15973,1,2,0:0:0:0:
171,286,16061,1,0,0:0:0:0:
137,283,16149,1,0,0:0:0:0:
103,294,16237,1,0,0:0:0:0:
77,316,16325,6,0,L|70:350,1,35,8|0,0:0|0:0,0:0:0:0:
258,229,16502,2,0,L|251:194,1,35
230,87,16678,1,10,0:0:0:0:
166,266,16854,1,0,0:0:0:0:
316,130,17030,5,8,0:0:0:0:
341,123,17118,1,0,0:0:0:0:
367,122,17206,1,0,0:0:0:0:
392,129,17295,1,0,0:0:0:0:
416,141,17383,2,0,P|433:144|450:140,1,35,2|0,3:0|0:0,0:0:0:0:
511,55,17559,1,0,0:0:0:0:
357,212,17735,6,0,L|345:282,1,70,8|0,0:0|0:0,0:0:0:0:
449,350,18088,2,0,L|455:384,2,35,2|0|0,0:0|0:0|0:0,0:0:0:0:
328,262,18440,5,8,0:0:0:0:
303,255,18528,1,0,0:0:0:0:
277,254,18616,1,0,0:0:0:0:
252,261,18704,1,0,0:0:0:0:
228,273,18792,2,0,P|211:276|194:272,1,35,2|0,3:0|0:0,0:0:0:0:
133,187,18969,1,0,0:0:0:0:
94,316,19145,6,0,L|106:386,1,70,8|0,0:0|0:0,0:0:0:0:
238,177,19497,1,2,0:0:0:0:
80,327,19673,1,0,0:0:0:0:
133,187,19850,5,8,0:0:0:0:
136,169,19938,1,0,0:0:0:0:
139,152,20026,1,0,0:0:0:0:
142,135,20114,1,0,0:0:0:0:
145,118,20202,2,0,L|136:70,1,35,2|0,0:0|0:0,0:0:0:0:
64,246,20378,1,0,0:0:0:0:
202,246,20554,5,8,0:0:0:0:
205,264,20643,1,0,0:0:0:0:
208,281,20731,1,0,0:0:0:0:
211,298,20819,1,0,0:0:0:0:
214,315,20907,2,0,L|205:363,1,35,2|0,0:0|0:0,0:0:0:0:
133,187,21083,2,0,L|129:166,2,17.5
56,69,21259,5,8,0:0:0:0:
85,51,21347,1,8,0:0:0:0:
119,43,21436,1,8,0:0:0:0:
154,48,21524,1,0,0:0:0:0:
185,63,21612,1,0,0:0:0:0:
216,78,21700,1,0,0:0:0:0:
251,83,21788,1,8,0:0:0:0:
285,75,21876,1,8,0:0:0:0:
314,57,21964,6,0,L|305:9,1,41.9999987182618,8|0,0:0|0:0,0:0:0:0:
125,145,22140,2,0,L|133:192,1,41.9999987182618
175,6,22317,2,0,L|128:14,1,41.9999987182618,4|0,0:0|0:0,0:0:0:0:
263,195,22493,2,0,L|310:187,1,41.9999987182618
113,133,22669,5,8,0:0:0:0:
97,164,22757,1,0,0:0:0:0:
81,195,22845,2,0,L|91:243,1,35
263,195,23021,1,12,0:0:0:0:
279,164,23110,1,0,0:0:0:0:
295,133,23198,2,0,L|285:85,1,35
187,284,23374,6,0,L|194:318,2,35,12|0|0,0:0|0:0|0:0,0:0:0:0:
74,154,23726,1,0,0:0:0:0:
214,341,23903,1,0,0:0:0:0:
248,166,24079,5,8,0:0:0:0:
279,150,24167,1,0,0:0:0:0:
310,134,24255,2,0,L|358:144,1,35
310,316,24431,1,12,0:0:0:0:
279,332,24519,1,0,0:0:0:0:
248,348,24607,2,0,L|200:338,1,35
430,166,24784,5,8,0:0:0:0:
415,211,24872,1,0,0:0:0:0:
444,248,24960,1,0,0:0:0:0:
473,285,25048,1,0,0:0:0:0:
458,332,25136,6,0,L|468:380,3,41.9999987182618,8|0|0|0,0:0|0:0|0:0|0:0,0:0:0:0:
291,235,25488,2,0,L|299:193,3,41.9999987182618,8|0|0|0,0:0|0:0|0:0|0:0,0:0:0:0:
197,343,25841,6,0,L|188:301,1,41.9999987182618,8|0,0:0|0:0,0:0:0:0:
86,195,26017,2,0,L|77:237,1,41.9999987182618
194,174,26193,2,0,L|185:132,1,41.9999987182618,8|0,0:0|0:0,0:0:0:0:
83,26,26369,2,0,L|74:68,1,41.9999987182618
48,249,26546,5,12,0:0:0:0:
289,59,26722,1,4,0:0:0:0:
391,210,26898,5,8,0:0:0:0:
407,241,26986,1,0,0:0:0:0:
423,272,27074,2,0,L|413:320,1,35
241,272,27250,1,12,0:0:0:0:
225,241,27338,1,0,0:0:0:0:
209,210,27426,2,0,L|219:162,1,35
