osu file format v14

[General]
AudioFilename: involuntarydoppel.mp3
AudioLeadIn: 0
PreviewTime: 60536
Countdown: 0
SampleSet: Normal
StackLeniency: 0.7
Mode: 1
LetterboxInBreaks: 0
WidescreenStoryboard: 1

[Editor]
Bookmarks: 11165,22136,32936,49565,60536,92079,93451,121908,127736,133222,201793,212765
DistanceSpacing: 1.7
BeatDivisor: 4
GridSize: 32
TimelineZoom: 4.899998

[Metadata]
Title:Involuntary Doppelganger
TitleUnicode:Involuntary Doppelgänger
Artist:Archspire
ArtistUnicode:Archspire
Creator:LZD
Version:Terror Oni
Source:
Tags:technical death metal staytech
BeatmapID:1358230
BeatmapSetID:640419

[Difficulty]
HPDrainRate:6
CircleSize:2
OverallDifficulty:8.5
ApproachRate:5
SliderMultiplier:1.4
SliderTickRate:1

[Events]
//Background and Video events
0,0,"writing-monsters.jpg",0,100
//Break Periods
//Storyboard Layer 0 (Background)
//Storyboard Layer 1 (Fail)
//Storyboard Layer 2 (Pass)
//Storyboard Layer 3 (Foreground)
//Storyboard Layer 4 (Overlay)
//Storyboard Sound Samples

[TimingPoints]
160,171.428571428571,4,1,0,70,1,0
22102,-100,4,1,0,70,0,1
32902,-100,4,1,0,70,0,0
33031,-105.263157894737,4,1,0,70,0,0
33202,-111.111111111111,4,1,0,70,0,0
33888,-117.647058823529,4,1,0,70,0,0
34059,-125,4,1,0,70,0,0
37145,-100,4,1,0,70,0,0
46788,171.428571428571,6,1,0,70,1,0
48845,171.428571428571,4,1,0,70,1,0
60502,-100,4,1,0,70,0,1
71302,-100,4,1,0,70,0,0
77602,-125,4,1,0,70,0,0
87288,-111.111111111111,4,1,0,70,0,0
87374,-100,4,1,0,70,0,0
87888,-125,4,1,0,70,0,0
99202,-111.111111111111,4,1,0,70,0,0
99717,-100,4,1,0,70,0,0
145530,342.857142857143,4,1,0,70,1,0
145530,-50,4,1,0,60,0,0
145701,-55.5555555555556,4,1,0,60,0,0
145872,-62.5,4,1,0,50,0,0
146044,-71.4285714285714,4,1,0,40,0,0
146215,-83.3333333333333,4,1,0,40,0,0
146387,-90.9090909090909,4,1,0,40,0,0
146558,-100,4,1,0,40,0,0
146730,-111.111111111111,4,1,0,40,0,0
146901,-117.647058823529,4,1,0,40,0,0
147072,-125,4,1,0,40,0,0
166359,-90.9090909090908,4,1,0,40,0,0
167388,-83.3333333333333,4,1,0,70,0,0
167472,171.428571428571,4,1,0,70,1,0
212731,-100,4,1,0,70,0,1
223531,-100,4,1,0,70,0,0

[HitObjects]
64,192,160,5,12,0:0:0:0:
64,128,1531,1,4,0:0:0:0:
320,288,2131,1,0,0:0:0:0:
320,288,2174,1,0,0:0:0:0:
320,288,2217,1,8,0:0:0:0:
96,160,2388,1,0,0:0:0:0:
96,160,2559,1,0,0:0:0:0:
96,160,2731,1,0,0:0:0:0:
64,128,2902,1,12,0:0:0:0:
128,160,3245,1,0,0:0:0:0:
128,192,3588,1,8,0:0:0:0:
128,192,3674,1,8,0:0:0:0:
128,192,3759,1,0,0:0:0:0:
128,192,3845,1,0,0:0:0:0:
128,192,3931,1,8,0:0:0:0:
128,192,4102,1,8,0:0:0:0:
128,192,4274,1,0,0:0:0:0:
128,224,4445,1,0,0:0:0:0:
128,224,4531,1,0,0:0:0:0:
128,224,4617,1,8,0:0:0:0:
128,224,4788,1,0,0:0:0:0:
128,224,4874,1,0,0:0:0:0:
128,224,4959,1,8,0:0:0:0:
128,224,5131,1,8,0:0:0:0:
128,224,5302,1,0,0:0:0:0:
128,224,5474,1,0,0:0:0:0:
64,128,5645,1,12,0:0:0:0:
96,160,6331,1,0,0:0:0:0:
96,160,6502,1,8,0:0:0:0:
96,160,6588,1,0,0:0:0:0:
96,128,6674,1,8,0:0:0:0:
96,160,6759,1,0,0:0:0:0:
96,160,6845,1,0,0:0:0:0:
96,128,6931,1,0,0:0:0:0:
288,224,7017,1,8,0:0:0:0:
288,224,7102,1,8,0:0:0:0:
256,160,7188,1,0,0:0:0:0:
256,160,7274,1,8,0:0:0:0:
256,160,7359,1,0,0:0:0:0:
256,160,7445,1,0,0:0:0:0:
256,160,7531,1,8,0:0:0:0:
256,160,7617,1,8,0:0:0:0:
256,160,7702,1,0,0:0:0:0:
256,160,7788,1,0,0:0:0:0:
256,160,7874,1,8,0:0:0:0:
256,160,7959,1,0,0:0:0:0:
256,160,8045,1,8,0:0:0:0:
256,160,8131,1,8,0:0:0:0:
256,160,8217,1,0,0:0:0:0:
256,160,8302,1,0,0:0:0:0:
128,160,8388,1,8,0:0:0:0:
64,128,8431,1,8,0:0:0:0:
64,128,8474,1,0,0:0:0:0:
64,128,8517,1,0,0:0:0:0:
64,128,8559,1,8,0:0:0:0:
64,128,8731,1,8,0:0:0:0:
64,128,8774,1,8,0:0:0:0:
64,128,8817,1,0,0:0:0:0:
64,128,8859,1,0,0:0:0:0:
64,128,8902,1,8,0:0:0:0:
32,160,9245,1,0,0:0:0:0:
32,160,9288,1,0,0:0:0:0:
32,160,9331,1,8,0:0:0:0:
128,160,9759,1,8,0:0:0:0:
128,160,9845,1,8,0:0:0:0:
128,160,9931,1,0,0:0:0:0:
128,160,10017,1,0,0:0:0:0:
128,160,10102,1,8,0:0:0:0:
160,160,10959,1,8,0:0:0:0:
32,160,11002,1,8,0:0:0:0:
32,160,11045,1,8,0:0:0:0:
32,160,11088,1,8,0:0:0:0:
128,160,11131,1,0,0:0:0:0:
192,224,11217,1,0,0:0:0:0:
192,224,11302,1,8,0:0:0:0:
192,224,11388,1,0,0:0:0:0:
64,160,11431,1,0,0:0:0:0:
192,224,11474,1,8,0:0:0:0:
192,224,11559,1,8,0:0:0:0:
192,224,11645,1,0,0:0:0:0:
192,224,11731,1,8,0:0:0:0:
192,224,11817,1,0,0:0:0:0:
128,160,11859,1,0,0:0:0:0:
192,224,11902,1,0,0:0:0:0:
192,224,11988,1,8,0:0:0:0:
192,224,12074,1,0,0:0:0:0:
192,224,12159,1,8,0:0:0:0:
32,160,12202,1,8,0:0:0:0:
192,224,12245,1,8,0:0:0:0:
192,224,12331,1,0,0:0:0:0:
160,192,12374,1,0,0:0:0:0:
64,160,12417,1,0,0:0:0:0:
224,96,12459,1,0,0:0:0:0:
64,160,12502,1,8,0:0:0:0:
352,160,12588,1,0,0:0:0:0:
352,160,12674,1,8,0:0:0:0:
352,160,12759,1,0,0:0:0:0:
288,160,12802,1,0,0:0:0:0:
352,160,12845,1,8,0:0:0:0:
352,160,12931,1,8,0:0:0:0:
352,160,13017,1,0,0:0:0:0:
352,160,13102,1,0,0:0:0:0:
0,160,13188,1,8,0:0:0:0:
0,160,13231,1,8,0:0:0:0:
0,160,13274,1,8,0:0:0:0:
0,128,13359,1,8,0:0:0:0:
0,128,13402,1,8,0:0:0:0:
0,128,13445,1,8,0:0:0:0:
0,128,13531,1,0,0:0:0:0:
0,128,13574,1,0,0:0:0:0:
0,128,13617,1,0,0:0:0:0:
0,160,13702,1,8,0:0:0:0:
0,128,13745,1,8,0:0:0:0:
0,128,13788,1,8,0:0:0:0:
0,128,13831,1,8,0:0:0:0:
0,128,13874,1,0,0:0:0:0:
64,160,13959,1,0,0:0:0:0:
64,160,14045,1,8,0:0:0:0:
64,160,14131,1,0,0:0:0:0:
128,192,14174,1,0,0:0:0:0:
64,160,14217,1,8,0:0:0:0:
64,160,14302,1,8,0:0:0:0:
64,160,14388,1,0,0:0:0:0:
64,160,14474,1,8,0:0:0:0:
64,160,14559,1,0,0:0:0:0:
64,160,14602,1,0,0:0:0:0:
64,160,14645,1,0,0:0:0:0:
64,160,14731,1,8,0:0:0:0:
64,160,14817,1,0,0:0:0:0:
64,160,14902,1,8,0:0:0:0:
64,160,14945,1,8,0:0:0:0:
64,160,14988,1,8,0:0:0:0:
64,160,15074,1,0,0:0:0:0:
64,160,15117,1,0,0:0:0:0:
64,160,15159,1,0,0:0:0:0:
224,96,15202,1,0,0:0:0:0:
64,160,15245,1,8,0:0:0:0:
192,192,15331,1,8,0:0:0:0:
192,160,15417,1,0,0:0:0:0:
128,192,15459,1,0,0:0:0:0:
192,160,15502,1,0,0:0:0:0:
224,192,15588,1,8,0:0:0:0:
192,160,15674,1,8,0:0:0:0:
192,160,15759,1,0,0:0:0:0:
64,160,15802,1,0,0:0:0:0:
192,160,15845,1,0,0:0:0:0:
96,128,15931,1,8,0:0:0:0:
32,128,16017,1,8,0:0:0:0:
32,128,16102,1,0,0:0:0:0:
32,128,16145,1,0,0:0:0:0:
32,128,16188,1,8,0:0:0:0:
96,192,16274,1,0,0:0:0:0:
160,160,16445,1,8,0:0:0:0:
128,160,16617,1,0,0:0:0:0:
192,224,16702,1,0,0:0:0:0:
192,224,16788,1,8,0:0:0:0:
192,224,16874,1,0,0:0:0:0:
256,224,16917,1,0,0:0:0:0:
192,224,16959,1,8,0:0:0:0:
192,224,17045,1,8,0:0:0:0:
192,224,17131,1,0,0:0:0:0:
192,224,17217,1,8,0:0:0:0:
192,224,17302,1,0,0:0:0:0:
64,128,17345,1,0,0:0:0:0:
192,224,17388,1,0,0:0:0:0:
192,224,17474,1,8,0:0:0:0:
192,224,17559,1,0,0:0:0:0:
192,224,17645,1,8,0:0:0:0:
32,160,17688,1,8,0:0:0:0:
192,224,17731,1,8,0:0:0:0:
192,224,17817,1,0,0:0:0:0:
64,160,17859,1,0,0:0:0:0:
64,160,17902,1,0,0:0:0:0:
224,96,17945,1,0,0:0:0:0:
64,160,17988,1,8,0:0:0:0:
352,160,18074,1,0,0:0:0:0:
352,160,18159,1,8,0:0:0:0:
352,160,18245,1,0,0:0:0:0:
352,160,18331,1,8,0:0:0:0:
352,160,18417,1,8,0:0:0:0:
352,160,18502,1,0,0:0:0:0:
352,160,18588,1,0,0:0:0:0:
0,160,18674,1,8,0:0:0:0:
0,160,18717,1,8,0:0:0:0:
0,160,18759,1,8,0:0:0:0:
0,128,18845,1,8,0:0:0:0:
0,128,18888,1,8,0:0:0:0:
0,128,18931,1,8,0:0:0:0:
0,128,19017,1,0,0:0:0:0:
0,128,19059,1,0,0:0:0:0:
0,128,19102,1,0,0:0:0:0:
0,160,19188,1,8,0:0:0:0:
0,128,19231,1,8,0:0:0:0:
0,128,19274,1,8,0:0:0:0:
0,128,19317,1,8,0:0:0:0:
128,160,19359,1,0,0:0:0:0:
192,224,19445,1,0,0:0:0:0:
192,224,19531,1,8,0:0:0:0:
192,224,19617,1,0,0:0:0:0:
224,192,19659,1,0,0:0:0:0:
192,224,19702,1,8,0:0:0:0:
192,224,19788,1,8,0:0:0:0:
192,224,19874,1,0,0:0:0:0:
192,224,19959,1,8,0:0:0:0:
192,224,20045,1,0,0:0:0:0:
64,128,20088,1,0,0:0:0:0:
192,224,20131,1,0,0:0:0:0:
192,224,20217,1,8,0:0:0:0:
192,224,20302,1,0,0:0:0:0:
192,224,20388,1,8,0:0:0:0:
32,160,20431,1,8,0:0:0:0:
192,224,20474,1,8,0:0:0:0:
192,224,20559,1,0,0:0:0:0:
64,160,20602,1,0,0:0:0:0:
64,160,20645,1,0,0:0:0:0:
448,224,20731,5,8,0:0:0:0:
128,160,20774,1,0,0:0:0:0:
320,160,20817,1,8,0:0:0:0:
128,160,20859,1,0,0:0:0:0:
448,256,20902,1,8,0:0:0:0:
384,240,20945,1,8,0:0:0:0:
192,160,20988,1,0,0:0:0:0:
96,160,21031,1,0,0:0:0:0:
448,256,21074,1,8,0:0:0:0:
125,111,21117,1,0,0:0:0:0:
352,192,21159,1,8,0:0:0:0:
125,111,21202,1,0,0:0:0:0:
240,160,21245,1,8,0:0:0:0:
160,160,21288,1,8,0:0:0:0:
125,111,21331,1,0,0:0:0:0:
96,160,21374,1,0,0:0:0:0:
416,256,21417,1,8,0:0:0:0:
91,61,21502,1,0,0:0:0:0:
192,160,21588,1,8,0:0:0:0:
96,160,21631,1,8,0:0:0:0:
192,160,21674,1,0,0:0:0:0:
192,160,21717,1,0,0:0:0:0:
96,160,21759,1,8,0:0:0:0:
128,160,22102,1,8,0:0:0:0:
96,160,22145,1,8,0:0:0:0:
96,160,22188,1,8,0:0:0:0:
96,160,22274,1,0,0:0:0:0:
96,160,22359,1,0,0:0:0:0:
96,160,22445,1,8,0:0:0:0:
96,160,22488,1,8,0:0:0:0:
96,160,22531,1,0,0:0:0:0:
96,160,22617,1,8,0:0:0:0:
96,160,22702,1,8,0:0:0:0:
128,160,22788,1,0,0:0:0:0:
128,160,22831,1,0,0:0:0:0:
128,160,22874,1,0,0:0:0:0:
128,160,22959,1,8,0:0:0:0:
128,160,23002,1,8,0:0:0:0:
128,160,23045,1,8,0:0:0:0:
352,192,23131,1,0,0:0:0:0:
352,192,23217,1,8,0:0:0:0:
352,224,23302,1,0,0:0:0:0:
96,160,23345,1,0,0:0:0:0:
352,224,23388,1,8,0:0:0:0:
352,224,23474,1,0,0:0:0:0:
384,256,23517,1,0,0:0:0:0:
384,256,23559,1,0,0:0:0:0:
384,288,23645,1,8,0:0:0:0:
384,288,23731,1,0,0:0:0:0:
384,288,23774,1,0,0:0:0:0:
384,288,23817,1,8,0:0:0:0:
96,160,23859,1,0,0:0:0:0:
96,160,23902,1,8,0:0:0:0:
384,288,23988,1,0,0:0:0:0:
384,288,24031,1,0,0:0:0:0:
384,256,24074,1,0,0:0:0:0:
320,224,24117,1,0,0:0:0:0:
384,256,24159,1,8,0:0:0:0:
384,256,24245,1,0,0:0:0:0:
128,224,24288,1,0,0:0:0:0:
384,256,24331,1,8,0:0:0:0:
96,160,24417,1,0,0:0:0:0:
96,160,24459,1,0,0:0:0:0:
96,128,24502,1,8,0:0:0:0:
96,128,24545,1,8,0:0:0:0:
96,128,24588,1,0,0:0:0:0:
96,128,24631,1,0,0:0:0:0:
96,128,24674,1,8,0:0:0:0:
320,256,24717,1,8,0:0:0:0:
320,256,24759,1,8,0:0:0:0:
320,256,24802,1,8,0:0:0:0:
96,128,24845,1,0,0:0:0:0:
128,128,24931,1,0,0:0:0:0:
96,160,25017,1,0,0:0:0:0:
96,160,25102,1,0,0:0:0:0:
96,160,25188,1,8,0:0:0:0:
96,160,25231,1,8,0:0:0:0:
96,160,25274,1,0,0:0:0:0:
96,160,25359,1,8,0:0:0:0:
96,160,25445,1,8,0:0:0:0:
128,160,25531,1,0,0:0:0:0:
128,160,25574,1,0,0:0:0:0:
128,160,25617,1,0,0:0:0:0:
128,160,25702,1,8,0:0:0:0:
128,160,25745,1,8,0:0:0:0:
128,160,25788,1,8,0:0:0:0:
352,192,25874,1,0,0:0:0:0:
352,192,25959,1,8,0:0:0:0:
352,224,26045,1,0,0:0:0:0:
96,160,26088,1,0,0:0:0:0:
352,224,26131,1,8,0:0:0:0:
352,224,26217,1,0,0:0:0:0:
384,256,26259,1,0,0:0:0:0:
384,256,26302,1,0,0:0:0:0:
384,288,26388,1,8,0:0:0:0:
384,288,26474,1,0,0:0:0:0:
384,288,26517,1,0,0:0:0:0:
384,288,26559,1,0,0:0:0:0:
96,160,26645,1,8,0:0:0:0:
384,288,26731,1,0,0:0:0:0:
384,288,26774,1,0,0:0:0:0:
384,256,26817,1,0,0:0:0:0:
320,224,26859,1,0,0:0:0:0:
192,192,26902,1,8,0:0:0:0:
192,192,26988,1,8,0:0:0:0:
72,164,27031,1,0,0:0:0:0:
72,164,27074,1,8,0:0:0:0:
72,164,27117,1,8,0:0:0:0:
192,192,27159,1,0,0:0:0:0:
166,125,27202,1,0,0:0:0:0:
192,192,27245,1,8,0:0:0:0:
192,192,27331,1,0,0:0:0:0:
160,160,27374,1,0,0:0:0:0:
192,192,27417,1,0,0:0:0:0:
305,159,27459,1,0,0:0:0:0:
348,157,27502,1,8,0:0:0:0:
192,192,27588,1,0,0:0:0:0:
305,159,27674,1,0,0:0:0:0:
192,192,27759,1,8,0:0:0:0:
115,161,27845,1,0,0:0:0:0:
115,161,27931,1,8,0:0:0:0:
115,161,28017,1,8,0:0:0:0:
166,125,28102,1,0,0:0:0:0:
72,164,28145,1,0,0:0:0:0:
166,125,28188,1,0,0:0:0:0:
166,125,28274,1,8,0:0:0:0:
147,120,28359,1,0,0:0:0:0:
141,132,28445,1,8,0:0:0:0:
142,128,28531,1,8,0:0:0:0:
125,157,28574,1,8,0:0:0:0:
147,120,28617,1,0,0:0:0:0:
147,120,28702,1,0,0:0:0:0:
146,120,28788,1,8,0:0:0:0:
146,120,28874,1,8,0:0:0:0:
64,160,28959,1,0,0:0:0:0:
64,160,29002,1,0,0:0:0:0:
64,160,29045,1,0,0:0:0:0:
64,160,29131,1,8,0:0:0:0:
64,160,29174,1,8,0:0:0:0:
64,160,29217,1,8,0:0:0:0:
64,160,29302,1,0,0:0:0:0:
64,160,29345,1,0,0:0:0:0:
64,160,29388,1,0,0:0:0:0:
122,148,29431,1,0,0:0:0:0:
154,81,29474,1,8,0:0:0:0:
64,192,29559,1,0,0:0:0:0:
64,192,29645,1,8,0:0:0:0:
64,192,29731,1,0,0:0:0:0:
64,192,29774,1,0,0:0:0:0:
64,192,29817,1,8,0:0:0:0:
64,192,29902,1,0,0:0:0:0:
64,192,29988,1,8,0:0:0:0:
122,148,30031,1,8,0:0:0:0:
64,192,30074,1,0,0:0:0:0:
83,135,30117,1,0,0:0:0:0:
64,192,30159,1,8,0:0:0:0:
160,256,30245,1,0,0:0:0:0:
160,256,30331,1,8,0:0:0:0:
160,256,30374,1,0,0:0:0:0:
160,256,30417,1,0,0:0:0:0:
256,288,30502,1,8,0:0:0:0:
64,160,30588,1,0,0:0:0:0:
64,160,30674,1,8,0:0:0:0:
64,160,30759,1,8,0:0:0:0:
64,160,30845,1,0,0:0:0:0:
64,160,30888,1,0,0:0:0:0:
64,160,30931,1,0,0:0:0:0:
64,160,31017,1,8,0:0:0:0:
32,160,31102,1,0,0:0:0:0:
32,160,31188,1,8,0:0:0:0:
32,160,31274,1,8,0:0:0:0:
32,160,31317,1,8,0:0:0:0:
32,160,31359,1,0,0:0:0:0:
192,96,31445,1,0,0:0:0:0:
192,96,31531,1,8,0:0:0:0:
192,96,31617,1,8,0:0:0:0:
256,288,31702,5,0,0:0:0:0:
256,288,31745,1,0,0:0:0:0:
256,288,31788,1,8,0:0:0:0:
256,288,31831,1,8,0:0:0:0:
256,288,31874,1,0,0:0:0:0:
256,288,31917,5,8,0:0:0:0:
256,288,31959,1,0,0:0:0:0:
256,288,32002,1,0,0:0:0:0:
256,288,32045,1,8,0:0:0:0:
256,320,32131,1,0,0:0:0:0:
256,320,32217,1,8,0:0:0:0:
216,277,32259,1,0,0:0:0:0:
256,320,32302,1,8,0:0:0:0:
128,160,32388,5,0,0:0:0:0:
128,160,32431,1,0,0:0:0:0:
128,160,32474,1,0,0:0:0:0:
128,160,32517,1,0,0:0:0:0:
128,160,32559,1,8,0:0:0:0:
128,160,32645,1,8,0:0:0:0:
128,160,32731,1,0,0:0:0:0:
128,160,32774,1,0,0:0:0:0:
128,160,32817,1,0,0:0:0:0:
128,160,32859,1,0,0:0:0:0:
128,160,32902,1,8,0:0:0:0:
194,132,33074,5,0,0:0:0:0:
194,132,33245,1,0,0:0:0:0:
194,132,33417,1,0,0:0:0:0:
194,132,33502,1,0,0:0:0:0:
194,132,33588,1,0,0:0:0:0:
194,132,33674,1,0,0:0:0:0:
194,132,33759,1,8,0:0:0:0:
195,124,33931,1,8,0:0:0:0:
201,120,34102,1,0,0:0:0:0:
201,120,34188,1,0,0:0:0:0:
201,120,34274,1,0,0:0:0:0:
201,120,34359,1,0,0:0:0:0:
201,120,34445,1,8,0:0:0:0:
198,115,34617,1,8,0:0:0:0:
201,120,34788,1,8,0:0:0:0:
128,224,35131,5,8,0:0:0:0:
32,160,35245,1,0,0:0:0:0:
32,192,35359,1,0,0:0:0:0:
128,192,35474,1,8,0:0:0:0:
32,192,35531,1,8,0:0:0:0:
32,192,35588,1,8,0:0:0:0:
96,176,35645,1,8,0:0:0:0:
32,192,35702,1,0,0:0:0:0:
0,224,35817,1,8,0:0:0:0:
0,224,35931,1,0,0:0:0:0:
0,224,36045,1,0,0:0:0:0:
32,192,36159,1,8,0:0:0:0:
32,192,36217,1,8,0:0:0:0:
32,192,36274,1,8,0:0:0:0:
96,176,36331,1,8,0:0:0:0:
32,192,36388,1,0,0:0:0:0:
32,224,36502,1,8,0:0:0:0:
64,96,36617,1,0,0:0:0:0:
64,96,36731,1,0,0:0:0:0:
96,96,36845,1,8,0:0:0:0:
96,96,36902,1,8,0:0:0:0:
96,96,36959,1,8,0:0:0:0:
128,144,37017,1,8,0:0:0:0:
128,144,37074,1,0,0:0:0:0:
96,96,37188,1,8,0:0:0:0:
192,160,37274,1,0,0:0:0:0:
192,160,37359,1,0,0:0:0:0:
192,160,37445,1,0,0:0:0:0:
192,160,37531,1,0,0:0:0:0:
192,160,37617,1,0,0:0:0:0:
192,160,37702,1,0,0:0:0:0:
192,160,37788,1,0,0:0:0:0:
192,160,37874,1,8,0:0:0:0:
224,192,37917,1,8,0:0:0:0:
224,192,37959,1,8,0:0:0:0:
224,192,38045,1,8,0:0:0:0:
224,192,38088,1,8,0:0:0:0:
224,192,38131,1,8,0:0:0:0:
224,192,38217,1,0,0:0:0:0:
224,192,38302,1,0,0:0:0:0:
224,192,38388,1,0,0:0:0:0:
224,192,38474,1,0,0:0:0:0:
224,192,38559,1,8,0:0:0:0:
128,160,38602,1,8,0:0:0:0:
128,160,38645,1,8,0:0:0:0:
128,160,38731,1,8,0:0:0:0:
128,160,38774,1,8,0:0:0:0:
128,160,38817,1,8,0:0:0:0:
128,160,38902,1,8,0:0:0:0:
128,160,38945,1,8,0:0:0:0:
128,160,38988,1,8,0:0:0:0:
320,160,39074,1,0,0:0:0:0:
320,160,39159,1,0,0:0:0:0:
320,192,39245,1,8,0:0:0:0:
128,160,39288,1,0,0:0:0:0:
320,192,39331,1,0,0:0:0:0:
96,160,39374,1,0,0:0:0:0:
96,160,39417,1,8,0:0:0:0:
320,192,39588,1,8,0:0:0:0:
320,192,39631,1,8,0:0:0:0:
320,192,39674,1,0,0:0:0:0:
96,160,39717,1,0,0:0:0:0:
320,192,39759,1,8,0:0:0:0:
64,160,39931,1,8,0:0:0:0:
32,160,40017,1,0,0:0:0:0:
32,160,40102,1,0,0:0:0:0:
32,160,40188,1,0,0:0:0:0:
32,160,40274,1,0,0:0:0:0:
32,160,40359,1,0,0:0:0:0:
32,160,40445,1,0,0:0:0:0:
32,160,40531,1,0,0:0:0:0:
64,160,40617,1,8,0:0:0:0:
32,160,40659,1,8,0:0:0:0:
32,160,40702,1,8,0:0:0:0:
32,160,40788,1,8,0:0:0:0:
32,160,40831,1,8,0:0:0:0:
32,160,40874,1,8,0:0:0:0:
32,160,40959,1,0,0:0:0:0:
32,160,41045,1,0,0:0:0:0:
32,160,41131,1,0,0:0:0:0:
32,160,41217,1,0,0:0:0:0:
32,160,41302,1,8,0:0:0:0:
32,160,41345,1,8,0:0:0:0:
32,160,41388,1,8,0:0:0:0:
32,160,41474,1,8,0:0:0:0:
32,160,41517,1,8,0:0:0:0:
32,160,41559,1,8,0:0:0:0:
32,160,41645,1,8,0:0:0:0:
32,160,41688,1,8,0:0:0:0:
32,160,41731,1,8,0:0:0:0:
32,160,41817,1,0,0:0:0:0:
32,160,41902,1,0,0:0:0:0:
32,160,41988,1,8,0:0:0:0:
244,138,42102,1,0,0:0:0:0:
275,212,42217,1,0,0:0:0:0:
152,170,42331,1,8,0:0:0:0:
152,170,42445,1,0,0:0:0:0:
152,170,42559,1,0,0:0:0:0:
320,192,42674,1,8,0:0:0:0:
320,192,42759,1,0,0:0:0:0:
288,192,42845,1,0,0:0:0:0:
288,192,42931,1,0,0:0:0:0:
288,192,43017,1,0,0:0:0:0:
288,192,43102,1,0,0:0:0:0:
288,192,43188,1,0,0:0:0:0:
288,192,43274,1,0,0:0:0:0:
288,192,43359,1,8,0:0:0:0:
240,160,43402,1,8,0:0:0:0:
288,192,43445,1,8,0:0:0:0:
192,128,43531,1,8,0:0:0:0:
240,160,43574,1,8,0:0:0:0:
192,128,43617,1,8,0:0:0:0:
96,64,43702,1,0,0:0:0:0:
288,192,43788,1,0,0:0:0:0:
288,192,43874,1,0,0:0:0:0:
288,192,43959,1,0,0:0:0:0:
288,192,44045,1,8,0:0:0:0:
288,192,44088,1,8,0:0:0:0:
288,192,44131,1,8,0:0:0:0:
288,192,44217,1,8,0:0:0:0:
288,192,44259,1,8,0:0:0:0:
320,192,44302,1,8,0:0:0:0:
320,192,44388,1,8,0:0:0:0:
96,160,44431,1,8,0:0:0:0:
96,160,44474,1,8,0:0:0:0:
320,192,44559,1,0,0:0:0:0:
320,192,44645,1,0,0:0:0:0:
320,192,44731,1,8,0:0:0:0:
320,192,44774,1,0,0:0:0:0:
320,192,44817,1,0,0:0:0:0:
320,192,44859,1,0,0:0:0:0:
320,192,44902,1,8,0:0:0:0:
200,189,44988,1,0,0:0:0:0:
64,142,45074,1,8,0:0:0:0:
384,256,45117,1,8,0:0:0:0:
113,153,45159,1,0,0:0:0:0:
288,192,45202,1,0,0:0:0:0:
384,256,45245,1,8,0:0:0:0:
64,142,45288,1,8,0:0:0:0:
64,142,45331,1,0,0:0:0:0:
64,142,45374,1,0,0:0:0:0:
352,192,45417,5,8,0:0:0:0:
352,192,45474,1,0,0:0:0:0:
96,160,45531,1,0,0:0:0:0:
352,192,45588,1,0,0:0:0:0:
96,160,45645,1,0,0:0:0:0:
96,160,45702,1,0,0:0:0:0:
96,160,45759,1,8,0:0:0:0:
96,160,45817,1,0,0:0:0:0:
96,160,45874,1,0,0:0:0:0:
96,160,45931,1,0,0:0:0:0:
96,160,45988,1,0,0:0:0:0:
96,160,46045,1,0,0:0:0:0:
64,160,46102,1,8,0:0:0:0:
64,160,46188,1,8,0:0:0:0:
64,160,46274,1,0,0:0:0:0:
64,160,46359,1,0,0:0:0:0:
64,160,46445,1,8,0:0:0:0:
64,160,46531,1,8,0:0:0:0:
64,160,46617,1,0,0:0:0:0:
64,160,46702,1,0,0:0:0:0:
64,160,46788,1,8,0:0:0:0:
64,160,46902,1,0,0:0:0:0:
64,160,47016,1,0,0:0:0:0:
64,160,47130,1,8,0:0:0:0:
64,160,47245,1,0,0:0:0:0:
64,160,47359,1,0,0:0:0:0:
64,160,47473,1,8,0:0:0:0:
64,160,47588,1,0,0:0:0:0:
64,160,47702,1,0,0:0:0:0:
64,96,47816,5,12,0:0:0:0:
128,160,49530,1,0,0:0:0:0:
192,224,49616,1,0,0:0:0:0:
192,224,49702,1,8,0:0:0:0:
192,224,49787,1,0,0:0:0:0:
128,192,49830,1,0,0:0:0:0:
192,224,49873,1,8,0:0:0:0:
192,224,49959,1,8,0:0:0:0:
192,224,50045,1,0,0:0:0:0:
192,224,50130,1,8,0:0:0:0:
192,224,50216,1,0,0:0:0:0:
64,128,50259,1,0,0:0:0:0:
192,224,50302,1,0,0:0:0:0:
192,224,50387,1,8,0:0:0:0:
192,224,50473,1,0,0:0:0:0:
192,224,50559,1,8,0:0:0:0:
32,160,50602,1,8,0:0:0:0:
192,224,50644,1,8,0:0:0:0:
192,224,50730,1,0,0:0:0:0:
64,160,50773,1,0,0:0:0:0:
64,160,50816,1,0,0:0:0:0:
128,160,50859,1,0,0:0:0:0:
64,160,50902,1,8,0:0:0:0:
352,160,50987,1,0,0:0:0:0:
352,160,51073,1,8,0:0:0:0:
352,160,51159,1,0,0:0:0:0:
288,160,51202,1,0,0:0:0:0:
352,160,51244,1,8,0:0:0:0:
352,160,51330,1,8,0:0:0:0:
352,160,51416,1,0,0:0:0:0:
352,160,51502,1,0,0:0:0:0:
0,160,51587,1,8,0:0:0:0:
0,160,51630,1,8,0:0:0:0:
0,160,51673,1,8,0:0:0:0:
0,128,51759,1,8,0:0:0:0:
0,128,51802,1,8,0:0:0:0:
0,128,51844,1,8,0:0:0:0:
0,128,51930,1,0,0:0:0:0:
0,128,51973,1,0,0:0:0:0:
0,128,52016,1,0,0:0:0:0:
0,160,52102,1,8,0:0:0:0:
0,128,52144,1,8,0:0:0:0:
0,128,52187,1,8,0:0:0:0:
0,128,52230,1,8,0:0:0:0:
0,128,52273,1,0,0:0:0:0:
64,160,52359,1,0,0:0:0:0:
64,160,52444,1,8,0:0:0:0:
64,160,52530,1,0,0:0:0:0:
128,160,52573,1,0,0:0:0:0:
64,160,52616,1,8,0:0:0:0:
64,160,52702,1,8,0:0:0:0:
64,160,52787,1,0,0:0:0:0:
64,160,52873,1,8,0:0:0:0:
64,160,52959,1,0,0:0:0:0:
64,160,53002,1,0,0:0:0:0:
64,160,53044,1,0,0:0:0:0:
64,160,53130,1,8,0:0:0:0:
64,160,53216,1,0,0:0:0:0:
64,160,53302,1,8,0:0:0:0:
64,160,53344,1,8,0:0:0:0:
64,160,53387,1,8,0:0:0:0:
64,160,53473,1,0,0:0:0:0:
64,160,53516,1,0,0:0:0:0:
64,160,53559,1,0,0:0:0:0:
128,160,53602,1,0,0:0:0:0:
64,160,53644,1,8,0:0:0:0:
192,192,53730,1,8,0:0:0:0:
192,160,53816,1,0,0:0:0:0:
128,192,53859,1,0,0:0:0:0:
192,160,53902,1,0,0:0:0:0:
224,192,53987,1,8,0:0:0:0:
192,160,54073,1,8,0:0:0:0:
192,160,54159,1,0,0:0:0:0:
64,160,54202,1,0,0:0:0:0:
192,160,54244,1,0,0:0:0:0:
96,128,54330,1,8,0:0:0:0:
32,128,54416,1,8,0:0:0:0:
32,128,54502,1,0,0:0:0:0:
32,128,54544,1,0,0:0:0:0:
32,128,54587,1,8,0:0:0:0:
96,192,54673,1,0,0:0:0:0:
64,192,54844,1,8,0:0:0:0:
128,160,55016,1,0,0:0:0:0:
192,224,55102,1,0,0:0:0:0:
192,224,55187,1,8,0:0:0:0:
192,224,55273,1,0,0:0:0:0:
128,160,55316,1,0,0:0:0:0:
192,224,55359,1,8,0:0:0:0:
192,224,55444,1,8,0:0:0:0:
192,224,55530,1,0,0:0:0:0:
192,224,55616,1,8,0:0:0:0:
192,224,55702,1,0,0:0:0:0:
64,128,55744,1,0,0:0:0:0:
192,224,55787,1,0,0:0:0:0:
192,224,55873,1,8,0:0:0:0:
192,224,55959,1,0,0:0:0:0:
192,224,56044,1,8,0:0:0:0:
32,160,56087,1,8,0:0:0:0:
192,224,56130,1,8,0:0:0:0:
192,224,56216,1,0,0:0:0:0:
64,160,56259,1,0,0:0:0:0:
64,160,56302,1,0,0:0:0:0:
128,160,56344,1,0,0:0:0:0:
64,160,56387,1,8,0:0:0:0:
352,160,56473,1,0,0:0:0:0:
352,160,56559,1,8,0:0:0:0:
352,160,56644,1,0,0:0:0:0:
288,160,56687,1,0,0:0:0:0:
352,160,56730,1,8,0:0:0:0:
352,160,56816,1,8,0:0:0:0:
352,160,56902,1,0,0:0:0:0:
352,160,56987,1,0,0:0:0:0:
0,160,57073,1,8,0:0:0:0:
0,160,57116,1,8,0:0:0:0:
0,160,57159,1,8,0:0:0:0:
0,128,57244,1,8,0:0:0:0:
0,128,57287,1,8,0:0:0:0:
0,128,57330,1,8,0:0:0:0:
0,128,57416,1,0,0:0:0:0:
0,128,57459,1,0,0:0:0:0:
0,128,57502,1,0,0:0:0:0:
0,160,57587,1,8,0:0:0:0:
0,128,57630,1,8,0:0:0:0:
0,128,57673,1,8,0:0:0:0:
0,128,57716,1,8,0:0:0:0:
128,160,57759,1,0,0:0:0:0:
192,224,57844,1,0,0:0:0:0:
192,224,57930,1,8,0:0:0:0:
192,224,58016,1,0,0:0:0:0:
128,160,58059,1,0,0:0:0:0:
192,224,58102,1,8,0:0:0:0:
192,224,58187,1,8,0:0:0:0:
192,224,58273,1,0,0:0:0:0:
192,224,58359,1,8,0:0:0:0:
192,224,58444,1,0,0:0:0:0:
64,128,58487,1,0,0:0:0:0:
192,224,58530,1,0,0:0:0:0:
192,224,58616,1,8,0:0:0:0:
192,224,58702,1,0,0:0:0:0:
192,224,58787,1,8,0:0:0:0:
32,160,58830,1,8,0:0:0:0:
192,224,58873,1,8,0:0:0:0:
192,224,58959,1,0,0:0:0:0:
64,160,59002,1,0,0:0:0:0:
64,160,59044,1,0,0:0:0:0:
448,224,59130,5,8,0:0:0:0:
96,160,59173,1,0,0:0:0:0:
320,192,59216,1,8,0:0:0:0:
96,160,59259,1,0,0:0:0:0:
448,256,59302,1,8,0:0:0:0:
448,256,59344,1,8,0:0:0:0:
192,160,59387,1,0,0:0:0:0:
192,160,59430,1,0,0:0:0:0:
448,256,59473,1,8,0:0:0:0:
96,160,59516,1,0,0:0:0:0:
320,192,59559,1,8,0:0:0:0:
96,160,59602,1,0,0:0:0:0:
416,256,59644,1,8,0:0:0:0:
192,160,59687,1,8,0:0:0:0:
192,160,59730,1,0,0:0:0:0:
96,160,59773,1,0,0:0:0:0:
416,256,59816,1,8,0:0:0:0:
96,160,59902,1,0,0:0:0:0:
192,160,59987,1,8,0:0:0:0:
96,160,60030,1,8,0:0:0:0:
192,160,60073,1,0,0:0:0:0:
192,160,60116,1,0,0:0:0:0:
96,160,60159,1,8,0:0:0:0:
96,160,60244,1,0,0:0:0:0:
96,160,60330,1,0,0:0:0:0:
96,160,60416,1,0,0:0:0:0:
128,160,60502,1,8,0:0:0:0:
96,160,60544,1,8,0:0:0:0:
96,160,60587,1,8,0:0:0:0:
96,160,60673,1,0,0:0:0:0:
96,160,60759,1,0,0:0:0:0:
96,160,60844,1,8,0:0:0:0:
96,160,60887,1,8,0:0:0:0:
96,160,60930,1,0,0:0:0:0:
96,160,61016,1,8,0:0:0:0:
96,160,61102,1,8,0:0:0:0:
128,160,61187,1,0,0:0:0:0:
128,160,61230,1,0,0:0:0:0:
128,160,61273,1,0,0:0:0:0:
128,160,61359,1,8,0:0:0:0:
128,160,61402,1,8,0:0:0:0:
128,160,61444,1,8,0:0:0:0:
352,192,61530,1,0,0:0:0:0:
352,192,61616,1,8,0:0:0:0:
352,224,61702,1,0,0:0:0:0:
96,160,61744,1,0,0:0:0:0:
352,224,61787,1,8,0:0:0:0:
352,224,61873,1,0,0:0:0:0:
384,256,61916,1,0,0:0:0:0:
384,256,61959,1,0,0:0:0:0:
384,288,62044,1,8,0:0:0:0:
384,288,62130,1,0,0:0:0:0:
384,288,62173,1,0,0:0:0:0:
384,288,62216,1,8,0:0:0:0:
96,160,62259,1,0,0:0:0:0:
96,160,62302,1,8,0:0:0:0:
384,288,62387,1,0,0:0:0:0:
384,288,62430,1,0,0:0:0:0:
384,256,62473,1,0,0:0:0:0:
320,224,62516,1,0,0:0:0:0:
384,256,62559,1,8,0:0:0:0:
384,256,62644,1,0,0:0:0:0:
128,224,62687,1,0,0:0:0:0:
384,256,62730,1,8,0:0:0:0:
96,160,62816,1,0,0:0:0:0:
96,160,62859,1,0,0:0:0:0:
96,128,62902,1,8,0:0:0:0:
96,128,62944,1,8,0:0:0:0:
96,128,62987,1,0,0:0:0:0:
96,128,63030,1,0,0:0:0:0:
96,128,63073,1,8,0:0:0:0:
320,256,63116,1,8,0:0:0:0:
320,256,63159,1,8,0:0:0:0:
320,256,63202,1,8,0:0:0:0:
96,128,63244,1,0,0:0:0:0:
128,128,63330,1,0,0:0:0:0:
96,160,63416,1,0,0:0:0:0:
96,160,63502,1,0,0:0:0:0:
96,160,63587,1,8,0:0:0:0:
96,160,63630,1,8,0:0:0:0:
96,160,63673,1,0,0:0:0:0:
96,160,63759,1,8,0:0:0:0:
96,160,63844,1,8,0:0:0:0:
128,160,63930,1,0,0:0:0:0:
128,160,63973,1,0,0:0:0:0:
128,160,64016,1,0,0:0:0:0:
128,160,64102,1,8,0:0:0:0:
128,160,64144,1,8,0:0:0:0:
128,160,64187,1,8,0:0:0:0:
352,192,64273,1,0,0:0:0:0:
352,192,64359,1,8,0:0:0:0:
352,224,64444,1,0,0:0:0:0:
96,160,64487,1,0,0:0:0:0:
352,224,64530,1,8,0:0:0:0:
352,224,64616,1,0,0:0:0:0:
384,256,64659,1,0,0:0:0:0:
384,256,64702,1,0,0:0:0:0:
384,288,64787,1,8,0:0:0:0:
384,288,64873,1,0,0:0:0:0:
384,288,64916,1,0,0:0:0:0:
384,288,64959,1,0,0:0:0:0:
96,160,65044,1,8,0:0:0:0:
384,288,65130,1,0,0:0:0:0:
384,288,65173,1,0,0:0:0:0:
384,256,65216,1,0,0:0:0:0:
320,224,65259,1,0,0:0:0:0:
192,192,65302,1,8,0:0:0:0:
192,192,65387,1,8,0:0:0:0:
120,164,65430,1,0,0:0:0:0:
120,164,65473,1,8,0:0:0:0:
120,164,65516,1,8,0:0:0:0:
120,164,65559,1,0,0:0:0:0:
120,164,65602,1,0,0:0:0:0:
120,164,65644,1,8,0:0:0:0:
192,192,65730,1,0,0:0:0:0:
160,160,65773,1,0,0:0:0:0:
192,192,65816,1,0,0:0:0:0:
72,164,65859,1,0,0:0:0:0:
192,192,65902,1,8,0:0:0:0:
192,192,65987,1,0,0:0:0:0:
120,164,66073,1,0,0:0:0:0:
192,192,66159,1,8,0:0:0:0:
115,161,66244,1,0,0:0:0:0:
115,161,66330,1,8,0:0:0:0:
115,161,66416,1,8,0:0:0:0:
166,125,66502,1,0,0:0:0:0:
72,164,66544,1,0,0:0:0:0:
166,125,66587,1,0,0:0:0:0:
166,125,66673,1,8,0:0:0:0:
147,120,66759,1,0,0:0:0:0:
141,132,66844,1,8,0:0:0:0:
142,128,66930,1,8,0:0:0:0:
125,157,66973,1,8,0:0:0:0:
147,120,67016,1,0,0:0:0:0:
147,120,67102,1,0,0:0:0:0:
146,120,67187,1,8,0:0:0:0:
146,120,67273,1,8,0:0:0:0:
64,160,67359,1,0,0:0:0:0:
64,160,67402,1,0,0:0:0:0:
64,160,67444,1,0,0:0:0:0:
64,160,67530,1,8,0:0:0:0:
64,160,67573,1,8,0:0:0:0:
64,160,67616,1,8,0:0:0:0:
64,160,67702,1,0,0:0:0:0:
64,160,67744,1,0,0:0:0:0:
64,160,67787,1,0,0:0:0:0:
122,148,67830,1,0,0:0:0:0:
154,81,67873,1,8,0:0:0:0:
64,192,67959,1,0,0:0:0:0:
64,192,68044,1,8,0:0:0:0:
64,192,68130,1,0,0:0:0:0:
64,192,68173,1,0,0:0:0:0:
64,192,68216,1,8,0:0:0:0:
64,192,68302,1,0,0:0:0:0:
64,192,68387,1,8,0:0:0:0:
122,148,68430,1,8,0:0:0:0:
64,192,68473,1,0,0:0:0:0:
83,135,68516,1,0,0:0:0:0:
64,192,68559,1,8,0:0:0:0:
160,256,68644,1,0,0:0:0:0:
160,256,68730,1,8,0:0:0:0:
160,256,68773,1,0,0:0:0:0:
160,256,68816,1,0,0:0:0:0:
256,288,68902,1,8,0:0:0:0:
64,160,68987,1,0,0:0:0:0:
64,160,69073,1,8,0:0:0:0:
64,160,69159,1,8,0:0:0:0:
64,160,69244,1,0,0:0:0:0:
64,160,69287,1,0,0:0:0:0:
64,160,69330,1,0,0:0:0:0:
64,160,69416,1,8,0:0:0:0:
32,160,69502,1,0,0:0:0:0:
32,160,69587,1,8,0:0:0:0:
32,160,69673,1,8,0:0:0:0:
32,160,69716,1,8,0:0:0:0:
32,160,69759,1,0,0:0:0:0:
192,96,69844,1,0,0:0:0:0:
192,96,69930,1,8,0:0:0:0:
192,96,70016,1,8,0:0:0:0:
256,288,70102,5,0,0:0:0:0:
256,288,70144,1,0,0:0:0:0:
256,288,70187,1,8,0:0:0:0:
256,288,70230,1,8,0:0:0:0:
256,288,70273,1,0,0:0:0:0:
256,288,70316,1,8,0:0:0:0:
256,288,70359,1,0,0:0:0:0:
256,288,70402,1,0,0:0:0:0:
256,288,70444,1,8,0:0:0:0:
256,320,70530,1,0,0:0:0:0:
256,320,70616,1,8,0:0:0:0:
216,277,70659,1,0,0:0:0:0:
256,320,70702,1,8,0:0:0:0:
128,160,70787,5,0,0:0:0:0:
128,160,70830,1,0,0:0:0:0:
128,160,70873,1,0,0:0:0:0:
128,160,70916,1,0,0:0:0:0:
128,160,70959,1,8,0:0:0:0:
128,160,71044,1,8,0:0:0:0:
128,160,71130,1,0,0:0:0:0:
128,160,71173,1,0,0:0:0:0:
128,160,71216,1,0,0:0:0:0:
128,160,71259,1,0,0:0:0:0:
128,160,71302,1,8,0:0:0:0:
118,207,72844,1,8,0:0:0:0:
118,207,72930,1,8,0:0:0:0:
196,144,73016,1,8,0:0:0:0:
114,222,73187,1,8,0:0:0:0:
114,222,73273,1,8,0:0:0:0:
114,222,73359,1,8,0:0:0:0:
79,139,73530,1,0,0:0:0:0:
79,139,73616,1,0,0:0:0:0:
79,139,73702,1,0,0:0:0:0:
79,139,73873,1,0,0:0:0:0:
79,139,73959,1,0,0:0:0:0:
79,139,74044,1,0,0:0:0:0:
64,139,74216,1,8,0:0:0:0:
64,139,74302,1,8,0:0:0:0:
64,139,74387,1,8,0:0:0:0:
65,139,74559,1,8,0:0:0:0:
65,139,74644,1,8,0:0:0:0:
65,139,74730,1,8,0:0:0:0:
64,139,74902,1,0,0:0:0:0:
64,139,74987,1,0,0:0:0:0:
64,139,75073,1,0,0:0:0:0:
123,130,75244,1,0,0:0:0:0:
123,130,75330,1,0,0:0:0:0:
128,160,75416,5,0,0:0:0:0:
128,160,75459,1,0,0:0:0:0:
128,160,75502,1,0,0:0:0:0:
128,160,75544,1,0,0:0:0:0:
128,160,75587,1,8,0:0:0:0:
96,160,75930,1,8,0:0:0:0:
64,160,76273,1,0,0:0:0:0:
64,160,76359,1,0,0:0:0:0:
64,160,76444,1,0,0:0:0:0:
64,160,76530,1,0,0:0:0:0:
64,160,76616,1,0,0:0:0:0:
64,160,76959,1,8,0:0:0:0:
64,160,77644,1,0,0:0:0:0:
64,160,77987,1,8,0:0:0:0:
64,160,78330,1,0,0:0:0:0:
64,160,78416,1,0,0:0:0:0:
64,160,78502,1,0,0:0:0:0:
64,160,78587,1,0,0:0:0:0:
64,160,78673,1,0,0:0:0:0:
64,160,78759,1,0,0:0:0:0:
64,160,78844,1,0,0:0:0:0:
64,160,78930,1,0,0:0:0:0:
128,160,79016,1,8,0:0:0:0:
128,160,79130,1,8,0:0:0:0:
128,160,79244,1,8,0:0:0:0:
128,160,79359,1,8,0:0:0:0:
128,160,79473,1,8,0:0:0:0:
0,128,79587,1,8,0:0:0:0:
0,128,79702,1,8,0:0:0:0:
0,128,79816,1,8,0:0:0:0:
0,128,79930,1,8,0:0:0:0:
0,128,80044,1,0,0:0:0:0:
32,128,80130,1,0,0:0:0:0:
32,128,80216,1,0,0:0:0:0:
32,128,80302,1,0,0:0:0:0:
128,128,80387,1,8,0:0:0:0:
32,128,80473,1,0,0:0:0:0:
32,128,80559,1,0,0:0:0:0:
32,128,80644,1,0,0:0:0:0:
32,128,80730,1,8,0:0:0:0:
32,128,80816,1,8,0:0:0:0:
32,128,80902,1,0,0:0:0:0:
32,128,80987,1,0,0:0:0:0:
32,128,81073,1,8,0:0:0:0:
96,160,81187,1,0,0:0:0:0:
96,160,81302,1,0,0:0:0:0:
96,160,81416,1,8,0:0:0:0:
96,160,81530,1,0,0:0:0:0:
96,160,81587,1,0,0:0:0:0:
96,160,81644,1,0,0:0:0:0:
96,160,81702,1,0,0:0:0:0:
96,160,81759,1,8,0:0:0:0:
208,64,81873,1,0,0:0:0:0:
96,160,81930,1,8,0:0:0:0:
224,128,82044,1,0,0:0:0:0:
96,160,82102,1,8,0:0:0:0:
96,160,82159,1,0,0:0:0:0:
96,160,82216,1,0,0:0:0:0:
96,160,82273,1,8,0:0:0:0:
32,160,82330,1,8,0:0:0:0:
96,160,82387,1,8,0:0:0:0:
96,160,82444,1,0,0:0:0:0:
96,160,82530,1,0,0:0:0:0:
96,160,82616,1,0,0:0:0:0:
96,160,82702,1,0,0:0:0:0:
98,155,82787,1,0,0:0:0:0:
98,155,82873,1,0,0:0:0:0:
98,155,82959,1,0,0:0:0:0:
98,155,83044,1,0,0:0:0:0:
128,160,83130,1,8,0:0:0:0:
448,352,83216,1,0,0:0:0:0:
448,352,83302,1,0,0:0:0:0:
448,352,83387,1,0,0:0:0:0:
448,352,83473,1,8,0:0:0:0:
448,352,83559,1,0,0:0:0:0:
448,352,83644,1,8,0:0:0:0:
448,352,83730,1,8,0:0:0:0:
224,192,83816,1,0,0:0:0:0:
224,192,83902,1,0,0:0:0:0:
224,192,83987,1,0,0:0:0:0:
224,192,84073,1,0,0:0:0:0:
224,192,84159,1,0,0:0:0:0:
224,192,84244,1,0,0:0:0:0:
224,192,84330,1,0,0:0:0:0:
224,192,84416,1,0,0:0:0:0:
87,165,84502,1,8,0:0:0:0:
124,167,84616,1,8,0:0:0:0:
124,167,84730,1,8,0:0:0:0:
124,167,84844,1,8,0:0:0:0:
124,167,84959,1,8,0:0:0:0:
113,181,85073,1,8,0:0:0:0:
113,181,85187,1,8,0:0:0:0:
113,181,85302,1,8,0:0:0:0:
288,256,85416,1,8,0:0:0:0:
384,320,85530,1,0,0:0:0:0:
64,160,85616,1,0,0:0:0:0:
64,160,85702,1,0,0:0:0:0:
64,160,85787,1,0,0:0:0:0:
64,160,85873,1,8,0:0:0:0:
96,160,85959,1,0,0:0:0:0:
96,160,86044,1,0,0:0:0:0:
96,160,86130,1,0,0:0:0:0:
96,160,86216,1,8,0:0:0:0:
96,160,86302,1,8,0:0:0:0:
96,160,86387,1,0,0:0:0:0:
96,160,86473,1,0,0:0:0:0:
192,192,86559,1,8,0:0:0:0:
192,192,86673,1,8,0:0:0:0:
192,192,86787,1,8,0:0:0:0:
192,192,86902,1,0,0:0:0:0:
192,192,87016,1,0,0:0:0:0:
192,192,87130,1,0,0:0:0:0:
192,192,87244,1,8,0:0:0:0:
288,256,87330,1,8,0:0:0:0:
160,224,87416,1,0,0:0:0:0:
160,224,87459,1,0,0:0:0:0:
160,224,87502,1,0,0:0:0:0:
160,224,87544,1,0,0:0:0:0:
160,224,87587,1,8,0:0:0:0:
256,224,87930,1,0,0:0:0:0:
256,224,88044,1,0,0:0:0:0:
256,224,88159,1,0,0:0:0:0:
256,224,88273,1,8,0:0:0:0:
192,64,88387,1,8,0:0:0:0:
224,224,88502,1,8,0:0:0:0:
224,224,88616,1,0,0:0:0:0:
224,224,88730,1,0,0:0:0:0:
224,224,88844,1,0,0:0:0:0:
224,224,88959,1,8,0:0:0:0:
224,224,89073,1,8,0:0:0:0:
224,224,89187,1,8,0:0:0:0:
256,224,89302,1,0,0:0:0:0:
256,224,89416,1,0,0:0:0:0:
256,224,89530,1,0,0:0:0:0:
256,224,89644,1,8,0:0:0:0:
192,64,89759,1,8,0:0:0:0:
224,224,89873,1,0,0:0:0:0:
224,224,89987,1,8,0:0:0:0:
224,224,90102,1,8,0:0:0:0:
224,224,90216,1,8,0:0:0:0:
224,224,90330,1,0,0:0:0:0:
224,224,90444,1,8,0:0:0:0:
224,224,90559,1,8,0:0:0:0:
256,224,90673,1,0,0:0:0:0:
256,224,90787,1,0,0:0:0:0:
256,224,90902,1,0,0:0:0:0:
256,224,91016,1,8,0:0:0:0:
192,64,91130,1,8,0:0:0:0:
224,224,91244,1,8,0:0:0:0:
224,224,91359,1,0,0:0:0:0:
224,224,91473,1,0,0:0:0:0:
224,224,91587,1,0,0:0:0:0:
224,224,91702,1,8,0:0:0:0:
224,224,91816,1,8,0:0:0:0:
224,224,91930,1,8,0:0:0:0:
224,224,92044,1,0,0:0:0:0:
224,224,92130,1,0,0:0:0:0:
128,160,92216,1,8,0:0:0:0:
128,160,92302,1,8,0:0:0:0:
224,224,92387,1,0,0:0:0:0:
128,160,92473,1,0,0:0:0:0:
128,160,92559,1,8,0:0:0:0:
128,160,92602,1,8,0:0:0:0:
128,160,92644,1,8,0:0:0:0:
128,160,92687,1,8,0:0:0:0:
128,160,92730,1,0,0:0:0:0:
224,224,92816,1,0,0:0:0:0:
352,256,92902,1,8,0:0:0:0:
448,320,92987,1,8,0:0:0:0:
160,192,93073,1,0,0:0:0:0:
160,192,93159,1,0,0:0:0:0:
160,192,93244,1,8,0:0:0:0:
160,192,93330,1,8,0:0:0:0:
256,224,93416,1,0,0:0:0:0:
256,224,93530,1,0,0:0:0:0:
256,224,93644,1,0,0:0:0:0:
256,224,93759,1,8,0:0:0:0:
192,64,93873,1,0,0:0:0:0:
224,224,93987,1,0,0:0:0:0:
224,224,94102,1,8,0:0:0:0:
224,224,94187,1,8,0:0:0:0:
128,160,94273,1,0,0:0:0:0:
224,224,94359,1,8,0:0:0:0:
224,224,94444,1,0,0:0:0:0:
224,224,94530,1,8,0:0:0:0:
224,224,94616,1,8,0:0:0:0:
128,160,94702,1,8,0:0:0:0:
256,224,94787,1,0,0:0:0:0:
256,224,94902,1,0,0:0:0:0:
256,224,95016,1,0,0:0:0:0:
256,224,95130,1,8,0:0:0:0:
192,64,95244,1,0,0:0:0:0:
224,224,95359,1,0,0:0:0:0:
224,224,95473,1,8,0:0:0:0:
224,224,95559,1,8,0:0:0:0:
128,128,95644,1,0,0:0:0:0:
224,224,95730,1,8,0:0:0:0:
224,224,95816,1,0,0:0:0:0:
224,224,95902,1,8,0:0:0:0:
224,224,95987,1,8,0:0:0:0:
128,160,96073,1,8,0:0:0:0:
256,224,96159,1,0,0:0:0:0:
256,224,96273,1,0,0:0:0:0:
256,224,96387,5,0,0:0:0:0:
256,224,96502,1,8,0:0:0:0:
192,64,96616,1,8,0:0:0:0:
224,224,96730,1,0,0:0:0:0:
224,224,96844,1,8,0:0:0:0:
224,224,96959,1,0,0:0:0:0:
224,224,97073,1,0,0:0:0:0:
224,224,97187,1,8,0:0:0:0:
224,224,97302,1,0,0:0:0:0:
224,224,97416,1,0,0:0:0:0:
192,192,97530,5,8,0:0:0:0:
192,192,97616,1,8,0:0:0:0:
192,192,97702,1,0,0:0:0:0:
192,192,97787,1,8,0:0:0:0:
192,192,97873,1,8,0:0:0:0:
192,192,97959,1,8,0:0:0:0:
192,192,98044,1,0,0:0:0:0:
192,192,98130,1,0,0:0:0:0:
192,192,98216,1,8,0:0:0:0:
192,192,98302,1,0,0:0:0:0:
192,192,98387,1,0,0:0:0:0:
96,128,98473,1,0,0:0:0:0:
192,192,98559,1,8,0:0:0:0:
160,192,98902,5,0,0:0:0:0:
128,192,99073,1,0,0:0:0:0:
160,192,99244,1,8,0:0:0:0:
160,192,99416,1,8,0:0:0:0:
160,192,99587,1,0,0:0:0:0:
384,224,99759,1,8,0:0:0:0:
256,192,99844,1,0,0:0:0:0:
352,256,99930,1,8,0:0:0:0:
256,192,100016,1,8,0:0:0:0:
224,288,100102,1,0,0:0:0:0:
256,160,100187,1,8,0:0:0:0:
224,288,100273,1,0,0:0:0:0:
288,160,100444,1,8,0:0:0:0:
224,160,100616,1,0,0:0:0:0:
224,160,100702,1,0,0:0:0:0:
224,160,100787,1,8,0:0:0:0:
224,160,100873,1,8,0:0:0:0:
224,160,100959,1,0,0:0:0:0:
96,128,101044,1,0,0:0:0:0:
128,160,101130,1,8,0:0:0:0:
96,128,101216,1,8,0:0:0:0:
128,160,101302,1,0,0:0:0:0:
96,128,101387,1,0,0:0:0:0:
256,128,101473,1,12,0:0:0:0:
256,128,101816,1,12,0:0:0:0:
192,96,102159,1,0,0:0:0:0:
160,96,102330,1,8,0:0:0:0:
128,64,102416,1,8,0:0:0:0:
128,64,102502,1,0,0:0:0:0:
128,64,102587,1,0,0:0:0:0:
160,160,102673,1,8,0:0:0:0:
128,64,102759,1,0,0:0:0:0:
160,160,102844,1,8,0:0:0:0:
160,160,102930,1,8,0:0:0:0:
128,64,103016,1,0,0:0:0:0:
128,64,103102,1,0,0:0:0:0:
128,64,103187,1,0,0:0:0:0:
128,64,103273,1,0,0:0:0:0:
160,160,103359,1,8,0:0:0:0:
128,64,103444,1,0,0:0:0:0:
128,64,103530,1,0,0:0:0:0:
128,64,103616,1,0,0:0:0:0:
160,160,103702,1,8,0:0:0:0:
160,96,103873,1,0,0:0:0:0:
160,96,103916,1,0,0:0:0:0:
160,96,103959,1,0,0:0:0:0:
160,96,104002,1,0,0:0:0:0:
160,96,104044,1,0,0:0:0:0:
96,192,104130,1,8,0:0:0:0:
160,96,104216,1,0,0:0:0:0:
160,96,104259,1,0,0:0:0:0:
160,96,104302,1,0,0:0:0:0:
160,96,104344,1,0,0:0:0:0:
160,96,104387,1,8,0:0:0:0:
128,160,104473,1,8,0:0:0:0:
160,128,104559,1,0,0:0:0:0:
160,128,104644,1,0,0:0:0:0:
160,128,104730,1,8,0:0:0:0:
160,128,104816,1,8,0:0:0:0:
160,128,104902,1,0,0:0:0:0:
160,128,104987,1,0,0:0:0:0:
160,128,105073,1,8,0:0:0:0:
160,128,105159,1,8,0:0:0:0:
160,128,105244,1,0,0:0:0:0:
160,128,105330,1,0,0:0:0:0:
160,128,105416,1,8,0:0:0:0:
160,128,105587,1,0,0:0:0:0:
160,128,105673,1,0,0:0:0:0:
160,128,105759,1,0,0:0:0:0:
160,128,105930,1,8,0:0:0:0:
224,160,106102,1,0,0:0:0:0:
224,160,106187,1,0,0:0:0:0:
224,160,106273,1,8,0:0:0:0:
224,160,106359,1,8,0:0:0:0:
224,160,106444,1,0,0:0:0:0:
96,128,106530,1,0,0:0:0:0:
128,160,106616,1,8,0:0:0:0:
96,128,106702,1,8,0:0:0:0:
128,160,106787,1,0,0:0:0:0:
96,128,106873,1,0,0:0:0:0:
256,128,106959,1,12,0:0:0:0:
256,128,107302,1,12,0:0:0:0:
192,96,107644,1,0,0:0:0:0:
160,96,107816,1,8,0:0:0:0:
128,64,107902,1,8,0:0:0:0:
128,64,107987,1,0,0:0:0:0:
128,64,108073,1,0,0:0:0:0:
160,160,108159,1,8,0:0:0:0:
128,64,108244,1,0,0:0:0:0:
160,160,108330,1,8,0:0:0:0:
160,160,108416,1,8,0:0:0:0:
128,64,108502,1,0,0:0:0:0:
128,64,108587,1,0,0:0:0:0:
128,64,108673,1,0,0:0:0:0:
128,64,108759,1,0,0:0:0:0:
160,160,108844,1,8,0:0:0:0:
128,64,108930,1,0,0:0:0:0:
128,64,109016,1,0,0:0:0:0:
128,64,109102,1,0,0:0:0:0:
160,160,109187,1,8,0:0:0:0:
192,128,109359,1,0,0:0:0:0:
192,128,109402,1,0,0:0:0:0:
192,128,109444,1,0,0:0:0:0:
192,128,109487,1,0,0:0:0:0:
192,128,109530,1,8,0:0:0:0:
192,128,109616,1,8,0:0:0:0:
192,128,109702,1,0,0:0:0:0:
192,128,109787,1,0,0:0:0:0:
160,96,109873,1,8,0:0:0:0:
192,224,109930,1,8,0:0:0:0:
192,224,109987,1,0,0:0:0:0:
192,224,110044,1,8,0:0:0:0:
192,224,110102,1,0,0:0:0:0:
192,224,110159,1,0,0:0:0:0:
192,224,110216,1,8,0:0:0:0:
192,224,110273,1,0,0:0:0:0:
192,224,110330,1,0,0:0:0:0:
192,224,110387,1,8,0:0:0:0:
192,224,110444,1,0,0:0:0:0:
192,224,110502,1,0,0:0:0:0:
192,224,110559,1,8,0:0:0:0:
192,224,110616,1,8,0:0:0:0:
192,224,110673,1,0,0:0:0:0:
192,224,110730,1,8,0:0:0:0:
192,224,110787,1,0,0:0:0:0:
192,224,110844,1,0,0:0:0:0:
192,128,110902,1,8,0:0:0:0:
128,128,111244,1,0,0:0:0:0:
128,128,111416,1,0,0:0:0:0:
128,128,111502,1,0,0:0:0:0:
128,128,111587,1,8,0:0:0:0:
160,128,111673,1,8,0:0:0:0:
160,128,111759,1,0,0:0:0:0:
160,128,111844,1,0,0:0:0:0:
160,128,111930,1,8,0:0:0:0:
160,128,112016,1,8,0:0:0:0:
160,128,112102,1,0,0:0:0:0:
160,128,112187,1,0,0:0:0:0:
96,96,112273,1,8,0:0:0:0:
160,128,112359,1,0,0:0:0:0:
96,96,112444,1,8,0:0:0:0:
160,128,112530,1,8,0:0:0:0:
160,128,112616,1,0,0:0:0:0:
160,128,112702,1,0,0:0:0:0:
96,96,112787,1,8,0:0:0:0:
96,128,112873,1,8,0:0:0:0:
128,160,112959,1,0,0:0:0:0:
128,160,113044,1,0,0:0:0:0:
96,96,113130,1,8,0:0:0:0:
128,128,113216,1,0,0:0:0:0:
96,96,113302,1,8,0:0:0:0:
128,128,113387,1,8,0:0:0:0:
96,128,113473,1,0,0:0:0:0:
96,128,113559,1,0,0:0:0:0:
96,128,113644,1,8,0:0:0:0:
96,128,113730,1,8,0:0:0:0:
96,128,113816,1,0,0:0:0:0:
96,128,113902,1,0,0:0:0:0:
96,96,113987,1,8,0:0:0:0:
96,96,114073,1,8,0:0:0:0:
96,96,114159,1,8,0:0:0:0:
96,96,114244,1,8,0:0:0:0:
96,96,114330,1,0,0:0:0:0:
96,96,114416,1,8,0:0:0:0:
256,224,114502,1,0,0:0:0:0:
256,224,114587,1,0,0:0:0:0:
256,224,114673,1,8,0:0:0:0:
224,128,114759,1,8,0:0:0:0:
224,128,114844,1,0,0:0:0:0:
224,128,114887,1,0,0:0:0:0:
224,128,114930,1,0,0:0:0:0:
224,128,114973,1,0,0:0:0:0:
64,160,115016,1,8,0:0:0:0:
288,192,115187,1,0,0:0:0:0:
288,192,115230,1,0,0:0:0:0:
288,192,115273,1,0,0:0:0:0:
288,192,115316,1,0,0:0:0:0:
288,192,115359,1,8,0:0:0:0:
224,192,115416,1,8,0:0:0:0:
224,192,115473,1,8,0:0:0:0:
224,192,115530,1,0,0:0:0:0:
224,192,115587,1,0,0:0:0:0:
224,192,115644,1,0,0:0:0:0:
224,192,115702,1,8,0:0:0:0:
224,192,115759,1,8,0:0:0:0:
224,192,115816,1,8,0:0:0:0:
224,192,115873,1,0,0:0:0:0:
224,192,115930,1,0,0:0:0:0:
224,192,115987,1,0,0:0:0:0:
224,192,116044,1,8,0:0:0:0:
224,192,116102,1,8,0:0:0:0:
224,192,116159,1,8,0:0:0:0:
224,192,116216,1,0,0:0:0:0:
224,192,116273,1,0,0:0:0:0:
224,192,116330,1,0,0:0:0:0:
192,128,116387,1,8,0:0:0:0:
64,160,116473,1,8,0:0:0:0:
64,128,116559,1,8,0:0:0:0:
64,128,116644,1,8,0:0:0:0:
128,128,116730,1,0,0:0:0:0:
128,128,116902,1,0,0:0:0:0:
128,128,116987,1,0,0:0:0:0:
128,128,117073,1,8,0:0:0:0:
160,128,117159,1,8,0:0:0:0:
160,128,117244,1,0,0:0:0:0:
160,128,117330,1,0,0:0:0:0:
160,128,117416,1,8,0:0:0:0:
160,128,117502,1,8,0:0:0:0:
160,128,117587,1,0,0:0:0:0:
160,128,117673,1,0,0:0:0:0:
96,96,117759,1,8,0:0:0:0:
160,128,117844,1,0,0:0:0:0:
96,96,117930,1,8,0:0:0:0:
160,128,118016,1,8,0:0:0:0:
160,128,118102,1,0,0:0:0:0:
160,128,118187,1,0,0:0:0:0:
96,96,118273,1,8,0:0:0:0:
96,128,118359,1,8,0:0:0:0:
128,160,118444,1,0,0:0:0:0:
128,160,118530,1,0,0:0:0:0:
96,96,118616,1,8,0:0:0:0:
128,128,118702,1,0,0:0:0:0:
96,96,118787,1,8,0:0:0:0:
128,128,118873,1,8,0:0:0:0:
96,128,118959,1,0,0:0:0:0:
96,128,119044,1,0,0:0:0:0:
96,128,119130,1,8,0:0:0:0:
96,128,119216,1,8,0:0:0:0:
96,128,119302,1,0,0:0:0:0:
96,128,119387,1,0,0:0:0:0:
96,96,119473,1,8,0:0:0:0:
96,96,119559,1,8,0:0:0:0:
96,96,119644,1,8,0:0:0:0:
96,96,119730,5,8,0:0:0:0:
96,96,119816,1,0,0:0:0:0:
96,96,119902,1,8,0:0:0:0:
256,224,119987,1,8,0:0:0:0:
256,224,120073,1,0,0:0:0:0:
256,224,120159,1,8,0:0:0:0:
64,160,120244,1,8,0:0:0:0:
96,192,120330,1,0,0:0:0:0:
96,192,120373,1,0,0:0:0:0:
96,192,120416,1,0,0:0:0:0:
96,192,120459,1,0,0:0:0:0:
64,160,120502,1,8,0:0:0:0:
64,192,120673,1,0,0:0:0:0:
192,128,120844,5,8,0:0:0:0:
192,128,120902,1,8,0:0:0:0:
192,128,120959,1,8,0:0:0:0:
192,128,121016,1,0,0:0:0:0:
192,128,121073,1,0,0:0:0:0:
192,128,121130,1,0,0:0:0:0:
192,128,121187,1,8,0:0:0:0:
192,128,121244,1,8,0:0:0:0:
192,128,121302,1,8,0:0:0:0:
192,128,121359,1,0,0:0:0:0:
192,128,121416,1,8,0:0:0:0:
192,128,121473,1,0,0:0:0:0:
192,128,121530,1,0,0:0:0:0:
192,128,121587,1,8,0:0:0:0:
192,128,121644,1,0,0:0:0:0:
192,128,121702,1,8,0:0:0:0:
192,128,121759,1,8,0:0:0:0:
192,128,121816,1,0,0:0:0:0:
160,192,121873,1,8,0:0:0:0:
82,159,122216,1,0,0:0:0:0:
86,141,122387,1,8,0:0:0:0:
84,138,122559,1,8,0:0:0:0:
84,138,122730,1,8,0:0:0:0:
84,138,122902,1,8,0:0:0:0:
86,141,123073,1,8,0:0:0:0:
84,138,123244,1,8,0:0:0:0:
84,138,123416,1,8,0:0:0:0:
84,138,123587,1,0,0:0:0:0:
65,126,123759,1,8,0:0:0:0:
65,126,123930,1,8,0:0:0:0:
65,126,124102,1,8,0:0:0:0:
65,126,124273,1,8,0:0:0:0:
65,126,124444,1,8,0:0:0:0:
65,126,124616,1,8,0:0:0:0:
65,126,124787,1,8,0:0:0:0:
150,149,124959,1,0,0:0:0:0:
28,148,125130,1,8,0:0:0:0:
167,262,125302,1,8,0:0:0:0:
167,262,125473,1,8,0:0:0:0:
167,262,125644,1,8,0:0:0:0:
167,262,125816,1,8,0:0:0:0:
167,262,125987,1,8,0:0:0:0:
167,262,126159,1,8,0:0:0:0:
85,138,126330,1,0,0:0:0:0:
59,128,126502,1,8,0:0:0:0:
59,128,126587,1,0,0:0:0:0:
59,128,126673,1,8,0:0:0:0:
57,115,126759,1,0,0:0:0:0:
57,115,126844,1,0,0:0:0:0:
57,115,126930,1,0,0:0:0:0:
57,115,127016,1,8,0:0:0:0:
73,111,127102,1,0,0:0:0:0:
43,110,127187,1,8,0:0:0:0:
87,112,127273,1,0,0:0:0:0:
43,110,127359,1,8,0:0:0:0:
87,112,127444,1,0,0:0:0:0:
43,111,127530,1,8,0:0:0:0:
38,143,127702,1,0,0:0:0:0:
38,143,127873,1,8,0:0:0:0:
38,143,127959,1,8,0:0:0:0:
38,143,128044,1,0,0:0:0:0:
43,134,128216,1,8,0:0:0:0:
43,134,128387,1,8,0:0:0:0:
43,134,128473,1,8,0:0:0:0:
43,134,128559,1,0,0:0:0:0:
40,129,128644,1,0,0:0:0:0:
40,129,128730,1,8,0:0:0:0:
40,129,128816,1,0,0:0:0:0:
43,134,128902,1,8,0:0:0:0:
43,134,128987,1,8,0:0:0:0:
38,143,129073,1,0,0:0:0:0:
38,143,129244,1,8,0:0:0:0:
38,143,129330,1,8,0:0:0:0:
38,143,129416,1,0,0:0:0:0:
43,134,129587,1,8,0:0:0:0:
43,134,129759,1,8,0:0:0:0:
43,134,129844,1,8,0:0:0:0:
43,134,129930,1,0,0:0:0:0:
40,129,130016,1,0,0:0:0:0:
40,129,130102,1,8,0:0:0:0:
40,129,130187,1,0,0:0:0:0:
43,134,130273,1,8,0:0:0:0:
43,134,130359,1,8,0:0:0:0:
38,143,130444,1,0,0:0:0:0:
53,193,130530,1,0,0:0:0:0:
38,143,130616,1,8,0:0:0:0:
38,143,130702,1,8,0:0:0:0:
38,143,130787,1,0,0:0:0:0:
45,208,130873,1,0,0:0:0:0:
43,134,130959,1,8,0:0:0:0:
23,245,131044,1,0,0:0:0:0:
43,134,131130,1,8,0:0:0:0:
43,134,131216,1,8,0:0:0:0:
43,134,131302,1,0,0:0:0:0:
40,129,131387,1,0,0:0:0:0:
40,129,131473,1,8,0:0:0:0:
40,129,131559,1,0,0:0:0:0:
43,134,131644,1,8,0:0:0:0:
43,134,131730,1,8,0:0:0:0:
75,219,131816,1,0,0:0:0:0:
75,219,131873,1,0,0:0:0:0:
75,219,131930,1,0,0:0:0:0:
216,140,131987,1,8,0:0:0:0:
216,140,132044,1,8,0:0:0:0:
216,140,132102,1,0,0:0:0:0:
216,140,132159,1,8,0:0:0:0:
216,140,132216,1,0,0:0:0:0:
216,140,132273,1,0,0:0:0:0:
216,140,132330,1,8,0:0:0:0:
216,140,132387,1,8,0:0:0:0:
216,140,132444,1,0,0:0:0:0:
216,140,132502,1,8,0:0:0:0:
283,179,132559,1,0,0:0:0:0:
283,179,132616,1,0,0:0:0:0:
283,179,132673,1,8,0:0:0:0:
283,179,132730,1,0,0:0:0:0:
283,179,132787,1,0,0:0:0:0:
196,92,132844,1,8,0:0:0:0:
283,179,133016,1,8,0:0:0:0:
256,256,133187,5,0,0:0:0:0:
256,256,133273,1,0,0:0:0:0:
256,256,133359,1,8,0:0:0:0:
256,256,133444,5,0,0:0:0:0:
256,256,133530,1,0,0:0:0:0:
64,192,133616,1,0,0:0:0:0:
64,192,133702,1,8,0:0:0:0:
64,192,133787,1,0,0:0:0:0:
64,192,133873,1,8,0:0:0:0:
64,128,133959,1,8,0:0:0:0:
64,128,134044,1,0,0:0:0:0:
64,128,134130,1,0,0:0:0:0:
64,128,134216,1,8,0:0:0:0:
32,160,134302,1,0,0:0:0:0:
32,160,134387,1,8,0:0:0:0:
32,160,134473,1,8,0:0:0:0:
64,160,134559,1,0,0:0:0:0:
64,160,134644,1,0,0:0:0:0:
32,128,134730,1,8,0:0:0:0:
32,128,134816,1,0,0:0:0:0:
32,128,134902,1,0,0:0:0:0:
32,128,134987,1,0,0:0:0:0:
32,128,135073,1,8,0:0:0:0:
32,128,135159,1,0,0:0:0:0:
32,128,135244,1,8,0:0:0:0:
96,160,135330,1,8,0:0:0:0:
96,160,135416,1,0,0:0:0:0:
96,160,135502,1,0,0:0:0:0:
132,150,135587,1,8,0:0:0:0:
84,183,135673,1,0,0:0:0:0:
93,181,135759,1,8,0:0:0:0:
93,181,135844,1,8,0:0:0:0:
94,180,135930,1,0,0:0:0:0:
94,180,136016,1,0,0:0:0:0:
94,180,136102,1,8,0:0:0:0:
94,180,136187,1,0,0:0:0:0:
93,180,136273,1,0,0:0:0:0:
93,180,136359,1,0,0:0:0:0:
93,181,136444,1,8,0:0:0:0:
93,180,136530,1,0,0:0:0:0:
93,181,136616,1,8,0:0:0:0:
94,180,136702,1,8,0:0:0:0:
94,180,136787,1,0,0:0:0:0:
94,180,136873,1,0,0:0:0:0:
94,180,136959,1,8,0:0:0:0:
87,185,137044,1,0,0:0:0:0:
87,185,137130,1,8,0:0:0:0:
87,185,137216,1,8,0:0:0:0:
93,181,137302,1,0,0:0:0:0:
57,125,137344,1,0,0:0:0:0:
93,181,137387,1,0,0:0:0:0:
57,125,137430,1,0,0:0:0:0:
94,180,137473,1,8,0:0:0:0:
94,180,137559,1,0,0:0:0:0:
94,180,137644,1,8,0:0:0:0:
72,131,137730,1,8,0:0:0:0:
87,185,137816,1,0,0:0:0:0:
57,125,137859,1,0,0:0:0:0:
72,131,137902,1,0,0:0:0:0:
57,125,137944,1,0,0:0:0:0:
86,182,137987,1,8,0:0:0:0:
71,146,138073,1,0,0:0:0:0:
71,146,138159,1,8,0:0:0:0:
72,131,138202,1,0,0:0:0:0:
84,155,138244,1,0,0:0:0:0:
150,156,138287,1,0,0:0:0:0:
83,158,138330,1,8,0:0:0:0:
72,131,138373,1,0,0:0:0:0:
84,155,138416,1,0,0:0:0:0:
32,161,138459,1,0,0:0:0:0:
84,155,138502,1,8,0:0:0:0:
83,158,138587,1,8,0:0:0:0:
256,256,138673,5,0,0:0:0:0:
256,256,138759,1,0,0:0:0:0:
256,256,138844,1,8,0:0:0:0:
256,256,138930,5,0,0:0:0:0:
256,256,139016,1,0,0:0:0:0:
64,192,139102,1,0,0:0:0:0:
64,192,139187,1,8,0:0:0:0:
64,192,139273,1,0,0:0:0:0:
64,192,139359,1,8,0:0:0:0:
64,128,139444,1,8,0:0:0:0:
64,128,139530,1,0,0:0:0:0:
64,128,139616,1,0,0:0:0:0:
64,128,139702,1,8,0:0:0:0:
32,160,139787,1,0,0:0:0:0:
32,160,139873,1,8,0:0:0:0:
32,160,139959,1,8,0:0:0:0:
64,160,140044,1,0,0:0:0:0:
64,160,140130,1,0,0:0:0:0:
32,128,140216,1,8,0:0:0:0:
32,128,140302,1,0,0:0:0:0:
32,128,140387,1,0,0:0:0:0:
32,128,140473,1,0,0:0:0:0:
32,128,140559,1,8,0:0:0:0:
32,128,140644,1,0,0:0:0:0:
32,128,140730,1,8,0:0:0:0:
96,160,140816,1,8,0:0:0:0:
96,160,140902,1,0,0:0:0:0:
96,160,140987,1,0,0:0:0:0:
132,150,141073,1,8,0:0:0:0:
84,183,141159,1,0,0:0:0:0:
93,181,141244,1,8,0:0:0:0:
93,181,141330,1,8,0:0:0:0:
94,180,141416,1,0,0:0:0:0:
94,180,141502,1,0,0:0:0:0:
94,180,141587,1,8,0:0:0:0:
94,180,141673,1,0,0:0:0:0:
93,180,141759,1,0,0:0:0:0:
93,180,141844,1,0,0:0:0:0:
93,181,141930,1,8,0:0:0:0:
93,180,142016,1,0,0:0:0:0:
93,181,142102,1,8,0:0:0:0:
94,180,142187,1,8,0:0:0:0:
94,180,142273,1,0,0:0:0:0:
94,180,142359,1,0,0:0:0:0:
94,180,142444,1,8,0:0:0:0:
124,139,142530,1,0,0:0:0:0:
124,139,142616,1,8,0:0:0:0:
124,139,142702,1,8,0:0:0:0:
124,139,142787,1,4,0:0:0:0:
124,139,142959,1,4,0:0:0:0:
124,139,143130,1,12,0:0:0:0:
124,139,143302,1,12,0:0:0:0:
124,139,143473,1,4,0:0:0:0:
124,139,143644,1,4,0:0:0:0:
124,139,143816,1,12,0:0:0:0:
124,139,143987,1,12,0:0:0:0:
194,203,145359,1,0,0:0:0:0:
112,241,145402,1,0,0:0:0:0:
112,241,145444,1,0,0:0:0:0:
112,241,145487,1,0,0:0:0:0:
224,160,145530,1,8,0:0:0:0:
64,128,145701,1,0,0:0:0:0:
64,128,145872,1,0,0:0:0:0:
64,128,146044,1,0,0:0:0:0:
128,128,146215,1,8,0:0:0:0:
64,128,146387,1,8,0:0:0:0:
160,160,146558,1,0,0:0:0:0:
160,160,146730,1,0,0:0:0:0:
64,128,146901,1,8,0:0:0:0:
64,128,147072,1,8,0:0:0:0:
64,128,147415,1,8,0:0:0:0:
32,128,147587,1,0,0:0:0:0:
32,128,147758,1,8,0:0:0:0:
32,128,147930,1,0,0:0:0:0:
32,128,148101,1,0,0:0:0:0:
64,128,148272,1,8,0:0:0:0:
32,128,149644,1,8,0:0:0:0:
32,128,150330,1,8,0:0:0:0:
32,128,151015,1,0,0:0:0:0:
32,128,151187,1,0,0:0:0:0:
32,128,151358,1,0,0:0:0:0:
32,128,151530,1,0,0:0:0:0:
32,128,151701,1,8,0:0:0:0:
32,128,151872,1,8,0:0:0:0:
160,160,152044,1,0,0:0:0:0:
160,160,152215,1,0,0:0:0:0:
32,128,152387,1,8,0:0:0:0:
32,128,152558,1,8,0:0:0:0:
32,128,152901,1,8,0:0:0:0:
32,128,153072,1,0,0:0:0:0:
32,128,153244,1,8,0:0:0:0:
128,128,153415,1,0,0:0:0:0:
128,128,153587,1,0,0:0:0:0:
128,128,153758,1,0,0:0:0:0:
128,128,153930,1,8,0:0:0:0:
32,160,154101,1,8,0:0:0:0:
32,160,154272,1,8,0:0:0:0:
32,128,154444,1,0,0:0:0:0:
32,128,154615,1,0,0:0:0:0:
32,128,154787,1,0,0:0:0:0:
32,128,154958,1,8,0:0:0:0:
128,128,155130,1,0,0:0:0:0:
128,128,155301,1,0,0:0:0:0:
160,160,155472,1,8,0:0:0:0:
128,128,155644,1,0,0:0:0:0:
128,128,155815,1,8,0:0:0:0:
128,128,155987,1,8,0:0:0:0:
128,128,156158,1,0,0:0:0:0:
128,128,156330,1,8,0:0:0:0:
128,128,156501,1,8,0:0:0:0:
128,128,157015,1,8,0:0:0:0:
192,96,157358,1,8,0:0:0:0:
192,96,157530,1,0,0:0:0:0:
128,128,157701,1,0,0:0:0:0:
32,128,157872,1,8,0:0:0:0:
128,128,158044,1,0,0:0:0:0:
160,160,158215,1,8,0:0:0:0:
128,128,158387,1,0,0:0:0:0:
128,128,158558,1,8,0:0:0:0:
128,128,158730,1,8,0:0:0:0:
128,128,158901,1,0,0:0:0:0:
128,128,159072,1,0,0:0:0:0:
128,128,159244,1,8,0:0:0:0:
128,128,159758,1,8,0:0:0:0:
128,128,160101,1,8,0:0:0:0:
32,352,160272,1,0,0:0:0:0:
32,128,160615,1,8,0:0:0:0:
256,192,160787,1,0,0:0:0:0:
160,160,161130,1,0,0:0:0:0:
160,160,161301,1,8,0:0:0:0:
160,160,161644,1,8,0:0:0:0:
160,160,161815,1,8,0:0:0:0:
160,160,161987,1,0,0:0:0:0:
192,160,162501,1,0,0:0:0:0:
192,160,162844,1,0,0:0:0:0:
192,160,163015,1,8,0:0:0:0:
192,160,163187,1,0,0:0:0:0:
192,160,163358,1,8,0:0:0:0:
192,160,163530,1,8,0:0:0:0:
192,160,163872,1,8,0:0:0:0:
192,160,164044,1,0,0:0:0:0:
96,128,164215,1,0,0:0:0:0:
96,128,164558,1,8,0:0:0:0:
96,128,164730,1,0,0:0:0:0:
96,128,164901,1,0,0:0:0:0:
96,128,165072,1,8,0:0:0:0:
96,128,165244,1,8,0:0:0:0:
96,128,165415,1,0,0:0:0:0:
96,128,165587,1,0,0:0:0:0:
96,128,165758,1,8,0:0:0:0:
96,128,165930,1,0,0:0:0:0:
96,128,166101,1,8,0:0:0:0:
86,90,166444,5,0,0:0:0:0:
86,90,166615,1,0,0:0:0:0:
86,90,166787,1,8,0:0:0:0:
96,96,166958,1,0,0:0:0:0:
96,96,167130,1,0,0:0:0:0:
96,96,167301,1,0,0:0:0:0:
256,224,167472,5,8,0:0:0:0:
256,224,167514,1,8,0:0:0:0:
256,224,167557,1,0,0:0:0:0:
256,224,167600,1,0,0:0:0:0:
256,224,167643,5,8,0:0:0:0:
256,224,167814,1,8,0:0:0:0:
256,224,167857,1,8,0:0:0:0:
256,224,167900,1,0,0:0:0:0:
256,224,167943,1,0,0:0:0:0:
256,224,167986,1,8,0:0:0:0:
288,192,168329,1,0,0:0:0:0:
288,192,168373,1,0,0:0:0:0:
288,192,168414,1,8,0:0:0:0:
128,160,168843,1,8,0:0:0:0:
128,160,168929,1,8,0:0:0:0:
128,160,169014,1,0,0:0:0:0:
128,160,169100,1,0,0:0:0:0:
128,160,169186,1,8,0:0:0:0:
128,160,170043,1,0,0:0:0:0:
192,224,170214,1,8,0:0:0:0:
192,224,170257,1,8,0:0:0:0:
192,224,170300,1,0,0:0:0:0:
192,224,170343,1,0,0:0:0:0:
192,224,170386,1,8,0:0:0:0:
192,224,170557,1,8,0:0:0:0:
192,224,170600,1,8,0:0:0:0:
192,224,170643,1,0,0:0:0:0:
192,224,170686,1,0,0:0:0:0:
192,224,170729,1,8,0:0:0:0:
192,224,171072,1,0,0:0:0:0:
192,224,171114,1,0,0:0:0:0:
192,224,171157,1,8,0:0:0:0:
128,160,171586,1,8,0:0:0:0:
128,160,171672,1,8,0:0:0:0:
128,160,171757,1,0,0:0:0:0:
256,160,171843,1,0,0:0:0:0:
256,160,171929,1,8,0:0:0:0:
224,224,172786,1,0,0:0:0:0:
224,224,172957,1,12,0:0:0:0:
192,160,175014,1,12,0:0:0:0:
192,160,175529,1,4,0:0:0:0:
192,160,175700,1,12,0:0:0:0:
192,224,178100,1,8,0:0:0:0:
224,256,178443,1,0,0:0:0:0:
32,128,178614,1,0,0:0:0:0:
288,320,178786,1,8,0:0:0:0:
192,96,178957,1,0,0:0:0:0:
224,160,179000,1,0,0:0:0:0:
224,160,179043,1,0,0:0:0:0:
224,160,179086,1,0,0:0:0:0:
224,160,179129,1,8,0:0:0:0:
128,160,179300,1,0,0:0:0:0:
214,242,179386,1,0,0:0:0:0:
128,160,179471,1,0,0:0:0:0:
128,160,179557,1,0,0:0:0:0:
128,160,179643,1,0,0:0:0:0:
128,160,179729,1,0,0:0:0:0:
128,160,179814,1,8,0:0:0:0:
128,160,179986,1,0,0:0:0:0:
128,160,180157,1,8,0:0:0:0:
128,160,180329,1,0,0:0:0:0:
128,160,180371,1,0,0:0:0:0:
128,160,180414,1,0,0:0:0:0:
128,160,180457,1,0,0:0:0:0:
128,160,180500,1,8,0:0:0:0:
128,128,180671,1,0,0:0:0:0:
32,160,180757,1,8,0:0:0:0:
32,160,180843,1,0,0:0:0:0:
64,160,180929,1,0,0:0:0:0:
64,160,181014,1,8,0:0:0:0:
64,160,181100,1,8,0:0:0:0:
128,128,181186,1,0,0:0:0:0:
128,128,181357,1,8,0:0:0:0:
128,128,181529,1,0,0:0:0:0:
128,160,181700,1,12,0:0:0:0:
128,160,182043,1,4,0:0:0:0:
128,160,182386,1,12,0:0:0:0:
128,128,182729,1,4,0:0:0:0:
128,160,183071,1,12,0:0:0:0:
69,133,183929,1,0,0:0:0:0:
69,133,184014,1,0,0:0:0:0:
69,133,184100,1,0,0:0:0:0:
69,133,184186,1,0,0:0:0:0:
81,206,184271,1,8,0:0:0:0:
69,133,184357,1,0,0:0:0:0:
69,133,184443,1,0,0:0:0:0:
69,133,184529,1,0,0:0:0:0:
81,206,184614,1,8,0:0:0:0:
81,206,184700,1,8,0:0:0:0:
69,133,184786,1,0,0:0:0:0:
69,133,184871,1,0,0:0:0:0:
81,206,184957,1,8,0:0:0:0:
69,133,185043,1,0,0:0:0:0:
69,133,185129,1,0,0:0:0:0:
69,133,185214,1,0,0:0:0:0:
81,206,185300,1,8,0:0:0:0:
81,206,185386,1,8,0:0:0:0:
81,206,185471,1,8,0:0:0:0:
69,133,185557,1,0,0:0:0:0:
81,206,185643,1,8,0:0:0:0:
81,206,185729,1,8,0:0:0:0:
69,133,185814,1,0,0:0:0:0:
69,133,185900,1,0,0:0:0:0:
81,206,185986,1,8,0:0:0:0:
76,94,186071,1,0,0:0:0:0:
68,211,186157,1,8,0:0:0:0:
76,94,186243,1,0,0:0:0:0:
76,94,186329,1,0,0:0:0:0:
76,94,186414,1,0,0:0:0:0:
76,94,186500,1,8,0:0:0:0:
76,94,186586,1,0,0:0:0:0:
66,208,186671,1,8,0:0:0:0:
76,94,186757,1,0,0:0:0:0:
76,94,186843,1,8,0:0:0:0:
76,94,186929,1,8,0:0:0:0:
66,208,187014,1,0,0:0:0:0:
66,208,187100,1,8,0:0:0:0:
66,208,187186,1,0,0:0:0:0:
69,215,187271,1,0,0:0:0:0:
76,94,187357,1,8,0:0:0:0:
288,272,187443,1,8,0:0:0:0:
272,208,187529,1,0,0:0:0:0:
272,208,187614,1,8,0:0:0:0:
272,208,187700,1,0,0:0:0:0:
272,208,187786,1,8,0:0:0:0:
272,208,187871,1,0,0:0:0:0:
272,208,187957,1,0,0:0:0:0:
304,176,188043,1,8,0:0:0:0:
272,208,188129,1,0,0:0:0:0:
272,208,188214,1,0,0:0:0:0:
272,208,188300,1,8,0:0:0:0:
272,208,188386,1,0,0:0:0:0:
272,208,188471,1,0,0:0:0:0:
304,176,188557,1,8,0:0:0:0:
272,224,188643,1,0,0:0:0:0:
272,224,188729,1,8,0:0:0:0:
272,224,188814,1,0,0:0:0:0:
272,224,188900,1,0,0:0:0:0:
272,224,188986,1,0,0:0:0:0:
304,176,189071,1,8,0:0:0:0:
304,176,189157,1,0,0:0:0:0:
304,176,189243,1,8,0:0:0:0:
194,138,189414,1,0,0:0:0:0:
194,138,189500,1,0,0:0:0:0:
194,138,189586,1,0,0:0:0:0:
194,138,189671,1,0,0:0:0:0:
71,219,189757,1,8,0:0:0:0:
194,138,189843,1,0,0:0:0:0:
194,138,189929,1,0,0:0:0:0:
194,138,190014,1,0,0:0:0:0:
71,219,190100,1,8,0:0:0:0:
71,219,190186,1,8,0:0:0:0:
194,138,190271,1,0,0:0:0:0:
194,138,190357,1,0,0:0:0:0:
78,216,190443,1,8,0:0:0:0:
194,138,190529,1,0,0:0:0:0:
194,138,190614,1,0,0:0:0:0:
194,138,190700,1,0,0:0:0:0:
77,225,190786,1,8,0:0:0:0:
77,225,190871,1,8,0:0:0:0:
77,225,190957,1,8,0:0:0:0:
194,138,191043,1,0,0:0:0:0:
194,138,191129,1,8,0:0:0:0:
77,225,191214,1,8,0:0:0:0:
194,138,191300,1,0,0:0:0:0:
194,138,191386,1,0,0:0:0:0:
77,225,191471,1,8,0:0:0:0:
194,138,191557,1,0,0:0:0:0:
77,225,191643,1,8,0:0:0:0:
194,138,191729,1,0,0:0:0:0:
194,138,191814,1,0,0:0:0:0:
194,138,191900,1,0,0:0:0:0:
194,138,191986,1,8,0:0:0:0:
194,138,192071,1,0,0:0:0:0:
77,225,192157,1,8,0:0:0:0:
272,224,192243,1,0,0:0:0:0:
272,224,192329,1,8,0:0:0:0:
272,224,192414,1,8,0:0:0:0:
272,224,192500,1,0,0:0:0:0:
272,224,192586,1,8,0:0:0:0:
272,224,192671,1,0,0:0:0:0:
272,224,192757,1,0,0:0:0:0:
80,96,192843,1,8,0:0:0:0:
292,274,192929,1,8,0:0:0:0:
276,210,193014,1,0,0:0:0:0:
276,210,193100,1,8,0:0:0:0:
276,210,193186,1,0,0:0:0:0:
276,210,193271,1,8,0:0:0:0:
276,210,193357,1,0,0:0:0:0:
80,176,193400,1,0,0:0:0:0:
276,210,193443,1,0,0:0:0:0:
308,178,193529,1,8,0:0:0:0:
276,210,193614,1,0,0:0:0:0:
80,192,193657,1,0,0:0:0:0:
276,210,193700,1,0,0:0:0:0:
276,210,193786,1,8,0:0:0:0:
276,210,193871,1,0,0:0:0:0:
276,210,193957,1,0,0:0:0:0:
80,176,194000,1,0,0:0:0:0:
308,178,194043,1,8,0:0:0:0:
276,226,194129,1,0,0:0:0:0:
276,226,194214,1,8,0:0:0:0:
276,226,194300,1,0,0:0:0:0:
276,226,194386,1,0,0:0:0:0:
276,226,194471,1,0,0:0:0:0:
308,178,194557,1,8,0:0:0:0:
308,178,194643,1,0,0:0:0:0:
308,178,194729,1,8,0:0:0:0:
194,138,194900,1,0,0:0:0:0:
194,138,194986,1,0,0:0:0:0:
194,138,195071,1,0,0:0:0:0:
194,138,195157,1,0,0:0:0:0:
71,219,195243,1,8,0:0:0:0:
194,138,195329,1,0,0:0:0:0:
194,138,195414,1,0,0:0:0:0:
194,138,195500,1,0,0:0:0:0:
71,219,195586,1,8,0:0:0:0:
71,219,195671,1,8,0:0:0:0:
194,138,195757,1,0,0:0:0:0:
194,138,195843,1,0,0:0:0:0:
78,216,195929,1,8,0:0:0:0:
194,138,196014,1,0,0:0:0:0:
194,138,196100,1,0,0:0:0:0:
194,138,196186,1,0,0:0:0:0:
77,225,196271,1,8,0:0:0:0:
77,225,196357,1,8,0:0:0:0:
77,225,196443,1,8,0:0:0:0:
194,138,196529,1,0,0:0:0:0:
194,138,196614,1,8,0:0:0:0:
77,225,196700,1,8,0:0:0:0:
194,138,196786,1,0,0:0:0:0:
194,138,196871,1,0,0:0:0:0:
77,225,196957,1,8,0:0:0:0:
194,138,197043,1,0,0:0:0:0:
77,225,197129,1,8,0:0:0:0:
194,138,197214,1,0,0:0:0:0:
194,138,197300,1,0,0:0:0:0:
194,138,197386,1,0,0:0:0:0:
194,138,197471,1,8,0:0:0:0:
194,138,197557,1,0,0:0:0:0:
77,225,197643,1,8,0:0:0:0:
272,224,197729,1,0,0:0:0:0:
272,224,197814,1,8,0:0:0:0:
272,224,197900,1,8,0:0:0:0:
272,224,197986,1,0,0:0:0:0:
272,224,198071,1,8,0:0:0:0:
272,224,198157,1,0,0:0:0:0:
272,224,198243,1,0,0:0:0:0:
80,96,198329,1,8,0:0:0:0:
292,274,198414,1,8,0:0:0:0:
276,210,198500,1,0,0:0:0:0:
276,210,198586,1,8,0:0:0:0:
276,210,198671,1,0,0:0:0:0:
276,210,198757,1,8,0:0:0:0:
276,210,198843,1,0,0:0:0:0:
128,176,198886,1,0,0:0:0:0:
276,210,198929,1,0,0:0:0:0:
308,178,199014,1,8,0:0:0:0:
276,210,199100,1,0,0:0:0:0:
80,176,199143,1,0,0:0:0:0:
276,210,199186,1,0,0:0:0:0:
96,176,199229,1,0,0:0:0:0:
276,210,199271,5,8,0:0:0:0:
276,210,199357,1,0,0:0:0:0:
276,210,199443,1,0,0:0:0:0:
308,178,199529,1,8,0:0:0:0:
276,226,199614,1,0,0:0:0:0:
128,176,199657,1,0,0:0:0:0:
276,226,199700,1,8,0:0:0:0:
276,226,199786,1,0,0:0:0:0:
276,226,199871,1,0,0:0:0:0:
276,226,199957,1,0,0:0:0:0:
128,176,200000,1,0,0:0:0:0:
308,178,200043,1,8,0:0:0:0:
308,178,200129,1,0,0:0:0:0:
308,178,200214,1,8,0:0:0:0:
3,164,200386,5,4,0:0:0:0:
3,164,200557,1,8,0:0:0:0:
3,164,200614,1,0,0:0:0:0:
3,164,200671,1,0,0:0:0:0:
3,164,200729,1,8,0:0:0:0:
3,164,200786,1,0,0:0:0:0:
3,164,200843,1,0,0:0:0:0:
3,164,200900,1,8,0:0:0:0:
98,81,201071,1,4,0:0:0:0:
167,140,201243,1,8,0:0:0:0:
167,140,201300,1,0,0:0:0:0:
167,140,201357,1,0,0:0:0:0:
167,140,201414,1,8,0:0:0:0:
167,140,201471,1,0,0:0:0:0:
167,140,201529,1,0,0:0:0:0:
167,140,201586,1,8,0:0:0:0:
128,160,201757,5,0,0:0:0:0:
192,224,201843,1,0,0:0:0:0:
192,224,201929,1,8,0:0:0:0:
192,224,202014,1,0,0:0:0:0:
96,128,202057,1,0,0:0:0:0:
192,224,202100,1,8,0:0:0:0:
192,224,202186,1,8,0:0:0:0:
192,224,202271,1,0,0:0:0:0:
192,224,202357,1,8,0:0:0:0:
192,224,202443,1,0,0:0:0:0:
64,128,202486,1,0,0:0:0:0:
192,224,202529,1,0,0:0:0:0:
192,224,202614,1,8,0:0:0:0:
192,224,202700,1,0,0:0:0:0:
192,224,202786,1,8,0:0:0:0:
32,160,202829,1,8,0:0:0:0:
192,224,202871,1,8,0:0:0:0:
192,224,202957,1,0,0:0:0:0:
64,160,203000,1,0,0:0:0:0:
64,160,203043,1,0,0:0:0:0:
96,160,203086,1,0,0:0:0:0:
64,160,203129,1,8,0:0:0:0:
352,160,203214,1,0,0:0:0:0:
352,160,203300,1,8,0:0:0:0:
352,160,203386,1,0,0:0:0:0:
96,160,203429,1,0,0:0:0:0:
352,160,203471,1,8,0:0:0:0:
352,160,203557,1,8,0:0:0:0:
352,160,203643,1,0,0:0:0:0:
352,160,203729,1,0,0:0:0:0:
0,160,203814,1,8,0:0:0:0:
0,160,203857,1,8,0:0:0:0:
0,160,203900,1,8,0:0:0:0:
0,128,203986,1,8,0:0:0:0:
0,128,204029,1,8,0:0:0:0:
0,128,204071,1,8,0:0:0:0:
0,128,204157,1,0,0:0:0:0:
0,128,204200,1,0,0:0:0:0:
0,128,204243,1,0,0:0:0:0:
0,160,204329,1,8,0:0:0:0:
0,128,204371,1,8,0:0:0:0:
0,128,204414,1,8,0:0:0:0:
0,128,204457,1,8,0:0:0:0:
0,128,204500,1,0,0:0:0:0:
64,160,204586,1,0,0:0:0:0:
64,160,204671,1,8,0:0:0:0:
64,160,204757,1,0,0:0:0:0:
96,160,204800,1,0,0:0:0:0:
64,160,204843,1,8,0:0:0:0:
64,160,204929,1,8,0:0:0:0:
64,160,205014,1,0,0:0:0:0:
64,160,205100,1,8,0:0:0:0:
64,160,205186,1,0,0:0:0:0:
64,160,205229,1,0,0:0:0:0:
64,160,205271,1,0,0:0:0:0:
64,160,205357,1,8,0:0:0:0:
64,160,205443,1,0,0:0:0:0:
64,160,205529,1,8,0:0:0:0:
64,160,205571,1,8,0:0:0:0:
64,160,205614,1,8,0:0:0:0:
64,160,205700,1,0,0:0:0:0:
64,160,205743,1,0,0:0:0:0:
64,160,205786,1,0,0:0:0:0:
96,160,205829,1,0,0:0:0:0:
64,160,205871,1,8,0:0:0:0:
192,192,205957,1,8,0:0:0:0:
192,160,206043,1,0,0:0:0:0:
128,192,206086,1,0,0:0:0:0:
192,160,206129,1,0,0:0:0:0:
224,192,206214,1,8,0:0:0:0:
192,160,206300,1,8,0:0:0:0:
192,160,206386,1,0,0:0:0:0:
64,160,206429,1,0,0:0:0:0:
192,160,206471,1,0,0:0:0:0:
96,128,206557,1,8,0:0:0:0:
32,128,206643,1,8,0:0:0:0:
32,128,206729,1,0,0:0:0:0:
32,128,206771,1,0,0:0:0:0:
32,128,206814,1,8,0:0:0:0:
96,192,206900,1,0,0:0:0:0:
192,128,207071,1,8,0:0:0:0:
128,160,207243,1,0,0:0:0:0:
192,224,207329,1,0,0:0:0:0:
192,224,207414,1,8,0:0:0:0:
192,224,207500,1,0,0:0:0:0:
96,160,207543,1,0,0:0:0:0:
192,224,207586,1,8,0:0:0:0:
192,224,207671,1,8,0:0:0:0:
192,224,207757,1,0,0:0:0:0:
192,224,207843,1,8,0:0:0:0:
192,224,207929,1,0,0:0:0:0:
64,128,207971,1,0,0:0:0:0:
192,224,208014,1,0,0:0:0:0:
192,224,208100,1,8,0:0:0:0:
192,224,208186,1,0,0:0:0:0:
192,224,208271,1,8,0:0:0:0:
32,160,208314,1,8,0:0:0:0:
192,224,208357,1,8,0:0:0:0:
192,224,208443,1,0,0:0:0:0:
64,160,208486,1,0,0:0:0:0:
64,160,208529,1,0,0:0:0:0:
96,160,208571,1,0,0:0:0:0:
64,160,208614,1,8,0:0:0:0:
352,160,208700,1,0,0:0:0:0:
352,160,208786,1,8,0:0:0:0:
352,160,208871,1,0,0:0:0:0:
96,160,208914,1,0,0:0:0:0:
352,160,208957,1,8,0:0:0:0:
352,160,209043,1,8,0:0:0:0:
352,160,209129,1,0,0:0:0:0:
352,160,209214,1,0,0:0:0:0:
0,160,209300,1,8,0:0:0:0:
0,160,209343,1,8,0:0:0:0:
0,160,209386,1,8,0:0:0:0:
0,128,209471,1,8,0:0:0:0:
0,128,209514,1,8,0:0:0:0:
0,128,209557,1,8,0:0:0:0:
0,128,209643,1,0,0:0:0:0:
0,128,209686,1,0,0:0:0:0:
0,128,209729,1,0,0:0:0:0:
0,160,209814,1,8,0:0:0:0:
0,128,209857,1,8,0:0:0:0:
0,128,209900,1,8,0:0:0:0:
0,128,209943,1,8,0:0:0:0:
128,160,209986,1,0,0:0:0:0:
192,224,210071,1,0,0:0:0:0:
192,224,210157,1,8,0:0:0:0:
192,224,210243,1,0,0:0:0:0:
96,160,210286,1,0,0:0:0:0:
192,224,210329,1,8,0:0:0:0:
192,224,210414,1,8,0:0:0:0:
192,224,210500,1,0,0:0:0:0:
192,224,210586,1,8,0:0:0:0:
192,224,210671,1,0,0:0:0:0:
64,128,210714,1,0,0:0:0:0:
192,224,210757,1,0,0:0:0:0:
192,224,210843,1,8,0:0:0:0:
192,224,210929,1,0,0:0:0:0:
192,224,211014,1,8,0:0:0:0:
32,160,211057,1,8,0:0:0:0:
192,224,211100,1,8,0:0:0:0:
192,224,211186,1,0,0:0:0:0:
64,160,211229,1,0,0:0:0:0:
64,160,211271,1,0,0:0:0:0:
448,224,211357,5,8,0:0:0:0:
128,160,211400,1,0,0:0:0:0:
96,160,211443,1,8,0:0:0:0:
128,160,211486,1,0,0:0:0:0:
448,256,211529,1,8,0:0:0:0:
448,256,211571,1,8,0:0:0:0:
192,160,211614,1,0,0:0:0:0:
192,160,211657,1,0,0:0:0:0:
448,256,211700,1,8,0:0:0:0:
128,160,211743,1,0,0:0:0:0:
96,160,211786,1,8,0:0:0:0:
128,160,211829,1,0,0:0:0:0:
416,256,211871,1,8,0:0:0:0:
192,160,211914,1,8,0:0:0:0:
192,160,211957,1,0,0:0:0:0:
192,160,212000,1,0,0:0:0:0:
416,256,212043,1,8,0:0:0:0:
298,232,212129,1,0,0:0:0:0:
192,160,212214,1,8,0:0:0:0:
96,160,212257,1,8,0:0:0:0:
96,160,212300,1,0,0:0:0:0:
96,160,212343,1,0,0:0:0:0:
96,160,212386,1,8,0:0:0:0:
128,160,212729,1,8,0:0:0:0:
96,160,212771,1,8,0:0:0:0:
96,160,212814,1,8,0:0:0:0:
96,160,212900,1,0,0:0:0:0:
96,160,212986,1,0,0:0:0:0:
96,160,213071,1,8,0:0:0:0:
96,160,213114,1,8,0:0:0:0:
96,160,213157,1,0,0:0:0:0:
96,160,213243,1,8,0:0:0:0:
96,160,213329,1,8,0:0:0:0:
128,160,213414,1,0,0:0:0:0:
128,160,213457,1,0,0:0:0:0:
128,160,213500,1,0,0:0:0:0:
128,160,213586,1,8,0:0:0:0:
128,160,213629,1,8,0:0:0:0:
128,160,213671,1,8,0:0:0:0:
352,192,213757,1,0,0:0:0:0:
352,192,213843,1,8,0:0:0:0:
352,224,213929,1,0,0:0:0:0:
96,160,213971,1,0,0:0:0:0:
352,224,214014,1,8,0:0:0:0:
352,224,214100,1,0,0:0:0:0:
384,256,214143,1,0,0:0:0:0:
384,256,214186,1,0,0:0:0:0:
384,288,214271,1,8,0:0:0:0:
384,288,214357,1,0,0:0:0:0:
384,288,214400,1,0,0:0:0:0:
384,288,214443,1,8,0:0:0:0:
96,160,214486,1,0,0:0:0:0:
96,160,214529,1,8,0:0:0:0:
384,288,214614,1,0,0:0:0:0:
384,288,214657,1,0,0:0:0:0:
384,256,214700,1,0,0:0:0:0:
320,224,214743,1,0,0:0:0:0:
384,256,214786,1,8,0:0:0:0:
384,256,214871,1,0,0:0:0:0:
128,224,214914,1,0,0:0:0:0:
384,256,214957,1,8,0:0:0:0:
96,160,215043,1,0,0:0:0:0:
96,160,215086,1,0,0:0:0:0:
96,128,215129,1,8,0:0:0:0:
96,128,215171,1,8,0:0:0:0:
96,128,215214,1,0,0:0:0:0:
96,128,215257,1,0,0:0:0:0:
96,128,215300,1,8,0:0:0:0:
320,256,215343,1,8,0:0:0:0:
320,256,215386,1,8,0:0:0:0:
320,256,215429,1,8,0:0:0:0:
96,128,215471,1,0,0:0:0:0:
128,128,215557,1,0,0:0:0:0:
96,160,215643,1,0,0:0:0:0:
96,160,215729,1,0,0:0:0:0:
96,160,215814,1,8,0:0:0:0:
96,160,215857,1,8,0:0:0:0:
96,160,215900,1,0,0:0:0:0:
96,160,215986,1,8,0:0:0:0:
96,160,216071,1,8,0:0:0:0:
128,160,216157,1,0,0:0:0:0:
128,160,216200,1,0,0:0:0:0:
128,160,216243,1,0,0:0:0:0:
128,160,216329,1,8,0:0:0:0:
128,160,216371,1,8,0:0:0:0:
128,160,216414,1,8,0:0:0:0:
352,192,216500,1,0,0:0:0:0:
352,192,216586,1,8,0:0:0:0:
352,224,216671,1,0,0:0:0:0:
96,160,216714,1,0,0:0:0:0:
352,224,216757,1,8,0:0:0:0:
352,224,216843,1,0,0:0:0:0:
384,256,216886,1,0,0:0:0:0:
384,256,216929,1,0,0:0:0:0:
384,288,217014,1,8,0:0:0:0:
384,288,217100,1,0,0:0:0:0:
384,288,217143,1,0,0:0:0:0:
384,288,217186,1,0,0:0:0:0:
96,160,217271,1,8,0:0:0:0:
384,288,217357,1,0,0:0:0:0:
384,288,217400,1,0,0:0:0:0:
384,256,217443,1,0,0:0:0:0:
320,224,217486,1,0,0:0:0:0:
192,192,217529,1,8,0:0:0:0:
192,192,217614,1,8,0:0:0:0:
128,192,217657,1,8,0:0:0:0:
192,192,217700,1,0,0:0:0:0:
192,192,217786,1,8,0:0:0:0:
192,192,217829,1,8,0:0:0:0:
192,192,217871,1,0,0:0:0:0:
192,192,217957,1,8,0:0:0:0:
160,160,218000,1,8,0:0:0:0:
192,192,218043,1,0,0:0:0:0:
127,179,218086,1,0,0:0:0:0:
192,192,218129,1,8,0:0:0:0:
192,192,218214,1,0,0:0:0:0:
195,159,218300,1,0,0:0:0:0:
192,192,218386,1,8,0:0:0:0:
115,161,218471,1,0,0:0:0:0:
115,161,218557,1,8,0:0:0:0:
115,161,218643,1,8,0:0:0:0:
166,125,218729,1,0,0:0:0:0:
72,164,218771,1,0,0:0:0:0:
166,125,218814,1,0,0:0:0:0:
166,125,218900,1,8,0:0:0:0:
147,120,218986,1,0,0:0:0:0:
141,132,219071,1,8,0:0:0:0:
142,128,219157,1,8,0:0:0:0:
125,157,219200,1,8,0:0:0:0:
147,120,219243,1,0,0:0:0:0:
147,120,219329,1,0,0:0:0:0:
146,120,219414,1,8,0:0:0:0:
146,120,219500,1,8,0:0:0:0:
64,160,219586,1,0,0:0:0:0:
64,160,219629,1,0,0:0:0:0:
64,160,219671,1,0,0:0:0:0:
64,160,219757,1,8,0:0:0:0:
64,160,219800,1,8,0:0:0:0:
64,160,219843,1,8,0:0:0:0:
64,160,219929,1,0,0:0:0:0:
64,160,219971,1,0,0:0:0:0:
64,160,220014,1,0,0:0:0:0:
122,148,220057,1,0,0:0:0:0:
154,81,220100,1,8,0:0:0:0:
64,192,220186,1,0,0:0:0:0:
64,192,220271,1,8,0:0:0:0:
64,192,220357,1,0,0:0:0:0:
64,192,220400,1,0,0:0:0:0:
64,192,220443,1,8,0:0:0:0:
64,192,220529,1,0,0:0:0:0:
64,192,220614,1,8,0:0:0:0:
122,148,220657,1,8,0:0:0:0:
64,192,220700,1,0,0:0:0:0:
83,135,220743,1,0,0:0:0:0:
64,192,220786,1,8,0:0:0:0:
160,256,220871,1,0,0:0:0:0:
160,256,220957,1,8,0:0:0:0:
160,256,221000,1,0,0:0:0:0:
160,256,221043,1,0,0:0:0:0:
256,288,221129,1,8,0:0:0:0:
64,160,221214,1,0,0:0:0:0:
64,160,221300,1,8,0:0:0:0:
64,160,221386,1,8,0:0:0:0:
64,160,221471,1,0,0:0:0:0:
64,160,221514,1,0,0:0:0:0:
64,160,221557,1,0,0:0:0:0:
64,160,221643,1,8,0:0:0:0:
32,160,221729,1,0,0:0:0:0:
32,160,221814,1,8,0:0:0:0:
32,160,221900,1,8,0:0:0:0:
32,160,221943,1,8,0:0:0:0:
32,160,221986,1,0,0:0:0:0:
192,96,222071,1,0,0:0:0:0:
192,96,222157,1,8,0:0:0:0:
192,96,222243,1,8,0:0:0:0:
256,288,222329,5,0,0:0:0:0:
256,288,222371,1,0,0:0:0:0:
256,288,222414,1,8,0:0:0:0:
256,288,222457,1,8,0:0:0:0:
256,288,222500,1,0,0:0:0:0:
256,288,222543,1,8,0:0:0:0:
256,288,222586,1,0,0:0:0:0:
256,288,222629,1,0,0:0:0:0:
256,288,222671,1,8,0:0:0:0:
256,320,222757,1,0,0:0:0:0:
256,320,222843,1,8,0:0:0:0:
216,277,222886,1,0,0:0:0:0:
256,320,222929,1,8,0:0:0:0:
128,160,223014,5,0,0:0:0:0:
128,160,223057,1,0,0:0:0:0:
128,160,223100,1,0,0:0:0:0:
128,160,223143,1,0,0:0:0:0:
128,160,223186,1,8,0:0:0:0:
128,160,223271,1,8,0:0:0:0:
128,160,223357,1,0,0:0:0:0:
128,160,223400,1,0,0:0:0:0:
128,160,223443,1,0,0:0:0:0:
128,160,223486,1,0,0:0:0:0:
128,160,223529,1,8,0:0:0:0:
