osu file format v14

[General]
AudioFilename: involuntarydoppel.mp3
AudioLeadIn: 0
PreviewTime: 60536
Countdown: 0
SampleSet: Normal
StackLeniency: 0.7
Mode: 1
LetterboxInBreaks: 0
WidescreenStoryboard: 1

[Editor]
Bookmarks: 11165,22136,32936,49565,60536,92079,93451,121908,127736,133222,201793,212765
DistanceSpacing: 1.7
BeatDivisor: 4
GridSize: 16
TimelineZoom: 5.599997

[Metadata]
Title:Involuntary Doppelganger
TitleUnicode:Involuntary Doppelgänger
Artist:Archspire
ArtistUnicode:Archspire
Creator:LZD
Version:Oni
Source:
Tags:technical death metal staytech
BeatmapID:1361293
BeatmapSetID:640419

[Difficulty]
HPDrainRate:5
CircleSize:2
OverallDifficulty:5
ApproachRate:5
SliderMultiplier:0.8
SliderTickRate:1

[Events]
//Background and Video events
0,0,"writing-monsters.jpg",0,100
//Break Periods
//Storyboard Layer 0 (Background)
//Storyboard Layer 1 (Fail)
//Storyboard Layer 2 (Pass)
//Storyboard Layer 3 (Foreground)
//Storyboard Layer 4 (Overlay)
//Storyboard Sound Samples

[TimingPoints]
160,171.428571428571,4,1,0,70,1,0
22102,-100,4,1,0,70,0,1
32902,-100,4,1,0,70,0,0
33031,-105.263157894737,4,1,0,70,0,0
33202,-111.111111111111,4,1,0,70,0,0
33888,-117.647058823529,4,1,0,70,0,0
34059,-125,4,1,0,70,0,0
37145,-100,4,1,0,70,0,0
46788,171.428571428571,6,1,0,70,1,0
48845,171.428571428571,4,1,0,70,1,0
60502,-100,4,1,0,70,0,1
71302,-100,4,1,0,70,0,0
77602,-125,4,1,0,70,0,0
87288,-111.111111111111,4,1,0,70,0,0
87374,-100,4,1,0,70,0,0
87888,-125,4,1,0,70,0,0
99202,-111.111111111111,4,1,0,70,0,0
99717,-100,4,1,0,70,0,0
145530,342.857142857143,4,1,0,70,1,0
145659,-105.263157894737,4,1,0,60,0,0
145831,-111.111111111111,4,1,0,50,0,0
146002,-117.647058823529,4,1,0,40,0,0
146174,-125,4,1,0,40,0,0
166359,-111.111111111111,4,1,0,40,0,0
167388,-100,4,1,0,70,0,0
167472,171.428571428571,4,1,0,70,1,0
212731,-100,4,1,0,70,0,1
223531,-100,4,1,0,70,0,0

[HitObjects]
64,128,160,5,12,0:0:0:0:
64,128,1531,1,4,0:0:0:0:
320,288,2217,1,8,0:0:0:0:
96,160,2388,1,0,0:0:0:0:
96,160,2559,1,0,0:0:0:0:
96,160,2731,1,0,0:0:0:0:
64,128,2902,1,12,0:0:0:0:
128,160,3245,1,0,0:0:0:0:
128,192,3588,1,8,0:0:0:0:
128,192,3759,1,0,0:0:0:0:
128,192,3931,1,8,0:0:0:0:
128,192,4102,1,8,0:0:0:0:
144,144,4274,1,0,0:0:0:0:
128,224,4445,1,0,0:0:0:0:
128,224,4617,1,8,0:0:0:0:
128,224,4788,1,0,0:0:0:0:
128,224,4959,1,8,0:0:0:0:
128,224,5131,1,8,0:0:0:0:
128,224,5302,1,0,0:0:0:0:
128,224,5474,1,0,0:0:0:0:
64,128,5645,1,12,0:0:0:0:
96,160,6331,1,0,0:0:0:0:
96,160,6502,1,8,0:0:0:0:
96,128,6674,1,8,0:0:0:0:
96,160,6845,1,0,0:0:0:0:
288,224,7017,1,8,0:0:0:0:
256,160,7274,1,8,0:0:0:0:
256,160,7445,1,0,0:0:0:0:
256,160,7531,1,8,0:0:0:0:
256,160,7702,1,0,0:0:0:0:
256,160,7874,1,8,0:0:0:0:
256,160,8045,1,8,0:0:0:0:
256,160,8217,1,0,0:0:0:0:
256,160,8302,1,0,0:0:0:0:
256,160,8388,1,8,0:0:0:0:
128,128,8731,1,8,0:0:0:0:
32,160,9245,1,0,0:0:0:0:
128,160,9759,1,8,0:0:0:0:
128,160,9931,1,0,0:0:0:0:
128,160,10102,1,8,0:0:0:0:
160,160,10959,1,8,0:0:0:0:
128,160,11131,1,0,0:0:0:0:
192,224,11217,1,0,0:0:0:0:
192,224,11302,1,8,0:0:0:0:
192,224,11474,1,8,0:0:0:0:
192,224,11645,1,0,0:0:0:0:
192,224,11817,1,0,0:0:0:0:
192,224,11988,1,8,0:0:0:0:
192,224,12159,1,8,0:0:0:0:
192,224,12245,1,8,0:0:0:0:
192,224,12331,1,0,0:0:0:0:
64,160,12502,1,8,0:0:0:0:
352,160,12674,1,8,0:0:0:0:
352,160,12845,1,8,0:0:0:0:
352,160,13017,1,0,0:0:0:0:
64,160,13102,1,0,0:0:0:0:
0,160,13188,1,8,0:0:0:0:
0,128,13359,1,8,0:0:0:0:
0,128,13531,1,0,0:0:0:0:
0,160,13702,1,8,0:0:0:0:
0,128,13874,1,0,0:0:0:0:
64,160,13959,1,0,0:0:0:0:
64,160,14045,1,8,0:0:0:0:
64,160,14217,1,8,0:0:0:0:
64,160,14388,1,0,0:0:0:0:
64,160,14559,1,0,0:0:0:0:
64,160,14731,1,8,0:0:0:0:
64,160,14902,1,8,0:0:0:0:
64,160,14988,1,8,0:0:0:0:
64,160,15074,1,0,0:0:0:0:
64,160,15245,1,8,0:0:0:0:
192,160,15417,1,0,0:0:0:0:
224,192,15588,1,8,0:0:0:0:
192,160,15759,1,0,0:0:0:0:
96,128,15931,1,8,0:0:0:0:
32,128,16017,1,8,0:0:0:0:
32,128,16102,1,0,0:0:0:0:
96,192,16274,1,0,0:0:0:0:
160,160,16445,1,8,0:0:0:0:
128,160,16617,1,0,0:0:0:0:
192,224,16702,1,0,0:0:0:0:
192,224,16788,1,8,0:0:0:0:
192,224,16959,1,8,0:0:0:0:
192,224,17131,1,0,0:0:0:0:
192,224,17302,1,0,0:0:0:0:
192,224,17474,1,8,0:0:0:0:
192,224,17645,1,8,0:0:0:0:
192,224,17731,1,8,0:0:0:0:
192,224,17817,1,0,0:0:0:0:
64,160,17988,1,8,0:0:0:0:
352,160,18159,1,8,0:0:0:0:
352,160,18331,1,8,0:0:0:0:
352,160,18502,1,0,0:0:0:0:
352,160,18588,1,0,0:0:0:0:
0,160,18674,1,8,0:0:0:0:
0,128,18845,1,8,0:0:0:0:
0,128,19017,1,0,0:0:0:0:
0,160,19188,1,8,0:0:0:0:
128,160,19359,1,0,0:0:0:0:
64,160,19445,1,0,0:0:0:0:
192,224,19531,1,8,0:0:0:0:
192,224,19702,1,8,0:0:0:0:
192,224,19874,1,0,0:0:0:0:
192,224,20045,1,0,0:0:0:0:
192,224,20217,1,8,0:0:0:0:
192,224,20388,1,8,0:0:0:0:
192,224,20474,1,8,0:0:0:0:
192,224,20559,1,0,0:0:0:0:
448,224,20731,5,8,0:0:0:0:
448,256,20902,1,0,0:0:0:0:
448,256,21074,1,8,0:0:0:0:
416,256,21245,1,0,0:0:0:0:
416,256,21417,1,8,0:0:0:0:
192,160,21588,1,0,0:0:0:0:
192,160,21674,1,0,0:0:0:0:
96,160,21759,1,8,0:0:0:0:
128,160,22102,1,8,0:0:0:0:
96,160,22274,1,0,0:0:0:0:
96,160,22359,1,0,0:0:0:0:
96,160,22445,1,8,0:0:0:0:
96,160,22617,1,8,0:0:0:0:
128,160,22788,1,0,0:0:0:0:
128,160,22959,1,8,0:0:0:0:
352,192,23131,1,0,0:0:0:0:
352,224,23302,1,0,0:0:0:0:
352,224,23474,1,0,0:0:0:0:
384,288,23645,1,8,0:0:0:0:
384,288,23817,1,8,0:0:0:0:
384,288,23988,1,0,0:0:0:0:
384,256,24159,1,8,0:0:0:0:
384,256,24331,1,8,0:0:0:0:
96,128,24502,1,8,0:0:0:0:
320,256,24588,1,0,0:0:0:0:
96,128,24674,1,8,0:0:0:0:
96,128,24845,1,0,0:0:0:0:
96,160,25017,1,0,0:0:0:0:
96,160,25102,1,0,0:0:0:0:
96,160,25188,1,8,0:0:0:0:
96,160,25359,1,8,0:0:0:0:
128,160,25531,1,0,0:0:0:0:
128,160,25702,1,8,0:0:0:0:
352,192,25874,1,0,0:0:0:0:
352,224,26045,1,0,0:0:0:0:
352,224,26217,1,0,0:0:0:0:
384,288,26388,1,8,0:0:0:0:
384,288,26559,1,8,0:0:0:0:
384,288,26731,1,0,0:0:0:0:
192,192,26902,1,8,0:0:0:0:
192,192,26988,1,8,0:0:0:0:
192,192,27074,1,8,0:0:0:0:
192,192,27245,1,8,0:0:0:0:
192,192,27331,1,8,0:0:0:0:
192,192,27417,1,8,0:0:0:0:
192,192,27588,1,0,0:0:0:0:
192,192,27759,1,8,0:0:0:0:
115,161,27931,1,8,0:0:0:0:
166,125,28102,1,0,0:0:0:0:
166,125,28188,1,0,0:0:0:0:
166,125,28274,1,8,0:0:0:0:
141,132,28445,1,8,0:0:0:0:
147,120,28617,1,0,0:0:0:0:
146,120,28788,1,8,0:0:0:0:
64,160,28959,1,0,0:0:0:0:
64,160,29045,1,0,0:0:0:0:
64,160,29131,1,8,0:0:0:0:
64,160,29302,1,0,0:0:0:0:
154,81,29474,1,8,0:0:0:0:
64,192,29645,1,8,0:0:0:0:
64,192,29817,1,8,0:0:0:0:
64,192,29988,1,8,0:0:0:0:
64,192,30159,1,8,0:0:0:0:
160,256,30331,1,0,0:0:0:0:
256,288,30502,1,8,0:0:0:0:
64,160,30674,1,8,0:0:0:0:
64,160,30845,1,0,0:0:0:0:
64,160,30931,1,0,0:0:0:0:
64,160,31017,1,8,0:0:0:0:
32,160,31188,1,8,0:0:0:0:
32,160,31359,1,0,0:0:0:0:
192,96,31531,1,8,0:0:0:0:
256,288,31702,5,0,0:0:0:0:
256,288,31874,1,0,0:0:0:0:
256,288,31959,1,0,0:0:0:0:
256,288,32045,1,8,0:0:0:0:
256,320,32217,1,8,0:0:0:0:
128,160,32388,5,0,0:0:0:0:
128,160,32559,1,8,0:0:0:0:
128,160,32731,1,0,0:0:0:0:
128,160,32817,1,0,0:0:0:0:
128,160,32902,1,8,0:0:0:0:
194,132,33074,5,0,0:0:0:0:
194,132,33417,1,0,0:0:0:0:
194,132,33588,1,0,0:0:0:0:
194,132,33759,1,8,0:0:0:0:
201,120,34102,1,0,0:0:0:0:
201,120,34274,1,0,0:0:0:0:
201,120,34445,1,8,0:0:0:0:
201,120,34788,1,8,0:0:0:0:
128,224,35131,5,8,0:0:0:0:
32,192,35345,1,0,0:0:0:0:
128,192,35474,1,8,0:0:0:0:
32,192,35688,1,0,0:0:0:0:
0,224,35817,1,0,0:0:0:0:
0,224,36031,1,0,0:0:0:0:
32,192,36159,1,8,0:0:0:0:
32,192,36374,1,0,0:0:0:0:
32,224,36502,1,0,0:0:0:0:
64,96,36717,1,0,0:0:0:0:
96,96,36845,1,8,0:0:0:0:
96,96,37059,1,0,0:0:0:0:
96,96,37188,1,8,0:0:0:0:
192,160,37359,1,0,0:0:0:0:
192,160,37531,1,0,0:0:0:0:
192,160,37702,1,0,0:0:0:0:
192,160,37874,1,8,0:0:0:0:
224,192,38217,1,0,0:0:0:0:
224,192,38388,1,0,0:0:0:0:
224,192,38559,1,8,0:0:0:0:
128,160,38902,1,8,0:0:0:0:
320,192,39245,1,8,0:0:0:0:
96,160,39417,1,8,0:0:0:0:
320,192,39588,1,0,0:0:0:0:
320,192,39759,1,8,0:0:0:0:
64,160,39931,1,8,0:0:0:0:
32,160,40102,1,0,0:0:0:0:
32,160,40274,1,0,0:0:0:0:
32,160,40445,1,0,0:0:0:0:
64,160,40617,1,8,0:0:0:0:
32,160,40959,1,0,0:0:0:0:
32,160,41131,1,0,0:0:0:0:
32,160,41302,1,8,0:0:0:0:
32,160,41645,1,8,0:0:0:0:
32,160,41988,1,8,0:0:0:0:
152,170,42331,1,8,0:0:0:0:
320,192,42674,1,8,0:0:0:0:
288,192,42845,1,0,0:0:0:0:
288,192,43017,1,0,0:0:0:0:
288,192,43188,1,0,0:0:0:0:
288,192,43359,1,8,0:0:0:0:
288,192,43702,1,0,0:0:0:0:
288,192,43874,1,0,0:0:0:0:
288,192,44045,1,8,0:0:0:0:
320,192,44388,1,8,0:0:0:0:
320,192,44731,1,8,0:0:0:0:
320,192,44902,1,8,0:0:0:0:
384,256,45074,1,0,0:0:0:0:
384,256,45245,1,8,0:0:0:0:
224,176,45417,2,0,L|432:32,1,240
64,160,46102,1,8,0:0:0:0:
64,160,46274,1,0,0:0:0:0:
64,160,46445,1,8,0:0:0:0:
64,160,46617,1,0,0:0:0:0:
80,336,46788,2,0,L|400:80,1,400
64,96,47816,5,12,0:0:0:0:
128,160,49530,1,0,0:0:0:0:
192,224,49616,1,0,0:0:0:0:
192,224,49702,1,8,0:0:0:0:
192,224,49873,1,8,0:0:0:0:
192,224,50045,1,0,0:0:0:0:
192,224,50216,1,0,0:0:0:0:
192,224,50387,1,8,0:0:0:0:
192,224,50559,1,8,0:0:0:0:
192,224,50644,1,8,0:0:0:0:
192,224,50730,1,0,0:0:0:0:
64,160,50902,1,8,0:0:0:0:
352,160,51073,1,8,0:0:0:0:
352,160,51244,1,8,0:0:0:0:
352,160,51416,1,0,0:0:0:0:
352,160,51502,1,0,0:0:0:0:
0,160,51587,1,8,0:0:0:0:
0,128,51759,1,8,0:0:0:0:
0,128,51930,1,0,0:0:0:0:
0,160,52102,1,8,0:0:0:0:
0,128,52273,1,0,0:0:0:0:
96,144,52359,1,0,0:0:0:0:
64,160,52444,1,8,0:0:0:0:
64,160,52616,1,8,0:0:0:0:
64,160,52787,1,0,0:0:0:0:
64,160,52959,1,0,0:0:0:0:
64,160,53130,1,8,0:0:0:0:
64,160,53302,1,8,0:0:0:0:
64,160,53387,1,8,0:0:0:0:
64,160,53473,1,0,0:0:0:0:
64,160,53644,1,8,0:0:0:0:
192,160,53816,1,0,0:0:0:0:
224,192,53987,1,8,0:0:0:0:
192,160,54159,1,0,0:0:0:0:
96,128,54330,1,8,0:0:0:0:
32,128,54416,1,8,0:0:0:0:
32,128,54502,1,0,0:0:0:0:
96,192,54673,1,0,0:0:0:0:
64,192,54844,1,8,0:0:0:0:
128,160,55016,1,0,0:0:0:0:
192,224,55102,1,0,0:0:0:0:
192,224,55187,1,8,0:0:0:0:
192,224,55359,1,8,0:0:0:0:
192,224,55530,1,0,0:0:0:0:
192,224,55702,1,0,0:0:0:0:
192,224,55873,1,8,0:0:0:0:
192,224,56044,1,8,0:0:0:0:
192,224,56130,1,8,0:0:0:0:
192,224,56216,1,0,0:0:0:0:
64,160,56387,1,8,0:0:0:0:
352,160,56559,1,8,0:0:0:0:
352,160,56730,1,8,0:0:0:0:
352,160,56902,1,0,0:0:0:0:
352,160,56987,1,0,0:0:0:0:
0,160,57073,1,8,0:0:0:0:
0,128,57244,1,8,0:0:0:0:
0,128,57416,1,0,0:0:0:0:
0,160,57587,1,8,0:0:0:0:
128,160,57759,1,0,0:0:0:0:
48,96,57844,1,0,0:0:0:0:
192,224,57930,1,8,0:0:0:0:
192,224,58102,1,8,0:0:0:0:
192,224,58273,1,0,0:0:0:0:
192,224,58444,1,0,0:0:0:0:
192,224,58616,1,8,0:0:0:0:
192,224,58787,1,8,0:0:0:0:
112,176,58873,1,8,0:0:0:0:
192,224,58959,1,0,0:0:0:0:
448,224,59130,5,8,0:0:0:0:
448,256,59302,1,0,0:0:0:0:
448,256,59473,1,8,0:0:0:0:
416,256,59644,1,0,0:0:0:0:
416,256,59816,1,8,0:0:0:0:
192,160,59987,1,0,0:0:0:0:
192,160,60073,1,0,0:0:0:0:
96,160,60159,1,8,0:0:0:0:
128,160,60502,1,8,0:0:0:0:
96,160,60673,1,0,0:0:0:0:
96,160,60759,1,0,0:0:0:0:
96,160,60844,1,8,0:0:0:0:
96,160,61016,1,8,0:0:0:0:
128,160,61187,1,0,0:0:0:0:
128,160,61359,1,8,0:0:0:0:
352,192,61530,1,0,0:0:0:0:
352,224,61702,1,0,0:0:0:0:
352,224,61873,1,0,0:0:0:0:
384,288,62044,1,8,0:0:0:0:
384,288,62216,1,8,0:0:0:0:
384,288,62387,1,0,0:0:0:0:
384,256,62559,1,8,0:0:0:0:
384,256,62730,1,8,0:0:0:0:
96,128,62902,1,8,0:0:0:0:
320,256,62987,1,0,0:0:0:0:
96,128,63073,1,8,0:0:0:0:
96,128,63244,1,0,0:0:0:0:
96,160,63416,1,0,0:0:0:0:
96,160,63502,1,0,0:0:0:0:
96,160,63587,1,8,0:0:0:0:
96,160,63759,1,8,0:0:0:0:
128,160,63930,1,0,0:0:0:0:
128,160,64102,1,8,0:0:0:0:
352,192,64273,1,0,0:0:0:0:
352,224,64444,1,0,0:0:0:0:
352,224,64616,1,0,0:0:0:0:
384,288,64787,1,8,0:0:0:0:
384,288,64959,1,8,0:0:0:0:
384,288,65130,1,0,0:0:0:0:
192,192,65302,1,8,0:0:0:0:
192,192,65387,1,8,0:0:0:0:
192,192,65473,1,8,0:0:0:0:
192,192,65644,1,8,0:0:0:0:
192,192,65730,1,8,0:0:0:0:
192,192,65816,1,8,0:0:0:0:
192,192,65987,1,0,0:0:0:0:
192,192,66159,1,8,0:0:0:0:
115,161,66330,1,8,0:0:0:0:
166,125,66502,1,0,0:0:0:0:
166,125,66587,1,0,0:0:0:0:
166,125,66673,1,8,0:0:0:0:
141,132,66844,1,8,0:0:0:0:
147,120,67016,1,0,0:0:0:0:
146,120,67187,1,8,0:0:0:0:
64,160,67359,1,0,0:0:0:0:
64,160,67444,1,0,0:0:0:0:
64,160,67530,1,8,0:0:0:0:
64,160,67702,1,0,0:0:0:0:
154,81,67873,1,8,0:0:0:0:
64,192,68044,1,8,0:0:0:0:
64,192,68216,1,8,0:0:0:0:
64,192,68387,1,8,0:0:0:0:
64,192,68559,1,8,0:0:0:0:
160,256,68730,1,0,0:0:0:0:
256,288,68902,1,8,0:0:0:0:
64,160,69073,1,8,0:0:0:0:
64,160,69244,1,0,0:0:0:0:
64,160,69330,1,0,0:0:0:0:
64,160,69416,1,8,0:0:0:0:
32,160,69587,1,8,0:0:0:0:
32,160,69759,1,0,0:0:0:0:
192,96,69930,1,8,0:0:0:0:
256,288,70102,5,0,0:0:0:0:
256,288,70273,1,0,0:0:0:0:
256,288,70359,1,0,0:0:0:0:
256,288,70444,1,8,0:0:0:0:
256,320,70616,1,8,0:0:0:0:
128,160,70787,5,0,0:0:0:0:
128,160,70959,1,8,0:0:0:0:
128,160,71130,1,0,0:0:0:0:
128,160,71216,1,0,0:0:0:0:
128,160,71302,1,8,0:0:0:0:
118,207,72844,5,8,0:0:0:0:
196,144,73016,1,8,0:0:0:0:
114,222,73187,1,8,0:0:0:0:
79,139,73530,1,0,0:0:0:0:
79,139,73702,1,0,0:0:0:0:
79,139,73873,1,0,0:0:0:0:
64,139,74216,1,8,0:0:0:0:
64,139,74387,1,8,0:0:0:0:
65,139,74559,1,8,0:0:0:0:
64,139,74902,1,0,0:0:0:0:
64,139,75073,1,0,0:0:0:0:
123,130,75244,1,0,0:0:0:0:
123,130,75330,1,0,0:0:0:0:
128,160,75416,5,0,0:0:0:0:
128,160,75587,1,8,0:0:0:0:
96,160,75930,1,8,0:0:0:0:
64,160,76273,1,0,0:0:0:0:
64,160,76444,1,0,0:0:0:0:
64,160,76616,1,0,0:0:0:0:
64,160,76959,1,8,0:0:0:0:
64,160,77644,1,0,0:0:0:0:
64,160,77987,1,8,0:0:0:0:
64,160,78330,1,0,0:0:0:0:
64,160,78502,1,0,0:0:0:0:
64,160,78673,1,0,0:0:0:0:
64,160,78844,1,0,0:0:0:0:
128,160,79016,1,8,0:0:0:0:
128,160,79144,1,8,0:0:0:0:
128,160,79359,1,8,0:0:0:0:
0,128,79573,1,8,0:0:0:0:
0,128,79702,1,8,0:0:0:0:
0,128,79830,1,8,0:0:0:0:
0,128,80044,1,0,0:0:0:0:
128,128,80387,1,8,0:0:0:0:
208,240,80559,1,0,0:0:0:0:
32,128,80730,1,8,0:0:0:0:
32,128,81073,1,8,0:0:0:0:
96,160,81202,1,0,0:0:0:0:
96,160,81416,1,8,0:0:0:0:
96,160,81630,1,0,0:0:0:0:
96,160,81759,1,8,0:0:0:0:
96,160,81930,1,8,0:0:0:0:
96,160,82102,1,8,0:0:0:0:
96,160,82273,1,8,0:0:0:0:
96,160,82444,1,0,0:0:0:0:
96,160,82616,1,0,0:0:0:0:
98,155,82787,1,0,0:0:0:0:
98,155,82959,1,0,0:0:0:0:
128,160,83130,1,8,0:0:0:0:
448,352,83473,1,8,0:0:0:0:
224,192,83816,1,0,0:0:0:0:
224,192,83987,1,0,0:0:0:0:
224,192,84159,1,0,0:0:0:0:
224,192,84330,1,0,0:0:0:0:
87,165,84502,1,8,0:0:0:0:
124,167,84630,1,8,0:0:0:0:
124,167,84844,1,8,0:0:0:0:
113,181,85059,1,8,0:0:0:0:
113,181,85187,1,8,0:0:0:0:
113,181,85316,1,8,0:0:0:0:
384,320,85530,1,0,0:0:0:0:
64,160,85873,1,8,0:0:0:0:
96,160,86044,1,0,0:0:0:0:
96,160,86216,1,8,0:0:0:0:
192,192,86559,1,8,0:0:0:0:
192,192,86773,1,8,0:0:0:0:
192,192,86902,1,0,0:0:0:0:
192,192,87116,1,0,0:0:0:0:
192,192,87244,1,8,0:0:0:0:
160,224,87416,1,0,0:0:0:0:
160,224,87587,1,8,0:0:0:0:
256,224,87930,1,0,0:0:0:0:
256,224,88144,1,0,0:0:0:0:
256,224,88273,1,8,0:0:0:0:
224,224,88487,1,8,0:0:0:0:
224,224,88616,1,0,0:0:0:0:
224,224,88830,1,0,0:0:0:0:
224,224,88959,1,8,0:0:0:0:
224,224,89173,1,8,0:0:0:0:
256,224,89302,1,0,0:0:0:0:
256,224,89516,1,0,0:0:0:0:
256,224,89644,1,8,0:0:0:0:
224,224,89859,1,0,0:0:0:0:
224,224,89987,1,8,0:0:0:0:
224,224,90202,1,8,0:0:0:0:
224,224,90330,1,0,0:0:0:0:
224,224,90459,1,8,0:0:0:0:
256,224,90673,1,0,0:0:0:0:
256,224,90887,1,0,0:0:0:0:
256,224,91016,1,8,0:0:0:0:
224,224,91230,1,8,0:0:0:0:
224,224,91359,1,0,0:0:0:0:
224,224,91573,1,0,0:0:0:0:
224,224,91702,1,8,0:0:0:0:
224,224,91916,1,8,0:0:0:0:
224,224,92044,1,0,0:0:0:0:
224,224,92387,1,0,0:0:0:0:
128,160,92559,1,8,0:0:0:0:
128,160,92730,1,0,0:0:0:0:
352,256,92902,1,8,0:0:0:0:
160,192,93073,1,0,0:0:0:0:
160,192,93244,1,8,0:0:0:0:
256,224,93416,1,0,0:0:0:0:
256,224,93630,1,0,0:0:0:0:
256,224,93759,1,8,0:0:0:0:
224,224,93973,1,0,0:0:0:0:
224,224,94102,1,8,0:0:0:0:
128,160,94273,1,0,0:0:0:0:
224,224,94444,1,0,0:0:0:0:
224,224,94616,1,8,0:0:0:0:
256,224,94787,1,0,0:0:0:0:
256,224,95002,1,0,0:0:0:0:
256,224,95130,1,8,0:0:0:0:
224,224,95344,1,0,0:0:0:0:
224,224,95473,1,8,0:0:0:0:
128,128,95644,1,0,0:0:0:0:
224,224,95816,1,0,0:0:0:0:
224,224,95987,1,8,0:0:0:0:
256,224,96159,1,0,0:0:0:0:
256,224,96373,5,0,0:0:0:0:
256,224,96502,1,8,0:0:0:0:
224,224,96716,1,0,0:0:0:0:
224,224,96844,1,8,0:0:0:0:
224,224,97059,1,0,0:0:0:0:
224,224,97187,1,8,0:0:0:0:
192,192,97530,5,8,0:0:0:0:
128,64,97702,1,0,0:0:0:0:
192,192,97959,1,8,0:0:0:0:
192,192,98216,1,8,0:0:0:0:
192,192,98302,1,0,0:0:0:0:
192,192,98387,1,0,0:0:0:0:
192,192,98559,1,8,0:0:0:0:
160,192,98902,5,0,0:0:0:0:
160,192,99244,1,8,0:0:0:0:
160,192,99416,1,8,0:0:0:0:
160,192,99587,1,0,0:0:0:0:
384,224,99759,1,8,0:0:0:0:
352,256,99930,1,8,0:0:0:0:
224,288,100102,1,0,0:0:0:0:
224,288,100273,1,0,0:0:0:0:
288,160,100444,1,8,0:0:0:0:
224,160,100616,1,0,0:0:0:0:
224,160,100787,1,8,0:0:0:0:
224,160,100959,1,0,0:0:0:0:
128,160,101130,1,8,0:0:0:0:
128,160,101302,1,0,0:0:0:0:
256,128,101473,1,12,0:0:0:0:
256,128,101816,1,12,0:0:0:0:
192,96,102159,1,0,0:0:0:0:
160,96,102330,1,8,0:0:0:0:
128,64,102502,1,0,0:0:0:0:
160,160,102673,1,8,0:0:0:0:
160,160,102844,1,8,0:0:0:0:
128,64,103016,1,0,0:0:0:0:
128,64,103187,1,0,0:0:0:0:
160,160,103359,1,8,0:0:0:0:
128,64,103530,1,0,0:0:0:0:
160,160,103702,1,8,0:0:0:0:
160,96,104044,1,0,0:0:0:0:
160,96,104387,1,8,0:0:0:0:
160,128,104559,1,0,0:0:0:0:
160,128,104644,1,0,0:0:0:0:
160,128,104730,1,8,0:0:0:0:
160,128,104902,1,0,0:0:0:0:
160,128,105073,1,8,0:0:0:0:
160,128,105244,1,0,0:0:0:0:
160,128,105330,1,0,0:0:0:0:
160,128,105416,1,8,0:0:0:0:
160,128,105759,1,0,0:0:0:0:
160,128,105930,1,8,0:0:0:0:
224,160,106102,1,0,0:0:0:0:
224,160,106273,1,8,0:0:0:0:
224,160,106444,1,0,0:0:0:0:
128,160,106616,1,8,0:0:0:0:
128,160,106787,1,0,0:0:0:0:
256,128,106959,1,12,0:0:0:0:
256,128,107302,1,12,0:0:0:0:
192,96,107644,1,4,0:0:0:0:
160,96,107816,1,8,0:0:0:0:
128,64,107987,1,0,0:0:0:0:
160,160,108159,1,8,0:0:0:0:
160,160,108330,1,8,0:0:0:0:
128,64,108502,1,0,0:0:0:0:
128,64,108673,1,0,0:0:0:0:
160,160,108844,1,8,0:0:0:0:
128,64,109016,1,0,0:0:0:0:
160,160,109187,1,8,0:0:0:0:
192,128,109530,1,8,0:0:0:0:
192,128,109702,1,0,0:0:0:0:
192,128,109787,1,0,0:0:0:0:
160,96,109873,1,8,0:0:0:0:
192,224,110044,1,8,0:0:0:0:
192,224,110216,1,8,0:0:0:0:
192,224,110344,1,0,0:0:0:0:
192,224,110559,1,8,0:0:0:0:
192,224,110773,1,0,0:0:0:0:
192,128,110902,1,8,0:0:0:0:
128,128,111244,1,0,0:0:0:0:
128,128,111416,1,0,0:0:0:0:
128,128,111587,1,8,0:0:0:0:
160,128,111759,1,0,0:0:0:0:
160,128,111930,1,8,0:0:0:0:
160,128,112102,1,0,0:0:0:0:
96,96,112273,1,8,0:0:0:0:
96,96,112444,1,8,0:0:0:0:
160,128,112616,1,0,0:0:0:0:
96,96,112787,1,8,0:0:0:0:
128,160,112959,1,0,0:0:0:0:
96,96,113130,1,8,0:0:0:0:
96,96,113302,1,8,0:0:0:0:
96,128,113473,1,0,0:0:0:0:
96,128,113644,1,8,0:0:0:0:
96,128,113816,1,0,0:0:0:0:
96,96,113987,1,8,0:0:0:0:
96,96,114073,1,8,0:0:0:0:
96,96,114159,1,8,0:0:0:0:
96,96,114330,1,0,0:0:0:0:
256,224,114502,1,0,0:0:0:0:
256,224,114673,1,8,0:0:0:0:
224,128,114844,1,0,0:0:0:0:
224,128,114930,1,0,0:0:0:0:
64,160,115016,1,8,0:0:0:0:
288,192,115359,1,8,0:0:0:0:
224,192,115530,1,0,0:0:0:0:
224,192,115702,1,8,0:0:0:0:
224,192,115873,1,0,0:0:0:0:
224,192,116044,1,8,0:0:0:0:
224,192,116216,1,0,0:0:0:0:
192,128,116387,1,8,0:0:0:0:
128,128,116730,1,0,0:0:0:0:
128,128,116902,1,0,0:0:0:0:
128,128,117073,1,8,0:0:0:0:
160,128,117244,1,0,0:0:0:0:
160,128,117416,1,8,0:0:0:0:
160,128,117587,1,0,0:0:0:0:
96,96,117759,1,8,0:0:0:0:
96,96,117930,1,8,0:0:0:0:
160,128,118102,1,0,0:0:0:0:
96,96,118273,1,8,0:0:0:0:
128,160,118444,1,0,0:0:0:0:
96,96,118616,1,8,0:0:0:0:
96,96,118787,1,8,0:0:0:0:
96,128,118959,1,0,0:0:0:0:
96,128,119130,1,8,0:0:0:0:
96,128,119302,1,0,0:0:0:0:
96,96,119473,1,8,0:0:0:0:
96,96,119559,1,8,0:0:0:0:
96,96,119644,1,8,0:0:0:0:
96,96,119816,1,0,0:0:0:0:
256,224,119987,1,0,0:0:0:0:
256,224,120159,1,8,0:0:0:0:
96,192,120330,1,0,0:0:0:0:
96,192,120416,1,0,0:0:0:0:
64,160,120502,1,8,0:0:0:0:
192,128,120844,5,8,0:0:0:0:
192,128,121016,1,0,0:0:0:0:
192,128,121187,1,8,0:0:0:0:
192,128,121359,1,0,0:0:0:0:
192,128,121530,1,8,0:0:0:0:
16,144,121702,1,0,0:0:0:0:
160,192,121873,1,8,0:0:0:0:
82,159,122216,1,0,0:0:0:0:
86,141,122387,1,8,0:0:0:0:
65,126,122559,1,8,0:0:0:0:
84,138,122730,1,8,0:0:0:0:
84,138,122902,1,8,0:0:0:0:
65,126,123073,1,8,0:0:0:0:
84,138,123244,1,8,0:0:0:0:
84,138,123416,1,8,0:0:0:0:
84,138,123587,1,0,0:0:0:0:
65,126,123759,1,8,0:0:0:0:
65,126,124102,1,8,0:0:0:0:
65,126,124273,1,8,0:0:0:0:
65,126,124444,1,8,0:0:0:0:
65,126,124616,1,8,0:0:0:0:
65,126,124787,1,8,0:0:0:0:
150,149,124959,1,0,0:0:0:0:
28,148,125130,1,8,0:0:0:0:
167,262,125473,1,8,0:0:0:0:
167,262,125644,1,8,0:0:0:0:
59,128,125816,1,8,0:0:0:0:
167,262,125987,1,8,0:0:0:0:
167,262,126159,1,8,0:0:0:0:
85,138,126330,1,0,0:0:0:0:
59,128,126502,1,8,0:0:0:0:
85,138,126673,1,8,0:0:0:0:
57,115,126844,1,0,0:0:0:0:
57,115,127016,1,8,0:0:0:0:
43,110,127187,1,8,0:0:0:0:
43,110,127359,1,8,0:0:0:0:
57,115,127530,1,8,0:0:0:0:
38,143,127702,1,0,0:0:0:0:
38,143,127873,1,8,0:0:0:0:
38,143,128044,1,0,0:0:0:0:
43,134,128216,1,8,0:0:0:0:
43,134,128387,1,8,0:0:0:0:
43,134,128559,1,0,0:0:0:0:
40,129,128730,1,8,0:0:0:0:
43,134,128902,1,8,0:0:0:0:
38,143,129073,1,0,0:0:0:0:
38,143,129244,1,8,0:0:0:0:
38,143,129416,1,0,0:0:0:0:
43,134,129587,1,8,0:0:0:0:
43,134,129759,1,8,0:0:0:0:
43,134,129930,1,0,0:0:0:0:
40,129,130102,1,8,0:0:0:0:
43,134,130273,1,8,0:0:0:0:
38,143,130444,1,0,0:0:0:0:
38,143,130616,1,8,0:0:0:0:
38,143,130787,1,0,0:0:0:0:
43,134,130959,1,8,0:0:0:0:
43,134,131130,1,8,0:0:0:0:
43,134,131302,1,0,0:0:0:0:
40,129,131473,1,8,0:0:0:0:
43,134,131644,1,8,0:0:0:0:
75,219,131816,1,0,0:0:0:0:
216,140,131987,1,8,0:0:0:0:
216,140,132159,1,8,0:0:0:0:
216,140,132330,1,8,0:0:0:0:
216,140,132502,1,0,0:0:0:0:
283,179,132673,1,8,0:0:0:0:
196,92,132844,1,8,0:0:0:0:
64,208,133016,1,0,0:0:0:0:
256,256,133359,1,8,0:0:0:0:
256,256,133530,1,0,0:0:0:0:
64,192,133616,1,0,0:0:0:0:
64,192,133702,1,8,0:0:0:0:
64,192,133873,1,8,0:0:0:0:
64,128,134216,1,8,0:0:0:0:
32,160,134387,1,8,0:0:0:0:
64,160,134559,1,0,0:0:0:0:
32,128,134730,1,8,0:0:0:0:
32,128,134902,1,0,0:0:0:0:
32,128,134987,1,0,0:0:0:0:
32,128,135073,1,8,0:0:0:0:
32,128,135244,1,8,0:0:0:0:
132,150,135587,1,8,0:0:0:0:
93,181,135759,1,8,0:0:0:0:
94,180,135930,1,0,0:0:0:0:
94,180,136102,1,8,0:0:0:0:
93,180,136273,1,0,0:0:0:0:
93,180,136359,1,0,0:0:0:0:
93,181,136444,1,8,0:0:0:0:
93,181,136616,1,8,0:0:0:0:
94,180,136959,1,8,0:0:0:0:
87,185,137130,1,8,0:0:0:0:
93,181,137302,1,0,0:0:0:0:
94,180,137473,1,8,0:0:0:0:
94,180,137644,1,8,0:0:0:0:
72,131,137816,1,8,0:0:0:0:
87,185,137987,1,0,0:0:0:0:
71,146,138159,1,8,0:0:0:0:
83,158,138330,1,8,0:0:0:0:
84,155,138502,1,0,0:0:0:0:
256,256,138844,1,8,0:0:0:0:
256,256,139016,1,0,0:0:0:0:
64,192,139102,1,0,0:0:0:0:
64,192,139187,1,8,0:0:0:0:
64,192,139359,1,8,0:0:0:0:
64,128,139702,1,8,0:0:0:0:
32,160,139873,1,8,0:0:0:0:
64,160,140044,1,0,0:0:0:0:
32,128,140216,1,8,0:0:0:0:
32,128,140387,1,0,0:0:0:0:
32,128,140473,1,0,0:0:0:0:
32,128,140559,1,8,0:0:0:0:
32,128,140730,1,8,0:0:0:0:
132,150,141073,1,8,0:0:0:0:
93,181,141244,1,8,0:0:0:0:
94,180,141416,1,0,0:0:0:0:
94,180,141587,1,8,0:0:0:0:
93,180,141759,1,0,0:0:0:0:
93,180,141844,1,0,0:0:0:0:
93,181,141930,1,8,0:0:0:0:
93,181,142102,1,8,0:0:0:0:
124,139,142273,1,0,0:0:0:0:
94,180,142444,1,8,0:0:0:0:
124,139,142616,1,8,0:0:0:0:
124,139,142787,1,4,0:0:0:0:
124,139,142959,1,4,0:0:0:0:
124,139,143130,1,12,0:0:0:0:
124,139,143302,1,12,0:0:0:0:
124,139,143473,1,4,0:0:0:0:
124,139,143644,1,4,0:0:0:0:
124,139,143816,1,12,0:0:0:0:
124,139,143987,1,12,0:0:0:0:
194,203,145359,1,0,0:0:0:0:
224,160,145530,1,8,0:0:0:0:
64,128,145701,1,0,0:0:0:0:
64,128,145872,1,0,0:0:0:0:
64,128,146044,1,0,0:0:0:0:
128,128,146215,1,8,0:0:0:0:
64,128,146387,1,8,0:0:0:0:
160,160,146558,1,0,0:0:0:0:
160,160,146730,1,0,0:0:0:0:
64,128,146901,1,8,0:0:0:0:
64,128,147072,1,8,0:0:0:0:
64,128,147415,1,8,0:0:0:0:
32,128,147587,1,0,0:0:0:0:
32,128,147758,1,8,0:0:0:0:
32,128,147930,1,0,0:0:0:0:
32,128,148101,1,0,0:0:0:0:
64,128,148272,1,8,0:0:0:0:
32,128,149644,1,8,0:0:0:0:
32,128,150330,1,8,0:0:0:0:
32,128,151015,1,0,0:0:0:0:
144,144,151187,1,0,0:0:0:0:
32,128,151358,1,0,0:0:0:0:
144,144,151530,1,0,0:0:0:0:
32,128,151701,1,8,0:0:0:0:
32,128,151872,1,8,0:0:0:0:
160,160,152044,1,0,0:0:0:0:
160,160,152215,1,0,0:0:0:0:
32,128,152387,1,8,0:0:0:0:
32,128,152558,1,8,0:0:0:0:
32,128,152901,1,8,0:0:0:0:
32,128,153072,1,0,0:0:0:0:
32,128,153244,1,8,0:0:0:0:
128,64,153415,1,0,0:0:0:0:
128,128,153587,1,0,0:0:0:0:
128,64,153758,1,0,0:0:0:0:
128,128,153930,1,8,0:0:0:0:
32,160,154101,1,8,0:0:0:0:
32,160,154272,1,8,0:0:0:0:
128,128,154444,1,0,0:0:0:0:
32,128,154615,1,0,0:0:0:0:
128,128,154787,1,0,0:0:0:0:
32,128,154958,1,8,0:0:0:0:
128,128,155130,1,0,0:0:0:0:
128,128,155301,1,0,0:0:0:0:
160,160,155472,1,8,0:0:0:0:
64,128,155644,1,0,0:0:0:0:
128,128,155815,1,8,0:0:0:0:
128,128,155987,1,8,0:0:0:0:
128,128,156158,1,0,0:0:0:0:
128,128,156330,1,8,0:0:0:0:
128,128,156501,1,8,0:0:0:0:
128,128,157015,1,8,0:0:0:0:
192,96,157358,1,8,0:0:0:0:
192,96,157530,1,0,0:0:0:0:
128,128,157701,1,0,0:0:0:0:
32,128,157872,1,8,0:0:0:0:
160,160,158215,1,8,0:0:0:0:
128,128,158558,1,8,0:0:0:0:
128,128,158730,1,8,0:0:0:0:
128,128,158901,1,0,0:0:0:0:
128,128,159072,1,0,0:0:0:0:
128,128,159244,1,8,0:0:0:0:
128,128,159758,1,8,0:0:0:0:
128,128,160101,1,8,0:0:0:0:
32,352,160272,1,0,0:0:0:0:
32,128,160615,1,8,0:0:0:0:
256,192,160787,1,0,0:0:0:0:
160,160,161130,1,0,0:0:0:0:
160,160,161301,1,8,0:0:0:0:
160,160,161644,1,8,0:0:0:0:
160,160,161815,1,8,0:0:0:0:
160,160,161987,1,0,0:0:0:0:
192,160,162501,1,0,0:0:0:0:
192,160,162844,1,0,0:0:0:0:
192,160,163015,1,8,0:0:0:0:
192,160,163187,1,0,0:0:0:0:
192,160,163358,1,8,0:0:0:0:
192,160,163530,1,8,0:0:0:0:
192,160,163872,1,8,0:0:0:0:
192,160,164044,1,0,0:0:0:0:
96,128,164215,1,0,0:0:0:0:
96,128,164558,1,8,0:0:0:0:
96,128,164730,1,0,0:0:0:0:
96,128,165072,1,8,0:0:0:0:
96,128,165244,1,8,0:0:0:0:
96,128,165415,1,0,0:0:0:0:
96,128,165587,1,0,0:0:0:0:
96,128,165758,1,8,0:0:0:0:
96,128,166101,1,8,0:0:0:0:
86,90,166444,5,0,0:0:0:0:
86,90,166615,1,0,0:0:0:0:
86,90,166787,1,8,0:0:0:0:
96,96,166958,1,0,0:0:0:0:
96,96,167130,1,0,0:0:0:0:
96,96,167301,1,0,0:0:0:0:
256,224,167472,5,8,0:0:0:0:
256,224,167814,1,8,0:0:0:0:
288,192,168329,1,0,0:0:0:0:
128,160,168843,1,8,0:0:0:0:
128,160,169014,1,0,0:0:0:0:
128,160,169186,1,8,0:0:0:0:
128,160,170043,1,0,0:0:0:0:
192,224,170214,1,8,0:0:0:0:
192,224,170557,1,8,0:0:0:0:
192,224,171072,1,0,0:0:0:0:
128,160,171586,1,8,0:0:0:0:
128,160,171757,1,0,0:0:0:0:
256,160,171929,1,8,0:0:0:0:
224,224,172786,1,0,0:0:0:0:
224,224,172957,1,12,0:0:0:0:
192,160,175014,1,12,0:0:0:0:
192,160,175529,1,0,0:0:0:0:
192,160,175700,1,12,0:0:0:0:
192,224,178100,1,8,0:0:0:0:
224,256,178443,1,0,0:0:0:0:
32,128,178614,1,0,0:0:0:0:
288,320,178786,1,8,0:0:0:0:
224,160,179129,1,8,0:0:0:0:
128,160,179300,1,0,0:0:0:0:
128,160,179471,1,0,0:0:0:0:
128,160,179643,1,0,0:0:0:0:
128,160,179814,1,8,0:0:0:0:
128,160,180157,1,8,0:0:0:0:
128,160,180500,1,8,0:0:0:0:
101,147,180671,1,0,0:0:0:0:
32,160,180843,1,0,0:0:0:0:
64,160,181014,1,8,0:0:0:0:
128,128,181357,1,8,0:0:0:0:
128,128,181529,1,0,0:0:0:0:
128,160,181700,1,12,0:0:0:0:
128,160,182043,1,4,0:0:0:0:
128,160,182386,1,12,0:0:0:0:
128,128,182729,1,4,0:0:0:0:
128,160,183071,1,12,0:0:0:0:
69,133,183929,1,0,0:0:0:0:
69,133,184100,1,0,0:0:0:0:
81,206,184271,1,8,0:0:0:0:
128,144,184443,1,0,0:0:0:0:
128,144,184529,1,0,0:0:0:0:
81,206,184614,1,8,0:0:0:0:
69,133,184786,1,0,0:0:0:0:
81,206,184957,1,8,0:0:0:0:
69,133,185129,1,0,0:0:0:0:
81,206,185300,1,8,0:0:0:0:
81,206,185643,1,8,0:0:0:0:
69,133,185814,1,0,0:0:0:0:
81,206,185986,1,8,0:0:0:0:
68,211,186157,1,8,0:0:0:0:
76,94,186329,1,0,0:0:0:0:
76,94,186500,1,8,0:0:0:0:
66,208,186671,1,8,0:0:0:0:
76,94,186843,1,8,0:0:0:0:
66,208,187014,1,0,0:0:0:0:
66,208,187186,1,0,0:0:0:0:
76,94,187357,1,8,0:0:0:0:
272,208,187529,1,0,0:0:0:0:
208,192,187614,1,0,0:0:0:0:
80,144,187786,1,0,0:0:0:0:
272,208,187871,1,0,0:0:0:0:
304,176,188043,1,8,0:0:0:0:
272,208,188214,1,0,0:0:0:0:
224,176,188300,1,0,0:0:0:0:
160,144,188386,1,0,0:0:0:0:
304,176,188557,1,8,0:0:0:0:
272,224,188729,1,8,0:0:0:0:
272,224,188900,1,0,0:0:0:0:
304,176,189071,1,8,0:0:0:0:
304,176,189243,1,8,0:0:0:0:
194,138,189414,1,0,0:0:0:0:
194,138,189586,1,0,0:0:0:0:
71,219,189757,1,8,0:0:0:0:
80,80,189929,1,0,0:0:0:0:
80,144,190014,1,0,0:0:0:0:
71,219,190100,1,8,0:0:0:0:
194,138,190271,1,0,0:0:0:0:
78,216,190443,1,8,0:0:0:0:
194,138,190614,1,0,0:0:0:0:
77,225,190786,1,8,0:0:0:0:
194,138,191129,1,8,0:0:0:0:
194,138,191300,1,0,0:0:0:0:
77,225,191471,1,8,0:0:0:0:
77,225,191643,1,8,0:0:0:0:
194,138,191814,1,0,0:0:0:0:
194,138,191986,1,8,0:0:0:0:
77,225,192157,1,8,0:0:0:0:
272,224,192329,1,8,0:0:0:0:
272,224,192500,1,0,0:0:0:0:
272,224,192671,1,0,0:0:0:0:
80,96,192843,1,8,0:0:0:0:
276,210,193014,1,0,0:0:0:0:
208,192,193100,1,0,0:0:0:0:
80,144,193271,1,0,0:0:0:0:
276,210,193357,1,0,0:0:0:0:
308,178,193529,1,8,0:0:0:0:
276,210,193700,1,0,0:0:0:0:
80,144,193786,1,0,0:0:0:0:
80,144,193871,1,0,0:0:0:0:
308,178,194043,1,8,0:0:0:0:
276,226,194214,1,8,0:0:0:0:
276,226,194386,1,0,0:0:0:0:
308,178,194557,1,8,0:0:0:0:
308,178,194729,1,8,0:0:0:0:
194,138,194900,1,0,0:0:0:0:
194,138,195071,1,0,0:0:0:0:
71,219,195243,1,8,0:0:0:0:
96,80,195414,1,0,0:0:0:0:
80,144,195500,1,0,0:0:0:0:
71,219,195586,1,8,0:0:0:0:
194,138,195757,1,0,0:0:0:0:
78,216,195929,1,8,0:0:0:0:
194,138,196100,1,0,0:0:0:0:
77,225,196271,1,8,0:0:0:0:
194,138,196614,1,8,0:0:0:0:
194,138,196786,1,0,0:0:0:0:
77,225,196957,1,8,0:0:0:0:
77,225,197129,1,8,0:0:0:0:
194,138,197300,1,0,0:0:0:0:
194,138,197471,1,8,0:0:0:0:
77,225,197643,1,8,0:0:0:0:
272,224,197814,1,8,0:0:0:0:
272,224,197986,1,0,0:0:0:0:
272,224,198157,1,0,0:0:0:0:
80,96,198329,1,8,0:0:0:0:
276,210,198500,1,0,0:0:0:0:
224,176,198586,1,0,0:0:0:0:
112,112,198757,1,0,0:0:0:0:
276,210,198843,1,0,0:0:0:0:
308,178,199014,1,8,0:0:0:0:
276,210,199186,1,0,0:0:0:0:
224,176,199271,1,0,0:0:0:0:
160,144,199357,1,0,0:0:0:0:
308,178,199529,1,8,0:0:0:0:
276,226,199700,1,8,0:0:0:0:
276,226,199871,1,0,0:0:0:0:
308,178,200043,1,8,0:0:0:0:
308,178,200214,1,8,0:0:0:0:
3,164,200386,5,4,0:0:0:0:
160,224,200557,2,0,L|304:128,1,160
98,81,201071,1,4,0:0:0:0:
160,224,201243,2,0,L|304:128,1,160
128,160,201757,5,0,0:0:0:0:
192,224,201843,1,0,0:0:0:0:
192,224,201929,1,8,0:0:0:0:
192,224,202100,1,8,0:0:0:0:
192,224,202271,1,0,0:0:0:0:
192,224,202443,1,0,0:0:0:0:
192,224,202614,1,8,0:0:0:0:
192,224,202786,1,8,0:0:0:0:
192,224,202871,1,8,0:0:0:0:
192,224,202957,1,0,0:0:0:0:
64,160,203129,1,8,0:0:0:0:
352,160,203300,1,8,0:0:0:0:
352,160,203471,1,8,0:0:0:0:
352,160,203643,1,0,0:0:0:0:
352,160,203729,1,0,0:0:0:0:
0,160,203814,1,8,0:0:0:0:
0,128,203986,1,8,0:0:0:0:
0,128,204157,1,0,0:0:0:0:
0,160,204329,1,8,0:0:0:0:
0,128,204500,1,0,0:0:0:0:
96,144,204586,1,0,0:0:0:0:
64,160,204671,1,8,0:0:0:0:
64,160,204843,1,8,0:0:0:0:
64,160,205014,1,0,0:0:0:0:
64,160,205186,1,0,0:0:0:0:
64,160,205357,1,8,0:0:0:0:
64,160,205529,1,8,0:0:0:0:
64,160,205614,1,8,0:0:0:0:
64,160,205700,1,0,0:0:0:0:
64,160,205871,1,8,0:0:0:0:
192,160,206043,1,0,0:0:0:0:
224,192,206214,1,8,0:0:0:0:
192,160,206386,1,0,0:0:0:0:
96,128,206557,1,8,0:0:0:0:
32,128,206643,1,8,0:0:0:0:
32,128,206729,1,0,0:0:0:0:
96,192,206900,1,0,0:0:0:0:
192,128,207071,1,8,0:0:0:0:
128,160,207243,1,0,0:0:0:0:
192,224,207329,1,0,0:0:0:0:
192,224,207414,1,8,0:0:0:0:
192,224,207586,1,8,0:0:0:0:
192,224,207757,1,0,0:0:0:0:
192,224,207929,1,0,0:0:0:0:
192,224,208100,1,8,0:0:0:0:
192,224,208271,1,8,0:0:0:0:
192,224,208357,1,8,0:0:0:0:
192,224,208443,1,0,0:0:0:0:
64,160,208614,1,8,0:0:0:0:
352,160,208786,1,8,0:0:0:0:
352,160,208957,1,8,0:0:0:0:
352,160,209129,1,0,0:0:0:0:
352,160,209214,1,0,0:0:0:0:
0,160,209300,1,8,0:0:0:0:
0,128,209471,1,8,0:0:0:0:
0,128,209643,1,0,0:0:0:0:
0,160,209814,1,8,0:0:0:0:
128,160,209986,1,0,0:0:0:0:
48,96,210071,1,0,0:0:0:0:
192,224,210157,1,8,0:0:0:0:
192,224,210329,1,8,0:0:0:0:
192,224,210500,1,0,0:0:0:0:
192,224,210671,1,0,0:0:0:0:
192,224,210843,1,8,0:0:0:0:
192,224,211014,1,8,0:0:0:0:
192,224,211100,1,8,0:0:0:0:
192,224,211186,1,0,0:0:0:0:
448,224,211357,5,8,0:0:0:0:
448,256,211529,1,0,0:0:0:0:
448,256,211700,1,8,0:0:0:0:
416,256,211871,1,0,0:0:0:0:
416,256,212043,1,8,0:0:0:0:
192,160,212214,1,0,0:0:0:0:
96,160,212300,1,0,0:0:0:0:
96,160,212386,1,8,0:0:0:0:
128,160,212729,1,8,0:0:0:0:
96,160,212900,1,0,0:0:0:0:
96,160,212986,1,0,0:0:0:0:
96,160,213071,1,8,0:0:0:0:
96,160,213243,1,8,0:0:0:0:
128,160,213414,1,0,0:0:0:0:
128,160,213586,1,8,0:0:0:0:
352,192,213757,1,0,0:0:0:0:
352,224,213929,1,0,0:0:0:0:
352,224,214100,1,0,0:0:0:0:
384,288,214271,1,8,0:0:0:0:
384,288,214443,1,8,0:0:0:0:
384,288,214614,1,0,0:0:0:0:
384,256,214786,1,8,0:0:0:0:
384,256,214957,1,8,0:0:0:0:
96,128,215129,1,8,0:0:0:0:
96,128,215214,1,0,0:0:0:0:
96,128,215300,1,8,0:0:0:0:
96,128,215471,1,0,0:0:0:0:
96,160,215643,1,0,0:0:0:0:
96,160,215729,1,0,0:0:0:0:
96,160,215814,1,8,0:0:0:0:
96,160,215986,1,8,0:0:0:0:
128,160,216157,1,0,0:0:0:0:
128,160,216329,1,8,0:0:0:0:
352,192,216500,1,0,0:0:0:0:
352,224,216671,1,0,0:0:0:0:
352,224,216843,1,0,0:0:0:0:
384,288,217014,1,8,0:0:0:0:
384,288,217186,1,8,0:0:0:0:
384,288,217357,1,0,0:0:0:0:
192,192,217529,1,8,0:0:0:0:
192,192,217614,1,8,0:0:0:0:
192,192,217700,1,8,0:0:0:0:
192,192,217871,1,8,0:0:0:0:
192,192,217957,1,8,0:0:0:0:
192,192,218043,1,8,0:0:0:0:
192,192,218214,1,0,0:0:0:0:
192,192,218386,1,8,0:0:0:0:
115,161,218557,1,8,0:0:0:0:
166,125,218729,1,0,0:0:0:0:
166,125,218814,1,0,0:0:0:0:
166,125,218900,1,8,0:0:0:0:
141,132,219071,1,8,0:0:0:0:
147,120,219243,1,0,0:0:0:0:
146,120,219414,1,8,0:0:0:0:
64,160,219586,1,0,0:0:0:0:
64,160,219671,1,0,0:0:0:0:
64,160,219757,1,8,0:0:0:0:
64,160,219929,1,0,0:0:0:0:
154,81,220100,1,8,0:0:0:0:
64,192,220271,1,8,0:0:0:0:
64,192,220443,1,8,0:0:0:0:
64,192,220614,1,8,0:0:0:0:
64,192,220786,1,8,0:0:0:0:
160,256,220957,1,0,0:0:0:0:
256,288,221129,1,8,0:0:0:0:
64,160,221300,1,8,0:0:0:0:
64,160,221471,1,0,0:0:0:0:
64,160,221557,1,0,0:0:0:0:
64,160,221643,1,8,0:0:0:0:
32,160,221814,1,8,0:0:0:0:
32,160,221986,1,0,0:0:0:0:
192,96,222157,1,8,0:0:0:0:
256,288,222329,5,0,0:0:0:0:
256,288,222500,1,0,0:0:0:0:
256,288,222586,1,0,0:0:0:0:
256,288,222671,1,8,0:0:0:0:
256,320,222843,1,8,0:0:0:0:
128,160,223014,5,0,0:0:0:0:
128,160,223186,1,8,0:0:0:0:
128,160,223357,1,0,0:0:0:0:
128,160,223443,1,0,0:0:0:0:
128,160,223529,1,8,0:0:0:0:
