osu file format v14

[General]
AudioFilename: audio.mp3
AudioLeadIn: 0
PreviewTime: 196948
Countdown: 0
SampleSet: None
StackLeniency: 0
Mode: 0
LetterboxInBreaks: 0
WidescreenStoryboard: 0

[Editor]
DistanceSpacing: 1.05
BeatDivisor: 4
GridSize: 32
TimelineZoom: 1.8

[Metadata]
Title:Drain of Incarnation
TitleUnicode:Drain of Incarnation
Artist:Archspire
ArtistUnicode:Archspire
Creator:Blood9
Version:Torn Under Claw in the Wake of Their Flight
Source:
Tags:Bleed the future technical melodic grind death metal english progressive
BeatmapID:3382987
BeatmapSetID:1657423

[Difficulty]
HPDrainRate:4.4
CircleSize:4.1
OverallDifficulty:10
ApproachRate:9.7
SliderMultiplier:2.1
SliderTickRate:1

[Events]
//Background and Video events
0,0,"91343239_p0.jpg",0,0
//Break Periods
//Storyboard Layer 0 (Background)
//Storyboard Layer 1 (Fail)
//Storyboard Layer 2 (Pass)
//Storyboard Layer 3 (Foreground)
//Storyboard Layer 4 (Overlay)
//Storyboard Sound Samples

[TimingPoints]
136,375,4,1,0,100,1,0
60886,375,3,1,0,100,1,0
60886,-121.951219512195,3,1,0,100,0,0
69886,-100,3,1,0,100,0,0
83011,-33.3333333333333,3,1,0,100,0,0
83386,375,4,1,0,100,1,0
83386,-80,4,1,0,100,0,0
83761,-50,4,1,0,100,0,0
83948,-80,4,1,0,100,0,0
92386,-107.52688172043,4,1,0,100,0,0
92761,-66.6666666666667,4,1,0,100,0,0
92948,-107.52688172043,4,1,0,100,0,0
94636,-133.333333333333,4,1,0,100,0,0
95011,-50,4,1,0,100,0,0
95573,-133.333333333333,4,1,0,100,0,0
95761,-50,4,1,0,100,0,0
96511,-114.942528735632,4,1,0,100,0,0
96886,-76.9230769230769,4,1,0,100,0,0
101386,-66.6666666666667,4,1,0,100,0,0
104761,-57.1428571428571,4,1,0,100,0,0
104948,-133.333333333333,4,1,0,100,0,0
105136,-200,4,1,0,100,0,0
105323,-100,4,1,0,100,0,0
105511,-66.6666666666667,4,1,0,100,0,0
105698,-50,4,1,0,100,0,0
105886,-117.647058823529,4,1,0,100,0,0
110386,-100,4,1,0,100,0,0
118261,-90.9090909090909,4,1,0,100,0,0
118636,-111.111111111111,4,1,0,100,0,0
119011,-142.857142857143,4,1,0,100,0,0
123511,-500,4,1,0,100,0,0
123886,-100,4,1,0,100,0,1
131386,-100,4,1,0,100,0,0
135886,-100,4,1,0,100,0,1
143386,-90.9090909090909,4,1,0,100,0,0
149386,-125,4,1,0,100,0,0
155386,-100,4,1,0,100,0,0
158386,-75.187969924812,4,1,0,100,0,0
159886,-100,4,1,0,100,0,0
160261,-111.111111111111,4,1,0,100,0,0
160636,-133.333333333333,4,1,0,100,0,0
161011,-66.6666666666667,4,1,0,100,0,0
161386,-81.9672131147541,4,1,0,100,0,0
167011,-66.6666666666667,4,1,0,100,0,0
167386,-100,4,1,0,100,0,0
179386,-89.2857142857143,4,1,0,100,0,0
194386,-133.333333333333,4,1,0,100,0,0
194667,-153.846153846153,4,1,0,100,0,0
194948,-181.818181818181,4,1,0,100,0,0
195417,-222.222222222221,4,1,0,100,0,0
197011,-303.030303030303,4,1,0,100,0,0
197386,-90.9090909090909,4,1,0,100,0,1
215011,-66.6666666666667,4,1,0,100,0,1
215386,-90.9090909090909,4,1,0,100,0,1
219886,-90.9090909090909,4,1,0,100,0,0
221386,-100,4,1,0,100,0,0

[Colours]
Combo1 : 88,88,88
Combo2 : 197,197,197

[HitObjects]
104,300,60886,5,0,0:0:0:0:
135,244,60979,1,0,0:0:0:0:
178,240,61073,1,0,0:0:0:0:
199,248,61167,1,0,0:0:0:0:
250,304,61261,5,0,0:0:0:0:
324,304,61354,1,0,0:0:0:0:
359,249,61448,5,0,0:0:0:0:
354,241,61542,1,0,0:0:0:0:
293,178,61636,5,0,0:0:0:0:
282,209,61729,1,0,0:0:0:0:
360,141,61823,5,0,0:0:0:0:
337,99,61917,1,0,0:0:0:0:
257,58,62011,5,0,0:0:0:0:
224,105,62104,1,0,0:0:0:0:
185,116,62198,1,0,0:0:0:0:
164,108,62292,1,0,0:0:0:0:
135,37,62386,5,0,0:0:0:0:
85,19,62479,1,0,0:0:0:0:
41,33,62573,5,0,0:0:0:0:
44,45,62667,1,0,0:0:0:0:
82,113,62761,5,0,0:0:0:0:
74,143,62854,1,0,0:0:0:0:
8,193,62948,5,0,0:0:0:0:
22,236,63042,1,0,0:0:0:0:
84,276,63136,5,0,0:0:0:0:
128,322,63229,1,0,0:0:0:0:
113,360,63323,1,0,0:0:0:0:
90,374,63417,1,0,0:0:0:0:
12,360,63511,5,0,0:0:0:0:
65,322,63604,1,0,0:0:0:0:
108,324,63698,5,0,0:0:0:0:
118,335,63792,1,0,0:0:0:0:
187,382,63886,5,0,0:0:0:0:
207,351,63979,1,0,0:0:0:0:
266,274,64073,5,0,0:0:0:0:
288,320,64167,1,0,0:0:0:0:
389,371,64261,6,0,B|367:370|367:370|389:356,1,43.0500006568909
459,330,64448,2,0,B|481:331|481:331|459:345,1,43.0500006568909
355,284,64636,6,0,B|377:283|377:283|355:269,1,43.0500006568909
285,243,64823,2,0,B|263:244|263:244|285:258,1,43.0500006568909
381,201,65011,6,0,B|359:200|359:200|381:186,1,43.0500006568909
451,160,65198,2,0,B|473:161|473:161|451:175,1,43.0500006568909
327,128,65386,5,0,0:0:0:0:
284,59,65479,1,0,0:0:0:0:
337,24,65573,1,0,0:0:0:0:
363,42,65667,1,0,0:0:0:0:
314,132,65761,5,0,0:0:0:0:
256,129,65854,1,0,0:0:0:0:
218,99,65948,5,0,0:0:0:0:
205,106,66042,1,0,0:0:0:0:
134,126,66136,5,0,0:0:0:0:
128,157,66229,1,0,0:0:0:0:
72,213,66323,5,0,0:0:0:0:
109,243,66417,1,0,0:0:0:0:
193,221,66511,5,0,0:0:0:0:
207,167,66604,1,0,0:0:0:0:
186,131,66698,1,0,0:0:0:0:
155,122,66792,1,0,0:0:0:0:
75,119,66886,5,0,0:0:0:0:
32,82,66979,1,0,0:0:0:0:
42,40,67073,5,0,0:0:0:0:
50,35,67167,1,0,0:0:0:0:
160,31,67261,5,0,0:0:0:0:
128,13,67354,1,0,0:0:0:0:
227,67,67448,5,0,0:0:0:0:
276,49,67542,1,0,0:0:0:0:
349,11,67636,5,0,0:0:0:0:
397,43,67729,1,0,0:0:0:0:
395,86,67823,1,0,0:0:0:0:
383,103,67917,1,0,0:0:0:0:
412,178,68011,5,0,0:0:0:0:
364,199,68104,1,0,0:0:0:0:
312,181,68198,5,0,0:0:0:0:
320,176,68292,1,0,0:0:0:0:
391,248,68386,5,0,0:0:0:0:
367,232,68479,1,0,0:0:0:0:
264,305,68573,5,0,0:0:0:0:
302,271,68667,1,0,0:0:0:0:
354,358,68761,6,0,B|349:375|373:390|372:360|353:358,1,43.0500006568909
315,294,68948,2,0,B|320:277|296:262|297:292|316:294,1,43.0500006568909
182,295,69136,6,0,B|187:312|163:327|164:297|183:295,1,43.0500006568909
221,231,69323,2,0,B|216:214|240:199|239:229|220:231,1,43.0500006568909
221,231,69886,5,0,0:0:0:0:
190,188,69979,1,0,0:0:0:0:
148,179,70073,1,0,0:0:0:0:
117,187,70167,1,0,0:0:0:0:
101,200,70261,5,0,0:0:0:0:
130,156,70354,1,0,0:0:0:0:
129,113,70448,1,0,0:0:0:0:
104,93,70542,1,0,0:0:0:0:
83,90,70636,5,0,0:0:0:0:
111,112,70729,1,0,0:0:0:0:
163,110,70823,1,0,0:0:0:0:
216,66,70917,1,0,0:0:0:0:
298,47,71011,5,0,0:0:0:0:
347,64,71104,1,0,0:0:0:0:
363,102,71198,1,0,0:0:0:0:
354,132,71292,1,0,0:0:0:0:
339,147,71386,5,0,0:0:0:0:
381,177,71479,1,0,0:0:0:0:
386,218,71573,1,0,0:0:0:0:
373,246,71667,1,0,0:0:0:0:
354,255,71761,5,0,0:0:0:0:
350,251,71854,1,0,0:0:0:0:
352,246,71948,1,0,0:0:0:0:
357,244,72042,1,0,0:0:0:0:
359,248,72136,5,0,0:0:0:0:
350,304,72229,1,0,0:0:0:0:
310,330,72323,1,0,0:0:0:0:
273,331,72417,1,0,0:0:0:0:
251,316,72511,5,0,0:0:0:0:
305,298,72604,1,0,0:0:0:0:
350,312,72698,1,0,0:0:0:0:
371,341,72792,1,0,0:0:0:0:
390,358,72886,5,0,0:0:0:0:
426,357,72979,1,0,0:0:0:0:
463,320,73073,1,0,0:0:0:0:
453,252,73167,1,0,0:0:0:0:
390,209,73261,5,0,0:0:0:0:
331,225,73354,1,0,0:0:0:0:
381,199,73448,1,0,0:0:0:0:
331,213,73542,1,0,0:0:0:0:
224,158,73636,5,0,0:0:0:0:
262,168,73729,1,0,0:0:0:0:
229,151,73823,1,0,0:0:0:0:
262,160,73917,1,0,0:0:0:0:
342,104,74011,5,0,0:0:0:0:
320,109,74104,1,0,0:0:0:0:
339,99,74198,1,0,0:0:0:0:
320,105,74292,1,0,0:0:0:0:
256,56,74386,5,0,0:0:0:0:
203,29,74448,1,0,0:0:0:0:
157,48,74511,1,0,0:0:0:0:
139,82,74573,1,0,0:0:0:0:
113,94,74636,1,0,0:0:0:0:
95,90,74698,1,0,0:0:0:0:
90,84,74761,5,0,0:0:0:0:
148,90,74823,1,0,0:0:0:0:
170,134,74886,1,0,0:0:0:0:
159,170,74948,1,0,0:0:0:0:
135,185,75011,1,0,0:0:0:0:
117,187,75073,1,0,0:0:0:0:
108,182,75136,6,0,B|90:174|67:178|58:193|58:193|55:191|55:191|58:193|58:193|49:210|25:220|8:215,1,105
102,263,75511,5,0,0:0:0:0:
132,312,75573,1,0,0:0:0:0:
178,327,75636,1,0,0:0:0:0:
214,314,75698,1,0,0:0:0:0:
229,289,75761,1,0,0:0:0:0:
228,271,75823,1,0,0:0:0:0:
225,265,75886,5,0,0:0:0:0:
232,205,75948,1,0,0:0:0:0:
273,178,76011,1,0,0:0:0:0:
311,183,76073,1,0,0:0:0:0:
332,200,76136,1,0,0:0:0:0:
338,216,76198,1,0,0:0:0:0:
338,223,76261,6,0,B|300:237|303:288|303:288|317:291|336:300,1,105
298,363,76636,5,0,0:0:0:0:
355,375,76698,1,0,0:0:0:0:
400,354,76761,1,0,0:0:0:0:
426,326,76823,1,0,0:0:0:0:
453,319,76886,1,0,0:0:0:0:
469,323,76948,1,0,0:0:0:0:
473,328,77011,5,0,0:0:0:0:
506,279,77073,1,0,0:0:0:0:
502,229,77136,1,0,0:0:0:0:
471,206,77198,1,0,0:0:0:0:
454,183,77261,1,0,0:0:0:0:
455,165,77323,1,0,0:0:0:0:
460,160,77386,6,0,B|474:141|499:134|499:134|482:109|501:72,1,105
320,13,77761,5,0,0:0:0:0:
280,45,77854,1,0,0:0:0:0:
295,91,77948,1,0,0:0:0:0:
254,157,78042,5,0,0:0:0:0:
282,177,78136,1,0,0:0:0:0:
318,169,78229,1,0,0:0:0:0:
384,220,78323,5,0,0:0:0:0:
315,261,78417,1,0,0:0:0:0:
311,274,78511,2,0,B|296:280|291:297|291:297|310:289|315:274,1,52.5
235,369,78698,6,0,B|223:343|223:343|197:334,1,52.5
42,190,78886,5,0,0:0:0:0:
83,258,78979,1,0,0:0:0:0:
151,217,79073,1,0,0:0:0:0:
110,149,79167,1,0,0:0:0:0:
59,224,79261,5,0,0:0:0:0:
129,182,79355,1,0,0:0:0:0:
74,168,79449,1,0,0:0:0:0:
116,237,79542,1,0,0:0:0:0:
233,30,80198,5,0,0:0:0:0:
206,103,80292,1,0,0:0:0:0:
284,88,80386,1,0,0:0:0:0:
202,54,80480,5,0,0:0:0:0:
261,46,80573,1,0,0:0:0:0:
241,99,80667,1,0,0:0:0:0:
409,320,81323,5,0,0:0:0:0:
433,246,81417,1,0,0:0:0:0:
485,307,81511,1,0,0:0:0:0:
400,281,81605,5,0,0:0:0:0:
440,325,81698,1,0,0:0:0:0:
458,271,81792,1,0,0:0:0:0:
419,53,82261,5,0,0:0:0:0:
343,32,82354,1,0,0:0:0:0:
291,91,82448,1,0,0:0:0:0:
307,168,82542,1,0,0:0:0:0:
264,234,82636,1,0,0:0:0:0:
187,220,82729,1,0,0:0:0:0:
163,144,82823,1,0,0:0:0:0:
88,117,82917,1,0,0:0:0:0:
33,174,83011,6,0,B|20:200|40:212|43:211|47:208|60:233|54:257|34:272|34:272|80:255|99:212|92:175|92:175|40:139|50:85|50:85|71:52|126:65|126:65|97:83|90:121,1,472.500018024445
301,302,83386,6,0,P|337:313|374:339,1,65.625
442,310,83573,2,0,P|462:348|463:369,1,65.625
227,236,83761,6,0,B|217:247|229:264|229:264|253:223|315:216,1,105
138,370,83948,5,0,0:0:0:0:
132,367,84042,1,0,0:0:0:0:
126,364,84136,2,0,B|116:331|116:331|115:331|115:331|99:285,1,65.625
2,264,84323,5,0,0:0:0:0:
5,262,84370,1,0,0:0:0:0:
8,260,84417,1,0,0:0:0:0:
11,258,84464,1,0,0:0:0:0:
14,256,84511,2,0,L|26:212,1,32.8125
137,201,84698,6,0,B|165:216|165:216|119:210,1,65.625
119,195,84886,5,0,0:0:0:0:
68,142,84979,1,0,0:0:0:0:
108,100,85073,1,0,0:0:0:0:
79,68,85167,1,0,0:0:0:0:
91,47,85261,5,0,0:0:0:0:
91,40,85354,1,0,0:0:0:0:
91,33,85448,1,0,0:0:0:0:
91,26,85542,1,0,0:0:0:0:
92,19,85636,5,0,0:0:0:0:
163,13,85729,1,0,0:0:0:0:
215,39,85823,1,0,0:0:0:0:
233,81,85917,1,0,0:0:0:0:
233,113,86011,5,0,0:0:0:0:
298,109,86104,1,0,0:0:0:0:
341,139,86198,1,0,0:0:0:0:
348,177,86292,1,0,0:0:0:0:
342,202,86386,5,0,0:0:0:0:
395,226,86479,1,0,0:0:0:0:
400,271,86573,1,0,0:0:0:0:
383,299,86667,1,0,0:0:0:0:
366,309,86761,5,0,0:0:0:0:
348,357,86854,1,0,0:0:0:0:
311,371,86948,1,0,0:0:0:0:
285,366,87042,1,0,0:0:0:0:
275,357,87136,5,0,0:0:0:0:
307,279,87229,1,0,0:0:0:0:
338,206,87323,1,0,0:0:0:0:
365,139,87417,1,0,0:0:0:0:
392,79,87511,1,0,0:0:0:0:
392,79,87886,5,0,0:0:0:0:
365,59,87979,1,0,0:0:0:0:
332,54,88073,1,0,0:0:0:0:
301,66,88167,1,0,0:0:0:0:
279,91,88261,1,0,0:0:0:0:
272,129,88354,1,0,0:0:0:0:
255,164,88448,1,0,0:0:0:0:
221,184,88542,1,0,0:0:0:0:
181,181,88636,1,0,0:0:0:0:
153,144,88729,1,0,0:0:0:0:
113,120,88823,1,0,0:0:0:0:
69,135,88917,1,0,0:0:0:0:
46,175,89011,1,0,0:0:0:0:
47,227,89104,1,0,0:0:0:0:
79,268,89198,1,0,0:0:0:0:
130,280,89292,1,0,0:0:0:0:
181,267,89386,1,0,0:0:0:0:
224,228,89479,1,0,0:0:0:0:
278,206,89573,1,0,0:0:0:0:
337,209,89667,1,0,0:0:0:0:
380,248,89761,1,0,0:0:0:0:
390,312,89854,1,0,0:0:0:0:
356,368,89948,1,0,0:0:0:0:
291,379,90042,1,0,0:0:0:0:
236,341,90136,5,0,0:0:0:0:
280,349,90229,1,0,0:0:0:0:
324,338,90323,1,0,0:0:0:0:
355,304,90417,1,0,0:0:0:0:
361,258,90511,1,0,0:0:0:0:
332,214,90604,1,0,0:0:0:0:
282,195,90698,1,0,0:0:0:0:
229,197,90792,1,0,0:0:0:0:
189,161,90886,1,0,0:0:0:0:
179,103,90979,1,0,0:0:0:0:
209,52,91073,1,0,0:0:0:0:
265,34,91167,1,0,0:0:0:0:
322,46,91261,1,0,0:0:0:0:
354,102,91354,1,0,0:0:0:0:
344,167,91448,1,0,0:0:0:0:
295,211,91542,1,0,0:0:0:0:
229,214,91636,5,0,0:0:0:0:
211,137,91729,1,0,0:0:0:0:
132,126,91823,5,0,0:0:0:0:
106,133,91886,1,0,0:0:0:0:
96,157,91948,1,0,0:0:0:0:
105,181,92011,6,0,B|109:184|109:184|138:168|138:168|139:165|139:165|169:156,1,65.625
435,259,92386,6,0,B|404:277|404:277|390:302,1,48.8250015272713
322,323,92573,2,0,B|329:347|329:347|357:367,1,48.8250015272713
467,181,92761,6,0,B|482:122|482:122|472:129|472:129|467:145|467:145,1,78.7500030040742
345,32,92948,5,0,0:0:0:0:
340,34,93011,1,0,0:0:0:0:
335,36,93073,1,0,0:0:0:0:
330,38,93136,2,0,B|312:42|312:42|281:29,1,48.8250015272713
192,106,93323,5,0,0:0:0:0:
195,104,93370,1,0,0:0:0:0:
198,102,93417,1,0,0:0:0:0:
201,101,93464,1,0,0:0:0:0:
204,100,93511,6,0,B|224:93|224:93|258:109,1,48.8250015272713
327,167,93698,6,0,L|310:224,1,48.8250015272713
227,302,93886,5,0,0:0:0:0:
222,297,93979,1,0,0:0:0:0:
217,290,94073,2,0,P|240:274|270:267,1,48.8250015272713
372,360,94261,6,0,B|348:355|348:355|348:353|348:353|322:347,1,48.8250015272713
326,347,94448,2,0,B|347:352|347:352|347:354|347:354|371:359,1,48.8250015272713
174,207,94636,6,0,B|152:140|79:159|77:171|87:179|104:178,1,118.125004506111
46,296,95011,6,0,B|72:279|65:228|48:230|25:273|44:294,1,105
1,187,95198,6,0,B|-22:168|-15:117|1:119|21:170|-3:188,1,105
82,89,95386,5,0,0:0:0:0:
80,83,95479,1,0,0:0:0:0:
78,77,95573,2,0,P|110:85|138:102,1,39.3750015020371
189,59,95761,6,0,B|234:78|228:123|228:123|217:134|217:134|210:116|205:111,1,105
391,289,95948,5,0,0:0:0:0:
380,287,96042,1,0,0:0:0:0:
371,286,96136,2,0,B|343:291|343:291|292:261|292:261|311:251|311:251|328:259,1,105
366,163,96323,6,0,B|334:175|334:175|304:176|304:176|267:193,1,105
259,326,96511,6,0,B|293:345|293:345|272:377|272:377|241:356|241:356|259:329,1,137.02500114996
430,63,96886,5,0,0:0:0:0:
382,111,96979,1,0,0:0:0:0:
314,99,97073,1,0,0:0:0:0:
276,41,97167,1,0,0:0:0:0:
208,28,97261,1,0,0:0:0:0:
153,68,97354,1,0,0:0:0:0:
145,136,97448,1,0,0:0:0:0:
193,184,97542,1,0,0:0:0:0:
208,250,97636,5,0,0:0:0:0:
200,261,97729,1,0,0:0:0:0:
186,262,97823,1,0,0:0:0:0:
179,249,97917,1,0,0:0:0:0:
189,239,98011,5,0,0:0:0:0:
247,204,98104,1,0,0:0:0:0:
313,218,98198,1,0,0:0:0:0:
340,280,98292,1,0,0:0:0:0:
382,333,98386,1,0,0:0:0:0:
449,337,98479,1,0,0:0:0:0:
491,283,98573,1,0,0:0:0:0:
490,214,98667,1,0,0:0:0:0:
437,170,98761,5,0,0:0:0:0:
431,157,98854,1,0,0:0:0:0:
438,145,98948,1,0,0:0:0:0:
451,143,99042,1,0,0:0:0:0:
461,151,99136,5,0,0:0:0:0:
428,91,99229,1,0,0:0:0:0:
359,88,99323,1,0,0:0:0:0:
311,137,99417,1,0,0:0:0:0:
310,205,99511,1,0,0:0:0:0:
365,243,99604,1,0,0:0:0:0:
433,240,99698,1,0,0:0:0:0:
473,295,99792,1,0,0:0:0:0:
458,361,99886,6,0,B|403:351|403:351|394:344|380:343,1,68.2499968757631
234,374,100073,2,0,B|289:364|289:364|298:357|312:356,1,68.2499968757631
160,221,100261,5,0,0:0:0:0:
90,236,100354,1,0,0:0:0:0:
59,301,100448,1,0,0:0:0:0:
95,362,100542,1,0,0:0:0:0:
166,371,100636,1,0,0:0:0:0:
218,323,100729,1,0,0:0:0:0:
214,247,100823,1,0,0:0:0:0:
156,193,100917,1,0,0:0:0:0:
195,120,101011,1,0,0:0:0:0:
195,120,101386,6,0,B|211:114|211:114|143:96,1,78.7500030040742
195,120,101761,6,0,B|211:114|211:114|143:96,1,78.7500030040742
195,120,102136,6,0,B|211:114|211:114|143:96,1,78.7500030040742
314,35,102323,2,0,B|330:41|330:41|262:59,1,78.7500030040742
423,122,102511,6,0,B|426:106|426:106|415:129|415:129|430:176,1,78.7500030040742
423,122,102886,6,0,B|426:106|426:106|415:129|415:129|430:176,1,78.7500030040742
423,122,103261,6,0,B|426:106|426:106|415:129|415:129|430:176,1,78.7500030040742
470,260,103448,2,0,B|466:244|466:244|477:267|477:267|462:314,1,78.7500030040742
353,370,103636,6,0,B|360:371|360:371|333:353|333:353|309:356|309:356|273:348,1,78.7500030040742
353,370,104011,6,0,B|360:371|360:371|333:353|333:353|309:356|309:356|273:348,1,78.7500030040742
353,370,104386,6,0,B|360:371|360:371|333:353|333:353|309:356|309:356|273:348,1,78.7500030040742
236,282,104573,2,0,B|243:281|243:281|216:299|216:299|192:296|192:296|156:304,1,78.7500030040742
429,345,104761,6,0,P|395:299|331:278,1,91.8750008761883
349,213,104948,2,0,P|319:222|307:254,1,39.3750015020371
94,349,105136,6,0,P|94:329|99:311,1,26.25
48,269,105323,2,0,P|75:240|100:228,1,52.5
93,144,105511,2,0,P|142:148|168:175,1,78.7500030040742
279,144,105698,2,0,P|288:206|268:250,1,105
366,363,105886,5,0,0:0:0:0:
417,373,105979,1,0,0:0:0:0:
452,348,106073,1,0,0:0:0:0:
458,323,106167,1,0,0:0:0:0:
494,254,106261,5,0,0:0:0:0:
464,202,106354,1,0,0:0:0:0:
421,186,106448,5,0,0:0:0:0:
416,178,106542,1,0,0:0:0:0:
348,140,106636,5,0,0:0:0:0:
359,112,106729,1,0,0:0:0:0:
436,86,106823,5,0,0:0:0:0:
408,49,106917,1,0,0:0:0:0:
330,22,107011,5,0,0:0:0:0:
273,17,107104,1,0,0:0:0:0:
241,53,107198,1,0,0:0:0:0:
244,81,107292,1,0,0:0:0:0:
216,152,107386,5,0,0:0:0:0:
179,190,107479,1,0,0:0:0:0:
137,188,107573,5,0,0:0:0:0:
128,181,107667,1,0,0:0:0:0:
58,139,107761,5,0,0:0:0:0:
50,168,107854,1,0,0:0:0:0:
11,71,107948,5,0,0:0:0:0:
62,62,108042,1,0,0:0:0:0:
132,17,108136,5,0,0:0:0:0:
169,60,108229,1,0,0:0:0:0:
160,104,108323,1,0,0:0:0:0:
141,121,108417,1,0,0:0:0:0:
78,175,108511,5,0,0:0:0:0:
53,221,108604,1,0,0:0:0:0:
67,263,108698,5,0,0:0:0:0:
77,264,108792,1,0,0:0:0:0:
125,325,108886,5,0,0:0:0:0:
150,314,108979,1,0,0:0:0:0:
194,248,109073,5,0,0:0:0:0:
240,263,109167,1,0,0:0:0:0:
282,327,109261,6,0,B|263:341|263:341|300:334,1,44.6250008511543
357,299,109448,2,0,B|374:285|374:285|340:292,1,44.6250008511543
485,231,109636,6,0,B|503:245|503:245|467:238,1,44.6250008511543
410,203,109823,2,0,B|393:190|393:190|425:196,1,44.6250008511543
410,203,110386,5,0,0:0:0:0:
430,155,110479,1,0,0:0:0:0:
416,115,110573,1,0,0:0:0:0:
387,102,110667,1,0,0:0:0:0:
365,102,110761,5,0,0:0:0:0:
344,54,110854,1,0,0:0:0:0:
304,39,110948,1,0,0:0:0:0:
273,47,111042,1,0,0:0:0:0:
258,62,111136,5,0,0:0:0:0:
224,47,111229,1,0,0:0:0:0:
171,51,111323,1,0,0:0:0:0:
118,103,111417,1,0,0:0:0:0:
119,192,111511,5,0,0:0:0:0:
170,200,111604,1,0,0:0:0:0:
197,231,111698,1,0,0:0:0:0:
201,262,111792,1,0,0:0:0:0:
194,282,111886,5,0,0:0:0:0:
231,245,111979,1,0,0:0:0:0:
272,239,112073,1,0,0:0:0:0:
303,244,112167,1,0,0:0:0:0:
319,257,112261,5,0,0:0:0:0:
315,261,112354,1,0,0:0:0:0:
315,266,112448,1,0,0:0:0:0:
319,269,112542,1,0,0:0:0:0:
324,268,112636,5,0,0:0:0:0:
298,222,112729,1,0,0:0:0:0:
307,180,112823,1,0,0:0:0:0:
332,161,112917,1,0,0:0:0:0:
352,157,113011,5,0,0:0:0:0:
301,169,113104,1,0,0:0:0:0:
260,158,113198,1,0,0:0:0:0:
240,133,113292,1,0,0:0:0:0:
236,112,113386,5,0,0:0:0:0:
242,76,113479,1,0,0:0:0:0:
212,32,113573,1,0,0:0:0:0:
139,19,113667,1,0,0:0:0:0:
67,72,113761,5,0,0:0:0:0:
126,56,113854,1,0,0:0:0:0:
76,82,113948,1,0,0:0:0:0:
126,68,114042,1,0,0:0:0:0:
233,123,114136,5,0,0:0:0:0:
195,113,114229,1,0,0:0:0:0:
228,130,114323,1,0,0:0:0:0:
195,121,114417,1,0,0:0:0:0:
115,177,114511,5,0,0:0:0:0:
137,172,114604,1,0,0:0:0:0:
118,182,114698,1,0,0:0:0:0:
137,176,114792,1,0,0:0:0:0:
202,218,114886,5,0,0:0:0:0:
241,261,114948,1,0,0:0:0:0:
290,262,115011,1,0,0:0:0:0:
323,243,115073,1,0,0:0:0:0:
340,221,115136,1,0,0:0:0:0:
341,203,115198,1,0,0:0:0:0:
338,196,115261,5,0,0:0:0:0:
389,166,115323,1,0,0:0:0:0:
436,178,115386,1,0,0:0:0:0:
457,209,115448,1,0,0:0:0:0:
460,237,115511,1,0,0:0:0:0:
452,252,115573,1,0,0:0:0:0:
445,254,115636,6,0,B|420:262|426:296|426:296|453:318|452:351,1,105
377,356,116011,5,0,0:0:0:0:
321,336,116073,1,0,0:0:0:0:
303,289,116136,1,0,0:0:0:0:
313,252,116198,1,0,0:0:0:0:
335,234,116261,1,0,0:0:0:0:
345,220,116323,1,0,0:0:0:0:
345,212,116386,5,0,0:0:0:0:
292,185,116448,1,0,0:0:0:0:
279,137,116511,1,0,0:0:0:0:
295,102,116573,1,0,0:0:0:0:
321,91,116636,1,0,0:0:0:0:
337,95,116698,1,0,0:0:0:0:
341,100,116761,6,0,B|325:106|313:120|313:120|271:96|271:96|245:95,1,105
375,167,117136,5,0,0:0:0:0:
416,209,117198,1,0,0:0:0:0:
465,206,117261,1,0,0:0:0:0:
487,175,117323,1,0,0:0:0:0:
484,146,117386,1,0,0:0:0:0:
472,133,117448,1,0,0:0:0:0:
465,130,117511,5,0,0:0:0:0:
418,94,117573,1,0,0:0:0:0:
407,45,117636,1,0,0:0:0:0:
432,16,117698,1,0,0:0:0:0:
460,14,117761,1,0,0:0:0:0:
473,25,117823,1,0,0:0:0:0:
474,31,117886,6,0,B|467:74|467:74|460:82|460:82|448:104|455:147,1,105
257,99,118261,6,0,P|233:109|211:133,1,57.7500017623902
214,108,118448,2,0,P|202:131|202:164,1,57.7500017623902
44,178,118636,6,0,P|68:188|90:212,1,47.2499985580445
87,187,118823,2,0,P|98:210|98:243,1,47.2499985580445
220,287,119011,6,0,P|196:297|174:321,1,36.749998878479
177,296,119198,2,0,P|165:319|165:352,1,36.749998878479
150,25,119386,5,0,0:0:0:0:
124,297,123511,6,0,P|127:284|127:296,1,31.5
118,312,123886,5,0,0:0:0:0:
100,286,123948,1,0,0:0:0:0:
100,254,124011,1,0,0:0:0:0:
123,233,124073,1,0,0:0:0:0:
153,223,124136,1,0,0:0:0:0:
184,226,124198,1,0,0:0:0:0:
214,215,124261,1,0,0:0:0:0:
235,192,124323,1,0,0:0:0:0:
236,160,124386,1,0,0:0:0:0:
218,133,124448,1,0,0:0:0:0:
187,124,124511,1,0,0:0:0:0:
167,99,124573,1,0,0:0:0:0:
163,67,124636,1,0,0:0:0:0:
175,38,124698,1,0,0:0:0:0:
205,29,124761,1,0,0:0:0:0:
235,37,124823,1,0,0:0:0:0:
257,59,124886,1,0,0:0:0:0:
273,85,124948,1,0,0:0:0:0:
303,95,125011,6,0,P|320:84|343:76,2,35
359,9,125198,2,0,P|374:17|388:35,2,35
403,131,125386,5,0,0:0:0:0:
399,139,125448,1,0,0:0:0:0:
395,149,125511,1,0,0:0:0:0:
392,159,125573,1,0,0:0:0:0:
390,169,125636,1,0,0:0:0:0:
389,179,125698,1,0,0:0:0:0:
351,185,125761,5,0,0:0:0:0:
354,193,125823,1,0,0:0:0:0:
356,202,125886,1,0,0:0:0:0:
359,210,125948,1,0,0:0:0:0:
360,219,126011,1,0,0:0:0:0:
361,227,126073,1,0,0:0:0:0:
386,243,126136,5,0,0:0:0:0:
383,250,126198,1,0,0:0:0:0:
381,258,126261,1,0,0:0:0:0:
379,265,126323,1,0,0:0:0:0:
377,272,126386,1,0,0:0:0:0:
376,280,126448,1,0,0:0:0:0:
348,305,126511,5,0,0:0:0:0:
350,310,126573,1,0,0:0:0:0:
351,317,126636,1,0,0:0:0:0:
353,322,126698,1,0,0:0:0:0:
354,328,126761,1,0,0:0:0:0:
356,334,126823,1,0,0:0:0:0:
372,358,126886,5,0,0:0:0:0:
377,357,126948,1,0,0:0:0:0:
381,356,127011,1,0,0:0:0:0:
385,354,127073,1,0,0:0:0:0:
389,352,127136,1,0,0:0:0:0:
393,350,127198,1,0,0:0:0:0:
396,347,127261,1,0,0:0:0:0:
399,344,127323,1,0,0:0:0:0:
402,340,127386,1,0,0:0:0:0:
403,336,127448,1,0,0:0:0:0:
405,331,127511,1,0,0:0:0:0:
406,326,127573,1,0,0:0:0:0:
407,320,127636,6,0,L|371:314,5,35
317,240,128011,2,0,L|277:247,5,35
223,326,128386,5,0,0:0:0:0:
219,325,128448,1,0,0:0:0:0:
215,324,128511,1,0,0:0:0:0:
211,323,128573,1,0,0:0:0:0:
207,322,128636,1,0,0:0:0:0:
203,321,128698,1,0,0:0:0:0:
199,320,128761,1,0,0:0:0:0:
195,319,128823,1,0,0:0:0:0:
191,318,128886,1,0,0:0:0:0:
187,317,128948,1,0,0:0:0:0:
183,316,129011,1,0,0:0:0:0:
179,315,129073,1,0,0:0:0:0:
175,314,129136,6,0,P|164:290|163:277,5,35
79,257,129511,2,0,P|90:233|91:220,5,35
161,154,129886,5,0,0:0:0:0:
161,152,129948,1,0,0:0:0:0:
161,150,130011,1,0,0:0:0:0:
160,149,130073,1,0,0:0:0:0:
158,147,130136,1,0,0:0:0:0:
156,147,130198,1,0,0:0:0:0:
154,147,130261,1,0,0:0:0:0:
152,147,130323,1,0,0:0:0:0:
151,148,130386,1,0,0:0:0:0:
150,150,130448,1,0,0:0:0:0:
151,151,130511,1,0,0:0:0:0:
152,152,130573,1,0,0:0:0:0:
153,153,130636,1,0,0:0:0:0:
155,153,130698,1,0,0:0:0:0:
156,152,130761,1,0,0:0:0:0:
158,151,130823,1,0,0:0:0:0:
159,150,130886,1,0,0:0:0:0:
159,148,130948,1,0,0:0:0:0:
158,145,131011,5,0,0:0:0:0:
129,98,131073,1,0,0:0:0:0:
73,89,131136,1,0,0:0:0:0:
27,120,131198,1,0,0:0:0:0:
9,173,131261,1,0,0:0:0:0:
33,222,131323,1,0,0:0:0:0:
84,245,131386,6,0,B|91:240|91:240|144:253,1,52.5
201,338,131573,5,0,0:0:0:0:
251,352,131667,1,0,0:0:0:0:
300,332,131761,1,0,0:0:0:0:
322,285,131854,1,0,0:0:0:0:
360,249,131948,1,0,0:0:0:0:
412,248,132042,1,0,0:0:0:0:
448,286,132136,5,0,0:0:0:0:
442,301,132323,5,0,0:0:0:0:
395,277,132417,1,0,0:0:0:0:
380,226,132511,1,0,0:0:0:0:
397,176,132604,1,0,0:0:0:0:
441,148,132698,1,0,0:0:0:0:
469,103,132792,1,0,0:0:0:0:
469,50,132886,1,0,0:0:0:0:
430,15,132979,1,0,0:0:0:0:
377,9,133073,1,0,0:0:0:0:
331,35,133167,1,0,0:0:0:0:
309,82,133261,1,0,0:0:0:0:
263,107,133354,1,0,0:0:0:0:
210,101,133448,1,0,0:0:0:0:
178,59,133542,1,0,0:0:0:0:
129,37,133636,1,0,0:0:0:0:
77,46,133729,1,0,0:0:0:0:
37,80,133823,1,0,0:0:0:0:
26,131,133917,1,0,0:0:0:0:
49,178,134011,1,0,0:0:0:0:
95,202,134104,1,0,0:0:0:0:
146,190,134198,1,0,0:0:0:0:
177,147,134292,1,0,0:0:0:0:
170,94,134386,1,0,0:0:0:0:
126,65,134479,1,0,0:0:0:0:
74,75,134573,1,0,0:0:0:0:
50,122,134667,1,0,0:0:0:0:
63,172,134761,1,0,0:0:0:0:
103,204,134854,1,0,0:0:0:0:
155,210,134948,1,0,0:0:0:0:
189,249,135042,1,0,0:0:0:0:
197,300,135136,1,0,0:0:0:0:
164,340,135229,1,0,0:0:0:0:
115,360,135323,1,0,0:0:0:0:
64,346,135417,1,0,0:0:0:0:
43,297,135511,6,0,P|66:303|76:315,2,35
149,304,135698,6,0,B|154:318|151:335|151:335|128:364,1,52.5
331,364,135886,5,0,0:0:0:0:
348,356,135948,1,0,0:0:0:0:
358,339,136011,1,0,0:0:0:0:
357,319,136073,1,0,0:0:0:0:
345,303,136136,1,0,0:0:0:0:
328,293,136198,1,0,0:0:0:0:
308,295,136261,1,0,0:0:0:0:
293,307,136323,1,0,0:0:0:0:
275,314,136386,1,0,0:0:0:0:
256,309,136448,1,0,0:0:0:0:
241,296,136511,1,0,0:0:0:0:
234,278,136573,1,0,0:0:0:0:
238,259,136636,1,0,0:0:0:0:
248,243,136698,1,0,0:0:0:0:
247,223,136761,1,0,0:0:0:0:
236,207,136823,1,0,0:0:0:0:
217,200,136886,1,0,0:0:0:0:
197,201,136948,1,0,0:0:0:0:
179,210,137011,6,0,B|159:217|159:217|142:210,2,35
72,216,137198,2,0,B|60:202|60:202|62:174,2,35
14,100,137386,5,0,0:0:0:0:
24,98,137448,1,0,0:0:0:0:
34,96,137511,1,0,0:0:0:0:
44,94,137573,1,0,0:0:0:0:
54,92,137636,1,0,0:0:0:0:
64,91,137698,1,0,0:0:0:0:
94,58,137761,5,0,0:0:0:0:
102,60,137823,1,0,0:0:0:0:
110,62,137886,1,0,0:0:0:0:
118,64,137948,1,0,0:0:0:0:
126,66,138011,1,0,0:0:0:0:
134,68,138073,1,0,0:0:0:0:
164,102,138136,5,0,0:0:0:0:
170,101,138198,1,0,0:0:0:0:
177,100,138261,1,0,0:0:0:0:
183,99,138323,1,0,0:0:0:0:
190,98,138386,1,0,0:0:0:0:
196,97,138448,1,0,0:0:0:0:
224,65,138511,5,0,0:0:0:0:
229,66,138573,1,0,0:0:0:0:
234,67,138636,1,0,0:0:0:0:
239,68,138698,1,0,0:0:0:0:
244,69,138761,1,0,0:0:0:0:
249,70,138823,1,0,0:0:0:0:
289,103,138886,5,0,0:0:0:0:
293,99,138948,1,0,0:0:0:0:
297,95,139011,1,0,0:0:0:0:
299,91,139073,1,0,0:0:0:0:
301,85,139136,1,0,0:0:0:0:
301,79,139198,1,0,0:0:0:0:
301,73,139261,1,0,0:0:0:0:
300,67,139323,1,0,0:0:0:0:
297,61,139386,1,0,0:0:0:0:
294,57,139448,1,0,0:0:0:0:
289,52,139511,1,0,0:0:0:0:
284,49,139573,1,0,0:0:0:0:
278,46,139636,6,0,L|273:81,5,35
196,126,140011,2,0,L|203:169,5,35
294,215,140386,5,0,0:0:0:0:
292,220,140448,1,0,0:0:0:0:
290,224,140511,1,0,0:0:0:0:
287,228,140573,1,0,0:0:0:0:
284,232,140636,1,0,0:0:0:0:
280,235,140698,1,0,0:0:0:0:
276,238,140761,1,0,0:0:0:0:
272,241,140823,1,0,0:0:0:0:
267,244,140886,1,0,0:0:0:0:
262,246,140948,1,0,0:0:0:0:
257,248,141011,1,0,0:0:0:0:
252,249,141073,1,0,0:0:0:0:
246,250,141136,6,0,B|229:241|229:241|206:239,5,35
181,325,141511,2,0,B|164:334|164:334|141:336,5,35
306,351,141886,5,0,0:0:0:0:
304,351,141948,1,0,0:0:0:0:
303,354,142011,1,0,0:0:0:0:
304,355,142073,1,0,0:0:0:0:
306,355,142136,1,0,0:0:0:0:
308,355,142198,1,0,0:0:0:0:
309,353,142261,1,0,0:0:0:0:
309,351,142323,1,0,0:0:0:0:
309,349,142386,1,0,0:0:0:0:
306,346,142448,1,0,0:0:0:0:
304,346,142511,1,0,0:0:0:0:
301,347,142573,1,0,0:0:0:0:
298,347,142636,5,0,0:0:0:0:
298,363,142698,1,0,0:0:0:0:
309,376,142761,1,0,0:0:0:0:
324,381,142823,1,0,0:0:0:0:
341,381,142886,1,0,0:0:0:0:
357,374,142948,1,0,0:0:0:0:
368,360,143011,6,0,B|373:351|373:351|408:343|408:343|413:347,1,52.5
378,381,143386,6,0,B|395:376|395:376|398:377|398:377|417:373,2,38.5000011749268
329,291,143573,2,0,B|324:308|324:308|322:310|322:310|316:328,2,38.5000011749268
439,298,143761,6,0,B|412:287|412:287|398:256,1,57.7500017623902
446,200,143948,2,0,B|472:210|472:210|486:241,1,57.7500017623902
499,120,144136,5,0,0:0:0:0:
451,79,144229,1,0,0:0:0:0:
392,92,144323,1,0,0:0:0:0:
363,138,144417,1,0,0:0:0:0:
307,166,144511,1,0,0:0:0:0:
256,145,144604,1,0,0:0:0:0:
236,94,144698,1,0,0:0:0:0:
191,94,144792,1,0,0:0:0:0:
175,128,144886,6,0,B|163:106|163:106|166:82,2,38.5000011749268
80,178,145073,2,0,B|105:178|105:178|124:193,2,38.5000011749268
84,70,145261,6,0,B|48:100,2,38.5000011749268
0,47,145448,2,0,B|41:10,1,57.7500017623902
194,22,145636,5,0,0:0:0:0:
246,51,145729,1,0,0:0:0:0:
266,109,145823,1,0,0:0:0:0:
236,166,145917,1,0,0:0:0:0:
174,178,146011,1,0,0:0:0:0:
132,222,146104,1,0,0:0:0:0:
140,268,146198,1,0,0:0:0:0:
183,295,146292,1,0,0:0:0:0:
217,314,146386,6,0,P|235:338|241:366,2,38.5000011749268
162,374,146573,2,0,P|132:377|104:368,2,38.5000011749268
116,298,146761,6,0,P|145:289|163:257,1,57.7500017623902
116,210,146948,2,0,P|87:219|69:251,1,57.7500017623902
272,199,147136,5,0,0:0:0:0:
332,182,147229,1,0,0:0:0:0:
389,211,147323,1,0,0:0:0:0:
380,283,147417,1,0,0:0:0:0:
330,322,147511,1,0,0:0:0:0:
347,370,147604,1,0,0:0:0:0:
395,373,147698,1,0,0:0:0:0:
426,354,147792,1,0,0:0:0:0:
437,332,147886,5,0,0:0:0:0:
405,274,147979,1,0,0:0:0:0:
346,261,148073,1,0,0:0:0:0:
301,292,148167,1,0,0:0:0:0:
259,332,148261,1,0,0:0:0:0:
208,337,148354,1,0,0:0:0:0:
182,301,148448,1,0,0:0:0:0:
183,258,148542,1,0,0:0:0:0:
209,232,148636,6,0,L|218:268,3,28.8750008811951
139,194,148823,6,0,L|154:115,1,57.7500017623902
15,332,149011,6,0,L|6:368,3,28.8750008811951
85,294,149198,6,0,L|70:215,1,57.7500017623902
263,137,149386,5,0,0:0:0:0:
339,112,149573,1,0,0:0:0:0:
337,34,149761,1,0,0:0:0:0:
213,9,149948,5,0,0:0:0:0:
211,15,149995,1,0,0:0:0:0:
209,21,150042,1,0,0:0:0:0:
207,27,150089,1,0,0:0:0:0:
205,33,150136,2,0,B|230:17|230:17|212:76,1,84
141,126,150417,5,0,0:0:0:0:
89,128,150510,1,0,0:0:0:0:
57,96,150604,1,0,0:0:0:0:
54,52,150698,1,0,0:0:0:0:
80,16,150792,1,0,0:0:0:0:
128,13,150886,5,0,0:0:0:0:
131,92,151073,1,0,0:0:0:0:
136,171,151261,1,0,0:0:0:0:
24,258,151448,5,0,0:0:0:0:
30,257,151496,1,0,0:0:0:0:
36,257,151543,1,0,0:0:0:0:
42,258,151590,1,0,0:0:0:0:
47,259,151636,2,0,B|68:265|81:271|81:271|90:260|108:249,1,63
214,260,151917,5,0,0:0:0:0:
256,290,152011,1,0,0:0:0:0:
251,347,152104,1,0,0:0:0:0:
202,371,152198,1,0,0:0:0:0:
154,356,152292,1,0,0:0:0:0:
144,314,152386,5,0,0:0:0:0:
90,378,152573,1,0,0:0:0:0:
28,328,152761,1,0,0:0:0:0:
239,176,152948,5,0,0:0:0:0:
245,177,152995,1,0,0:0:0:0:
251,178,153042,1,0,0:0:0:0:
257,179,153089,1,0,0:0:0:0:
263,180,153136,6,0,B|269:182|269:182|282:173|305:170,1,42
384,104,153323,5,0,0:0:0:0:
378,105,153370,1,0,0:0:0:0:
372,106,153417,1,0,0:0:0:0:
366,107,153464,1,0,0:0:0:0:
360,108,153511,6,0,B|353:113|353:113|341:100|318:98,1,42
234,80,153698,6,0,L|239:104,3,21
246,68,153886,5,0,0:0:0:0:
202,35,153979,1,0,0:0:0:0:
155,39,154073,1,0,0:0:0:0:
130,68,154167,1,0,0:0:0:0:
112,64,154261,5,0,0:0:0:0:
103,113,154354,1,0,0:0:0:0:
123,149,154448,1,0,0:0:0:0:
154,161,154542,1,0,0:0:0:0:
161,152,154636,5,0,0:0:0:0:
186,189,154729,1,0,0:0:0:0:
183,226,154823,1,0,0:0:0:0:
165,250,154917,1,0,0:0:0:0:
172,260,155011,5,0,0:0:0:0:
135,281,155104,1,0,0:0:0:0:
102,272,155198,1,0,0:0:0:0:
89,249,155292,1,0,0:0:0:0:
50,211,155386,5,0,0:0:0:0:
98,192,155479,1,0,0:0:0:0:
150,198,155573,1,0,0:0:0:0:
187,234,155667,1,0,0:0:0:0:
205,283,155761,1,0,0:0:0:0:
239,322,155854,1,0,0:0:0:0:
290,330,155948,6,0,P|314:308|343:300,1,52.5
471,185,156136,5,0,0:0:0:0:
498,219,156229,1,0,0:0:0:0:
490,263,156323,1,0,0:0:0:0:
464,299,156417,1,0,0:0:0:0:
420,310,156511,5,0,0:0:0:0:
412,302,156604,1,0,0:0:0:0:
407,292,156698,1,0,0:0:0:0:
403,282,156792,1,0,0:0:0:0:
402,271,156886,1,0,0:0:0:0:
403,260,156979,1,0,0:0:0:0:
406,250,157073,5,0,0:0:0:0:
345,245,157167,1,0,0:0:0:0:
315,192,157261,1,0,0:0:0:0:
327,133,157354,1,0,0:0:0:0:
381,105,157448,1,0,0:0:0:0:
439,121,157542,1,0,0:0:0:0:
458,178,157636,5,0,0:0:0:0:
437,182,157729,1,0,0:0:0:0:
417,174,157823,2,0,P|393:151|389:125,1,52.5
331,88,158011,2,0,P|361:59|388:53,1,52.5
490,18,158198,6,0,L|479:55,3,26.25
162,119,158386,6,0,B|101:128|99:28|166:12|247:36|277:134|200:196,1,279.299988493195
290,266,158948,5,0,0:0:0:0:
286,266,158995,1,0,0:0:0:0:
282,267,159042,1,0,0:0:0:0:
279,269,159089,1,0,0:0:0:0:
277,272,159136,2,0,B|255:250|228:250|207:274|209:275|210:276|196:305|148:298|136:281,1,139.649994246598
59,228,159511,6,0,P|37:252|33:289,1,69.8249971232988
43,293,159698,2,0,P|69:269|69:230,1,69.8249971232988
241,349,159886,6,0,P|283:354|323:378,1,70
400,306,160136,1,0,0:0:0:0:
382,318,160261,2,0,P|401:346|405:375,2,62.9999980773926
485,253,160636,6,0,B|494:235|494:235|489:201,1,39.3750015020371
380,123,160823,6,0,P|395:120|407:127,1,19.6875007510186
405,105,160917,2,0,P|415:122|415:137,1,19.6875007510186
437,124,161011,6,0,B|441:138|441:138|417:186|417:186|415:208,1,78.7500030040742
437,124,161386,5,0,0:0:0:0:
385,93,161511,1,0,0:0:0:0:
326,105,161636,1,0,0:0:0:0:
287,151,161761,1,0,0:0:0:0:
241,174,161886,1,0,0:0:0:0:
192,156,162011,1,0,0:0:0:0:
163,86,162136,5,0,0:0:0:0:
130,97,162261,1,0,0:0:0:0:
116,128,162386,1,0,0:0:0:0:
120,161,162511,1,0,0:0:0:0:
132,183,162636,1,0,0:0:0:0:
134,208,162761,1,0,0:0:0:0:
119,229,162886,5,0,0:0:0:0:
61,192,163011,1,0,0:0:0:0:
70,124,163136,1,0,0:0:0:0:
132,96,163261,1,0,0:0:0:0:
196,117,163386,1,0,0:0:0:0:
206,184,163511,1,0,0:0:0:0:
256,264,163636,5,0,0:0:0:0:
196,268,163761,1,0,0:0:0:0:
174,314,163886,1,0,0:0:0:0:
192,352,164011,1,0,0:0:0:0:
225,360,164136,1,0,0:0:0:0:
248,350,164261,5,0,0:0:0:0:
254,352,164323,1,0,0:0:0:0:
261,357,164386,6,0,B|277:349|295:349|295:349|297:335|305:320,1,64.0499973612214
409,313,164573,2,0,B|393:305|375:305|375:305|373:291|365:276,1,64.0499973612214
292,251,164761,6,0,B|286:238|277:224|277:224|293:233|299:249,1,64.0499973612214
206,200,164948,2,0,B|211:187|220:173|220:173|204:182|198:198,1,64.0499973612214
377,88,165136,5,0,0:0:0:0:
329,119,165229,1,0,0:0:0:0:
279,105,165323,1,0,0:0:0:0:
257,65,165417,1,0,0:0:0:0:
271,29,165511,1,0,0:0:0:0:
301,19,165604,1,0,0:0:0:0:
326,22,165698,1,0,0:0:0:0:
337,37,165792,1,0,0:0:0:0:
334,49,165886,5,0,0:0:0:0:
259,33,165979,1,0,0:0:0:0:
209,73,166073,1,0,0:0:0:0:
200,123,166167,1,0,0:0:0:0:
210,160,166261,5,0,0:0:0:0:
279,154,166354,1,0,0:0:0:0:
322,192,166448,1,0,0:0:0:0:
325,236,166542,1,0,0:0:0:0:
309,264,166636,1,0,0:0:0:0:
283,276,166729,1,0,0:0:0:0:
257,277,166823,6,0,P|235:266|226:266,3,32.0249986806107
156,233,167011,6,0,B|132:250|129:286|129:286|135:305,1,78.7500030040742
475,134,167386,5,0,0:0:0:0:
476,141,167432,1,0,0:0:0:0:
478,148,167479,1,0,0:0:0:0:
379,183,167761,5,0,0:0:0:0:
373,181,167807,1,0,0:0:0:0:
365,179,167854,1,0,0:0:0:0:
400,101,168136,6,0,B|414:74|414:74|413:45,1,52.5
338,42,168323,2,0,B|326:65|326:65|328:96,1,52.5
451,203,168511,6,0,L|522:220,1,52.5
331,333,168698,6,0,B|309:341|309:341|317:326|332:328,1,52.5
345,329,169074,5,0,0:0:0:0:
353,326,169119,1,0,0:0:0:0:
309,257,169261,5,0,0:0:0:0:
301,254,169307,1,0,0:0:0:0:
277,177,169636,5,0,0:0:0:0:
299,160,169698,1,0,0:0:0:0:
327,161,169761,2,0,P|344:173|356:193,1,35
429,180,169886,5,0,0:0:0:0:
429,200,169948,1,0,0:0:0:0:
423,220,170011,2,0,P|409:240|391:253,1,35
397,328,170136,5,0,0:0:0:0:
383,328,170198,1,0,0:0:0:0:
369,323,170261,2,0,P|345:305|340:290,1,35
104,259,170386,5,0,0:0:0:0:
52,267,170479,1,0,0:0:0:0:
95,272,170573,5,0,0:0:0:0:
64,276,170666,1,0,0:0:0:0:
67,194,170761,6,0,B|61:189|61:189|61:167|61:167|69:188|69:188|67:193,1,52.5
96,344,170948,6,0,B|101:348|101:348|101:370|101:370|93:349|93:349|95:344,1,52.5
324,174,171136,5,0,0:0:0:0:
376,182,171229,1,0,0:0:0:0:
333,187,171323,5,0,0:0:0:0:
364,191,171416,1,0,0:0:0:0:
361,109,171511,6,0,B|366:104|366:104|366:82|366:82|358:103|358:103|360:108,1,52.5
332,259,171698,6,0,B|326:263|326:263|326:285|326:285|334:264|334:264|332:259,1,52.5
153,66,171886,5,0,0:0:0:0:
145,70,171948,1,0,0:0:0:0:
140,77,172011,1,0,0:0:0:0:
77,132,172261,5,0,0:0:0:0:
83,140,172323,1,0,0:0:0:0:
90,143,172386,1,0,0:0:0:0:
144,210,172636,5,0,0:0:0:0:
197,197,172729,1,0,0:0:0:0:
244,221,172823,2,0,P|264:252|254:282,1,52.5
333,309,173011,2,0,P|341:285|373:269,1,52.5
329,185,173198,1,0,0:0:0:0:
115,344,173386,5,0,0:0:0:0:
118,352,173448,1,0,0:0:0:0:
121,360,173511,1,0,0:0:0:0:
48,285,173761,5,0,0:0:0:0:
39,283,173823,1,0,0:0:0:0:
31,282,173886,1,0,0:0:0:0:
141,259,174136,6,0,B|152:254|168:251|168:251|173:235|184:218,1,52.5
128,175,174323,2,0,B|117:180|101:183|101:183|96:199|85:216,1,52.5
26,96,174511,6,0,P|34:60|36:24,1,52.5
254,92,174698,6,0,B|268:99|265:126|248:108|252:94,1,35
255,79,175073,5,0,0:0:0:0:
257,70,175136,1,0,0:0:0:0:
344,36,175261,5,0,0:0:0:0:
342,45,175324,1,0,0:0:0:0:
432,17,175636,5,0,0:0:0:0:
446,40,175698,1,0,0:0:0:0:
448,68,175761,2,0,L|434:113,1,35
358,118,175886,5,0,0:0:0:0:
351,137,175948,1,0,0:0:0:0:
353,158,176011,2,0,L|376:211,1,35
435,223,176136,5,0,0:0:0:0:
442,234,176198,1,0,0:0:0:0:
442,248,176261,2,0,L|425:307,1,35
239,300,176386,5,0,0:0:0:0:
240,352,176479,1,0,0:0:0:0:
250,309,176573,5,0,0:0:0:0:
251,341,176666,1,0,0:0:0:0:
166,322,176761,6,0,B|153:330|142:333|142:333|154:332|170:341,1,52.5
321,329,176948,2,0,B|333:320|344:317|344:317|332:318|316:309,1,52.5
97,173,177136,5,0,0:0:0:0:
96,225,177229,1,0,0:0:0:0:
86,182,177323,5,0,0:0:0:0:
85,214,177416,1,0,0:0:0:0:
170,195,177511,6,0,B|182:203|193:206|193:206|181:205|165:214,1,52.5
15,202,177698,2,0,B|2:193|-8:190|-8:190|3:191|19:182,1,52.5
252,65,177886,5,0,0:3:0:0:
244,59,177948,1,0,0:3:0:0:
235,57,178011,1,0,0:3:0:0:
165,17,178261,5,0,0:0:0:0:
157,21,178323,1,0,0:0:0:0:
151,28,178386,1,0,0:0:0:0:
76,64,178636,5,0,0:0:0:0:
82,118,178729,1,0,0:0:0:0:
88,172,178823,2,0,B|63:193|63:193|34:189,1,52.5
139,274,179011,2,0,B|133:241|133:241|151:218,1,52.5
25,267,179198,2,0,B|56:278|56:278|67:305,1,52.5,0|0,3:0|3:0,3:0:0:0:
303,314,179386,5,0,0:0:0:0:
353,284,179479,1,0,0:0:0:0:
410,296,179573,1,0,0:0:0:0:
416,309,179667,1,0,0:0:0:0:
421,322,179761,5,0,0:0:0:0:
465,280,179854,1,0,0:0:0:0:
456,225,179948,1,0,0:0:0:0:
448,217,180042,1,0,0:0:0:0:
373,174,180136,5,0,0:0:0:0:
368,160,180229,1,0,0:0:0:0:
436,120,180323,5,0,0:0:0:0:
440,106,180417,1,0,0:0:0:0:
368,60,180511,5,0,0:0:0:0:
437,29,180604,2,0,B|466:39|466:39|468:42|468:42|495:51,1,58.8000007177734
285,35,180792,5,0,0:0:0:0:
266,29,180886,2,0,P|232:45|208:76,1,58.8000007177734
160,114,181073,2,0,B|152:145|152:145|175:121,1,58.8000007177734
63,44,181261,5,0,0:0:0:0:
55,47,181354,1,0,0:0:0:0:
60,56,181448,1,0,0:0:0:0:
66,53,181542,1,0,0:0:0:0:
20,137,181636,5,0,0:0:0:0:
31,174,181729,1,0,0:0:0:0:
100,218,181823,5,0,0:0:0:0:
90,243,181917,1,0,0:0:0:0:
31,306,182011,6,0,P|42:321|54:328,1,29.4000003588867
53,348,182104,2,0,P|71:345|85:336,1,29.4000003588867
104,358,182198,1,0,0:0:0:0:
162,325,182292,1,0,0:0:0:0:
197,261,182386,5,0,0:0:0:0:
243,256,182479,1,0,0:0:0:0:
274,290,182573,1,0,0:0:0:0:
267,336,182667,1,0,0:0:0:0:
230,365,182761,5,0,0:0:0:0:
208,356,182854,1,0,0:0:0:0:
208,338,182948,1,0,0:0:0:0:
218,332,183042,1,0,0:0:0:0:
236,330,183136,6,0,P|219:289|223:262,1,58.8000007177734
157,224,183323,2,0,P|182:194|191:164,1,58.8000007177734
227,340,183511,6,0,P|213:315|211:286,3,58.8000007177734
263,119,183886,5,0,0:0:0:0:
208,101,183979,1,0,0:0:0:0:
155,83,184073,5,0,0:0:0:0:
152,75,184167,1,0,0:0:0:0:
147,66,184261,5,0,0:0:0:0:
89,40,184354,1,0,0:0:0:0:
29,21,184448,5,0,0:0:0:0:
26,14,184542,1,0,0:0:0:0:
23,5,184636,6,0,B|13:21|13:21|26:67,1,58.8000007177734
65,124,184823,2,0,B|75:140|75:140|62:186,1,58.8000007177734
14,258,185011,5,0,0:0:0:0:
48,340,185104,1,0,0:0:0:0:
55,326,185198,1,0,0:0:0:0:
205,272,185386,5,0,0:0:0:0:
204,265,185432,1,0,0:0:0:0:
202,258,185479,1,0,0:0:0:0:
301,223,185761,5,0,0:0:0:0:
307,225,185807,1,0,0:0:0:0:
315,227,185854,1,0,0:0:0:0:
280,305,186136,6,0,B|266:332|266:332|267:361,1,58.8000007177734
342,364,186323,2,0,B|355:338|355:338|352:304,1,58.8000007177734
229,203,186511,6,0,L|158:186,1,58.8000007177734
32,232,186698,6,0,P|29:219|33:228,1,58.8000007177734
45,234,187074,5,0,0:0:0:0:
52,240,187119,1,0,0:0:0:0:
93,169,187261,5,0,0:0:0:0:
92,161,187307,1,0,0:0:0:0:
132,90,187636,5,0,0:0:0:0:
154,74,187698,1,0,0:0:0:0:
182,75,187761,2,0,P|199:86|211:106,1,35
284,94,187886,5,0,0:0:0:0:
283,114,187948,1,0,0:0:0:0:
278,134,188011,2,0,P|264:153|246:167,1,35
252,241,188136,5,0,0:0:0:0:
237,241,188198,1,0,0:0:0:0:
223,237,188261,2,0,P|199:218|194:204,1,35
408,125,188386,5,0,0:0:0:0:
460,117,188479,1,0,0:0:0:0:
417,112,188573,5,0,0:0:0:0:
448,108,188666,1,0,0:0:0:0:
445,190,188761,6,0,B|451:195|451:195|451:217|451:217|443:196|443:196|445:191,1,52.5
416,40,188948,6,0,B|411:36|411:36|411:14|411:14|419:35|419:35|417:40,1,52.5
188,210,189136,5,0,0:0:0:0:
136,202,189229,1,0,0:0:0:0:
179,197,189323,5,0,0:0:0:0:
148,193,189416,1,0,0:0:0:0:
151,275,189511,6,0,B|146:280|146:280|146:302|146:302|154:281|154:281|152:276,1,52.5
180,125,189698,6,0,B|186:121|186:121|186:99|186:99|178:120|178:120|180:125,1,52.5
359,318,189886,5,0,0:0:0:0:
367,314,189948,1,0,0:0:0:0:
372,307,190011,1,0,0:0:0:0:
435,252,190261,5,0,0:0:0:0:
429,244,190323,1,0,0:0:0:0:
422,241,190386,1,0,0:0:0:0:
368,174,190636,5,0,0:0:0:0:
315,187,190729,1,0,0:0:0:0:
268,163,190823,2,0,B|266:152|249:140|249:140|255:124|258:102,1,58.8000007177734
179,75,191011,2,0,B|170:87|168:103|168:103|150:106|139:115,1,58.8000007177734
152,192,191198,2,0,B|166:193|181:187|181:187|193:201|206:206,1,58.8000007177734
408,49,191386,6,0,B|451:44|444:60|451:79|480:102|480:102|436:64|389:60,1,176.40000215332
413,58,192886,6,0,B|402:68|402:68|391:59|391:59|400:49|400:49|413:59,15,58.8000007177734
107,28,194386,6,0,P|83:81|101:118,1,78.7500030040742
54,170,194667,2,0,P|82:190|119:191,1,68.2499968757631
167,247,194948,1,0,0:0:0:0:
167,247,195136,6,0,P|204:264|223:289,1,57.7500017623902
288,266,195417,2,0,P|290:309|282:326,1,47.2499985580445
331,369,195698,1,0,0:0:0:0:
331,369,195886,5,0,0:0:0:0:
336,367,195948,1,0,0:0:0:0:
389,290,196136,5,0,0:0:0:0:
397,294,196198,1,0,0:0:0:0:
167,247,196386,5,0,0:0:0:0:
155,251,196448,1,0,0:0:0:0:
74,199,196636,5,0,0:0:0:0:
474,51,197011,6,0,P|471:39|475:48,1,51.9749998413849
487,136,197386,5,0,0:0:0:0:
429,140,197479,1,0,0:0:0:0:
386,100,197573,1,0,0:0:0:0:
335,70,197667,1,0,0:0:0:0:
277,71,197761,1,0,0:0:0:0:
231,106,197854,1,0,0:0:0:0:
216,161,197948,1,0,0:0:0:0:
232,216,198042,1,0,0:0:0:0:
282,245,198136,5,0,0:0:0:0:
280,204,198229,1,0,0:0:0:0:
259,175,198323,1,0,0:0:0:0:
230,171,198417,1,0,0:0:0:0:
211,184,198511,1,0,0:0:0:0:
203,199,198604,1,0,0:0:0:0:
203,210,198698,5,0,0:0:0:0:
264,192,198792,1,0,0:0:0:0:
322,217,198886,1,0,0:0:0:0:
344,275,198979,1,0,0:0:0:0:
376,329,199073,1,0,0:0:0:0:
427,339,199167,1,0,0:0:0:0:
454,309,199261,1,0,0:0:0:0:
452,280,199354,1,0,0:0:0:0:
435,274,199448,5,0,0:0:0:0:
390,326,199542,1,0,0:0:0:0:
321,336,199636,1,0,0:0:0:0:
257,310,199729,1,0,0:0:0:0:
217,252,199823,6,0,B|208:242|184:243|184:243|178:259|161:264,1,57.7500017623902
92,380,200011,5,0,0:0:0:0:
25,362,200104,1,0,0:0:0:0:
23,304,200198,1,0,0:0:0:0:
62,279,200292,1,0,0:0:0:0:
92,296,200386,5,0,0:0:0:0:
171,282,200479,1,0,0:0:0:0:
190,215,200573,1,0,0:0:0:0:
150,172,200667,1,0,0:0:0:0:
103,169,200761,5,0,0:0:0:0:
169,201,200854,1,0,0:0:0:0:
230,185,200948,1,0,0:0:0:0:
246,135,201042,1,0,0:0:0:0:
235,95,201136,5,0,0:0:0:0:
166,90,201229,1,0,0:0:0:0:
147,35,201323,1,0,0:0:0:0:
184,7,201417,1,0,0:0:0:0:
215,20,201511,5,0,0:0:0:0:
155,40,201604,1,0,0:0:0:0:
145,91,201698,1,0,0:0:0:0:
157,129,201792,1,0,0:0:0:0:
226,156,201886,5,0,0:0:0:0:
270,120,201979,1,0,0:0:0:0:
316,118,202073,1,0,0:0:0:0:
348,131,202167,1,0,0:0:0:0:
363,148,202261,5,0,0:0:0:0:
418,178,202354,1,0,0:0:0:0:
466,159,202448,1,0,0:0:0:0:
470,118,202542,1,0,0:0:0:0:
454,93,202636,5,0,0:0:0:0:
399,134,202729,1,0,0:0:0:0:
391,191,202823,1,0,0:0:0:0:
412,232,202917,1,0,0:0:0:0:
440,252,203011,5,0,0:0:0:0:
442,326,203104,1,0,0:0:0:0:
388,360,203198,1,0,0:0:0:0:
337,347,203292,1,0,0:0:0:0:
316,312,203386,5,0,0:0:0:0:
274,280,203479,1,0,0:0:0:0:
221,279,203573,1,0,0:0:0:0:
178,309,203667,1,0,0:0:0:0:
147,351,203761,1,0,0:0:0:0:
98,367,203854,1,0,0:0:0:0:
49,348,203948,1,0,0:0:0:0:
26,301,204042,1,0,0:0:0:0:
40,251,204136,5,0,0:0:0:0:
68,254,204229,1,0,0:0:0:0:
95,245,204323,1,0,0:0:0:0:
114,223,204417,1,0,0:0:0:0:
120,194,204511,5,0,0:0:0:0:
97,200,204604,1,0,0:0:0:0:
89,221,204698,1,0,0:0:0:0:
91,244,204792,1,0,0:0:0:0:
106,260,204886,5,0,0:0:0:0:
157,261,204979,1,0,0:0:0:0:
197,227,205073,1,0,0:0:0:0:
201,175,205167,1,0,0:0:0:0:
175,129,205261,5,0,0:0:0:0:
172,174,205354,1,0,0:0:0:0:
209,200,205448,1,0,0:0:0:0:
254,192,205542,1,0,0:0:0:0:
286,158,205636,5,0,0:0:0:0:
251,85,205729,1,0,0:0:0:0:
171,71,205823,1,0,0:0:0:0:
115,130,205917,1,0,0:0:0:0:
121,210,206011,1,0,0:0:0:0:
187,243,206104,1,0,0:0:0:0:
229,297,206198,1,0,0:0:0:0:
217,359,206292,1,0,0:0:0:0:
163,381,206386,5,0,0:0:0:0:
192,318,206479,1,0,0:0:0:0:
246,297,206573,1,0,0:0:0:0:
291,304,206667,1,0,0:0:0:0:
317,326,206761,1,0,0:0:0:0:
372,340,206854,1,0,0:0:0:0:
411,316,206948,1,0,0:0:0:0:
409,281,207042,1,0,0:0:0:0:
389,268,207136,5,0,0:0:0:0:
378,272,207229,1,0,0:0:0:0:
376,283,207323,1,0,0:0:0:0:
383,292,207417,1,0,0:0:0:0:
394,290,207511,5,0,0:0:0:0:
444,235,207604,1,0,0:0:0:0:
402,172,207698,1,0,0:0:0:0:
368,104,207792,1,0,0:0:0:0:
423,53,207886,6,0,P|448:73|419:92,1,57.7500017623902
437,90,209011,6,0,P|446:65|423:53,1,57.7500017623902
287,31,209386,5,0,0:0:0:0:
226,21,209448,1,0,0:0:0:0:
177,60,209511,1,0,0:0:0:0:
164,119,209573,1,0,0:0:0:0:
192,174,209636,1,0,0:0:0:0:
248,198,209698,1,0,0:0:0:0:
308,183,209761,6,0,P|323:194|335:226,2,38.5000011749268
412,258,209948,2,0,P|388:272|377:289,2,38.5000011749268
274,278,210136,5,0,0:0:0:0:
276,293,210198,1,0,0:0:0:0:
279,308,210261,1,0,0:0:0:0:
307,331,210323,5,0,0:0:0:0:
304,342,210386,1,0,0:0:0:0:
301,353,210448,1,0,0:0:0:0:
272,375,210511,6,0,B|253:362|253:362|236:358,2,38.5000011749268
182,293,210698,2,0,B|163:306|163:306|146:310,2,38.5000011749268
30,369,210886,5,0,0:0:0:0:
18,332,210948,1,0,0:0:0:0:
28,294,211011,1,0,0:0:0:0:
54,266,211073,1,0,0:0:0:0:
78,235,211136,1,0,0:0:0:0:
75,196,211198,1,0,0:0:0:0:
43,173,211261,6,0,L|88:154,2,38.5000011749268
105,78,211448,2,0,L|150:97,2,38.5000011749268
234,174,211636,5,0,0:0:0:0:
241,173,211698,1,0,0:0:0:0:
248,172,211761,1,0,0:0:0:0:
272,142,211823,5,0,0:0:0:0:
282,146,211886,1,0,0:0:0:0:
292,150,211948,1,0,0:0:0:0:
317,184,212011,6,0,P|333:169|344:148,2,38.5000011749268
423,113,212198,2,0,P|407:98|396:77,2,38.5000011749268
258,30,212386,5,0,0:0:0:0:
241,50,212448,1,0,0:0:0:0:
215,59,212511,1,0,0:0:0:0:
188,57,212573,1,0,0:0:0:0:
165,41,212636,1,0,0:0:0:0:
139,33,212698,1,0,0:0:0:0:
113,42,212761,1,0,0:0:0:0:
98,59,212823,1,0,0:0:0:0:
96,78,212886,1,0,0:0:0:0:
103,91,212948,1,0,0:0:0:0:
110,99,213011,1,0,0:0:0:0:
117,101,213073,1,0,0:0:0:0:
120,101,213136,5,0,0:0:0:0:
154,102,213198,1,0,0:0:0:0:
177,127,213261,1,0,0:0:0:0:
186,159,213323,1,0,0:0:0:0:
172,191,213386,1,0,0:0:0:0:
141,206,213448,1,0,0:0:0:0:
106,200,213511,1,0,0:0:0:0:
81,182,213573,1,0,0:0:0:0:
53,179,213636,1,0,0:0:0:0:
33,191,213698,1,0,0:0:0:0:
27,209,213761,1,0,0:0:0:0:
31,223,213823,1,0,0:0:0:0:
40,229,213886,5,0,0:0:0:0:
78,225,213948,1,0,0:0:0:0:
102,243,214011,1,0,0:0:0:0:
108,264,214073,1,0,0:0:0:0:
106,279,214136,1,0,0:0:0:0:
99,288,214198,1,0,0:0:0:0:
92,292,214261,5,0,0:0:0:0:
128,280,214323,1,0,0:0:0:0:
158,287,214386,1,0,0:0:0:0:
175,302,214448,1,0,0:0:0:0:
182,315,214511,1,0,0:0:0:0:
185,325,214573,1,0,0:0:0:0:
184,332,214636,5,0,0:0:0:0:
265,363,214823,6,0,B|281:374|281:374|254:373,2,38.5000011749268
337,311,215011,6,0,B|329:307|329:307|355:294|355:294|371:298|371:298|414:294,1,78.7500030040742
463,164,215386,5,0,0:0:0:0:
417,135,215448,1,0,0:0:0:0:
370,141,215511,1,0,0:0:0:0:
346,171,215573,1,0,0:0:0:0:
348,201,215636,1,0,0:0:0:0:
362,218,215698,1,0,0:0:0:0:
377,221,215761,5,0,0:0:0:0:
411,179,215823,1,0,0:0:0:0:
395,134,215886,1,0,0:0:0:0:
363,112,215948,1,0,0:0:0:0:
331,111,216011,1,0,0:0:0:0:
310,121,216073,1,0,0:0:0:0:
300,133,216136,5,0,0:0:0:0:
270,139,216198,1,0,0:0:0:0:
247,131,216261,1,0,0:0:0:0:
236,120,216323,1,0,0:0:0:0:
232,109,216386,1,0,0:0:0:0:
233,101,216448,1,0,0:0:0:0:
235,97,216511,5,0,0:0:0:0:
255,119,216573,1,0,0:0:0:0:
256,142,216636,1,0,0:0:0:0:
250,156,216698,1,0,0:0:0:0:
240,162,216761,1,0,0:0:0:0:
232,163,216823,1,0,0:0:0:0:
228,162,216886,5,0,0:0:0:0:
205,159,216948,1,0,0:0:0:0:
188,168,217011,1,0,0:0:0:0:
181,181,217073,1,0,0:0:0:0:
179,192,217136,1,0,0:0:0:0:
179,199,217198,1,0,0:0:0:0:
180,202,217261,5,0,0:0:0:0:
199,213,217323,1,0,0:0:0:0:
206,231,217386,1,0,0:0:0:0:
206,246,217448,1,0,0:0:0:0:
200,256,217511,1,0,0:0:0:0:
194,260,217573,1,0,0:0:0:0:
190,261,217636,5,0,0:0:0:0:
182,263,217698,1,0,0:0:0:0:
170,259,217761,1,0,0:0:0:0:
159,247,217823,1,0,0:0:0:0:
155,227,217886,1,0,0:0:0:0:
163,205,217948,1,0,0:0:0:0:
185,190,218011,1,0,0:0:0:0:
215,185,218073,1,0,0:0:0:0:
246,199,218136,1,0,0:0:0:0:
267,230,218198,1,0,0:0:0:0:
305,248,218261,1,0,0:0:0:0:
350,251,218323,1,0,0:0:0:0:
391,222,218386,6,0,L|405:176,1,38.5000011749268
484,167,218511,2,0,L|470:121,1,38.5000011749268
394,101,218636,2,0,L|408:55,1,38.5000011749268
321,170,218761,5,0,0:0:0:0:
285,205,218823,1,0,0:0:0:0:
279,255,218886,1,0,0:0:0:0:
303,298,218948,1,0,0:0:0:0:
350,314,219011,1,0,0:0:0:0:
398,305,219073,1,0,0:0:0:0:
442,281,219136,1,0,0:0:0:0:
485,286,219198,1,0,0:0:0:0:
502,320,219261,1,0,0:0:0:0:
494,351,219323,1,0,0:0:0:0:
471,366,219386,1,0,0:0:0:0:
450,363,219448,1,0,0:0:0:0:
441,351,219511,6,0,P|415:338|403:336,2,38.5000011749268
335,309,219698,2,0,P|317:319|305:334,2,38.5000011749268
195,370,219886,5,0,0:0:0:0:
149,375,219979,1,0,0:0:0:0:
105,357,220073,1,0,0:0:0:0:
90,312,220167,1,0,0:0:0:0:
108,269,220261,6,0,B|124:263|124:263|171:277,1,57.7500017623902
75,348,220448,2,0,B|59:342|59:342|12:356,1,57.7500017623902
65,191,220636,5,0,0:0:0:0:
103,166,220729,1,0,0:0:0:0:
118,122,220823,1,0,0:0:0:0:
101,78,220917,1,0,0:0:0:0:
60,54,221011,6,0,B|98:62|98:62|102:62|102:62|144:71,1,57.7500017623902
193,142,221198,2,0,B|155:150|155:150|151:150|151:150|109:159,1,57.7500017623902
351,39,221386,5,0,0:0:0:0:
358,42,221448,1,0,0:0:0:0:
365,46,221511,1,0,0:0:0:0:
400,132,221761,5,0,0:0:0:0:
394,137,221823,1,0,0:0:0:0:
387,141,221886,1,0,0:0:0:0:
289,111,222136,6,0,P|262:123|253:153,1,52.5
293,205,222323,2,0,P|320:193|329:163,1,52.5
152,56,222511,6,0,P|161:82|169:122,1,52.5
55,295,222698,6,0,B|34:313|34:313|49:286,1,52.5
58,286,223073,5,0,0:0:0:0:
63,278,223136,1,0,0:0:0:0:
156,317,223261,5,0,0:0:0:0:
151,325,223324,1,0,0:0:0:0:
244,359,223636,5,0,0:0:0:0:
270,350,223698,1,0,0:0:0:0:
286,326,223761,2,0,P|291:304|281:286,1,35
342,238,223886,5,0,0:0:0:0:
328,221,223948,1,0,0:0:0:0:
307,214,224011,2,0,P|283:214|260:226,1,35
209,167,224136,5,0,0:0:0:0:
199,177,224198,1,0,0:0:0:0:
195,190,224261,2,0,P|189:216|194:232,1,35
409,285,224386,5,0,0:0:0:0:
468,302,224479,1,0,0:0:0:0:
419,275,224573,1,0,0:0:0:0:
463,287,224667,1,0,0:0:0:0:
421,356,224761,6,0,B|415:366|415:380|415:380|426:370|424:354,1,52.5
460,215,224948,2,0,B|466:205|466:191|466:191|455:201|457:217,1,52.5
382,86,225136,5,0,0:0:0:0:
323,103,225229,1,0,0:0:0:0:
372,76,225323,1,0,0:0:0:0:
328,88,225417,1,0,0:0:0:0:
370,157,225511,6,0,B|376:167|376:181|376:181|365:171|367:155,1,52.5
331,16,225698,2,0,B|325:6|325:-8|325:-8|336:2|334:18,1,52.5
168,118,225886,5,0,0:0:0:0:
164,125,225948,1,0,0:0:0:0:
164,133,226011,1,0,0:0:0:0:
214,54,226261,5,0,0:0:0:0:
207,48,226323,1,0,0:0:0:0:
198,46,226386,1,0,0:0:0:0:
109,189,226636,5,0,0:0:0:0:
162,200,226729,1,0,0:0:0:0:
215,213,226823,2,0,P|235:225|254:257,1,52.5
269,321,227011,2,0,P|248:332|211:332,1,52.5
148,313,227198,2,0,P|148:289|166:257,1,52.5
464,316,227386,5,0,0:0:0:0:
461,324,227448,1,0,0:0:0:0:
459,332,227511,1,0,0:0:0:0:
381,350,227761,5,0,0:0:0:0:
376,344,227823,1,0,0:0:0:0:
370,338,227886,1,0,0:0:0:0:
401,258,228136,6,0,B|413:234|413:234|401:187,1,52.5
329,203,228323,2,0,B|317:227|317:227|329:274,1,52.5
485,112,228511,6,0,P|460:98|424:87,1,52.5
253,31,228698,6,0,B|237:45|237:45|240:50|240:50|261:33,1,52.5
261,21,229073,5,0,0:0:0:0:
269,23,229136,1,0,0:0:0:0:
174,89,229261,5,0,0:0:0:0:
166,87,229324,1,0,0:0:0:0:
86,155,229636,5,0,0:0:0:0:
112,162,229698,1,0,0:0:0:0:
128,184,229761,2,0,B|127:208|127:208|113:226,1,35
163,294,229886,5,0,0:0:0:0:
145,305,229948,1,0,0:0:0:0:
123,306,230011,2,0,B|100:296|100:296|87:270,1,35
13,309,230136,5,0,0:0:0:0:
8,295,230198,1,0,0:0:0:0:
9,280,230261,2,0,B|17:256|17:256|35:246,1,35
230,163,230386,5,0,0:0:0:0:
259,109,230479,1,0,0:0:0:0:
224,151,230573,1,0,0:0:0:0:
245,112,230667,1,0,0:0:0:0:
309,164,230761,6,0,B|314:171|332:183|332:183|313:175|295:176,1,52.5
169,106,230948,2,0,B|163:98|145:86|145:86|164:94|182:93,1,52.5
324,313,231136,5,0,0:0:0:0:
295,259,231229,1,0,0:0:0:0:
330,301,231323,1,0,0:0:0:0:
309,262,231417,1,0,0:0:0:0:
245,314,231511,6,0,B|239:321|221:333|221:333|240:325|258:326,1,52.5
385,256,231698,2,0,B|390:248|408:236|408:236|389:244|371:243,1,52.5
431,42,231886,5,0,0:0:0:0:
437,47,231948,1,0,0:0:0:0:
441,54,232011,1,0,0:0:0:0:
497,119,232261,5,0,0:0:0:0:
493,126,232323,1,0,0:0:0:0:
486,131,232386,1,0,0:0:0:0:
334,57,232636,5,0,0:0:0:0:
284,81,232729,1,0,0:0:0:0:
234,106,232823,2,0,L|271:25,1,52.5
304,4,233011,2,0,L|355:76,1,52.5
357,115,233198,2,0,L|268:123,1,52.5
209,314,233386,5,0,0:0:0:0:
159,284,233479,1,0,0:0:0:0:
102,296,233573,1,0,0:0:0:0:
96,309,233667,1,0,0:0:0:0:
91,322,233761,5,0,0:0:0:0:
47,280,233854,1,0,0:0:0:0:
56,225,233948,1,0,0:0:0:0:
64,217,234042,1,0,0:0:0:0:
139,174,234136,5,0,0:0:0:0:
144,160,234229,1,0,0:0:0:0:
76,120,234323,5,0,0:0:0:0:
72,106,234417,1,0,0:0:0:0:
144,60,234511,5,0,0:0:0:0:
75,29,234604,2,0,B|46:39|46:39|44:42|44:42|17:51,1,58.8000007177734
227,35,234792,5,0,0:0:0:0:
246,29,234886,2,0,P|280:45|304:76,1,58.8000007177734
352,114,235073,2,0,B|360:145|360:145|337:121,1,58.8000007177734
449,44,235261,5,0,0:0:0:0:
457,47,235354,1,0,0:0:0:0:
452,56,235448,1,0,0:0:0:0:
446,53,235542,1,0,0:0:0:0:
492,137,235636,5,0,0:0:0:0:
481,174,235729,1,0,0:0:0:0:
412,218,235823,5,0,0:0:0:0:
422,243,235917,1,0,0:0:0:0:
481,306,236011,6,0,P|470:321|458:328,1,29.4000003588867
459,348,236104,2,0,P|441:345|427:336,1,29.4000003588867
408,358,236198,1,0,0:0:0:0:
350,325,236292,1,0,0:0:0:0:
315,261,236386,5,0,0:0:0:0:
269,256,236479,1,0,0:0:0:0:
238,290,236573,1,0,0:0:0:0:
245,336,236667,1,0,0:0:0:0:
282,365,236761,5,0,0:0:0:0:
304,356,236854,1,0,0:0:0:0:
304,338,236948,1,0,0:0:0:0:
294,332,237042,1,0,0:0:0:0:
276,330,237136,6,0,P|293:289|289:262,1,58.8000007177734
355,224,237323,2,0,P|330:194|321:164,1,58.8000007177734
285,340,237511,6,0,P|299:315|301:286,3,58.8000007177734
249,119,237886,5,0,0:0:0:0:
304,101,237979,1,0,0:0:0:0:
357,83,238073,5,0,0:0:0:0:
360,75,238167,1,0,0:0:0:0:
365,66,238261,5,0,0:0:0:0:
423,40,238354,1,0,0:0:0:0:
483,21,238448,5,0,0:0:0:0:
486,14,238542,1,0,0:0:0:0:
489,5,238636,6,0,B|499:21|499:21|486:67,1,58.8000007177734
447,124,238823,2,0,B|437:140|437:140|450:186,1,58.8000007177734
498,258,239011,5,0,0:0:0:0:
464,340,239104,1,0,0:0:0:0:
457,326,239198,1,0,0:0:0:0:
307,272,239386,5,0,0:0:0:0:
308,265,239432,1,0,0:0:0:0:
310,258,239479,1,0,0:0:0:0:
211,223,239761,5,0,0:0:0:0:
205,225,239807,1,0,0:0:0:0:
197,227,239854,1,0,0:0:0:0:
232,305,240136,6,0,B|246:332|246:332|245:361,1,58.8000007177734
170,364,240323,2,0,B|157:338|157:338|160:304,1,58.8000007177734
283,203,240511,6,0,L|354:186,1,58.8000007177734
480,232,240698,6,0,P|483:219|479:228,1,58.8000007177734
467,234,241074,5,0,0:0:0:0:
460,240,241119,1,0,0:0:0:0:
419,169,241261,5,0,0:0:0:0:
420,161,241307,1,0,0:0:0:0:
380,90,241636,5,0,0:0:0:0:
358,74,241698,1,0,0:0:0:0:
330,75,241761,2,0,P|313:86|301:106,1,35
228,94,241886,5,0,0:0:0:0:
229,114,241948,1,0,0:0:0:0:
234,134,242011,2,0,P|248:153|266:167,1,35
260,241,242136,5,0,0:0:0:0:
275,241,242198,1,0,0:0:0:0:
289,237,242261,2,0,P|313:218|318:204,1,35
104,125,242386,5,0,0:0:0:0:
52,117,242479,1,0,0:0:0:0:
95,112,242573,5,0,0:0:0:0:
64,108,242666,1,0,0:0:0:0:
67,190,242761,6,0,B|61:195|61:195|61:217|61:217|69:196|69:196|67:191,1,52.5
96,40,242948,6,0,B|101:36|101:36|101:14|101:14|93:35|93:35|95:40,1,52.5
324,210,243136,5,0,0:0:0:0:
376,202,243229,1,0,0:0:0:0:
333,197,243323,5,0,0:0:0:0:
364,193,243416,1,0,0:0:0:0:
361,275,243511,6,0,B|366:280|366:280|366:302|366:302|358:281|358:281|360:276,1,52.5
332,125,243698,6,0,B|326:121|326:121|326:99|326:99|334:120|334:120|332:125,1,52.5
153,318,243886,5,0,0:0:0:0:
145,314,243948,1,0,0:0:0:0:
140,307,244011,1,0,0:0:0:0:
77,252,244261,5,0,0:0:0:0:
83,244,244323,1,0,0:0:0:0:
90,241,244386,1,0,0:0:0:0:
233,274,244636,5,0,0:0:0:0:
246,326,244729,1,0,0:0:0:0:
262,378,244823,2,0,P|301:376|318:363,1,52.5
355,311,245011,2,0,P|333:278|314:270,1,52.5
250,263,245198,2,0,P|232:297|234:318,1,52.5
475,134,245386,5,0,0:0:0:0:
476,141,245432,1,0,0:0:0:0:
478,148,245479,1,0,0:0:0:0:
379,183,245761,5,0,0:0:0:0:
373,181,245807,1,0,0:0:0:0:
365,179,245854,1,0,0:0:0:0:
400,101,246136,6,0,B|414:74|414:74|413:45,1,52.5
338,42,246323,2,0,B|326:65|326:65|328:96,1,52.5
451,203,246511,6,0,L|522:220,1,52.5
331,333,246698,6,0,B|309:341|309:341|317:326|332:328,1,52.5
345,329,247074,5,0,0:0:0:0:
353,326,247119,1,0,0:0:0:0:
309,257,247261,5,0,0:0:0:0:
301,254,247307,1,0,0:0:0:0:
277,177,247636,5,0,0:0:0:0:
299,160,247698,1,0,0:0:0:0:
327,161,247761,2,0,P|344:173|356:193,1,35
429,180,247886,5,0,0:0:0:0:
429,200,247948,1,0,0:0:0:0:
423,220,248011,2,0,P|409:240|391:253,1,35
397,328,248136,5,0,0:0:0:0:
383,328,248198,1,0,0:0:0:0:
369,323,248261,2,0,P|345:305|340:290,1,35
104,259,248386,5,0,0:0:0:0:
52,267,248479,1,0,0:0:0:0:
95,272,248573,5,0,0:0:0:0:
64,276,248666,1,0,0:0:0:0:
67,194,248761,6,0,B|61:189|61:189|61:167|61:167|69:188|69:188|67:193,1,52.5
96,344,248948,6,0,B|101:348|101:348|101:370|101:370|93:349|93:349|95:344,1,52.5
324,174,249136,5,0,0:0:0:0:
376,182,249229,1,0,0:0:0:0:
333,187,249323,5,0,0:0:0:0:
364,191,249416,1,0,0:0:0:0:
361,109,249511,6,0,B|366:104|366:104|366:82|366:82|358:103|358:103|360:108,1,52.5
332,259,249698,6,0,B|326:263|326:263|326:285|326:285|334:264|334:264|332:259,1,52.5
153,66,249886,5,0,0:0:0:0:
145,70,249948,1,0,0:0:0:0:
140,77,250011,1,0,0:0:0:0:
77,132,250261,5,0,0:0:0:0:
83,140,250323,1,0,0:0:0:0:
90,143,250386,1,0,0:0:0:0:
144,210,250636,5,0,0:0:0:0:
197,197,250729,1,0,0:0:0:0:
244,221,250823,2,0,P|264:252|254:282,1,52.5
333,309,251011,2,0,P|341:285|373:269,1,52.5
329,185,251198,1,0,0:0:0:0:
115,344,251386,5,0,0:0:0:0:
118,352,251448,1,0,0:0:0:0:
121,360,251511,1,0,0:0:0:0:
48,285,251761,5,0,0:0:0:0:
39,283,251823,1,0,0:0:0:0:
31,282,251886,1,0,0:0:0:0:
141,259,252136,6,0,B|152:254|168:251|168:251|173:235|184:218,1,52.5
128,175,252323,2,0,B|117:180|101:183|101:183|96:199|85:216,1,52.5
26,96,252511,6,0,P|34:60|36:24,1,52.5
254,92,252698,6,0,B|268:99|265:126|248:108|252:94,1,35
255,79,253073,5,0,0:0:0:0:
257,70,253136,1,0,0:0:0:0:
344,36,253261,5,0,0:0:0:0:
342,45,253324,1,0,0:0:0:0:
432,17,253636,5,0,0:0:0:0:
446,40,253698,1,0,0:0:0:0:
448,68,253761,2,0,L|434:113,1,35
358,118,253886,5,0,0:0:0:0:
351,137,253948,1,0,0:0:0:0:
353,158,254011,2,0,L|376:211,1,35
435,223,254136,5,0,0:0:0:0:
442,234,254198,1,0,0:0:0:0:
442,248,254261,2,0,L|425:307,1,35
239,300,254386,5,0,0:0:0:0:
240,352,254479,1,0,0:0:0:0:
250,309,254573,5,0,0:0:0:0:
251,341,254666,1,0,0:0:0:0:
166,322,254761,6,0,B|153:330|142:333|142:333|154:332|170:341,1,52.5
321,329,254948,2,0,B|333:320|344:317|344:317|332:318|316:309,1,52.5
97,173,255136,5,0,0:0:0:0:
96,225,255229,1,0,0:0:0:0:
86,182,255323,5,0,0:0:0:0:
85,214,255416,1,0,0:0:0:0:
170,195,255511,6,0,B|182:203|193:206|193:206|181:205|165:214,1,52.5
15,202,255698,2,0,B|2:193|-8:190|-8:190|3:191|19:182,1,52.5
252,65,255886,5,0,0:3:0:0:
244,59,255948,1,0,0:3:0:0:
235,57,256011,1,0,0:3:0:0:
165,17,256261,5,0,0:0:0:0:
157,21,256323,1,0,0:0:0:0:
151,28,256386,1,0,0:0:0:0:
76,64,256636,5,0,0:0:0:0:
82,118,256729,1,0,0:0:0:0:
88,172,256823,2,0,B|63:193|63:193|34:189,1,52.5
139,274,257011,2,0,B|133:241|133:241|151:218,1,52.5
25,267,257198,2,0,B|56:278|56:278|67:305,1,52.5,0|0,3:0|3:0,3:0:0:0:
