osu file format v14

[General]
AudioFilename: audio.mp3
AudioLeadIn: 0
PreviewTime: 15748
Countdown: 0
SampleSet: Normal
StackLeniency: 0.7
Mode: 1
LetterboxInBreaks: 0
WidescreenStoryboard: 0

[Editor]
Bookmarks: 5248,15626,36383,46761,57140,67518,72707,77896,80815,86653,97031,107409,117788,128166,138544,159416,190916,204216,229816,250572,251870,267437,277815,279113,294680,305059,315437,325815,336194,346572
DistanceSpacing: 0.5
BeatDivisor: 4
GridSize: 32
TimelineZoom: 2.2

[Metadata]
Title:A Dark Horizontal
TitleUnicode:A Dark Horizontal
Artist:Archspire
ArtistUnicode:Archspire
Creator:Heaxys
Version:Tormented
Source:
Tags:brutal technical death grind deathgrind metal english relentless mutation season of mist featured artist fa tag2 tag4 coop co-op compatible mappers mappers' guild mpg mg
BeatmapID:3566194
BeatmapSetID:1744148

[Difficulty]
HPDrainRate:4
CircleSize:2
OverallDifficulty:8
ApproachRate:10
SliderMultiplier:1.4
SliderTickRate:1

[Events]
//Background and Video events
0,0,"Archspire - A Dark Horizontal.jpg",0,0
//Break Periods
2,15826,25554
2,138582,146166
2,178616,190466
2,250610,251420
//Storyboard Layer 0 (Background)
//Storyboard Layer 1 (Fail)
//Storyboard Layer 2 (Pass)
//Storyboard Layer 3 (Foreground)
//Storyboard Layer 4 (Overlay)
//Storyboard Sound Samples

[TimingPoints]
59,324.324324324324,4,1,0,70,1,0
59,-90.9090909090909,4,1,0,70,0,0
216,-90.9090909090909,4,1,0,40,0,0
2486,-71.4285714285714,4,1,0,70,0,0
2972,-71.4285714285714,4,1,0,40,0,0
3297,-71.4285714285714,4,1,0,70,0,0
4108,-71.4285714285714,4,1,0,40,0,0
4837,-62.5,4,1,0,100,0,0
5026,-71.4285714285714,4,1,0,20,0,0
5162,-83.3333333333333,4,1,0,80,0,0
10270,-80,4,1,0,80,0,0
10432,-76.9230769230769,4,1,0,80,0,0
15783,-86.9565217391304,4,1,0,72,0,0
15945,-86.9565217391304,4,1,0,65,0,0
16108,-86.9565217391304,4,1,0,57,0,0
16270,-86.9565217391304,4,1,0,50,0,0
16432,-86.9565217391304,4,1,0,42,0,0
16594,-86.9565217391304,4,1,0,35,0,0
16756,-86.9565217391304,4,1,0,27,0,0
16918,-86.9565217391304,4,1,0,20,0,0
18216,-90.9090909090909,4,1,0,20,0,0
19513,-95.2380952380952,4,1,0,20,0,0
20810,-100,4,1,0,20,0,0
25837,-100,4,1,0,50,0,0
28351,-100,4,1,0,20,0,0
28513,-100,4,1,0,50,0,0
31351,-100,4,1,0,20,0,0
34918,-98.0392156862745,4,1,0,48,0,0
35142,-96.1538461538461,4,1,0,50,0,0
35223,-94.3396226415094,4,1,0,52,0,0
35304,-92.5925925925926,4,1,0,54,0,0
35385,-90.9090909090909,4,1,0,56,0,0
35466,-89.2857142857143,4,1,0,58,0,0
35547,-87.719298245614,4,1,0,60,0,0
35628,-86.2068965517241,4,1,0,62,0,0
35709,-84.7457627118644,4,1,0,64,0,0
35790,-83.3333333333333,4,1,0,66,0,0
35871,-81.9672131147541,4,1,0,68,0,0
35952,-80.6451612903226,4,1,0,70,0,0
36033,-79.3650793650794,4,1,0,72,0,0
36115,-78.125,4,1,0,74,0,0
36196,-76.9230769230769,4,1,0,76,0,0
36277,-75.4716981132076,4,1,0,78,0,0
36358,-74.0740740740741,4,1,0,80,0,0
45297,-73.8007380073801,4,1,0,80,0,0
45378,-73.5294117647059,4,1,0,80,0,0
45459,-73.2600732600733,4,1,0,80,0,0
45540,-72.992700729927,4,1,0,80,0,0
45621,-72.7272727272727,4,1,0,80,0,0
45702,-72.463768115942,4,1,0,80,0,0
45783,-72.202166064982,4,1,0,80,0,0
45864,-71.9424460431655,4,1,0,80,0,0
45945,-71.6845878136201,4,1,0,80,0,0
46026,-71.4285714285714,4,1,0,80,0,0
46107,-71.1743772241993,4,1,0,80,0,0
46189,-70.9219858156028,4,1,0,80,0,0
46270,-70.6713780918728,4,1,0,80,0,0
46351,-70.4225352112676,4,1,0,80,0,0
46432,-70.1754385964912,4,1,0,80,0,0
46513,-69.9300699300699,4,1,0,80,0,0
46594,-69.6864111498258,4,1,0,80,0,0
46675,-69.3240901213172,4,1,0,80,0,0
46756,-68.9655172413793,4,1,0,80,0,0
51783,-70.1754385964912,4,1,0,80,0,0
51945,-71.4285714285714,4,1,0,80,0,0
54648,-71.9424460431655,4,1,0,80,0,0
54756,-72.463768115942,4,1,0,80,0,0
54864,-72.992700729927,4,1,0,80,0,0
54972,-73.5294117647059,4,1,0,80,0,0
55081,-74.0740740740741,4,1,0,80,0,0
55189,-74.6268656716418,4,1,0,80,0,0
55297,-75.187969924812,4,1,0,80,0,0
55405,-75.7575757575758,4,1,0,80,0,0
55513,-76.3358778625954,4,1,0,80,0,0
55621,-76.9230769230769,4,1,0,80,0,0
55729,-77.5193798449612,4,1,0,80,0,0
55837,-78.125,4,1,0,80,0,0
55945,-78.7401574803149,4,1,0,80,0,0
56053,-79.3650793650794,4,1,0,80,0,0
56162,-80,4,1,0,80,0,0
56270,-80.6451612903226,4,1,0,80,0,0
56378,-81.3008130081301,4,1,0,80,0,0
56486,-81.9672131147541,4,1,0,80,0,0
56648,-82.6446280991736,4,1,0,80,0,0
56891,-82.6446280991736,4,1,0,20,0,0
57053,-82.6446280991736,4,1,0,90,0,0
57140,-68.9655172413793,4,1,0,90,0,1
67459,-68.9655172413793,4,1,0,70,0,1
67518,-71.4285714285714,4,1,0,70,0,0
69454,-72.992700729927,4,1,0,70,0,0
69536,-74.6268656716418,4,1,0,70,0,0
69617,-76.3358778625954,4,1,0,70,0,0
69698,-78.125,4,1,0,70,0,0
69779,-80,4,1,0,70,0,0
69941,-83.3333333333333,4,1,0,70,0,0
70103,-71.4285714285714,4,1,0,70,0,0
72053,-73.5294117647059,4,1,0,70,0,0
72135,-75.7575757575758,4,1,0,70,0,0
72216,-78.125,4,1,0,70,0,0
72297,-80.6451612903226,4,1,0,70,0,0
72378,-83.3333333333333,4,1,0,70,0,0
72540,-89.2857142857143,4,1,0,70,0,0
72648,-89.2857142857143,4,1,0,80,0,0
72702,-76.9230769230769,4,1,0,80,0,0
75297,-77.2200772200772,4,1,0,80,0,0
75378,-77.5193798449612,4,1,0,80,0,0
75459,-77.8210116731517,4,1,0,80,0,0
75540,-78.125,4,1,0,80,0,0
75621,-78.4313725490196,4,1,0,80,0,0
75702,-78.7401574803149,4,1,0,80,0,0
75783,-79.0513833992095,4,1,0,80,0,0
75864,-79.3650793650794,4,1,0,80,0,0
75945,-79.6812749003984,4,1,0,80,0,0
76026,-80,4,1,0,80,0,0
76108,-80.3212851405623,4,1,0,80,0,0
76189,-80.6451612903226,4,1,0,80,0,0
76270,-80.9716599190283,4,1,0,80,0,0
76351,-81.3008130081301,4,1,0,80,0,0
76432,-81.6326530612245,4,1,0,80,0,0
76513,-81.9672131147541,4,1,0,80,0,0
76594,-82.3045267489712,4,1,0,80,0,0
76675,-82.6446280991736,4,1,0,80,0,0
76756,-82.9875518672199,4,1,0,80,0,0
76837,-83.3333333333333,4,1,0,80,0,0
76918,-83.6820083682008,4,1,0,80,0,0
76999,-84.0336134453781,4,1,0,80,0,0
77081,-84.3881856540084,4,1,0,80,0,0
77162,-84.7457627118644,4,1,0,80,0,0
77243,-84.8896434634975,4,1,0,80,0,0
77283,-85.0340136054422,4,1,0,80,0,0
77324,-85.1788756388416,4,1,0,80,0,0
77364,-85.3242320819113,4,1,0,80,0,0
77405,-85.4700854700855,4,1,0,80,0,0
77486,-85.9106529209622,4,1,0,80,0,0
77567,-86.3557858376511,4,1,0,80,0,0
77608,-86.5051903114187,4,1,0,80,0,0
77648,-86.6551126516464,4,1,0,80,0,0
77689,-86.8055555555555,4,1,0,80,0,0
77729,-86.9565217391304,4,1,0,80,0,0
77810,-87.4125874125874,4,1,0,80,0,0
77891,-87.719298245614,4,1,0,80,0,0
78053,-87.719298245614,4,1,0,20,0,0
79270,-87.719298245614,4,1,0,80,0,0
79432,-87.719298245614,4,1,0,20,0,0
80491,324.324324324324,4,1,0,20,1,8
80727,-100,4,1,0,60,0,8
80814,324.324324324324,4,1,0,60,1,0
80890,-100,4,1,0,20,0,0
81052,-100,4,1,0,60,0,0
81214,-100,4,1,0,20,0,0
81376,-100,4,1,0,60,0,0
82187,-100,4,1,0,20,0,0
82349,-100,4,1,0,60,0,0
83160,-100,4,1,0,20,0,0
83322,-100,4,1,0,60,0,0
83646,-100,4,1,0,20,0,0
83809,-100,4,1,0,60,0,0
86593,-100,4,1,0,80,0,0
86653,324.324324324324,4,1,0,80,1,0
86653,-74.0740740740741,4,1,0,80,0,0
91593,-74.0740740740741,4,1,0,20,0,0
91756,-74.0740740740741,4,1,0,80,0,0
97026,-74.9063670411985,4,1,0,80,0,0
97188,-75.7575757575758,4,1,0,80,0,0
97350,-76.6283524904215,4,1,0,80,0,0
97512,-77.5193798449612,4,1,0,80,0,0
97675,-78.4313725490196,4,1,0,80,0,0
97837,-79.3650793650794,4,1,0,80,0,0
97999,-80.3212851405623,4,1,0,80,0,0
98161,-81.3008130081301,4,1,0,80,0,0
98323,-81.9672131147541,4,1,0,80,0,0
98485,-82.6446280991736,4,1,0,80,0,0
98647,-83.3333333333333,4,1,0,80,0,0
106107,-82.9875518672199,4,1,0,80,0,0
106188,-82.6446280991736,4,1,0,80,0,0
106269,-82.3045267489712,4,1,0,80,0,0
106350,-81.9672131147541,4,1,0,80,0,0
106431,-81.6993464052288,4,1,0,80,0,0
106472,-81.4332247557003,4,1,0,80,0,0
106512,-81.1688311688312,4,1,0,80,0,0
106553,-80.9061488673139,4,1,0,80,0,0
106593,-80.6451612903226,4,1,0,80,0,0
106675,-80,4,1,0,80,0,0
106756,-79.3650793650794,4,1,0,80,0,0
106837,-78.7401574803149,4,1,0,80,0,0
106918,-78.125,4,1,0,80,0,0
106999,-77.5193798449612,4,1,0,80,0,0
107080,-76.9230769230769,4,1,0,80,0,0
107161,-76.1904761904762,4,1,0,80,0,0
107242,-75.4716981132076,4,1,0,80,0,0
107323,-74.7663551401869,4,1,0,80,0,0
107404,-74.0740740740741,4,1,0,80,0,0
117539,-74.0740740740741,4,1,0,20,0,0
117702,-74.0740740740741,4,1,0,90,0,0
117788,-68.9655172413793,4,1,0,90,0,1
135945,-69.204152249135,4,1,0,90,0,1
136026,-69.4444444444444,4,1,0,90,0,1
136107,-69.6864111498258,4,1,0,90,0,1
136188,-69.9300699300699,4,1,0,90,0,1
136269,-70.1754385964912,4,1,0,90,0,1
136350,-70.4225352112676,4,1,0,90,0,1
136431,-70.6713780918728,4,1,0,90,0,1
136512,-70.9219858156028,4,1,0,90,0,1
136593,-71.1743772241993,4,1,0,90,0,1
136675,-71.4285714285714,4,1,0,90,0,1
136756,-71.6845878136201,4,1,0,90,0,1
136837,-71.9424460431655,4,1,0,90,0,1
136918,-72.202166064982,4,1,0,90,0,1
136999,-72.463768115942,4,1,0,90,0,1
137080,-72.7272727272727,4,1,0,90,0,1
137161,-72.992700729927,4,1,0,90,0,1
137242,-73.2600732600733,4,1,0,90,0,1
137323,-73.5294117647059,4,1,0,90,0,1
137404,-73.8007380073801,4,1,0,90,0,1
137485,-74.0740740740741,4,1,0,90,0,1
137566,-74.3494423791822,4,1,0,90,0,1
137647,-74.6268656716418,4,1,0,90,0,1
137729,-73.9644970414201,4,1,0,90,0,1
137769,-73.3137829912023,4,1,0,90,0,1
137810,-72.6744186046512,4,1,0,90,0,1
137850,-72.0461095100865,4,1,0,90,0,1
137891,-71.4285714285714,4,1,0,90,0,1
138485,-71.4285714285714,4,1,0,20,0,1
138544,-71.4285714285714,4,1,0,20,0,0
139837,-80,4,1,0,20,0,0
141134,-88.8888888888889,4,1,0,20,0,0
142431,-100,4,1,0,20,0,0
143729,-111.111111111111,4,1,0,20,0,0
144058,352.941176470588,4,1,0,20,1,8
144411,338.983050847458,4,1,0,20,1,8
144749,357.142857142857,4,1,0,20,1,8
145106,357.142857142857,4,1,0,20,1,0
145106,-117.647058823529,4,1,0,20,0,0
145820,400,4,1,0,20,1,8
146515,-100,4,1,0,45,0,8
146616,400,4,1,0,45,1,0
146616,-111.111111111111,4,1,0,45,0,0
146711,-111.111111111111,4,1,0,20,0,0
147311,-111.111111111111,4,1,0,45,0,0
147511,-111.111111111111,4,1,0,20,0,0
148111,-111.111111111111,4,1,0,45,0,0
148311,-111.111111111111,4,1,0,20,0,0
148911,-111.111111111111,4,1,0,45,0,0
149111,-111.111111111111,4,1,0,20,0,0
149711,-111.111111111111,4,1,0,45,0,0
149911,-111.111111111111,4,1,0,20,0,0
150511,-111.111111111111,4,1,0,45,0,0
150711,-111.111111111111,4,1,0,20,0,0
151311,-111.111111111111,4,1,0,45,0,0
151511,-111.111111111111,4,1,0,20,0,0
152111,-111.111111111111,4,1,0,45,0,0
152311,-111.111111111111,4,1,0,20,0,0
152911,-90.9090909090909,4,1,0,45,0,0
153277,-95.2380952380952,4,1,0,45,0,0
153544,-100,4,1,0,45,0,0
153811,-104.166666666667,4,1,0,45,0,0
154077,-107.52688172043,4,1,0,45,0,0
154344,-109.89010989011,4,1,0,45,0,0
154611,-111.111111111111,4,1,0,45,0,0
154711,-111.111111111111,4,1,0,20,0,0
156111,-111.111111111111,4,1,0,45,0,0
156311,-111.111111111111,4,1,0,20,0,0
156911,-117.647058823529,4,1,0,45,0,0
157111,-111.111111111111,4,1,0,20,0,0
157711,-125,4,1,0,45,0,0
157911,-111.111111111111,4,1,0,20,0,0
158511,-133.333333333333,4,1,0,45,0,0
158711,-111.111111111111,4,1,0,20,0,0
159311,-100,4,1,0,60,0,0
165811,-86.9565217391304,4,1,0,60,0,0
166011,-90.9090909090909,4,1,0,57,0,0
166278,-95.2380952380952,4,1,0,54,0,0
166545,-99.009900990099,4,1,0,51,0,0
166811,-102.040816326531,4,1,0,49,0,0
167078,-104.166666666667,4,1,0,47,0,0
167345,-105.263157894737,4,1,0,45,0,0
167511,-105.263157894737,4,1,0,20,0,0
168911,-111.111111111111,4,1,0,45,0,0
169111,-105.263157894737,4,1,0,20,0,0
169711,-117.647058823529,4,1,0,45,0,0
169911,-105.263157894737,4,1,0,20,0,0
170511,-125,4,1,0,45,0,0
170711,-105.263157894737,4,1,0,20,0,0
171311,-133.333333333333,4,1,0,45,0,0
171511,-105.263157894737,4,1,0,20,0,0
172111,-100,4,1,0,60,0,0
175411,-86.9565217391304,4,1,0,60,0,0
175511,-105.263157894737,4,1,0,20,0,0
176111,-100,4,1,0,45,0,0
176311,-105.263157894737,4,1,0,20,0,0
176911,-111.111111111111,4,1,0,45,0,0
177111,-105.263157894737,4,1,0,20,0,0
177711,-125,4,1,0,45,0,0
177911,-125,4,1,0,20,0,0
185011,-125,4,1,0,25,0,0
185411,-125,4,1,0,27,0,0
185811,-125,4,1,0,30,0,0
186211,-125,4,1,0,32,0,0
186611,-125,4,1,0,35,0,0
187011,-125,4,1,0,37,0,0
187411,-125,4,1,0,40,0,0
187811,-125,4,1,0,42,0,0
188211,-125,4,1,0,45,0,0
188411,-125,4,1,0,47,0,0
188611,-125,4,1,0,50,0,0
188811,-125,4,1,0,52,0,0
189011,-125,4,1,0,55,0,0
189211,-125,4,1,0,57,0,0
189411,-125,4,1,0,60,0,0
189611,-125,4,1,0,62,0,0
189811,-125,4,1,0,65,0,0
190011,-125,4,1,0,67,0,0
190211,-125,4,1,0,70,0,0
190411,-125,4,1,0,72,0,0
190611,-125,4,1,0,75,0,0
190811,-125,4,1,0,80,0,0
190911,-66.6666666666667,4,1,0,80,0,0
190961,-65.7894736842105,4,1,0,80,0,0
191011,-64.9350649350649,4,1,0,80,0,0
191061,-64.1025641025641,4,1,0,80,0,0
191111,-63.2911392405063,4,1,0,80,0,0
191161,-62.5,4,1,0,80,0,0
191211,-61.3496932515337,4,1,0,80,0,0
191261,-60.2409638554217,4,1,0,80,0,0
191311,-59.1715976331361,4,1,0,80,0,0
191361,-58.1395348837209,4,1,0,80,0,0
191411,-57.1428571428571,4,1,0,80,0,0
201111,-57.1428571428571,4,1,0,40,0,0
202344,-57.1428571428571,4,1,0,70,0,0
202744,-57.1428571428571,4,1,0,40,0,0
204111,-57.1428571428571,4,1,0,90,0,0
204216,-62.5,4,1,0,90,0,1
229416,-62.5,4,1,0,90,0,0
229477,-62.5,4,1,0,20,0,0
229711,-62.5,4,1,0,70,0,0
229816,324.324324324324,4,1,0,70,1,0
229816,-90.9090909090909,4,1,0,70,0,0
229973,-90.9090909090909,4,1,0,20,0,0
232243,-71.4285714285714,4,1,0,70,0,0
232729,-71.4285714285714,4,1,0,20,0,0
233054,-71.4285714285714,4,1,0,70,0,0
233865,-71.4285714285714,4,1,0,20,0,0
234567,-62.5,4,1,0,70,0,0
234783,-71.4285714285714,4,1,0,20,0,0
234919,-83.3333333333333,4,1,0,80,0,0
239946,-83.3333333333333,4,1,0,20,0,0
240108,-74.0740740740741,4,1,0,80,0,0
240194,-74.0740740740741,4,1,0,80,0,1
241167,-74.0740740740741,4,1,0,80,0,0
241243,-83.3333333333333,4,1,0,20,0,0
241405,-74.0740740740741,4,1,0,80,0,0
241491,-74.0740740740741,4,1,0,80,0,1
242788,-74.0740740740741,4,1,0,80,0,0
242951,-74.0740740740741,4,1,0,80,0,1
243761,-74.0740740740741,4,1,0,80,0,0
243838,-83.3333333333333,4,1,0,20,0,0
244000,-74.0740740740741,4,1,0,80,0,0
244086,-74.0740740740741,4,1,0,80,0,1
245221,-74.0740740740741,4,1,0,80,0,0
245383,-74.0740740740741,4,1,0,80,0,1
246356,-74.0740740740741,4,1,0,80,0,0
246432,-83.3333333333333,4,1,0,20,0,0
246594,-74.0740740740741,4,1,0,80,0,0
246680,-74.0740740740741,4,1,0,80,0,1
247978,-74.0740740740741,4,1,0,80,0,0
248140,-74.0740740740741,4,1,0,80,0,1
249032,-83.3333333333333,4,1,0,20,0,0
249189,-74.0740740740741,4,1,0,80,0,0
249275,-74.0740740740741,4,1,0,80,0,1
250410,-74.0740740740741,4,1,0,80,0,0
250513,-74.0740740740741,4,1,0,20,0,0
251783,-68.9655172413793,4,1,0,90,0,0
251870,-68.9655172413793,4,1,0,90,0,1
256734,-68.9655172413793,4,1,0,90,0,0
256810,-74.0740740740741,4,1,0,20,0,0
256973,-74.0740740740741,4,1,0,80,0,0
257059,-64.5161290322581,4,1,0,80,0,1
257383,-64.5161290322581,4,1,0,80,0,0
257459,-74.0740740740741,4,1,0,20,0,0
257621,-64.5161290322581,4,1,0,80,0,0
257707,-64.5161290322581,4,1,0,80,0,1
258032,-64.5161290322581,4,1,0,80,0,0
258108,-74.0740740740741,4,1,0,20,0,0
258270,-68.9655172413793,4,1,0,80,0,0
258356,-68.9655172413793,4,1,0,80,0,1
258432,-69.2856647959537,4,1,0,80,0,1
258513,-69.608798552137,4,1,0,80,0,1
258594,-69.9300699300699,4,1,0,80,0,1
258675,-70.2592566570646,4,1,0,80,0,1
258756,-70.5915572497529,4,1,0,80,0,1
258838,-70.9219858156028,4,1,0,80,0,1
258919,-71.2606000142521,4,1,0,80,0,1
259000,-71.6024631247315,4,1,0,80,0,1
259040,-71.6024631247315,4,1,0,80,0,1
259081,-71.9424460431655,4,1,0,80,0,1
259121,-72.1188518678783,4,1,0,80,0,1
259162,-72.2908985758693,4,1,0,80,0,1
259243,-72.6427429899753,4,1,0,80,0,1
259324,-72.992700729927,4,1,0,80,0,1
259365,-73.1743011854237,4,1,0,80,0,1
259405,-73.351426685249,4,1,0,80,0,1
259446,-73.5294117647059,4,1,0,80,0,1
259491,-73.7136960047177,4,1,0,80,0,0
259653,-74.0740740740741,4,1,0,80,0,1
260626,-74.0740740740741,4,1,0,80,0,0
260702,-74.0740740740741,4,1,0,20,0,0
260865,-74.0740740740741,4,1,0,80,0,0
260951,-74.0740740740741,4,1,0,80,0,1
262086,-74.0740740740741,4,1,0,80,0,0
262248,-74.0740740740741,4,1,0,80,0,1
263221,-74.0740740740741,4,1,0,80,0,0
263297,-74.0740740740741,4,1,0,20,0,0
263459,-74.0740740740741,4,1,0,80,0,0
263545,-74.0740740740741,4,1,0,80,0,1
264843,-74.0740740740741,4,1,0,80,0,0
265005,-74.0740740740741,4,1,0,80,0,1
265815,-74.0740740740741,4,1,0,80,0,0
265892,-74.0740740740741,4,1,0,20,0,0
266054,-74.0740740740741,4,1,0,80,0,0
266140,-74.0740740740741,4,1,0,80,0,1
267275,-74.0740740740741,4,1,0,80,0,0
267378,-74.0740740740741,4,1,0,90,0,0
267437,-68.9655172413793,4,1,0,90,0,1
272459,-74.0740740740741,4,1,0,90,0,1
272621,-68.9655172413793,4,1,0,90,0,1
274892,-68.4931506849315,4,1,0,90,0,1
274973,-68.0272108843537,4,1,0,90,0,1
275054,-67.5675675675676,4,1,0,90,0,1
275135,-67.1140939597315,4,1,0,90,0,1
275216,-66.6666666666667,4,1,0,90,0,1
276194,-66.6666666666667,4,1,0,90,0,0
276270,-66.6666666666667,4,1,0,20,0,0
276432,-76.9230769230769,4,1,0,70,0,0
277567,-76.9230769230769,4,1,0,20,0,0
277729,-76.9230769230769,4,1,0,90,0,0
277815,-64.5161290322581,4,1,0,90,0,1
278865,-64.5161290322581,4,1,0,20,0,1
279027,-64.5161290322581,4,1,0,60,0,1
279113,-80,4,1,0,60,0,0
279189,-80,4,1,0,20,0,0
279594,-81.9672131147541,4,1,0,60,0,0
279919,-84.0336134453781,4,1,0,60,0,0
280000,-84.7457627118644,4,1,0,60,0,0
280081,-85.4700854700855,4,1,0,60,0,0
280162,-86.2068965517241,4,1,0,60,0,0
280243,-86.9565217391304,4,1,0,60,0,0
280324,-87.719298245614,4,1,0,60,0,0
280405,-88.4955752212389,4,1,0,60,0,0
280567,-89.2857142857143,4,1,0,60,0,0
280729,-90.0900900900901,4,1,0,60,0,0
280892,-90.9090909090909,4,1,0,60,0,0
282736,-89.6860986547085,4,1,0,61,0,0
282818,-88.4955752212389,4,1,0,62,0,0
282899,-87.3362445414847,4,1,0,63,0,0
282980,-86.2068965517241,4,1,0,64,0,0
283061,-85.1063829787234,4,1,0,65,0,0
283142,-84.0336134453781,4,1,0,66,0,0
283223,-82.9875518672199,4,1,0,67,0,0
283304,-81.9672131147541,4,1,0,68,0,0
283385,-80.9716599190283,4,1,0,69,0,0
283466,-80,4,1,0,70,0,0
283547,-79.0513833992095,4,1,0,71,0,0
283628,-78.125,4,1,0,72,0,0
283709,-77.2200772200772,4,1,0,73,0,0
283790,-76.3358778625954,4,1,0,74,0,0
283872,-75.4716981132076,4,1,0,75,0,0
283953,-74.6268656716418,4,1,0,76,0,0
284034,-73.8007380073801,4,1,0,77,0,0
284115,-72.992700729927,4,1,0,78,0,0
284196,-72.202166064982,4,1,0,79,0,0
284277,-71.4285714285714,4,1,0,80,0,0
286810,-71.4285714285714,4,1,0,20,0,0
286973,-73.1743011854237,4,1,0,50,0,0
287216,-75.0018750468762,4,1,0,50,0,0
287378,-76.9230769230769,4,1,0,50,0,0
287486,-71.4285714285714,4,1,0,80,0,0
292000,-71.4285714285714,4,1,0,20,0,0
292162,-73.1743011854237,4,1,0,50,0,0
292405,-75.0018750468762,4,1,0,50,0,0
292567,-76.9230769230769,4,1,0,50,0,0
292675,-71.4285714285714,4,1,0,80,0,0
294675,-71.6845878136201,4,1,0,80,0,0
294756,-71.9424460431655,4,1,0,80,0,0
294838,-72.202166064982,4,1,0,80,0,0
294919,-72.463768115942,4,1,0,80,0,0
295000,-72.7272727272727,4,1,0,80,0,0
295081,-72.992700729927,4,1,0,80,0,0
295162,-73.2600732600733,4,1,0,80,0,0
295243,-73.5294117647059,4,1,0,80,0,0
295324,-73.8007380073801,4,1,0,80,0,0
295405,-74.0740740740741,4,1,0,80,0,0
297250,-74.0740740740741,4,1,0,55,0,0
297899,-74.0740740740741,4,1,0,80,0,0
302378,-74.0740740740741,4,1,0,40,0,0
303027,-74.0740740740741,4,1,0,80,0,0
305216,-74.9063670411985,4,1,0,80,0,0
305378,-75.7575757575758,4,1,0,80,0,0
305540,-76.6283524904215,4,1,0,80,0,0
305702,-77.5193798449612,4,1,0,80,0,0
305865,-78.4313725490196,4,1,0,80,0,0
306027,-79.3650793650794,4,1,0,80,0,0
306189,-80.3212851405623,4,1,0,80,0,0
306351,-81.3008130081301,4,1,0,80,0,0
306513,-81.9672131147541,4,1,0,80,0,0
306675,-82.6446280991736,4,1,0,80,0,0
306837,-83.3333333333333,4,1,0,80,0,0
314135,-82.9875518672199,4,1,0,80,0,0
314216,-82.6446280991736,4,1,0,80,0,0
314297,-82.3045267489712,4,1,0,80,0,0
314378,-81.9672131147541,4,1,0,80,0,0
314459,-81.6993464052288,4,1,0,80,0,0
314540,-81.1688311688312,4,1,0,80,0,0
314621,-80.6451612903226,4,1,0,80,0,0
314703,-80,4,1,0,80,0,0
314784,-79.3650793650794,4,1,0,80,0,0
314865,-78.7401574803149,4,1,0,80,0,0
314946,-78.125,4,1,0,80,0,0
315027,-77.5193798449612,4,1,0,80,0,0
315108,-76.9230769230769,4,1,0,80,0,0
315189,-76.1904761904762,4,1,0,80,0,0
315270,-75.4716981132076,4,1,0,80,0,0
315351,-74.7663551401869,4,1,0,80,0,0
315432,-74.0740740740741,4,1,0,80,0,0
325648,-71.4285714285714,4,1,0,80,0,0
325756,-68.9655172413793,4,1,0,90,0,0
325815,-68.9655172413793,4,1,0,90,0,1
336189,-66.6666666666667,4,1,0,90,0,1
341378,-64.5161290322581,4,1,0,90,0,1
345756,-64.1025641025641,4,1,0,90,0,1
345797,-63.6942675159236,4,1,0,90,0,1
345838,-63.2911392405063,4,1,0,90,0,1
345878,-62.8930817610063,4,1,0,90,0,1
345919,-62.5,4,1,0,90,0,1
346081,-60.6060606060606,4,1,0,90,0,1
346243,-58.4795321637427,4,1,0,90,0,1
346405,-56.1797752808989,4,1,0,90,0,1
346513,-52.6315789473684,4,1,0,100,0,1
346572,-52.6315789473684,4,1,0,100,0,0

[HitObjects]
256,192,59,5,8,0:0:0:0:
256,192,2653,1,4,0:0:0:0:
256,192,2815,1,4,0:0:0:0:
256,192,3464,1,4,0:0:0:0:
256,192,3626,1,4,0:0:0:0:
256,192,3788,1,4,0:0:0:0:
256,192,3950,1,4,0:0:0:0:
256,192,4923,1,12,0:0:0:0:
256,192,5248,5,8,0:0:0:0:
256,192,5329,1,8,0:0:0:0:
256,192,5410,1,0,0:0:0:0:
256,192,5491,1,0,0:0:0:0:
256,192,5572,1,8,0:0:0:0:
256,192,5653,1,0,0:0:0:0:
256,192,5734,1,8,0:0:0:0:
256,192,5815,1,0,0:0:0:0:
256,192,5896,1,8,0:0:0:0:
256,192,5977,1,8,0:0:0:0:
256,192,6058,1,0,0:0:0:0:
256,192,6140,1,0,0:0:0:0:
256,192,6221,1,8,0:0:0:0:
256,192,6302,1,0,0:0:0:0:
256,192,6383,1,8,0:0:0:0:
256,192,6464,1,0,0:0:0:0:
256,192,6545,1,8,0:0:0:0:
256,192,6626,1,8,0:0:0:0:
256,192,6707,1,0,0:0:0:0:
256,192,6788,1,8,0:0:0:0:
256,192,6869,1,0,0:0:0:0:
256,192,6950,1,0,0:0:0:0:
256,192,7031,1,8,0:0:0:0:
256,192,7113,1,0,0:0:0:0:
256,192,7194,1,8,0:0:0:0:
256,192,7275,1,8,0:0:0:0:
256,192,7356,1,8,0:0:0:0:
256,192,7437,1,0,0:0:0:0:
256,192,7518,1,8,0:0:0:0:
256,192,7599,1,8,0:0:0:0:
256,192,7680,1,0,0:0:0:0:
256,192,7761,1,0,0:0:0:0:
256,192,7842,1,8,0:0:0:0:
256,192,7923,1,8,0:0:0:0:
256,192,8004,1,0,0:0:0:0:
256,192,8086,1,0,0:0:0:0:
256,192,8167,1,8,0:0:0:0:
256,192,8248,1,0,0:0:0:0:
256,192,8329,1,8,0:0:0:0:
256,192,8410,1,0,0:0:0:0:
256,192,8491,1,8,0:0:0:0:
256,192,8572,1,8,0:0:0:0:
256,192,8653,1,0,0:0:0:0:
256,192,8734,1,0,0:0:0:0:
256,192,8815,1,8,0:0:0:0:
256,192,8896,1,8,0:0:0:0:
256,192,8977,1,0,0:0:0:0:
256,192,9031,1,0,0:0:0:0:
256,192,9086,1,0,0:0:0:0:
256,192,9140,1,8,0:0:0:0:
256,192,9221,1,8,0:0:0:0:
256,192,9302,1,0,0:0:0:0:
256,192,9383,1,0,0:0:0:0:
256,192,9464,1,0,0:0:0:0:
256,192,9545,1,0,0:0:0:0:
256,192,9626,1,0,0:0:0:0:
256,192,9707,1,0,0:0:0:0:
256,192,9788,1,8,0:0:0:0:
256,192,9869,1,8,0:0:0:0:
256,192,9950,1,0,0:0:0:0:
256,192,9991,1,0,0:0:0:0:
256,192,10031,1,0,0:0:0:0:
256,192,10072,1,0,0:0:0:0:
256,192,10113,1,8,0:0:0:0:
256,192,10275,1,0,0:0:0:0:
256,192,10437,5,8,0:0:0:0:
256,192,10518,1,8,0:0:0:0:
256,192,10599,1,8,0:0:0:0:
256,192,10680,1,0,0:0:0:0:
256,192,10761,1,8,0:0:0:0:
256,192,10842,1,0,0:0:0:0:
256,192,10923,1,8,0:0:0:0:
256,192,11004,1,0,0:0:0:0:
256,192,11086,1,8,0:0:0:0:
256,192,11167,1,8,0:0:0:0:
256,192,11248,1,0,0:0:0:0:
256,192,11329,1,0,0:0:0:0:
256,192,11410,1,8,0:0:0:0:
256,192,11491,1,0,0:0:0:0:
256,192,11572,1,8,0:0:0:0:
256,192,11653,1,8,0:0:0:0:
256,192,11734,1,8,0:0:0:0:
256,192,11815,1,0,0:0:0:0:
256,192,11896,1,8,0:0:0:0:
256,192,11977,1,8,0:0:0:0:
256,192,12058,1,0,0:0:0:0:
256,192,12140,1,8,0:0:0:0:
256,192,12221,1,8,0:0:0:0:
256,192,12302,1,0,0:0:0:0:
256,192,12383,1,8,0:0:0:0:
256,192,12464,1,0,0:0:0:0:
256,192,12545,1,8,0:0:0:0:
256,192,12626,1,0,0:0:0:0:
256,192,12707,1,8,0:0:0:0:
256,192,12788,1,8,0:0:0:0:
256,192,12869,1,0,0:0:0:0:
256,192,12950,1,0,0:0:0:0:
256,192,13031,1,8,0:0:0:0:
256,192,13113,1,8,0:0:0:0:
256,192,13194,1,0,0:0:0:0:
256,192,13275,1,0,0:0:0:0:
256,192,13356,1,8,0:0:0:0:
256,192,13437,1,0,0:0:0:0:
256,192,13518,1,8,0:0:0:0:
256,192,13599,1,0,0:0:0:0:
256,192,13680,1,8,0:0:0:0:
256,192,13761,1,8,0:0:0:0:
256,192,13842,1,8,0:0:0:0:
256,192,13923,1,0,0:0:0:0:
256,192,14004,1,8,0:0:0:0:
256,192,14086,1,0,0:0:0:0:
256,192,14167,1,8,0:0:0:0:
256,192,14248,1,8,0:0:0:0:
256,192,14329,1,0,0:0:0:0:
256,192,14410,1,8,0:0:0:0:
256,192,14491,1,8,0:0:0:0:
256,192,14572,1,0,0:0:0:0:
256,192,14653,1,8,0:0:0:0:
256,192,14734,1,0,0:0:0:0:
256,192,14815,1,8,0:0:0:0:
256,192,14896,1,0,0:0:0:0:
256,192,14977,1,8,0:0:0:0:
256,192,15031,1,8,0:0:0:0:
256,192,15086,1,8,0:0:0:0:
256,192,15140,1,0,0:0:0:0:
256,192,15221,1,0,0:0:0:0:
256,192,15302,1,8,0:0:0:0:
256,192,15383,1,8,0:0:0:0:
256,192,15464,1,0,0:0:0:0:
256,192,15518,1,0,0:0:0:0:
256,192,15572,1,0,0:0:0:0:
256,192,15626,1,8,0:0:0:0:
256,192,26004,5,8,0:0:0:0:
256,192,26086,1,0,0:0:0:0:
256,192,26167,1,8,0:0:0:0:
256,192,26248,1,8,0:0:0:0:
256,192,26329,1,8,0:0:0:0:
256,192,26410,1,0,0:0:0:0:
256,192,26491,1,8,0:0:0:0:
256,192,26572,1,0,0:0:0:0:
256,192,26653,1,8,0:0:0:0:
256,192,26734,1,8,0:0:0:0:
256,192,26815,1,0,0:0:0:0:
256,192,26896,1,8,0:0:0:0:
256,192,26977,1,8,0:0:0:0:
256,192,27058,1,0,0:0:0:0:
256,192,27140,1,8,0:0:0:0:
256,192,27221,1,0,0:0:0:0:
256,192,27302,1,8,0:0:0:0:
256,192,27383,1,8,0:0:0:0:
256,192,27464,1,8,0:0:0:0:
256,192,27545,1,0,0:0:0:0:
256,192,27626,1,8,0:0:0:0:
256,192,27707,1,0,0:0:0:0:
256,192,27788,1,8,0:0:0:0:
256,192,27869,1,8,0:0:0:0:
256,192,27950,1,0,0:0:0:0:
256,192,28031,1,8,0:0:0:0:
256,192,28113,1,8,0:0:0:0:
256,192,28194,1,0,0:0:0:0:
256,192,28275,1,8,0:0:0:0:
256,192,28599,5,8,0:0:0:0:
256,192,28680,1,0,0:0:0:0:
256,192,28761,1,8,0:0:0:0:
256,192,28842,1,8,0:0:0:0:
256,192,28923,1,8,0:0:0:0:
256,192,29004,1,0,0:0:0:0:
256,192,29086,1,8,0:0:0:0:
256,192,29167,1,8,0:0:0:0:
256,192,29248,1,0,0:0:0:0:
256,192,29329,1,8,0:0:0:0:
256,192,29410,1,0,0:0:0:0:
256,192,29491,1,8,0:0:0:0:
256,192,29572,1,0,0:0:0:0:
256,192,29653,1,8,0:0:0:0:
256,192,29734,1,8,0:0:0:0:
256,192,29815,1,0,0:0:0:0:
256,192,29896,1,8,0:0:0:0:
256,192,29977,1,0,0:0:0:0:
256,192,30058,1,8,0:0:0:0:
256,192,30140,1,8,0:0:0:0:
256,192,30221,1,8,0:0:0:0:
256,192,30302,1,0,0:0:0:0:
256,192,30383,1,8,0:0:0:0:
256,192,30464,1,0,0:0:0:0:
256,192,30545,1,8,0:0:0:0:
256,192,30626,1,8,0:0:0:0:
256,192,30707,1,0,0:0:0:0:
256,192,30788,1,8,0:0:0:0:
256,192,30869,1,0,0:0:0:0:
256,192,30950,1,8,0:0:0:0:
256,192,31031,1,0,0:0:0:0:
256,192,31113,1,8,0:0:0:0:
256,192,31194,1,8,0:0:0:0:
256,192,35086,5,0,0:0:0:0:
256,192,35167,1,0,0:0:0:0:
256,192,35248,1,0,0:0:0:0:
256,192,35329,1,0,0:0:0:0:
256,192,35410,1,0,0:0:0:0:
256,192,35491,1,0,0:0:0:0:
256,192,35572,1,8,0:0:0:0:
256,192,35653,1,0,0:0:0:0:
256,192,35734,1,8,0:0:0:0:
256,192,35815,1,8,0:0:0:0:
256,192,35896,1,0,0:0:0:0:
256,192,35977,1,0,0:0:0:0:
256,192,36058,1,0,0:0:0:0:
256,192,36140,1,0,0:0:0:0:
256,192,36221,1,0,0:0:0:0:
256,192,36302,1,0,0:0:0:0:
256,192,36383,5,8,0:0:0:0:
256,192,36545,1,8,0:0:0:0:
256,192,36707,1,8,0:0:0:0:
256,192,36869,1,0,0:0:0:0:
256,192,36950,1,0,0:0:0:0:
256,192,37031,1,8,0:0:0:0:
256,192,37113,1,0,0:0:0:0:
256,192,37194,1,8,0:0:0:0:
256,192,37275,1,8,0:0:0:0:
256,192,37356,1,8,0:0:0:0:
256,192,37437,1,0,0:0:0:0:
256,192,37518,1,8,0:0:0:0:
256,192,37599,1,0,0:0:0:0:
256,192,37680,5,8,0:0:0:0:
256,192,37842,1,8,0:0:0:0:
256,192,38004,1,8,0:0:0:0:
256,192,38167,1,0,0:0:0:0:
256,192,38207,1,0,0:0:0:0:
256,192,38248,1,0,0:0:0:0:
256,192,38288,1,0,0:0:0:0:
256,192,38329,1,8,0:0:0:0:
256,192,38410,1,0,0:0:0:0:
256,192,38491,1,8,0:0:0:0:
256,192,38572,1,8,0:0:0:0:
256,192,38653,1,8,0:0:0:0:
256,192,38734,1,0,0:0:0:0:
256,192,38815,1,8,0:0:0:0:
256,192,38896,1,0,0:0:0:0:
256,192,38977,1,8,0:0:0:0:
256,192,39058,1,8,0:0:0:0:
256,192,39140,1,0,0:0:0:0:
256,192,39221,1,0,0:0:0:0:
256,192,39302,1,8,0:0:0:0:
256,192,39464,1,0,0:0:0:0:
256,192,39504,5,0,0:0:0:0:
256,192,39545,1,0,0:0:0:0:
256,192,39586,1,0,0:0:0:0:
256,192,39626,1,8,0:0:0:0:
256,192,39788,1,0,0:0:0:0:
256,192,39829,1,0,0:0:0:0:
256,192,39869,1,0,0:0:0:0:
256,192,39910,1,0,0:0:0:0:
256,192,39950,1,8,0:0:0:0:
256,192,40113,1,8,0:0:0:0:
256,192,40153,1,8,0:0:0:0:
256,192,40194,1,8,0:0:0:0:
256,192,40234,1,8,0:0:0:0:
256,192,40275,1,0,0:0:0:0:
256,192,40356,1,0,0:0:0:0:
256,192,40437,1,0,0:0:0:0:
256,192,40518,1,0,0:0:0:0:
256,192,40599,1,8,0:0:0:0:
256,192,40680,1,0,0:0:0:0:
256,192,40761,1,8,0:0:0:0:
256,192,40842,1,0,0:0:0:0:
256,192,40923,1,8,0:0:0:0:
256,192,41004,1,8,0:0:0:0:
256,192,41086,1,0,0:0:0:0:
256,192,41167,1,0,0:0:0:0:
256,192,41248,1,8,0:0:0:0:
256,192,41329,1,0,0:0:0:0:
256,192,41410,1,0,0:0:0:0:
256,192,41491,1,0,0:0:0:0:
256,192,41572,5,8,0:0:0:0:
256,192,41734,1,0,0:0:0:0:
256,192,41788,1,0,0:0:0:0:
256,192,41842,1,0,0:0:0:0:
256,192,41896,1,8,0:0:0:0:
256,192,42058,1,0,0:0:0:0:
256,192,42099,1,0,0:0:0:0:
256,192,42140,1,0,0:0:0:0:
256,192,42180,1,0,0:0:0:0:
256,192,42221,1,8,0:0:0:0:
256,192,42302,1,0,0:0:0:0:
256,192,42383,1,8,0:0:0:0:
256,192,42464,1,8,0:0:0:0:
256,192,42545,1,0,0:0:0:0:
256,192,42626,1,0,0:0:0:0:
256,192,42707,1,8,0:0:0:0:
256,192,42869,5,8,0:0:0:0:
256,192,42950,1,0,0:0:0:0:
256,192,43031,1,8,0:0:0:0:
256,192,43113,1,0,0:0:0:0:
256,192,43194,1,8,0:0:0:0:
256,192,43275,1,8,0:0:0:0:
256,192,43356,1,0,0:0:0:0:
256,192,43396,1,0,0:0:0:0:
256,192,43437,1,0,0:0:0:0:
256,192,43477,1,0,0:0:0:0:
256,192,43518,1,8,0:0:0:0:
256,192,43599,1,8,0:0:0:0:
256,192,43680,1,0,0:0:0:0:
256,192,43761,1,0,0:0:0:0:
256,192,43842,1,8,0:0:0:0:
256,192,43923,1,0,0:0:0:0:
256,192,44004,1,8,0:0:0:0:
256,192,44167,5,8,0:0:0:0:
256,192,44248,1,8,0:0:0:0:
256,192,44329,1,0,0:0:0:0:
256,192,44410,1,0,0:0:0:0:
256,192,44491,1,8,0:0:0:0:
256,192,44572,1,8,0:0:0:0:
256,192,44653,1,0,0:0:0:0:
256,192,44707,1,0,0:0:0:0:
256,192,44761,1,0,0:0:0:0:
256,192,44815,1,8,0:0:0:0:
256,192,44977,1,0,0:0:0:0:
256,192,45018,1,0,0:0:0:0:
256,192,45058,1,0,0:0:0:0:
256,192,45099,1,0,0:0:0:0:
256,192,45140,1,8,0:0:0:0:
256,192,45302,1,0,0:0:0:0:
256,192,45383,1,0,0:0:0:0:
256,192,45464,5,8,0:0:0:0:
256,192,45545,1,8,0:0:0:0:
256,192,45626,1,8,0:0:0:0:
256,192,45707,1,0,0:0:0:0:
256,192,45788,1,8,0:0:0:0:
256,192,45869,1,8,0:0:0:0:
256,192,45950,1,0,0:0:0:0:
256,192,46031,1,0,0:0:0:0:
256,192,46113,1,8,0:0:0:0:
256,192,46194,1,0,0:0:0:0:
256,192,46275,1,8,0:0:0:0:
256,192,46356,1,0,0:0:0:0:
256,192,46437,1,8,0:0:0:0:
256,192,46518,1,8,0:0:0:0:
256,192,46599,1,0,0:0:0:0:
256,192,46680,1,0,0:0:0:0:
256,192,46761,5,8,0:0:0:0:
256,192,46842,1,8,0:0:0:0:
256,192,46923,1,8,0:0:0:0:
256,192,47004,1,0,0:0:0:0:
256,192,47086,1,8,0:0:0:0:
256,192,47167,1,8,0:0:0:0:
256,192,47248,1,0,0:0:0:0:
256,192,47302,1,0,0:0:0:0:
256,192,47356,1,0,0:0:0:0:
256,192,47410,1,8,0:0:0:0:
256,192,47491,1,0,0:0:0:0:
256,192,47572,1,0,0:0:0:0:
256,192,47653,1,0,0:0:0:0:
256,192,47734,1,8,0:0:0:0:
256,192,47815,1,8,0:0:0:0:
256,192,47896,1,8,0:0:0:0:
256,192,47977,1,0,0:0:0:0:
256,192,48058,1,8,0:0:0:0:
256,192,48140,1,8,0:0:0:0:
256,192,48221,1,0,0:0:0:0:
256,192,48302,1,0,0:0:0:0:
256,192,48383,1,8,0:0:0:0:
256,192,48437,1,0,0:0:0:0:
256,192,48491,1,0,0:0:0:0:
256,192,48545,1,8,0:0:0:0:
256,192,48626,1,0,0:0:0:0:
256,192,48707,1,8,0:0:0:0:
256,192,48788,1,8,0:0:0:0:
256,192,48869,1,0,0:0:0:0:
256,192,48950,1,0,0:0:0:0:
256,192,49031,1,8,0:0:0:0:
256,192,49113,1,8,0:0:0:0:
256,192,49194,1,0,0:0:0:0:
256,192,49275,1,0,0:0:0:0:
256,192,49356,1,8,0:0:0:0:
256,192,49437,1,0,0:0:0:0:
256,192,49518,1,8,0:0:0:0:
256,192,49599,1,8,0:0:0:0:
256,192,49680,1,8,0:0:0:0:
256,192,49761,1,0,0:0:0:0:
256,192,49842,1,8,0:0:0:0:
256,192,49923,1,0,0:0:0:0:
256,192,50004,1,8,0:0:0:0:
256,192,50086,1,8,0:0:0:0:
256,192,50167,1,0,0:0:0:0:
256,192,50248,1,8,0:0:0:0:
256,192,50329,1,8,0:0:0:0:
256,192,50410,1,0,0:0:0:0:
256,192,50491,1,8,0:0:0:0:
256,192,50572,1,0,0:0:0:0:
256,192,50653,1,8,0:0:0:0:
256,192,50707,1,8,0:0:0:0:
256,192,50761,1,8,0:0:0:0:
256,192,50815,1,0,0:0:0:0:
256,192,50896,1,0,0:0:0:0:
256,192,50977,1,8,0:0:0:0:
256,192,51058,1,0,0:0:0:0:
256,192,51140,1,8,0:0:0:0:
256,192,51221,1,0,0:0:0:0:
256,192,51302,1,8,0:0:0:0:
256,192,51383,1,8,0:0:0:0:
256,192,51464,1,0,0:0:0:0:
256,192,51504,1,0,0:0:0:0:
256,192,51545,1,0,0:0:0:0:
256,192,51586,1,0,0:0:0:0:
256,192,51626,1,8,0:0:0:0:
256,192,51788,1,0,0:0:0:0:
256,192,51950,5,8,0:0:0:0:
256,192,52113,1,8,0:0:0:0:
256,192,52275,1,8,0:0:0:0:
256,192,52437,1,0,0:0:0:0:
256,192,52477,1,0,0:0:0:0:
256,192,52518,1,0,0:0:0:0:
256,192,52558,1,0,0:0:0:0:
256,192,52599,1,8,0:0:0:0:
256,192,52680,1,8,0:0:0:0:
256,192,52761,1,0,0:0:0:0:
256,192,52842,1,0,0:0:0:0:
256,192,52923,1,8,0:0:0:0:
256,192,53004,1,8,0:0:0:0:
256,192,53086,1,8,0:0:0:0:
256,192,53167,1,0,0:0:0:0:
256,192,53248,5,8,0:0:0:0:
256,192,53410,1,8,0:0:0:0:
256,192,53572,1,8,0:0:0:0:
256,192,53734,1,0,0:0:0:0:
256,192,53775,1,0,0:0:0:0:
256,192,53815,1,0,0:0:0:0:
256,192,53856,1,0,0:0:0:0:
256,192,53896,1,8,0:0:0:0:
256,192,54058,1,0,0:0:0:0:
256,192,54099,1,0,0:0:0:0:
256,192,54140,1,0,0:0:0:0:
256,192,54180,1,0,0:0:0:0:
256,192,54221,1,8,0:0:0:0:
256,192,54383,1,8,0:0:0:0:
256,192,54423,1,8,0:0:0:0:
256,192,54464,1,0,0:0:0:0:
256,192,54504,1,0,0:0:0:0:
256,192,54545,5,8,0:0:0:0:
256,192,54653,1,8,0:0:0:0:
256,192,54761,1,8,0:0:0:0:
256,192,54869,1,8,0:0:0:0:
256,192,54977,1,0,0:0:0:0:
256,192,55086,1,0,0:0:0:0:
256,192,55194,1,8,0:0:0:0:
256,192,55302,1,0,0:0:0:0:
256,192,55410,1,0,0:0:0:0:
256,192,55518,1,8,0:0:0:0:
256,192,55626,1,8,0:0:0:0:
256,192,55734,1,0,0:0:0:0:
256,192,55842,1,8,0:0:0:0:
256,192,55950,1,0,0:0:0:0:
256,192,56058,1,0,0:0:0:0:
256,192,56167,1,8,0:0:0:0:
256,192,56275,1,0,0:0:0:0:
256,192,56383,1,0,0:0:0:0:
256,192,56491,1,8,0:0:0:0:
256,192,56653,1,0,0:0:0:0:
256,192,56694,1,0,0:0:0:0:
256,192,56734,1,0,0:0:0:0:
256,192,56775,1,0,0:0:0:0:
256,192,56815,1,8,0:0:0:0:
256,192,57140,5,8,0:0:0:0:
256,192,57221,1,8,0:0:0:0:
256,192,57302,1,0,0:0:0:0:
256,192,57383,1,0,0:0:0:0:
256,192,57464,1,8,0:0:0:0:
256,192,57545,1,0,0:0:0:0:
256,192,57626,1,8,0:0:0:0:
256,192,57707,1,0,0:0:0:0:
256,192,57788,1,8,0:0:0:0:
256,192,57869,1,8,0:0:0:0:
256,192,57950,1,0,0:0:0:0:
256,192,58031,1,8,0:0:0:0:
256,192,58113,1,0,0:0:0:0:
256,192,58194,1,8,0:0:0:0:
256,192,58275,1,8,0:0:0:0:
256,192,58356,1,0,0:0:0:0:
256,192,58437,1,8,0:0:0:0:
256,192,58518,1,0,0:0:0:0:
256,192,58599,1,8,0:0:0:0:
256,192,58680,1,8,0:0:0:0:
256,192,58761,1,8,0:0:0:0:
256,192,58842,1,0,0:0:0:0:
256,192,58923,1,8,0:0:0:0:
256,192,59004,1,0,0:0:0:0:
256,192,59086,1,8,0:0:0:0:
256,192,59167,1,8,0:0:0:0:
256,192,59248,1,0,0:0:0:0:
256,192,59329,1,0,0:0:0:0:
256,192,59410,1,8,0:0:0:0:
256,192,59491,1,0,0:0:0:0:
256,192,59572,1,8,0:0:0:0:
256,192,59653,1,0,0:0:0:0:
256,192,59734,5,8,0:0:0:0:
256,192,59815,1,8,0:0:0:0:
256,192,59896,1,0,0:0:0:0:
256,192,59977,1,0,0:0:0:0:
256,192,60058,1,8,0:0:0:0:
256,192,60140,1,0,0:0:0:0:
256,192,60221,1,8,0:0:0:0:
256,192,60302,1,8,0:0:0:0:
256,192,60383,1,0,0:0:0:0:
256,192,60464,1,8,0:0:0:0:
256,192,60545,1,8,0:0:0:0:
256,192,60626,1,0,0:0:0:0:
256,192,60707,1,8,0:0:0:0:
256,192,60788,1,8,0:0:0:0:
256,192,60869,1,8,0:0:0:0:
256,192,60950,1,0,0:0:0:0:
256,192,61031,1,8,0:0:0:0:
256,192,61113,1,0,0:0:0:0:
256,192,61194,1,8,0:0:0:0:
256,192,61275,1,8,0:0:0:0:
256,192,61356,1,0,0:0:0:0:
256,192,61437,1,0,0:0:0:0:
256,192,61518,1,8,0:0:0:0:
256,192,61599,1,8,0:0:0:0:
256,192,61680,1,0,0:0:0:0:
256,192,61721,1,0,0:0:0:0:
256,192,61761,1,0,0:0:0:0:
256,192,61802,1,0,0:0:0:0:
256,192,61842,1,8,0:0:0:0:
256,192,61923,1,8,0:0:0:0:
256,192,62004,1,0,0:0:0:0:
256,192,62045,1,0,0:0:0:0:
256,192,62086,1,0,0:0:0:0:
256,192,62126,1,0,0:0:0:0:
256,192,62167,1,8,0:0:0:0:
256,192,62329,5,8,0:0:0:0:
256,192,62410,1,8,0:0:0:0:
256,192,62491,1,0,0:0:0:0:
256,192,62572,1,0,0:0:0:0:
256,192,62653,1,8,0:0:0:0:
256,192,62734,1,0,0:0:0:0:
256,192,62815,1,8,0:0:0:0:
256,192,62896,1,0,0:0:0:0:
256,192,62977,1,8,0:0:0:0:
256,192,63058,1,8,0:0:0:0:
256,192,63140,1,8,0:0:0:0:
256,192,63221,1,0,0:0:0:0:
256,192,63302,1,8,0:0:0:0:
256,192,63383,1,8,0:0:0:0:
256,192,63464,1,0,0:0:0:0:
256,192,63545,1,8,0:0:0:0:
256,192,63626,1,8,0:0:0:0:
256,192,63707,1,0,0:0:0:0:
256,192,63788,1,8,0:0:0:0:
256,192,63869,1,8,0:0:0:0:
256,192,63950,1,8,0:0:0:0:
256,192,64031,1,0,0:0:0:0:
256,192,64113,1,8,0:0:0:0:
256,192,64194,1,0,0:0:0:0:
256,192,64275,1,8,0:0:0:0:
256,192,64356,1,8,0:0:0:0:
256,192,64437,1,0,0:0:0:0:
256,192,64518,1,0,0:0:0:0:
256,192,64599,1,8,0:0:0:0:
256,192,64680,1,0,0:0:0:0:
256,192,64761,1,8,0:0:0:0:
256,192,64842,1,0,0:0:0:0:
256,192,64923,5,8,0:0:0:0:
256,192,65004,1,8,0:0:0:0:
256,192,65086,1,0,0:0:0:0:
256,192,65167,1,0,0:0:0:0:
256,192,65248,1,8,0:0:0:0:
256,192,65329,1,0,0:0:0:0:
256,192,65410,1,8,0:0:0:0:
256,192,65491,1,8,0:0:0:0:
256,192,65572,1,8,0:0:0:0:
256,192,65653,1,0,0:0:0:0:
256,192,65734,1,8,0:0:0:0:
256,192,65815,1,0,0:0:0:0:
256,192,65896,1,8,0:0:0:0:
256,192,65977,1,8,0:0:0:0:
256,192,66058,1,0,0:0:0:0:
256,192,66140,1,8,0:0:0:0:
256,192,66221,1,8,0:0:0:0:
256,192,66302,1,0,0:0:0:0:
256,192,66383,1,8,0:0:0:0:
256,192,66464,1,8,0:0:0:0:
256,192,66545,1,8,0:0:0:0:
256,192,66626,1,0,0:0:0:0:
256,192,66707,1,8,0:0:0:0:
256,192,66788,1,8,0:0:0:0:
256,192,66869,1,0,0:0:0:0:
256,192,66910,1,0,0:0:0:0:
256,192,66950,1,0,0:0:0:0:
256,192,66991,1,0,0:0:0:0:
256,192,67031,1,8,0:0:0:0:
256,192,67113,1,8,0:0:0:0:
256,192,67194,1,0,0:0:0:0:
256,192,67234,1,0,0:0:0:0:
256,192,67275,1,0,0:0:0:0:
256,192,67315,1,0,0:0:0:0:
256,192,67356,1,8,0:0:0:0:
256,192,67518,5,0,0:0:0:0:
256,192,67558,1,0,0:0:0:0:
256,192,67599,1,0,0:0:0:0:
256,192,67640,1,0,0:0:0:0:
256,192,67842,1,8,0:0:0:0:
256,192,67883,1,8,0:0:0:0:
256,192,67923,1,8,0:0:0:0:
256,192,67964,1,8,0:0:0:0:
256,192,68329,1,0,0:0:0:0:
256,192,68369,1,0,0:0:0:0:
256,192,68410,1,0,0:0:0:0:
256,192,68450,1,0,0:0:0:0:
256,192,68653,1,0,0:0:0:0:
256,192,68694,1,0,0:0:0:0:
256,192,68734,1,0,0:0:0:0:
256,192,68775,1,0,0:0:0:0:
256,192,68977,1,8,0:0:0:0:
256,192,69018,1,8,0:0:0:0:
256,192,69058,1,8,0:0:0:0:
256,192,69099,1,8,0:0:0:0:
256,192,69464,5,0,0:0:0:0:
256,192,69545,1,8,0:0:0:0:
256,192,69626,1,0,0:0:0:0:
256,192,69707,1,0,0:0:0:0:
256,192,69788,1,8,0:0:0:0:
256,192,69950,1,0,0:0:0:0:
256,192,70113,1,8,0:0:0:0:
256,192,70153,5,8,0:0:0:0:
256,192,70194,1,8,0:0:0:0:
256,192,70234,1,8,0:0:0:0:
256,192,70437,1,8,0:0:0:0:
256,192,70477,1,8,0:0:0:0:
256,192,70518,1,8,0:0:0:0:
256,192,70558,1,8,0:0:0:0:
256,192,70923,1,0,0:0:0:0:
256,192,70964,1,0,0:0:0:0:
256,192,71004,1,0,0:0:0:0:
256,192,71045,1,0,0:0:0:0:
256,192,71248,1,0,0:0:0:0:
256,192,71288,1,0,0:0:0:0:
256,192,71329,1,0,0:0:0:0:
256,192,71369,1,0,0:0:0:0:
256,192,71572,1,8,0:0:0:0:
256,192,71613,1,8,0:0:0:0:
256,192,71653,1,8,0:0:0:0:
256,192,71694,1,8,0:0:0:0:
256,192,72058,5,8,0:0:0:0:
256,192,72140,1,8,0:0:0:0:
256,192,72221,1,0,0:0:0:0:
256,192,72302,1,0,0:0:0:0:
256,192,72383,1,8,0:0:0:0:
256,192,72545,1,0,0:0:0:0:
256,192,72707,5,8,0:0:0:0:
256,192,72788,1,8,0:0:0:0:
256,192,72869,1,0,0:0:0:0:
256,192,72950,1,0,0:0:0:0:
256,192,73031,1,8,0:0:0:0:
256,192,73113,1,8,0:0:0:0:
256,192,73194,1,0,0:0:0:0:
256,192,73275,1,0,0:0:0:0:
256,192,73356,1,0,0:0:0:0:
256,192,73437,1,0,0:0:0:0:
256,192,73518,1,8,0:0:0:0:
256,192,73599,1,8,0:0:0:0:
256,192,73680,1,0,0:0:0:0:
256,192,73761,1,0,0:0:0:0:
256,192,73842,1,8,0:0:0:0:
256,192,73923,1,8,0:0:0:0:
256,192,74004,1,0,0:0:0:0:
256,192,74086,1,0,0:0:0:0:
256,192,74167,1,8,0:0:0:0:
256,192,74248,1,8,0:0:0:0:
256,192,74329,1,0,0:0:0:0:
256,192,74410,1,0,0:0:0:0:
256,192,74491,1,0,0:0:0:0:
256,192,74572,1,0,0:0:0:0:
256,192,74653,1,8,0:0:0:0:
256,192,74734,1,0,0:0:0:0:
256,192,74815,1,8,0:0:0:0:
256,192,74896,1,8,0:0:0:0:
256,192,74977,1,8,0:0:0:0:
256,192,75058,1,0,0:0:0:0:
256,192,75140,1,8,0:0:0:0:
256,192,75221,1,0,0:0:0:0:
256,192,75302,5,8,0:0:0:0:
256,192,75383,1,8,0:0:0:0:
256,192,75464,1,0,0:0:0:0:
256,192,75545,1,0,0:0:0:0:
256,192,75626,1,8,0:0:0:0:
256,192,75707,1,0,0:0:0:0:
256,192,75788,1,8,0:0:0:0:
256,192,75869,1,8,0:0:0:0:
256,192,75950,1,0,0:0:0:0:
256,192,76031,1,0,0:0:0:0:
256,192,76113,1,8,0:0:0:0:
256,192,76194,1,0,0:0:0:0:
256,192,76275,1,8,0:0:0:0:
256,192,76356,1,8,0:0:0:0:
256,192,76437,1,0,0:0:0:0:
256,192,76518,1,0,0:0:0:0:
256,192,76599,1,8,0:0:0:0:
256,192,76680,1,0,0:0:0:0:
256,192,76761,1,8,0:0:0:0:
256,192,76842,1,8,0:0:0:0:
256,192,76923,1,0,0:0:0:0:
256,192,77004,1,0,0:0:0:0:
256,192,77086,1,8,0:0:0:0:
256,192,77167,1,8,0:0:0:0:
256,192,77248,1,0,0:0:0:0:
256,192,77288,5,0,0:0:0:0:
256,192,77329,1,0,0:0:0:0:
256,192,77369,1,0,0:0:0:0:
256,192,77410,1,8,0:0:0:0:
256,192,77491,1,8,0:0:0:0:
256,192,77572,1,0,0:0:0:0:
256,192,77613,1,0,0:0:0:0:
256,192,77653,1,0,0:0:0:0:
256,192,77694,1,0,0:0:0:0:
256,192,77734,1,8,0:0:0:0:
256,192,77815,1,8,0:0:0:0:
256,192,77896,5,4,0:0:0:0:
256,192,79356,1,4,0:0:0:0:
256,192,80815,5,8,0:0:0:0:
256,192,81138,1,0,0:0:0:0:
256,192,81462,1,8,0:0:0:0:
256,192,81624,1,8,0:0:0:0:
256,192,81786,1,0,0:0:0:0:
256,192,81949,1,0,0:0:0:0:
256,192,82111,1,8,0:0:0:0:
256,192,82435,1,8,0:0:0:0:
256,192,82597,1,0,0:0:0:0:
256,192,82638,1,0,0:0:0:0:
256,192,82678,1,0,0:0:0:0:
256,192,82719,1,0,0:0:0:0:
256,192,82759,1,8,0:0:0:0:
256,192,82922,1,0,0:0:0:0:
256,192,82962,1,0,0:0:0:0:
256,192,83003,1,0,0:0:0:0:
256,192,83043,1,0,0:0:0:0:
256,192,83084,1,8,0:0:0:0:
256,192,83408,5,8,0:0:0:0:
256,192,83570,1,0,0:0:0:0:
256,192,83895,1,0,0:0:0:0:
256,192,84057,1,0,0:0:0:0:
256,192,84219,1,8,0:0:0:0:
256,192,84381,1,0,0:0:0:0:
256,192,84543,1,0,0:0:0:0:
256,192,84705,1,0,0:0:0:0:
256,192,84868,1,0,0:0:0:0:
256,192,85030,1,8,0:0:0:0:
256,192,85192,1,0,0:0:0:0:
256,192,85354,1,0,0:0:0:0:
256,192,85516,1,0,0:0:0:0:
256,192,85678,1,0,0:0:0:0:
256,192,85841,1,8,0:0:0:0:
256,192,86003,1,0,0:0:0:0:
256,192,86165,1,0,0:0:0:0:
256,192,86327,1,0,0:0:0:0:
256,192,86489,1,0,0:0:0:0:
256,192,86653,5,8,0:0:0:0:
256,192,86734,1,0,0:0:0:0:
256,192,86815,1,8,0:0:0:0:
256,192,86896,1,0,0:0:0:0:
256,192,86977,1,8,0:0:0:0:
256,192,87058,1,8,0:0:0:0:
256,192,87139,1,0,0:0:0:0:
256,192,87220,1,8,0:0:0:0:
256,192,87301,1,0,0:0:0:0:
256,192,87382,1,0,0:0:0:0:
256,192,87463,1,8,0:0:0:0:
256,192,87544,1,8,0:0:0:0:
256,192,87625,1,8,0:0:0:0:
256,192,87707,1,0,0:0:0:0:
256,192,87788,1,8,0:0:0:0:
256,192,87869,1,8,0:0:0:0:
256,192,87950,1,0,0:0:0:0:
256,192,88031,1,0,0:0:0:0:
256,192,88112,1,8,0:0:0:0:
256,192,88193,1,0,0:0:0:0:
256,192,88274,1,8,0:0:0:0:
256,192,88355,1,8,0:0:0:0:
256,192,88436,1,0,0:0:0:0:
256,192,88517,1,8,0:0:0:0:
256,192,88598,1,8,0:0:0:0:
256,192,88680,1,0,0:0:0:0:
256,192,88761,1,8,0:0:0:0:
256,192,88842,1,0,0:0:0:0:
256,192,88923,1,8,0:0:0:0:
256,192,89004,1,8,0:0:0:0:
256,192,89085,1,0,0:0:0:0:
256,192,89166,1,0,0:0:0:0:
256,192,89247,5,8,0:0:0:0:
256,192,89328,1,0,0:0:0:0:
256,192,89409,1,0,0:0:0:0:
256,192,89490,1,0,0:0:0:0:
256,192,89571,1,8,0:0:0:0:
256,192,89653,1,8,0:0:0:0:
256,192,89734,1,8,0:0:0:0:
256,192,89815,1,0,0:0:0:0:
256,192,89896,1,8,0:0:0:0:
256,192,89977,1,0,0:0:0:0:
256,192,90058,1,8,0:0:0:0:
256,192,90139,1,8,0:0:0:0:
256,192,90220,1,0,0:0:0:0:
256,192,90301,1,8,0:0:0:0:
256,192,90382,1,8,0:0:0:0:
256,192,90463,1,0,0:0:0:0:
256,192,90544,1,8,0:0:0:0:
256,192,90625,1,0,0:0:0:0:
256,192,90707,1,8,0:0:0:0:
256,192,90788,1,8,0:0:0:0:
256,192,90869,1,8,0:0:0:0:
256,192,90950,1,0,0:0:0:0:
256,192,91031,1,8,0:0:0:0:
256,192,91112,1,0,0:0:0:0:
256,192,91193,1,8,0:0:0:0:
256,192,91274,1,8,0:0:0:0:
256,192,91355,1,0,0:0:0:0:
256,192,91396,1,0,0:0:0:0:
256,192,91436,1,0,0:0:0:0:
256,192,91477,1,0,0:0:0:0:
256,192,91517,1,8,0:0:0:0:
256,192,91842,5,8,0:0:0:0:
256,192,91923,1,8,0:0:0:0:
256,192,92004,1,0,0:0:0:0:
256,192,92085,1,0,0:0:0:0:
256,192,92166,1,8,0:0:0:0:
256,192,92247,1,8,0:0:0:0:
256,192,92328,1,0,0:0:0:0:
256,192,92409,1,0,0:0:0:0:
256,192,92490,1,8,0:0:0:0:
256,192,92571,1,0,0:0:0:0:
256,192,92653,1,8,0:0:0:0:
256,192,92734,1,8,0:0:0:0:
256,192,92815,1,0,0:0:0:0:
256,192,92896,1,0,0:0:0:0:
256,192,92977,1,8,0:0:0:0:
256,192,93058,1,0,0:0:0:0:
256,192,93139,1,8,0:0:0:0:
256,192,93220,1,8,0:0:0:0:
256,192,93301,1,0,0:0:0:0:
256,192,93382,1,8,0:0:0:0:
256,192,93463,1,8,0:0:0:0:
256,192,93544,1,0,0:0:0:0:
256,192,93625,1,8,0:0:0:0:
256,192,93707,1,8,0:0:0:0:
256,192,93788,1,8,0:0:0:0:
256,192,93869,1,0,0:0:0:0:
256,192,93950,1,8,0:0:0:0:
256,192,94031,1,0,0:0:0:0:
256,192,94112,1,8,0:0:0:0:
256,192,94193,1,8,0:0:0:0:
256,192,94274,1,0,0:0:0:0:
256,192,94355,1,0,0:0:0:0:
256,192,94436,5,8,0:0:0:0:
256,192,94517,1,0,0:0:0:0:
256,192,94598,1,0,0:0:0:0:
256,192,94680,1,0,0:0:0:0:
256,192,94761,1,0,0:0:0:0:
256,192,94842,1,0,0:0:0:0:
256,192,94923,1,8,0:0:0:0:
256,192,95004,1,0,0:0:0:0:
256,192,95085,1,8,0:0:0:0:
256,192,95166,1,8,0:0:0:0:
256,192,95247,1,0,0:0:0:0:
256,192,95328,1,8,0:0:0:0:
256,192,95409,1,8,0:0:0:0:
256,192,95490,1,0,0:0:0:0:
256,192,95571,1,8,0:0:0:0:
256,192,95652,1,0,0:0:0:0:
256,192,95734,1,8,0:0:0:0:
256,192,95815,1,0,0:0:0:0:
256,192,95896,1,8,0:0:0:0:
256,192,95977,1,8,0:0:0:0:
256,192,96058,1,8,0:0:0:0:
256,192,96139,1,0,0:0:0:0:
256,192,96220,1,8,0:0:0:0:
256,192,96301,1,0,0:0:0:0:
256,192,96382,1,8,0:0:0:0:
256,192,96463,1,8,0:0:0:0:
256,192,96544,1,0,0:0:0:0:
256,192,96625,1,0,0:0:0:0:
256,192,96707,1,8,0:0:0:0:
256,192,96747,1,8,0:0:0:0:
256,192,96788,1,8,0:0:0:0:
256,192,96828,1,8,0:0:0:0:
256,192,96869,1,0,0:0:0:0:
256,192,97031,5,0,0:0:0:0:
256,192,97193,1,0,0:0:0:0:
256,192,97355,1,0,0:0:0:0:
256,192,97517,1,8,0:0:0:0:
256,192,97680,1,8,0:0:0:0:
256,192,97842,1,0,0:0:0:0:
256,192,98004,1,0,0:0:0:0:
256,192,98166,1,8,0:0:0:0:
256,192,98328,1,8,0:0:0:0:
256,192,98490,1,0,0:0:0:0:
256,192,98652,1,0,0:0:0:0:
256,192,98815,1,0,0:0:0:0:
256,192,98855,1,0,0:0:0:0:
256,192,98896,1,0,0:0:0:0:
256,192,98936,1,0,0:0:0:0:
256,192,98977,1,8,0:0:0:0:
256,192,99139,1,0,0:0:0:0:
256,192,99301,1,0,0:0:0:0:
256,192,99463,1,8,0:0:0:0:
256,192,99625,5,8,0:0:0:0:
256,192,99788,1,0,0:0:0:0:
256,192,99950,1,8,0:0:0:0:
256,192,100112,1,0,0:0:0:0:
256,192,100152,1,0,0:0:0:0:
256,192,100193,1,0,0:0:0:0:
256,192,100234,1,0,0:0:0:0:
256,192,100274,1,8,0:0:0:0:
256,192,100436,1,0,0:0:0:0:
256,192,100517,1,0,0:0:0:0:
256,192,100598,1,8,0:0:0:0:
256,192,100652,1,8,0:0:0:0:
256,192,100707,1,8,0:0:0:0:
256,192,100761,1,0,0:0:0:0:
256,192,100842,1,0,0:0:0:0:
256,192,100923,1,8,0:0:0:0:
256,192,101085,1,8,0:0:0:0:
256,192,101247,1,8,0:0:0:0:
256,192,101409,1,0,0:0:0:0:
256,192,101450,1,0,0:0:0:0:
256,192,101490,1,0,0:0:0:0:
256,192,101531,1,0,0:0:0:0:
256,192,101571,1,8,0:0:0:0:
256,192,101652,1,8,0:0:0:0:
256,192,101734,1,0,0:0:0:0:
256,192,101774,1,0,0:0:0:0:
256,192,101815,1,0,0:0:0:0:
256,192,101855,1,0,0:0:0:0:
256,192,101896,1,8,0:0:0:0:
256,192,101977,1,8,0:0:0:0:
256,192,102058,1,0,0:0:0:0:
256,192,102139,1,0,0:0:0:0:
256,192,102220,5,8,0:0:0:0:
256,192,102382,1,0,0:0:0:0:
256,192,102544,1,8,0:0:0:0:
256,192,102707,1,0,0:0:0:0:
256,192,102869,1,8,0:0:0:0:
256,192,103031,1,8,0:0:0:0:
256,192,103193,1,8,0:0:0:0:
256,192,103355,1,0,0:0:0:0:
256,192,103517,1,8,0:0:0:0:
256,192,103680,1,8,0:0:0:0:
256,192,103842,1,8,0:0:0:0:
256,192,104004,1,0,0:0:0:0:
256,192,104044,1,0,0:0:0:0:
256,192,104085,1,0,0:0:0:0:
256,192,104125,1,0,0:0:0:0:
256,192,104166,1,8,0:0:0:0:
256,192,104328,1,0,0:0:0:0:
256,192,104490,1,8,0:0:0:0:
256,192,104652,1,0,0:0:0:0:
256,192,104815,5,8,0:0:0:0:
256,192,104977,1,8,0:0:0:0:
256,192,105139,1,8,0:0:0:0:
256,192,105301,1,0,0:0:0:0:
256,192,105463,1,8,0:0:0:0:
256,192,105625,1,0,0:0:0:0:
256,192,105666,1,0,0:0:0:0:
256,192,105707,1,0,0:0:0:0:
256,192,105747,1,0,0:0:0:0:
256,192,105788,1,8,0:0:0:0:
256,192,105950,1,0,0:0:0:0:
256,192,106112,1,8,0:0:0:0:
256,192,106193,1,8,0:0:0:0:
256,192,106274,1,0,0:0:0:0:
256,192,106355,1,0,0:0:0:0:
256,192,106436,1,8,0:0:0:0:
256,192,106477,1,8,0:0:0:0:
256,192,106517,1,8,0:0:0:0:
256,192,106558,1,8,0:0:0:0:
256,192,106598,1,0,0:0:0:0:
256,192,106680,1,0,0:0:0:0:
256,192,106761,1,8,0:0:0:0:
256,192,106842,1,0,0:0:0:0:
256,192,106923,1,8,0:0:0:0:
256,192,107004,1,0,0:0:0:0:
256,192,107085,1,8,0:0:0:0:
256,192,107166,1,8,0:0:0:0:
256,192,107247,1,8,0:0:0:0:
256,192,107328,1,8,0:0:0:0:
256,192,107409,5,0,0:0:0:0:
256,192,107490,1,0,0:0:0:0:
256,192,107571,1,0,0:0:0:0:
256,192,107652,1,0,0:0:0:0:
256,192,107734,1,0,0:0:0:0:
256,192,107815,1,0,0:0:0:0:
256,192,107896,1,8,0:0:0:0:
256,192,107977,1,0,0:0:0:0:
256,192,108058,1,8,0:0:0:0:
256,192,108139,1,8,0:0:0:0:
256,192,108220,1,8,0:0:0:0:
256,192,108301,1,8,0:0:0:0:
256,192,108382,1,0,0:0:0:0:
256,192,108463,1,0,0:0:0:0:
256,192,108544,1,8,0:0:0:0:
256,192,108625,1,0,0:0:0:0:
256,192,108707,1,8,0:0:0:0:
256,192,108788,1,8,0:0:0:0:
256,192,108869,1,0,0:0:0:0:
256,192,108950,1,0,0:0:0:0:
256,192,109031,1,0,0:0:0:0:
256,192,109112,1,0,0:0:0:0:
256,192,109193,1,8,0:0:0:0:
256,192,109274,1,0,0:0:0:0:
256,192,109355,1,8,0:0:0:0:
256,192,109436,1,8,0:0:0:0:
256,192,109517,1,8,0:0:0:0:
256,192,109598,1,8,0:0:0:0:
256,192,109680,1,0,0:0:0:0:
256,192,109761,1,0,0:0:0:0:
256,192,109842,1,8,0:0:0:0:
256,192,109923,1,0,0:0:0:0:
256,192,110004,1,8,0:0:0:0:
256,192,110085,1,8,0:0:0:0:
256,192,110166,1,8,0:0:0:0:
256,192,110247,1,0,0:0:0:0:
256,192,110328,1,8,0:0:0:0:
256,192,110409,1,8,0:0:0:0:
256,192,110490,1,0,0:0:0:0:
256,192,110571,1,0,0:0:0:0:
256,192,110652,1,8,0:0:0:0:
256,192,110693,1,8,0:0:0:0:
256,192,110734,1,8,0:0:0:0:
256,192,110774,1,8,0:0:0:0:
256,192,110815,1,0,0:0:0:0:
256,192,110896,1,0,0:0:0:0:
256,192,110977,1,8,0:0:0:0:
256,192,111058,1,8,0:0:0:0:
256,192,111139,1,0,0:0:0:0:
256,192,111220,1,0,0:0:0:0:
256,192,111301,1,8,0:0:0:0:
256,192,111382,1,0,0:0:0:0:
256,192,111463,1,0,0:0:0:0:
256,192,111544,1,0,0:0:0:0:
256,192,111625,1,8,0:0:0:0:
256,192,111707,1,8,0:0:0:0:
256,192,111788,1,0,0:0:0:0:
256,192,111869,1,0,0:0:0:0:
256,192,111950,1,0,0:0:0:0:
256,192,112031,1,0,0:0:0:0:
256,192,112112,1,0,0:0:0:0:
256,192,112193,1,0,0:0:0:0:
256,192,112274,1,0,0:0:0:0:
256,192,112355,1,0,0:0:0:0:
256,192,112436,1,0,0:0:0:0:
256,192,112517,1,0,0:0:0:0:
256,192,112598,5,8,0:0:0:0:
256,192,112680,1,8,0:0:0:0:
256,192,112761,1,0,0:0:0:0:
256,192,112842,1,0,0:0:0:0:
256,192,112923,1,0,0:0:0:0:
256,192,113004,1,0,0:0:0:0:
256,192,113085,1,8,0:0:0:0:
256,192,113166,1,0,0:0:0:0:
256,192,113247,1,8,0:0:0:0:
256,192,113328,1,0,0:0:0:0:
256,192,113409,1,8,0:0:0:0:
256,192,113490,1,8,0:0:0:0:
256,192,113571,1,0,0:0:0:0:
256,192,113652,1,0,0:0:0:0:
256,192,113734,1,8,0:0:0:0:
256,192,113815,1,0,0:0:0:0:
256,192,113896,1,8,0:0:0:0:
256,192,113977,1,8,0:0:0:0:
256,192,114058,1,0,0:0:0:0:
256,192,114139,1,0,0:0:0:0:
256,192,114220,1,0,0:0:0:0:
256,192,114301,1,0,0:0:0:0:
256,192,114382,1,0,0:0:0:0:
256,192,114463,1,0,0:0:0:0:
256,192,114544,1,8,0:0:0:0:
256,192,114625,1,0,0:0:0:0:
256,192,114707,1,0,0:0:0:0:
256,192,114788,1,8,0:0:0:0:
256,192,114869,1,0,0:0:0:0:
256,192,114950,1,0,0:0:0:0:
256,192,115031,1,8,0:0:0:0:
256,192,115112,1,0,0:0:0:0:
256,192,115193,1,8,0:0:0:0:
256,192,115274,1,8,0:0:0:0:
256,192,115355,1,8,0:0:0:0:
256,192,115436,1,8,0:0:0:0:
256,192,115517,1,0,0:0:0:0:
256,192,115598,1,0,0:0:0:0:
256,192,115680,1,8,0:0:0:0:
256,192,115761,1,8,0:0:0:0:
256,192,115842,1,0,0:0:0:0:
256,192,115923,1,0,0:0:0:0:
256,192,116004,1,0,0:0:0:0:
256,192,116085,1,0,0:0:0:0:
256,192,116166,1,8,0:0:0:0:
256,192,116247,1,8,0:0:0:0:
256,192,116328,1,8,0:0:0:0:
256,192,116409,1,0,0:0:0:0:
256,192,116490,1,8,0:0:0:0:
256,192,116571,1,0,0:0:0:0:
256,192,116652,1,8,0:0:0:0:
256,192,116734,1,0,0:0:0:0:
256,192,116815,1,8,0:0:0:0:
256,192,116896,1,8,0:0:0:0:
256,192,116977,1,0,0:0:0:0:
256,192,117058,1,0,0:0:0:0:
256,192,117139,1,8,0:0:0:0:
256,192,117220,1,8,0:0:0:0:
256,192,117301,1,0,0:0:0:0:
256,192,117342,1,0,0:0:0:0:
256,192,117382,1,0,0:0:0:0:
256,192,117423,1,0,0:0:0:0:
256,192,117463,1,8,0:0:0:0:
256,192,117788,5,8,0:0:0:0:
256,192,117869,1,8,0:0:0:0:
256,192,117950,1,0,0:0:0:0:
256,192,118031,1,0,0:0:0:0:
256,192,118112,1,8,0:0:0:0:
256,192,118193,1,0,0:0:0:0:
256,192,118274,1,8,0:0:0:0:
256,192,118355,1,0,0:0:0:0:
256,192,118436,1,8,0:0:0:0:
256,192,118517,1,8,0:0:0:0:
256,192,118598,1,0,0:0:0:0:
256,192,118680,1,8,0:0:0:0:
256,192,118761,1,0,0:0:0:0:
256,192,118842,1,8,0:0:0:0:
256,192,118923,1,8,0:0:0:0:
256,192,119004,1,0,0:0:0:0:
256,192,119085,1,8,0:0:0:0:
256,192,119166,1,0,0:0:0:0:
256,192,119247,1,8,0:0:0:0:
256,192,119328,1,8,0:0:0:0:
256,192,119409,1,8,0:0:0:0:
256,192,119490,1,0,0:0:0:0:
256,192,119571,1,8,0:0:0:0:
256,192,119652,1,0,0:0:0:0:
256,192,119734,1,8,0:0:0:0:
256,192,119815,1,8,0:0:0:0:
256,192,119896,1,0,0:0:0:0:
256,192,119977,1,0,0:0:0:0:
256,192,120058,1,8,0:0:0:0:
256,192,120139,1,0,0:0:0:0:
256,192,120220,1,8,0:0:0:0:
256,192,120301,1,0,0:0:0:0:
256,192,120382,5,8,0:0:0:0:
256,192,120463,1,8,0:0:0:0:
256,192,120544,1,0,0:0:0:0:
256,192,120625,1,0,0:0:0:0:
256,192,120707,1,8,0:0:0:0:
256,192,120788,1,0,0:0:0:0:
256,192,120869,1,8,0:0:0:0:
256,192,120950,1,8,0:0:0:0:
256,192,121031,1,0,0:0:0:0:
256,192,121112,1,8,0:0:0:0:
256,192,121193,1,8,0:0:0:0:
256,192,121274,1,0,0:0:0:0:
256,192,121355,1,8,0:0:0:0:
256,192,121436,1,8,0:0:0:0:
256,192,121517,1,8,0:0:0:0:
256,192,121598,1,0,0:0:0:0:
256,192,121680,1,8,0:0:0:0:
256,192,121761,1,0,0:0:0:0:
256,192,121842,1,8,0:0:0:0:
256,192,121923,1,8,0:0:0:0:
256,192,122004,1,0,0:0:0:0:
256,192,122085,1,0,0:0:0:0:
256,192,122166,1,8,0:0:0:0:
256,192,122247,1,8,0:0:0:0:
256,192,122328,1,0,0:0:0:0:
256,192,122369,1,0,0:0:0:0:
256,192,122409,1,0,0:0:0:0:
256,192,122450,1,0,0:0:0:0:
256,192,122490,1,8,0:0:0:0:
256,192,122571,1,8,0:0:0:0:
256,192,122652,1,0,0:0:0:0:
256,192,122693,1,0,0:0:0:0:
256,192,122734,1,0,0:0:0:0:
256,192,122774,1,0,0:0:0:0:
256,192,122815,1,8,0:0:0:0:
256,192,122977,5,8,0:0:0:0:
256,192,123058,1,8,0:0:0:0:
256,192,123139,1,0,0:0:0:0:
256,192,123220,1,0,0:0:0:0:
256,192,123301,1,8,0:0:0:0:
256,192,123382,1,0,0:0:0:0:
256,192,123463,1,8,0:0:0:0:
256,192,123544,1,0,0:0:0:0:
256,192,123625,1,8,0:0:0:0:
256,192,123707,1,8,0:0:0:0:
256,192,123788,1,8,0:0:0:0:
256,192,123869,1,0,0:0:0:0:
256,192,123950,1,8,0:0:0:0:
256,192,124031,1,8,0:0:0:0:
256,192,124112,1,0,0:0:0:0:
256,192,124193,1,8,0:0:0:0:
256,192,124274,1,8,0:0:0:0:
256,192,124355,1,0,0:0:0:0:
256,192,124436,1,8,0:0:0:0:
256,192,124517,1,8,0:0:0:0:
256,192,124598,1,8,0:0:0:0:
256,192,124680,1,0,0:0:0:0:
256,192,124761,1,8,0:0:0:0:
256,192,124842,1,0,0:0:0:0:
256,192,124923,1,8,0:0:0:0:
256,192,125004,1,8,0:0:0:0:
256,192,125085,1,0,0:0:0:0:
256,192,125166,1,0,0:0:0:0:
256,192,125247,1,8,0:0:0:0:
256,192,125328,1,0,0:0:0:0:
256,192,125409,1,8,0:0:0:0:
256,192,125490,1,0,0:0:0:0:
256,192,125571,5,8,0:0:0:0:
256,192,125652,1,8,0:0:0:0:
256,192,125734,1,0,0:0:0:0:
256,192,125815,1,0,0:0:0:0:
256,192,125896,1,8,0:0:0:0:
256,192,125977,1,0,0:0:0:0:
256,192,126058,1,8,0:0:0:0:
256,192,126139,1,8,0:0:0:0:
256,192,126220,1,8,0:0:0:0:
256,192,126301,1,0,0:0:0:0:
256,192,126382,1,8,0:0:0:0:
256,192,126463,1,0,0:0:0:0:
256,192,126544,1,8,0:0:0:0:
256,192,126625,1,8,0:0:0:0:
256,192,126707,1,0,0:0:0:0:
256,192,126788,1,8,0:0:0:0:
256,192,126869,1,8,0:0:0:0:
256,192,126950,1,0,0:0:0:0:
256,192,127031,1,8,0:0:0:0:
256,192,127112,1,8,0:0:0:0:
256,192,127193,1,8,0:0:0:0:
256,192,127274,1,0,0:0:0:0:
256,192,127355,1,8,0:0:0:0:
256,192,127436,1,8,0:0:0:0:
256,192,127517,1,0,0:0:0:0:
256,192,127558,1,0,0:0:0:0:
256,192,127598,1,0,0:0:0:0:
256,192,127639,1,0,0:0:0:0:
256,192,127680,1,8,0:0:0:0:
256,192,127761,1,8,0:0:0:0:
256,192,127842,1,0,0:0:0:0:
256,192,127882,1,0,0:0:0:0:
256,192,127923,1,0,0:0:0:0:
256,192,127963,1,0,0:0:0:0:
256,192,128004,1,8,0:0:0:0:
256,192,128166,5,8,0:0:0:0:
256,192,128247,1,8,0:0:0:0:
256,192,128328,1,0,0:0:0:0:
256,192,128409,1,0,0:0:0:0:
256,192,128490,1,8,0:0:0:0:
256,192,128571,1,8,0:0:0:0:
256,192,128652,1,0,0:0:0:0:
256,192,128734,1,0,0:0:0:0:
256,192,128815,1,0,0:0:0:0:
256,192,128896,1,0,0:0:0:0:
256,192,128977,1,8,0:0:0:0:
256,192,129058,1,8,0:0:0:0:
256,192,129139,1,0,0:0:0:0:
256,192,129220,1,0,0:0:0:0:
256,192,129301,1,8,0:0:0:0:
256,192,129382,1,8,0:0:0:0:
256,192,129463,1,0,0:0:0:0:
256,192,129544,1,0,0:0:0:0:
256,192,129625,1,8,0:0:0:0:
256,192,129707,1,8,0:0:0:0:
256,192,129788,1,0,0:0:0:0:
256,192,129869,1,0,0:0:0:0:
256,192,129950,1,0,0:0:0:0:
256,192,130031,1,0,0:0:0:0:
256,192,130112,1,8,0:0:0:0:
256,192,130193,1,0,0:0:0:0:
256,192,130274,1,8,0:0:0:0:
256,192,130355,1,8,0:0:0:0:
256,192,130436,1,8,0:0:0:0:
256,192,130517,1,0,0:0:0:0:
256,192,130598,1,8,0:0:0:0:
256,192,130680,1,0,0:0:0:0:
256,192,130761,5,8,0:0:0:0:
256,192,130842,1,8,0:0:0:0:
256,192,130923,1,0,0:0:0:0:
256,192,131004,1,0,0:0:0:0:
256,192,131085,1,8,0:0:0:0:
256,192,131166,1,8,0:0:0:0:
256,192,131247,1,0,0:0:0:0:
256,192,131328,1,0,0:0:0:0:
256,192,131409,1,8,0:0:0:0:
256,192,131490,1,0,0:0:0:0:
256,192,131571,1,8,0:0:0:0:
256,192,131652,1,0,0:0:0:0:
256,192,131734,1,8,0:0:0:0:
256,192,131815,1,8,0:0:0:0:
256,192,131896,1,0,0:0:0:0:
256,192,131977,1,0,0:0:0:0:
256,192,132058,1,8,0:0:0:0:
256,192,132139,1,8,0:0:0:0:
256,192,132220,1,8,0:0:0:0:
256,192,132301,1,0,0:0:0:0:
256,192,132382,1,8,0:0:0:0:
256,192,132463,1,0,0:0:0:0:
256,192,132544,1,8,0:0:0:0:
256,192,132625,1,8,0:0:0:0:
256,192,132707,1,0,0:0:0:0:
256,192,132747,1,0,0:0:0:0:
256,192,132788,1,0,0:0:0:0:
256,192,132828,1,0,0:0:0:0:
256,192,132869,1,8,0:0:0:0:
256,192,132950,1,8,0:0:0:0:
256,192,133031,1,0,0:0:0:0:
256,192,133071,1,0,0:0:0:0:
256,192,133112,1,0,0:0:0:0:
256,192,133152,1,0,0:0:0:0:
256,192,133193,1,8,0:0:0:0:
256,192,133355,5,8,0:0:0:0:
256,192,133436,1,8,0:0:0:0:
256,192,133517,1,0,0:0:0:0:
256,192,133598,1,0,0:0:0:0:
256,192,133680,1,8,0:0:0:0:
256,192,133761,1,8,0:0:0:0:
256,192,133842,1,0,0:0:0:0:
256,192,133923,1,0,0:0:0:0:
256,192,134004,1,0,0:0:0:0:
256,192,134085,1,0,0:0:0:0:
256,192,134166,1,8,0:0:0:0:
256,192,134247,1,8,0:0:0:0:
256,192,134328,1,0,0:0:0:0:
256,192,134409,1,0,0:0:0:0:
256,192,134490,1,8,0:0:0:0:
256,192,134571,1,8,0:0:0:0:
256,192,134652,1,0,0:0:0:0:
256,192,134734,1,0,0:0:0:0:
256,192,134815,1,8,0:0:0:0:
256,192,134896,1,8,0:0:0:0:
256,192,134977,1,0,0:0:0:0:
256,192,135058,1,0,0:0:0:0:
256,192,135139,1,8,0:0:0:0:
256,192,135220,1,0,0:0:0:0:
256,192,135301,1,8,0:0:0:0:
256,192,135382,1,8,0:0:0:0:
256,192,135463,1,8,0:0:0:0:
256,192,135544,1,0,0:0:0:0:
256,192,135625,1,8,0:0:0:0:
256,192,135707,1,0,0:0:0:0:
256,192,135788,1,8,0:0:0:0:
256,192,135869,1,0,0:0:0:0:
256,192,135950,5,8,0:0:0:0:
256,192,136031,1,8,0:0:0:0:
256,192,136112,1,0,0:0:0:0:
256,192,136193,1,0,0:0:0:0:
256,192,136274,1,8,0:0:0:0:
256,192,136355,1,0,0:0:0:0:
256,192,136436,1,8,0:0:0:0:
256,192,136517,1,8,0:0:0:0:
256,192,136598,1,8,0:0:0:0:
256,192,136680,1,0,0:0:0:0:
256,192,136761,1,8,0:0:0:0:
256,192,136842,1,0,0:0:0:0:
256,192,136923,1,8,0:0:0:0:
256,192,137004,1,8,0:0:0:0:
256,192,137085,1,0,0:0:0:0:
256,192,137166,1,0,0:0:0:0:
256,192,137247,1,8,0:0:0:0:
256,192,137328,1,0,0:0:0:0:
256,192,137409,1,8,0:0:0:0:
256,192,137490,1,8,0:0:0:0:
256,192,137571,1,0,0:0:0:0:
256,192,137652,1,0,0:0:0:0:
256,192,137734,1,8,0:0:0:0:
256,192,137774,1,8,0:0:0:0:
256,192,137815,1,0,0:0:0:0:
256,192,137855,1,0,0:0:0:0:
256,192,137896,1,8,0:0:0:0:
256,192,138058,1,8,0:0:0:0:
256,192,138220,1,8,0:0:0:0:
256,192,138382,1,8,0:0:0:0:
256,192,146616,5,0,0:0:0:0:
256,192,147416,1,8,0:0:0:0:
256,192,148216,1,0,0:0:0:0:
256,192,149016,1,8,0:0:0:0:
256,192,149816,1,0,0:0:0:0:
256,192,150616,1,8,0:0:0:0:
256,192,151416,1,0,0:0:0:0:
256,192,152216,1,8,0:0:0:0:
256,192,153016,5,8,0:0:0:0:
256,192,153282,1,8,0:0:0:0:
256,192,153549,1,8,0:0:0:0:
256,192,153816,1,8,0:0:0:0:
256,192,154082,1,0,0:0:0:0:
256,192,154349,1,8,0:0:0:0:
256,192,154616,1,0,0:0:0:0:
256,192,156216,5,8,0:0:0:0:
256,192,157016,1,8,0:0:0:0:
256,192,157816,1,0,0:0:0:0:
256,192,158616,1,8,0:0:0:0:
256,192,159416,5,0,0:0:0:0:
256,192,159616,1,0,0:0:0:0:
256,192,159816,1,8,0:0:0:0:
256,192,160016,1,0,0:0:0:0:
256,192,160216,1,8,0:0:0:0:
256,192,160416,1,0,0:0:0:0:
256,192,160616,1,8,0:0:0:0:
256,192,160816,1,8,0:0:0:0:
256,192,161016,1,0,0:0:0:0:
256,192,161216,1,8,0:0:0:0:
256,192,161416,1,0,0:0:0:0:
256,192,161616,1,8,0:0:0:0:
256,192,161816,1,0,0:0:0:0:
256,192,162016,1,8,0:0:0:0:
256,192,162216,1,0,0:0:0:0:
256,192,162416,1,8,0:0:0:0:
256,192,162616,1,0,0:0:0:0:
256,192,162816,1,8,0:0:0:0:
256,192,163016,1,8,0:0:0:0:
256,192,163216,1,8,0:0:0:0:
256,192,163416,1,8,0:0:0:0:
256,192,163616,1,0,0:0:0:0:
256,192,163816,1,8,0:0:0:0:
256,192,164016,1,8,0:0:0:0:
256,192,164216,1,0,0:0:0:0:
256,192,164416,1,8,0:0:0:0:
256,192,164616,1,8,0:0:0:0:
256,192,164816,1,8,0:0:0:0:
256,192,165016,1,8,0:0:0:0:
256,192,165216,1,0,0:0:0:0:
256,192,165416,1,8,0:0:0:0:
256,192,165616,1,8,0:0:0:0:
256,192,165816,5,8,0:0:0:0:
256,192,166082,1,8,0:0:0:0:
256,192,166349,1,8,0:0:0:0:
256,192,166616,1,8,0:0:0:0:
256,192,166882,1,0,0:0:0:0:
256,192,167149,1,8,0:0:0:0:
256,192,167416,1,0,0:0:0:0:
256,192,169016,5,8,0:0:0:0:
256,192,169816,1,8,0:0:0:0:
256,192,170616,1,0,0:0:0:0:
256,192,171416,1,8,0:0:0:0:
256,192,172216,5,0,0:0:0:0:
256,192,172416,1,0,0:0:0:0:
256,192,172616,1,8,0:0:0:0:
256,192,172816,1,0,0:0:0:0:
256,192,173016,1,8,0:0:0:0:
256,192,173216,1,0,0:0:0:0:
256,192,173416,1,8,0:0:0:0:
256,192,173616,1,8,0:0:0:0:
256,192,173816,1,8,0:0:0:0:
256,192,174016,1,0,0:0:0:0:
256,192,174216,1,8,0:0:0:0:
256,192,174416,1,8,0:0:0:0:
256,192,174616,1,8,0:0:0:0:
256,192,174816,1,0,0:0:0:0:
256,192,175016,1,8,0:0:0:0:
256,192,175216,1,0,0:0:0:0:
256,192,175416,5,8,0:0:0:0:
256,192,176216,1,8,0:0:0:0:
256,192,177016,1,8,0:0:0:0:
256,192,177816,1,0,0:0:0:0:
256,192,190916,5,0,0:0:0:0:
256,192,190966,1,0,0:0:0:0:
256,192,191016,1,8,0:0:0:0:
256,192,191066,1,8,0:0:0:0:
256,192,191116,1,8,0:0:0:0:
256,192,191166,1,8,0:0:0:0:
256,192,191216,1,8,0:0:0:0:
256,192,191266,1,8,0:0:0:0:
256,192,191316,1,8,0:0:0:0:
256,192,191366,1,8,0:0:0:0:
256,192,191416,5,0,0:0:0:0:
256,192,191516,1,0,0:0:0:0:
256,192,191616,1,8,0:0:0:0:
256,192,191716,1,8,0:0:0:0:
256,192,191816,1,8,0:0:0:0:
256,192,191916,1,0,0:0:0:0:
256,192,192016,1,8,0:0:0:0:
256,192,192116,1,8,0:0:0:0:
256,192,192216,1,8,0:0:0:0:
256,192,192316,1,0,0:0:0:0:
256,192,192416,1,8,0:0:0:0:
256,192,192516,1,0,0:0:0:0:
256,192,192616,1,8,0:0:0:0:
256,192,192666,1,0,0:0:0:0:
256,192,192716,1,8,0:0:0:0:
256,192,192766,1,8,0:0:0:0:
256,192,192816,1,0,0:0:0:0:
256,192,192866,1,0,0:0:0:0:
256,192,192916,1,8,0:0:0:0:
256,192,192966,1,0,0:0:0:0:
256,192,193016,5,8,0:0:0:0:
256,192,193116,1,0,0:0:0:0:
256,192,193216,1,8,0:0:0:0:
256,192,193316,1,8,0:0:0:0:
256,192,193416,1,8,0:0:0:0:
256,192,193516,1,0,0:0:0:0:
256,192,193616,1,8,0:0:0:0:
256,192,193716,1,0,0:0:0:0:
256,192,193816,1,8,0:0:0:0:
256,192,193866,1,8,0:0:0:0:
256,192,193916,1,0,0:0:0:0:
256,192,193966,1,0,0:0:0:0:
256,192,194016,1,8,0:0:0:0:
256,192,194066,1,0,0:0:0:0:
256,192,194116,1,8,0:0:0:0:
256,192,194166,1,0,0:0:0:0:
256,192,194216,1,8,0:0:0:0:
256,192,194266,1,8,0:0:0:0:
256,192,194316,1,0,0:0:0:0:
256,192,194366,1,0,0:0:0:0:
256,192,194416,1,8,0:0:0:0:
256,192,194466,1,8,0:0:0:0:
256,192,194516,1,0,0:0:0:0:
256,192,194566,1,0,0:0:0:0:
256,192,194616,5,8,0:0:0:0:
256,192,194716,1,0,0:0:0:0:
256,192,194816,1,0,0:0:0:0:
256,192,194916,1,0,0:0:0:0:
256,192,195016,1,8,0:0:0:0:
256,192,195116,1,0,0:0:0:0:
256,192,195216,1,8,0:0:0:0:
256,192,195316,1,8,0:0:0:0:
256,192,195416,1,8,0:0:0:0:
256,192,195516,1,0,0:0:0:0:
256,192,195616,1,8,0:0:0:0:
256,192,195716,1,0,0:0:0:0:
256,192,195816,1,8,0:0:0:0:
256,192,195866,1,0,0:0:0:0:
256,192,195916,1,8,0:0:0:0:
256,192,195966,1,8,0:0:0:0:
256,192,196016,1,0,0:0:0:0:
256,192,196066,1,0,0:0:0:0:
256,192,196116,1,8,0:0:0:0:
256,192,196166,1,0,0:0:0:0:
256,192,196216,5,8,0:0:0:0:
256,192,196316,1,0,0:0:0:0:
256,192,196416,1,8,0:0:0:0:
256,192,196516,1,8,0:0:0:0:
256,192,196616,1,8,0:0:0:0:
256,192,196716,1,0,0:0:0:0:
256,192,196816,1,8,0:0:0:0:
256,192,196916,1,0,0:0:0:0:
256,192,197016,1,8,0:0:0:0:
256,192,197066,1,0,0:0:0:0:
256,192,197116,1,8,0:0:0:0:
256,192,197166,1,0,0:0:0:0:
256,192,197216,1,8,0:0:0:0:
256,192,197266,1,8,0:0:0:0:
256,192,197316,1,0,0:0:0:0:
256,192,197366,1,0,0:0:0:0:
256,192,197416,1,8,0:0:0:0:
256,192,197816,5,8,0:0:0:0:
256,192,197916,1,0,0:0:0:0:
256,192,198016,1,8,0:0:0:0:
256,192,198116,1,8,0:0:0:0:
256,192,198216,1,8,0:0:0:0:
256,192,198316,1,0,0:0:0:0:
256,192,198416,1,8,0:0:0:0:
256,192,198516,1,0,0:0:0:0:
256,192,198616,1,8,0:0:0:0:
256,192,198716,1,8,0:0:0:0:
256,192,198816,1,8,0:0:0:0:
256,192,198916,1,0,0:0:0:0:
256,192,199016,1,8,0:0:0:0:
256,192,199066,1,0,0:0:0:0:
256,192,199116,1,8,0:0:0:0:
256,192,199166,1,8,0:0:0:0:
256,192,199216,1,0,0:0:0:0:
256,192,199266,1,0,0:0:0:0:
256,192,199316,1,8,0:0:0:0:
256,192,199366,1,0,0:0:0:0:
256,192,199416,5,8,0:0:0:0:
256,192,199516,1,0,0:0:0:0:
256,192,199616,1,8,0:0:0:0:
256,192,199716,1,8,0:0:0:0:
256,192,199816,1,0,0:0:0:0:
256,192,199916,1,8,0:0:0:0:
256,192,200016,1,8,0:0:0:0:
256,192,200116,1,0,0:0:0:0:
256,192,200216,5,8,0:0:0:0:
256,192,200266,1,0,0:0:0:0:
256,192,200316,1,8,0:0:0:0:
256,192,200366,1,8,0:0:0:0:
256,192,200416,1,0,0:0:0:0:
256,192,200466,1,0,0:0:0:0:
256,192,200516,1,8,0:0:0:0:
256,192,200566,1,0,0:0:0:0:
256,192,200616,1,8,0:0:0:0:
256,192,200666,1,0,0:0:0:0:
256,192,200716,1,8,0:0:0:0:
256,192,200766,1,8,0:0:0:0:
256,192,200816,1,0,0:0:0:0:
256,192,200866,1,0,0:0:0:0:
256,192,200916,1,0,0:0:0:0:
256,192,200966,1,0,0:0:0:0:
256,192,201016,1,8,0:0:0:0:
256,192,202482,5,0,0:0:0:0:
256,192,202516,1,0,0:0:0:0:
256,192,202549,1,0,0:0:0:0:
256,192,202582,1,0,0:0:0:0:
256,192,202616,1,8,0:0:0:0:
256,192,204216,5,8,0:0:0:0:
256,192,204282,1,8,0:0:0:0:
256,192,204349,1,8,0:0:0:0:
256,192,204416,1,8,0:0:0:0:
256,192,204482,1,8,0:0:0:0:
256,192,204549,1,8,0:0:0:0:
256,192,204616,1,0,0:0:0:0:
256,192,204682,1,0,0:0:0:0:
256,192,204749,1,0,0:0:0:0:
256,192,204816,1,0,0:0:0:0:
256,192,204882,1,8,0:0:0:0:
256,192,204949,1,0,0:0:0:0:
256,192,205016,1,8,0:0:0:0:
256,192,205082,1,8,0:0:0:0:
256,192,205149,1,0,0:0:0:0:
256,192,205216,1,0,0:0:0:0:
256,192,205282,1,0,0:0:0:0:
256,192,205349,1,0,0:0:0:0:
256,192,205416,1,8,0:0:0:0:
256,192,205482,1,8,0:0:0:0:
256,192,205549,1,0,0:0:0:0:
256,192,205616,1,0,0:0:0:0:
256,192,205682,1,0,0:0:0:0:
256,192,205749,1,0,0:0:0:0:
256,192,205816,1,8,0:0:0:0:
256,192,205882,1,8,0:0:0:0:
256,192,205949,1,8,0:0:0:0:
256,192,206016,1,8,0:0:0:0:
256,192,206082,1,8,0:0:0:0:
256,192,206149,1,8,0:0:0:0:
256,192,206216,1,0,0:0:0:0:
256,192,206282,1,0,0:0:0:0:
256,192,206349,1,0,0:0:0:0:
256,192,206416,1,0,0:0:0:0:
256,192,206482,1,0,0:0:0:0:
256,192,206549,1,0,0:0:0:0:
256,192,206616,1,8,0:0:0:0:
256,192,206682,1,8,0:0:0:0:
256,192,206749,1,0,0:0:0:0:
256,192,206816,1,8,0:0:0:0:
256,192,206882,1,0,0:0:0:0:
256,192,206949,1,0,0:0:0:0:
256,192,207016,1,8,0:0:0:0:
256,192,207082,1,8,0:0:0:0:
256,192,207149,1,0,0:0:0:0:
256,192,207216,1,8,0:0:0:0:
256,192,207282,1,0,0:0:0:0:
256,192,207349,1,0,0:0:0:0:
256,192,207416,5,8,0:0:0:0:
256,192,207482,1,8,0:0:0:0:
256,192,207549,1,8,0:0:0:0:
256,192,207616,1,8,0:0:0:0:
256,192,207682,1,0,0:0:0:0:
256,192,207749,1,0,0:0:0:0:
256,192,207816,1,8,0:0:0:0:
256,192,207882,1,8,0:0:0:0:
256,192,207949,1,0,0:0:0:0:
256,192,208016,1,8,0:0:0:0:
256,192,208082,1,0,0:0:0:0:
256,192,208149,1,0,0:0:0:0:
256,192,208216,1,8,0:0:0:0:
256,192,208282,1,8,0:0:0:0:
256,192,208349,1,8,0:0:0:0:
256,192,208416,1,8,0:0:0:0:
256,192,208482,1,8,0:0:0:0:
256,192,208549,1,8,0:0:0:0:
256,192,208616,1,0,0:0:0:0:
256,192,208682,1,0,0:0:0:0:
256,192,208749,1,0,0:0:0:0:
256,192,208816,1,0,0:0:0:0:
256,192,208882,1,0,0:0:0:0:
256,192,208949,1,0,0:0:0:0:
256,192,209016,1,8,0:0:0:0:
256,192,209082,1,8,0:0:0:0:
256,192,209149,1,8,0:0:0:0:
256,192,209216,1,8,0:0:0:0:
256,192,209282,1,8,0:0:0:0:
256,192,209349,1,8,0:0:0:0:
256,192,209416,1,0,0:0:0:0:
256,192,209482,1,0,0:0:0:0:
256,192,209549,1,0,0:0:0:0:
256,192,209616,1,0,0:0:0:0:
256,192,209682,1,8,0:0:0:0:
256,192,209749,1,8,0:0:0:0:
256,192,209816,5,0,0:0:0:0:
256,192,209866,1,0,0:0:0:0:
256,192,209916,1,0,0:0:0:0:
256,192,209966,1,0,0:0:0:0:
256,192,210016,1,8,0:0:0:0:
256,192,210066,1,8,0:0:0:0:
256,192,210116,1,8,0:0:0:0:
256,192,210166,1,8,0:0:0:0:
256,192,210216,1,0,0:0:0:0:
256,192,210266,1,0,0:0:0:0:
256,192,210316,1,0,0:0:0:0:
256,192,210366,1,0,0:0:0:0:
256,192,210416,1,8,0:0:0:0:
256,192,210616,5,8,0:0:0:0:
256,192,210682,1,8,0:0:0:0:
256,192,210749,1,8,0:0:0:0:
256,192,210816,1,8,0:0:0:0:
256,192,210882,1,8,0:0:0:0:
256,192,210949,1,8,0:0:0:0:
256,192,211016,1,0,0:0:0:0:
256,192,211082,1,0,0:0:0:0:
256,192,211149,1,0,0:0:0:0:
256,192,211216,1,0,0:0:0:0:
256,192,211282,1,8,0:0:0:0:
256,192,211349,1,0,0:0:0:0:
256,192,211416,1,8,0:0:0:0:
256,192,211482,1,8,0:0:0:0:
256,192,211549,1,0,0:0:0:0:
256,192,211616,1,0,0:0:0:0:
256,192,211682,1,0,0:0:0:0:
256,192,211749,1,0,0:0:0:0:
256,192,211816,1,8,0:0:0:0:
256,192,211882,1,8,0:0:0:0:
256,192,211949,1,0,0:0:0:0:
256,192,212016,1,0,0:0:0:0:
256,192,212082,1,0,0:0:0:0:
256,192,212149,1,0,0:0:0:0:
256,192,212216,1,8,0:0:0:0:
256,192,212282,1,8,0:0:0:0:
256,192,212349,1,8,0:0:0:0:
256,192,212416,1,8,0:0:0:0:
256,192,212482,1,0,0:0:0:0:
256,192,212549,1,0,0:0:0:0:
256,192,212616,1,8,0:0:0:0:
256,192,212682,1,8,0:0:0:0:
256,192,212749,1,8,0:0:0:0:
256,192,212816,1,8,0:0:0:0:
256,192,212882,1,0,0:0:0:0:
256,192,212949,1,0,0:0:0:0:
256,192,213016,1,8,0:0:0:0:
256,192,213082,1,8,0:0:0:0:
256,192,213149,1,8,0:0:0:0:
256,192,213216,1,8,0:0:0:0:
256,192,213282,1,0,0:0:0:0:
256,192,213349,1,0,0:0:0:0:
256,192,213416,1,8,0:0:0:0:
256,192,213466,1,8,0:0:0:0:
256,192,213516,1,8,0:0:0:0:
256,192,213566,1,8,0:0:0:0:
256,192,213616,1,0,0:0:0:0:
256,192,213816,5,8,0:0:0:0:
256,192,213916,1,0,0:0:0:0:
256,192,214016,1,0,0:0:0:0:
256,192,214116,1,0,0:0:0:0:
256,192,214216,1,8,0:0:0:0:
256,192,214316,1,8,0:0:0:0:
256,192,214416,1,0,0:0:0:0:
256,192,214516,1,0,0:0:0:0:
256,192,214616,1,8,0:0:0:0:
256,192,214716,1,0,0:0:0:0:
256,192,214816,1,0,0:0:0:0:
256,192,214916,1,0,0:0:0:0:
256,192,215016,1,8,0:0:0:0:
256,192,215116,1,0,0:0:0:0:
256,192,215216,1,8,0:0:0:0:
256,192,215316,1,8,0:0:0:0:
256,192,215416,5,0,0:0:0:0:
256,192,215466,1,0,0:0:0:0:
256,192,215516,1,0,0:0:0:0:
256,192,215566,1,0,0:0:0:0:
256,192,215616,1,8,0:0:0:0:
256,192,215666,1,8,0:0:0:0:
256,192,215716,1,8,0:0:0:0:
256,192,215766,1,8,0:0:0:0:
256,192,215816,1,0,0:0:0:0:
256,192,215866,1,0,0:0:0:0:
256,192,215916,1,0,0:0:0:0:
256,192,215966,1,0,0:0:0:0:
256,192,216016,1,8,0:0:0:0:
256,192,216116,1,8,0:0:0:0:
256,192,216216,1,0,0:0:0:0:
256,192,216266,1,0,0:0:0:0:
256,192,216316,1,0,0:0:0:0:
256,192,216366,1,0,0:0:0:0:
256,192,216416,1,8,0:0:0:0:
256,192,216466,1,8,0:0:0:0:
256,192,216516,1,8,0:0:0:0:
256,192,216566,1,8,0:0:0:0:
256,192,216616,1,0,0:0:0:0:
256,192,216666,1,0,0:0:0:0:
256,192,216716,1,0,0:0:0:0:
256,192,216766,1,0,0:0:0:0:
256,192,216816,1,8,0:0:0:0:
256,192,217016,5,8,0:0:0:0:
256,192,217082,1,8,0:0:0:0:
256,192,217149,1,8,0:0:0:0:
256,192,217216,1,8,0:0:0:0:
256,192,217282,1,8,0:0:0:0:
256,192,217349,1,8,0:0:0:0:
256,192,217416,1,0,0:0:0:0:
256,192,217482,1,0,0:0:0:0:
256,192,217549,1,0,0:0:0:0:
256,192,217616,1,0,0:0:0:0:
256,192,217682,1,8,0:0:0:0:
256,192,217749,1,0,0:0:0:0:
256,192,217816,1,8,0:0:0:0:
256,192,217882,1,8,0:0:0:0:
256,192,217949,1,0,0:0:0:0:
256,192,218016,1,0,0:0:0:0:
256,192,218082,1,0,0:0:0:0:
256,192,218149,1,0,0:0:0:0:
256,192,218216,1,8,0:0:0:0:
256,192,218282,1,8,0:0:0:0:
256,192,218349,1,0,0:0:0:0:
256,192,218416,1,0,0:0:0:0:
256,192,218482,1,0,0:0:0:0:
256,192,218549,1,0,0:0:0:0:
256,192,218616,1,8,0:0:0:0:
256,192,218682,1,8,0:0:0:0:
256,192,218749,1,8,0:0:0:0:
256,192,218816,1,8,0:0:0:0:
256,192,218882,1,8,0:0:0:0:
256,192,218949,1,8,0:0:0:0:
256,192,219016,1,0,0:0:0:0:
256,192,219082,1,0,0:0:0:0:
256,192,219149,1,0,0:0:0:0:
256,192,219216,1,0,0:0:0:0:
256,192,219282,1,0,0:0:0:0:
256,192,219349,1,0,0:0:0:0:
256,192,219416,1,8,0:0:0:0:
256,192,219482,1,8,0:0:0:0:
256,192,219549,1,0,0:0:0:0:
256,192,219616,1,8,0:0:0:0:
256,192,219682,1,0,0:0:0:0:
256,192,219749,1,0,0:0:0:0:
256,192,219816,1,8,0:0:0:0:
256,192,219882,1,8,0:0:0:0:
256,192,219949,1,0,0:0:0:0:
256,192,220016,1,8,0:0:0:0:
256,192,220082,1,0,0:0:0:0:
256,192,220149,1,0,0:0:0:0:
256,192,220216,5,8,0:0:0:0:
256,192,220282,1,8,0:0:0:0:
256,192,220349,1,8,0:0:0:0:
256,192,220416,1,8,0:0:0:0:
256,192,220482,1,8,0:0:0:0:
256,192,220549,1,8,0:0:0:0:
256,192,220616,1,0,0:0:0:0:
256,192,220682,1,0,0:0:0:0:
256,192,220749,1,0,0:0:0:0:
256,192,220816,1,0,0:0:0:0:
256,192,220882,1,0,0:0:0:0:
256,192,220949,1,0,0:0:0:0:
256,192,221016,1,8,0:0:0:0:
256,192,221082,1,8,0:0:0:0:
256,192,221149,1,8,0:0:0:0:
256,192,221216,1,8,0:0:0:0:
256,192,221282,1,0,0:0:0:0:
256,192,221349,1,0,0:0:0:0:
256,192,221416,1,8,0:0:0:0:
256,192,221482,1,8,0:0:0:0:
256,192,221549,1,0,0:0:0:0:
256,192,221616,1,8,0:0:0:0:
256,192,221682,1,0,0:0:0:0:
256,192,221749,1,0,0:0:0:0:
256,192,221816,1,8,0:0:0:0:
256,192,221882,1,8,0:0:0:0:
256,192,221949,1,8,0:0:0:0:
256,192,222016,1,8,0:0:0:0:
256,192,222082,1,0,0:0:0:0:
256,192,222149,1,0,0:0:0:0:
256,192,222216,1,8,0:0:0:0:
256,192,222282,1,8,0:0:0:0:
256,192,222349,1,0,0:0:0:0:
256,192,222416,1,0,0:0:0:0:
256,192,222482,1,8,0:0:0:0:
256,192,222549,1,8,0:0:0:0:
256,192,222616,5,0,0:0:0:0:
256,192,222666,1,0,0:0:0:0:
256,192,222716,1,0,0:0:0:0:
256,192,222766,1,0,0:0:0:0:
256,192,222816,1,8,0:0:0:0:
256,192,222866,1,8,0:0:0:0:
256,192,222916,1,8,0:0:0:0:
256,192,222966,1,8,0:0:0:0:
256,192,223016,1,0,0:0:0:0:
256,192,223066,1,0,0:0:0:0:
256,192,223116,1,0,0:0:0:0:
256,192,223166,1,0,0:0:0:0:
256,192,223216,1,8,0:0:0:0:
256,192,223416,5,8,0:0:0:0:
256,192,223482,1,8,0:0:0:0:
256,192,223549,1,8,0:0:0:0:
256,192,223616,1,8,0:0:0:0:
256,192,223682,1,8,0:0:0:0:
256,192,223749,1,8,0:0:0:0:
256,192,223816,1,0,0:0:0:0:
256,192,223882,1,0,0:0:0:0:
256,192,223949,1,0,0:0:0:0:
256,192,224016,1,0,0:0:0:0:
256,192,224082,1,8,0:0:0:0:
256,192,224149,1,0,0:0:0:0:
256,192,224216,1,8,0:0:0:0:
256,192,224282,1,8,0:0:0:0:
256,192,224349,1,0,0:0:0:0:
256,192,224416,1,0,0:0:0:0:
256,192,224482,1,0,0:0:0:0:
256,192,224549,1,0,0:0:0:0:
256,192,224616,1,8,0:0:0:0:
256,192,224682,1,8,0:0:0:0:
256,192,224749,1,0,0:0:0:0:
256,192,224816,1,0,0:0:0:0:
256,192,224882,1,0,0:0:0:0:
256,192,224949,1,0,0:0:0:0:
256,192,225016,1,8,0:0:0:0:
256,192,225082,1,8,0:0:0:0:
256,192,225149,1,8,0:0:0:0:
256,192,225216,1,8,0:0:0:0:
256,192,225282,1,0,0:0:0:0:
256,192,225349,1,0,0:0:0:0:
256,192,225416,1,8,0:0:0:0:
256,192,225482,1,8,0:0:0:0:
256,192,225549,1,8,0:0:0:0:
256,192,225616,1,8,0:0:0:0:
256,192,225682,1,0,0:0:0:0:
256,192,225749,1,0,0:0:0:0:
256,192,225816,1,8,0:0:0:0:
256,192,225882,1,0,0:0:0:0:
256,192,225949,1,8,0:0:0:0:
256,192,226016,1,8,0:0:0:0:
256,192,226082,1,0,0:0:0:0:
256,192,226149,1,0,0:0:0:0:
256,192,226216,1,8,0:0:0:0:
256,192,226616,5,8,0:0:0:0:
256,192,226716,1,0,0:0:0:0:
256,192,226816,1,8,0:0:0:0:
256,192,226916,1,8,0:0:0:0:
256,192,227016,1,0,0:0:0:0:
256,192,227116,1,8,0:0:0:0:
256,192,227216,1,8,0:0:0:0:
256,192,227316,1,0,0:0:0:0:
256,192,227416,1,8,0:0:0:0:
256,192,227516,1,0,0:0:0:0:
256,192,227616,1,8,0:0:0:0:
256,192,227716,1,8,0:0:0:0:
256,192,227816,1,8,0:0:0:0:
256,192,227916,1,0,0:0:0:0:
256,192,228016,1,8,0:0:0:0:
256,192,228116,1,0,0:0:0:0:
256,192,228216,1,8,0:0:0:0:
256,192,228316,1,8,0:0:0:0:
256,192,228416,1,0,0:0:0:0:
256,192,228516,1,8,0:0:0:0:
256,192,228616,1,0,0:0:0:0:
256,192,228716,1,8,0:0:0:0:
256,192,228816,1,8,0:0:0:0:
256,192,228916,1,0,0:0:0:0:
256,192,229016,1,8,0:0:0:0:
256,192,229066,1,8,0:0:0:0:
256,192,229116,1,8,0:0:0:0:
256,192,229166,1,8,0:0:0:0:
256,192,229216,1,0,0:0:0:0:
256,192,229266,1,0,0:0:0:0:
256,192,229316,1,0,0:0:0:0:
256,192,229366,1,0,0:0:0:0:
256,192,229416,1,8,0:0:0:0:
256,192,229816,5,4,0:0:0:0:
256,192,232410,1,4,0:0:0:0:
256,192,232572,1,4,0:0:0:0:
256,192,233221,1,4,0:0:0:0:
256,192,233383,1,4,0:0:0:0:
256,192,233545,1,4,0:0:0:0:
256,192,233707,1,4,0:0:0:0:
256,192,234680,1,12,0:0:0:0:
256,192,235005,5,8,0:0:0:0:
256,192,235086,1,8,0:0:0:0:
256,192,235167,1,0,0:0:0:0:
256,192,235248,1,0,0:0:0:0:
256,192,235329,1,8,0:0:0:0:
256,192,235410,1,0,0:0:0:0:
256,192,235491,1,8,0:0:0:0:
256,192,235572,1,0,0:0:0:0:
256,192,235653,1,8,0:0:0:0:
256,192,235734,1,8,0:0:0:0:
256,192,235816,1,0,0:0:0:0:
256,192,235897,1,8,0:0:0:0:
256,192,235978,1,0,0:0:0:0:
256,192,236059,1,8,0:0:0:0:
256,192,236140,1,8,0:0:0:0:
256,192,236221,1,0,0:0:0:0:
256,192,236302,1,8,0:0:0:0:
256,192,236383,1,0,0:0:0:0:
256,192,236464,1,8,0:0:0:0:
256,192,236545,1,8,0:0:0:0:
256,192,236626,1,8,0:0:0:0:
256,192,236707,1,0,0:0:0:0:
256,192,236788,1,8,0:0:0:0:
256,192,236870,1,0,0:0:0:0:
256,192,236951,1,8,0:0:0:0:
256,192,237032,1,8,0:0:0:0:
256,192,237113,1,0,0:0:0:0:
256,192,237194,1,0,0:0:0:0:
256,192,237275,1,8,0:0:0:0:
256,192,237356,1,8,0:0:0:0:
256,192,237437,1,0,0:0:0:0:
256,192,237518,1,0,0:0:0:0:
256,192,237599,5,8,0:0:0:0:
256,192,237680,1,8,0:0:0:0:
256,192,237761,1,0,0:0:0:0:
256,192,237843,1,0,0:0:0:0:
256,192,237924,1,8,0:0:0:0:
256,192,238005,1,0,0:0:0:0:
256,192,238086,1,8,0:0:0:0:
256,192,238167,1,0,0:0:0:0:
256,192,238248,1,8,0:0:0:0:
256,192,238329,1,8,0:0:0:0:
256,192,238410,1,0,0:0:0:0:
256,192,238491,1,0,0:0:0:0:
256,192,238572,1,8,0:0:0:0:
256,192,238653,1,8,0:0:0:0:
256,192,238734,1,0,0:0:0:0:
256,192,238775,1,0,0:0:0:0:
256,192,238816,1,0,0:0:0:0:
256,192,238856,1,0,0:0:0:0:
256,192,238897,1,8,0:0:0:0:
256,192,238978,1,0,0:0:0:0:
256,192,239059,1,8,0:0:0:0:
256,192,239140,1,8,0:0:0:0:
256,192,239221,1,8,0:0:0:0:
256,192,239302,1,8,0:0:0:0:
256,192,239383,1,0,0:0:0:0:
256,192,239464,1,0,0:0:0:0:
256,192,239545,1,8,0:0:0:0:
256,192,239626,1,8,0:0:0:0:
256,192,239707,1,0,0:0:0:0:
256,192,239748,1,0,0:0:0:0:
256,192,239788,1,0,0:0:0:0:
256,192,239829,1,0,0:0:0:0:
256,192,239870,1,8,0:0:0:0:
256,192,240194,5,8,0:0:0:0:
256,192,240275,1,0,0:0:0:0:
256,192,240356,1,8,0:0:0:0:
256,192,240437,1,8,0:0:0:0:
256,192,240518,1,0,0:0:0:0:
256,192,240599,1,8,0:0:0:0:
256,192,240680,1,8,0:0:0:0:
256,192,240761,1,0,0:0:0:0:
256,192,240843,1,8,0:0:0:0:
256,192,240924,1,8,0:0:0:0:
256,192,241005,1,8,0:0:0:0:
256,192,241086,1,0,0:0:0:0:
256,192,241167,1,8,0:0:0:0:
256,192,241491,5,8,0:0:0:0:
256,192,241572,1,0,0:0:0:0:
256,192,241653,1,8,0:0:0:0:
256,192,241734,1,8,0:0:0:0:
256,192,241816,1,8,0:0:0:0:
256,192,241897,1,0,0:0:0:0:
256,192,241978,1,8,0:0:0:0:
256,192,242059,1,0,0:0:0:0:
256,192,242140,1,8,0:0:0:0:
256,192,242221,1,8,0:0:0:0:
256,192,242302,1,0,0:0:0:0:
256,192,242383,1,8,0:0:0:0:
256,192,242464,1,8,0:0:0:0:
256,192,242545,1,0,0:0:0:0:
256,192,242626,1,8,0:0:0:0:
256,192,242707,1,0,0:0:0:0:
256,192,242788,1,8,0:0:0:0:
256,192,242951,5,8,0:0:0:0:
256,192,243032,1,8,0:0:0:0:
256,192,243113,1,8,0:0:0:0:
256,192,243194,1,0,0:0:0:0:
256,192,243275,1,8,0:0:0:0:
256,192,243356,1,0,0:0:0:0:
256,192,243437,1,8,0:0:0:0:
256,192,243518,1,8,0:0:0:0:
256,192,243599,1,0,0:0:0:0:
256,192,243640,1,0,0:0:0:0:
256,192,243680,1,0,0:0:0:0:
256,192,243721,1,0,0:0:0:0:
256,192,243761,1,8,0:0:0:0:
256,192,244086,5,8,0:0:0:0:
256,192,244167,1,0,0:0:0:0:
256,192,244248,1,8,0:0:0:0:
256,192,244329,1,8,0:0:0:0:
256,192,244410,1,8,0:0:0:0:
256,192,244491,1,0,0:0:0:0:
256,192,244572,1,8,0:0:0:0:
256,192,244653,1,8,0:0:0:0:
256,192,244734,1,0,0:0:0:0:
256,192,244775,1,0,0:0:0:0:
256,192,244815,1,0,0:0:0:0:
256,192,244856,1,0,0:0:0:0:
256,192,244897,1,8,0:0:0:0:
256,192,244978,1,8,0:0:0:0:
256,192,245059,1,0,0:0:0:0:
256,192,245099,1,0,0:0:0:0:
256,192,245140,1,0,0:0:0:0:
256,192,245180,1,0,0:0:0:0:
256,192,245221,1,8,0:0:0:0:
256,192,245383,5,8,0:0:0:0:
256,192,245464,1,0,0:0:0:0:
256,192,245545,1,8,0:0:0:0:
256,192,245626,1,8,0:0:0:0:
256,192,245707,1,8,0:0:0:0:
256,192,245788,1,0,0:0:0:0:
256,192,245870,1,8,0:0:0:0:
256,192,245951,1,8,0:0:0:0:
256,192,246032,1,0,0:0:0:0:
256,192,246113,1,8,0:0:0:0:
256,192,246194,1,8,0:0:0:0:
256,192,246275,1,0,0:0:0:0:
256,192,246356,1,8,0:0:0:0:
256,192,246680,5,8,0:0:0:0:
256,192,246761,1,0,0:0:0:0:
256,192,246843,1,8,0:0:0:0:
256,192,246924,1,8,0:0:0:0:
256,192,247005,1,0,0:0:0:0:
256,192,247086,1,8,0:0:0:0:
256,192,247167,1,8,0:0:0:0:
256,192,247248,1,0,0:0:0:0:
256,192,247329,1,8,0:0:0:0:
256,192,247410,1,0,0:0:0:0:
256,192,247491,1,8,0:0:0:0:
256,192,247572,1,8,0:0:0:0:
256,192,247653,1,8,0:0:0:0:
256,192,247734,1,0,0:0:0:0:
256,192,247815,1,8,0:0:0:0:
256,192,247897,1,0,0:0:0:0:
256,192,247978,1,8,0:0:0:0:
256,192,248140,5,8,0:0:0:0:
256,192,248221,1,8,0:0:0:0:
256,192,248302,1,8,0:0:0:0:
256,192,248383,1,0,0:0:0:0:
256,192,248464,1,8,0:0:0:0:
256,192,248545,1,0,0:0:0:0:
256,192,248626,1,8,0:0:0:0:
256,192,248707,1,8,0:0:0:0:
256,192,248788,1,0,0:0:0:0:
256,192,248829,1,0,0:0:0:0:
256,192,248870,1,0,0:0:0:0:
256,192,248910,1,0,0:0:0:0:
256,192,248951,1,8,0:0:0:0:
256,192,249275,5,8,0:0:0:0:
256,192,249356,1,0,0:0:0:0:
256,192,249437,1,8,0:0:0:0:
256,192,249518,1,8,0:0:0:0:
256,192,249599,1,8,0:0:0:0:
256,192,249680,1,0,0:0:0:0:
256,192,249761,1,8,0:0:0:0:
256,192,249843,1,8,0:0:0:0:
256,192,249924,1,0,0:0:0:0:
256,192,249964,1,0,0:0:0:0:
256,192,250005,1,0,0:0:0:0:
256,192,250045,1,0,0:0:0:0:
256,192,250086,1,8,0:0:0:0:
256,192,250167,1,8,0:0:0:0:
256,192,250248,1,0,0:0:0:0:
256,192,250288,1,0,0:0:0:0:
256,192,250329,1,0,0:0:0:0:
256,192,250370,1,0,0:0:0:0:
256,192,250410,1,8,0:0:0:0:
256,192,251870,5,8,0:0:0:0:
256,192,251951,1,0,0:0:0:0:
256,192,252032,1,8,0:0:0:0:
256,192,252113,1,8,0:0:0:0:
256,192,252194,1,0,0:0:0:0:
256,192,252275,1,8,0:0:0:0:
256,192,252356,1,8,0:0:0:0:
256,192,252437,1,8,0:0:0:0:
256,192,252518,1,8,0:0:0:0:
256,192,252599,1,0,0:0:0:0:
256,192,252680,1,8,0:0:0:0:
256,192,252761,1,8,0:0:0:0:
256,192,252843,1,8,0:0:0:0:
256,192,252924,1,0,0:0:0:0:
256,192,253005,1,8,0:0:0:0:
256,192,253086,1,0,0:0:0:0:
256,192,253167,1,8,0:0:0:0:
256,192,253248,1,8,0:0:0:0:
256,192,253329,1,0,0:0:0:0:
256,192,253410,1,8,0:0:0:0:
256,192,253491,1,8,0:0:0:0:
256,192,253572,1,0,0:0:0:0:
256,192,253653,1,8,0:0:0:0:
256,192,253734,1,8,0:0:0:0:
256,192,253815,1,8,0:0:0:0:
256,192,253897,1,0,0:0:0:0:
256,192,253978,1,8,0:0:0:0:
256,192,254059,1,0,0:0:0:0:
256,192,254140,1,8,0:0:0:0:
256,192,254221,1,0,0:0:0:0:
256,192,254302,1,8,0:0:0:0:
256,192,254383,1,0,0:0:0:0:
256,192,254464,5,8,0:0:0:0:
256,192,254545,1,8,0:0:0:0:
256,192,254626,1,0,0:0:0:0:
256,192,254707,1,8,0:0:0:0:
256,192,254788,1,8,0:0:0:0:
256,192,254870,1,0,0:0:0:0:
256,192,254951,1,8,0:0:0:0:
256,192,255032,1,8,0:0:0:0:
256,192,255113,1,8,0:0:0:0:
256,192,255194,1,8,0:0:0:0:
256,192,255275,1,0,0:0:0:0:
256,192,255356,1,8,0:0:0:0:
256,192,255437,1,8,0:0:0:0:
256,192,255518,1,0,0:0:0:0:
256,192,255599,1,8,0:0:0:0:
256,192,255680,1,0,0:0:0:0:
256,192,255761,1,8,0:0:0:0:
256,192,255843,1,8,0:0:0:0:
256,192,255924,1,0,0:0:0:0:
256,192,256005,1,8,0:0:0:0:
256,192,256086,1,8,0:0:0:0:
256,192,256167,1,0,0:0:0:0:
256,192,256248,1,8,0:0:0:0:
256,192,256329,1,0,0:0:0:0:
256,192,256410,1,8,0:0:0:0:
256,192,256491,1,8,0:0:0:0:
256,192,256572,1,0,0:0:0:0:
256,192,256613,1,0,0:0:0:0:
256,192,256653,1,0,0:0:0:0:
256,192,256694,1,0,0:0:0:0:
256,192,256734,1,8,0:0:0:0:
256,192,257059,5,8,0:0:0:0:
256,192,257140,1,0,0:0:0:0:
256,192,257221,1,8,0:0:0:0:
256,192,257302,1,0,0:0:0:0:
256,192,257383,1,8,0:0:0:0:
256,192,257707,1,8,0:0:0:0:
256,192,257788,1,8,0:0:0:0:
256,192,257870,1,0,0:0:0:0:
256,192,257951,1,8,0:0:0:0:
256,192,258032,1,8,0:0:0:0:
256,192,258356,5,8,0:0:0:0:
256,192,258437,1,0,0:0:0:0:
256,192,258518,1,8,0:0:0:0:
256,192,258599,1,8,0:0:0:0:
256,192,258680,1,8,0:0:0:0:
256,192,258761,1,0,0:0:0:0:
256,192,258843,1,8,0:0:0:0:
256,192,258924,1,8,0:0:0:0:
256,192,259005,1,0,0:0:0:0:
256,192,259045,1,0,0:0:0:0:
256,192,259086,1,0,0:0:0:0:
256,192,259126,1,0,0:0:0:0:
256,192,259167,1,8,0:0:0:0:
256,192,259248,1,8,0:0:0:0:
256,192,259329,1,0,0:0:0:0:
256,192,259370,1,0,0:0:0:0:
256,192,259410,1,0,0:0:0:0:
256,192,259451,1,0,0:0:0:0:
256,192,259491,1,8,0:0:0:0:
256,192,259653,5,8,0:0:0:0:
256,192,259734,1,0,0:0:0:0:
256,192,259815,1,8,0:0:0:0:
256,192,259897,1,8,0:0:0:0:
256,192,259978,1,0,0:0:0:0:
256,192,260059,1,8,0:0:0:0:
256,192,260140,1,8,0:0:0:0:
256,192,260221,1,0,0:0:0:0:
256,192,260302,1,8,0:0:0:0:
256,192,260383,1,8,0:0:0:0:
256,192,260464,1,8,0:0:0:0:
256,192,260545,1,0,0:0:0:0:
256,192,260626,1,8,0:0:0:0:
256,192,260951,5,8,0:0:0:0:
256,192,261032,1,8,0:0:0:0:
256,192,261113,1,8,0:0:0:0:
256,192,261194,1,0,0:0:0:0:
256,192,261275,1,8,0:0:0:0:
256,192,261356,1,0,0:0:0:0:
256,192,261437,1,8,0:0:0:0:
256,192,261518,1,8,0:0:0:0:
256,192,261599,1,0,0:0:0:0:
256,192,261640,1,0,0:0:0:0:
256,192,261680,1,0,0:0:0:0:
256,192,261721,1,0,0:0:0:0:
256,192,261761,1,8,0:0:0:0:
256,192,261843,1,8,0:0:0:0:
256,192,261924,1,0,0:0:0:0:
256,192,261964,1,0,0:0:0:0:
256,192,262005,1,0,0:0:0:0:
256,192,262045,1,0,0:0:0:0:
256,192,262086,1,8,0:0:0:0:
256,192,262248,5,8,0:0:0:0:
256,192,262329,1,0,0:0:0:0:
256,192,262410,1,8,0:0:0:0:
256,192,262491,1,8,0:0:0:0:
256,192,262572,1,0,0:0:0:0:
256,192,262653,1,8,0:0:0:0:
256,192,262734,1,8,0:0:0:0:
256,192,262815,1,0,0:0:0:0:
256,192,262897,1,8,0:0:0:0:
256,192,262978,1,8,0:0:0:0:
256,192,263059,1,8,0:0:0:0:
256,192,263140,1,0,0:0:0:0:
256,192,263221,1,8,0:0:0:0:
256,192,263545,5,8,0:0:0:0:
256,192,263626,1,0,0:0:0:0:
256,192,263707,1,8,0:0:0:0:
256,192,263788,1,8,0:0:0:0:
256,192,263870,1,8,0:0:0:0:
256,192,263951,1,0,0:0:0:0:
256,192,264032,1,8,0:0:0:0:
256,192,264113,1,0,0:0:0:0:
256,192,264194,1,8,0:0:0:0:
256,192,264275,1,8,0:0:0:0:
256,192,264356,1,0,0:0:0:0:
256,192,264437,1,8,0:0:0:0:
256,192,264518,1,8,0:0:0:0:
256,192,264599,1,0,0:0:0:0:
256,192,264680,1,8,0:0:0:0:
256,192,264761,1,0,0:0:0:0:
256,192,264843,1,8,0:0:0:0:
256,192,265005,5,8,0:0:0:0:
256,192,265086,1,8,0:0:0:0:
256,192,265167,1,8,0:0:0:0:
256,192,265248,1,0,0:0:0:0:
256,192,265329,1,8,0:0:0:0:
256,192,265410,1,0,0:0:0:0:
256,192,265491,1,8,0:0:0:0:
256,192,265572,1,8,0:0:0:0:
256,192,265653,1,0,0:0:0:0:
256,192,265694,1,0,0:0:0:0:
256,192,265734,1,0,0:0:0:0:
256,192,265775,1,0,0:0:0:0:
256,192,265815,1,8,0:0:0:0:
256,192,266140,5,8,0:0:0:0:
256,192,266221,1,0,0:0:0:0:
256,192,266302,1,8,0:0:0:0:
256,192,266383,1,8,0:0:0:0:
256,192,266464,1,8,0:0:0:0:
256,192,266545,1,0,0:0:0:0:
256,192,266626,1,8,0:0:0:0:
256,192,266707,1,8,0:0:0:0:
256,192,266788,1,0,0:0:0:0:
256,192,266829,1,0,0:0:0:0:
256,192,266870,1,0,0:0:0:0:
256,192,266910,1,0,0:0:0:0:
256,192,266951,1,8,0:0:0:0:
256,192,267032,1,8,0:0:0:0:
256,192,267113,1,0,0:0:0:0:
256,192,267153,1,0,0:0:0:0:
256,192,267194,1,0,0:0:0:0:
256,192,267234,1,0,0:0:0:0:
256,192,267275,1,8,0:0:0:0:
256,192,267437,5,8,0:0:0:0:
256,192,267518,1,8,0:0:0:0:
256,192,267599,1,0,0:0:0:0:
256,192,267680,1,8,0:0:0:0:
256,192,267761,1,8,0:0:0:0:
256,192,267843,1,0,0:0:0:0:
256,192,267924,1,8,0:0:0:0:
256,192,268005,1,8,0:0:0:0:
256,192,268086,1,8,0:0:0:0:
256,192,268167,1,8,0:0:0:0:
256,192,268248,1,0,0:0:0:0:
256,192,268329,1,8,0:0:0:0:
256,192,268410,1,8,0:0:0:0:
256,192,268491,1,0,0:0:0:0:
256,192,268572,1,8,0:0:0:0:
256,192,268653,1,0,0:0:0:0:
256,192,268734,1,8,0:0:0:0:
256,192,268815,1,8,0:0:0:0:
256,192,268897,1,8,0:0:0:0:
256,192,268978,1,0,0:0:0:0:
256,192,269059,1,8,0:0:0:0:
256,192,269140,1,8,0:0:0:0:
256,192,269221,1,0,0:0:0:0:
256,192,269302,1,8,0:0:0:0:
256,192,269383,1,8,0:0:0:0:
256,192,269464,1,0,0:0:0:0:
256,192,269545,1,8,0:0:0:0:
256,192,269626,1,0,0:0:0:0:
256,192,269707,1,8,0:0:0:0:
256,192,269788,1,0,0:0:0:0:
256,192,269870,1,8,0:0:0:0:
256,192,269951,1,0,0:0:0:0:
256,192,270032,5,8,0:0:0:0:
256,192,270113,1,8,0:0:0:0:
256,192,270194,1,0,0:0:0:0:
256,192,270275,1,8,0:0:0:0:
256,192,270356,1,8,0:0:0:0:
256,192,270437,1,0,0:0:0:0:
256,192,270518,1,8,0:0:0:0:
256,192,270599,1,8,0:0:0:0:
256,192,270680,1,8,0:0:0:0:
256,192,270761,1,8,0:0:0:0:
256,192,270843,1,0,0:0:0:0:
256,192,270924,1,8,0:0:0:0:
256,192,271005,1,0,0:0:0:0:
256,192,271086,1,8,0:0:0:0:
256,192,271167,1,8,0:0:0:0:
256,192,271248,1,0,0:0:0:0:
256,192,271329,1,8,0:0:0:0:
256,192,271410,1,0,0:0:0:0:
256,192,271491,1,8,0:0:0:0:
256,192,271572,1,0,0:0:0:0:
256,192,271653,1,8,0:0:0:0:
256,192,271734,1,0,0:0:0:0:
256,192,271815,1,8,0:0:0:0:
256,192,271897,1,0,0:0:0:0:
256,192,271978,1,8,0:0:0:0:
256,192,272059,1,0,0:0:0:0:
256,192,272140,1,8,0:0:0:0:
256,192,272221,1,0,0:0:0:0:
256,192,272302,1,8,0:0:0:0:
256,192,272464,1,0,0:0:0:0:
256,192,272626,5,8,0:0:0:0:
256,192,272707,1,0,0:0:0:0:
256,192,272788,1,8,0:0:0:0:
256,192,272870,1,8,0:0:0:0:
256,192,272951,1,0,0:0:0:0:
256,192,273032,1,8,0:0:0:0:
256,192,273113,1,8,0:0:0:0:
256,192,273194,1,8,0:0:0:0:
256,192,273275,1,8,0:0:0:0:
256,192,273356,1,0,0:0:0:0:
256,192,273437,1,8,0:0:0:0:
256,192,273518,1,8,0:0:0:0:
256,192,273599,1,0,0:0:0:0:
256,192,273680,1,8,0:0:0:0:
256,192,273761,1,8,0:0:0:0:
256,192,273843,1,0,0:0:0:0:
256,192,273924,1,8,0:0:0:0:
256,192,274005,1,0,0:0:0:0:
256,192,274086,1,8,0:0:0:0:
256,192,274167,1,8,0:0:0:0:
256,192,274248,1,8,0:0:0:0:
256,192,274329,1,0,0:0:0:0:
256,192,274410,1,8,0:0:0:0:
256,192,274491,1,8,0:0:0:0:
256,192,274572,1,8,0:0:0:0:
256,192,274653,1,0,0:0:0:0:
256,192,274734,1,8,0:0:0:0:
256,192,274815,1,0,0:0:0:0:
256,192,274897,1,8,0:0:0:0:
256,192,274978,1,8,0:0:0:0:
256,192,275059,1,0,0:0:0:0:
256,192,275140,1,0,0:0:0:0:
256,192,275221,5,8,0:0:0:0:
256,192,275302,1,0,0:0:0:0:
256,192,275383,1,8,0:0:0:0:
256,192,275464,1,0,0:0:0:0:
256,192,275545,1,8,0:0:0:0:
256,192,275626,1,8,0:0:0:0:
256,192,275707,1,8,0:0:0:0:
256,192,275788,1,0,0:0:0:0:
256,192,275870,1,8,0:0:0:0:
256,192,275951,1,0,0:0:0:0:
256,192,276032,1,8,0:0:0:0:
256,192,276113,1,0,0:0:0:0:
256,192,276194,1,8,0:0:0:0:
256,192,276518,5,8,0:0:0:0:
256,192,276599,1,8,0:0:0:0:
256,192,276680,1,0,0:0:0:0:
256,192,276761,1,0,0:0:0:0:
256,192,276843,1,8,0:0:0:0:
256,192,276924,1,0,0:0:0:0:
256,192,277005,1,8,0:0:0:0:
256,192,277086,1,8,0:0:0:0:
256,192,277167,1,0,0:0:0:0:
256,192,277248,1,0,0:0:0:0:
256,192,277329,1,8,0:0:0:0:
256,192,277410,1,0,0:0:0:0:
256,192,277491,1,8,0:0:0:0:
256,192,277815,5,8,0:0:0:0:
256,192,277897,1,0,0:0:0:0:
256,192,277978,1,8,0:0:0:0:
256,192,278059,1,8,0:0:0:0:
256,192,278140,1,8,0:0:0:0:
256,192,278221,1,0,0:0:0:0:
256,192,278302,1,8,0:0:0:0:
256,192,278383,1,0,0:0:0:0:
256,192,278464,1,8,0:0:0:0:
256,192,278545,1,8,0:0:0:0:
256,192,278626,1,0,0:0:0:0:
256,192,278667,1,0,0:0:0:0:
256,192,278707,1,0,0:0:0:0:
256,192,278748,1,0,0:0:0:0:
256,192,278788,1,8,0:0:0:0:
256,192,279113,5,8,0:0:0:0:
256,192,279599,1,0,0:0:0:0:
256,192,279640,1,0,0:0:0:0:
256,192,279680,1,0,0:0:0:0:
256,192,279721,1,0,0:0:0:0:
256,192,279761,1,8,0:0:0:0:
256,192,279924,1,8,0:0:0:0:
256,192,280005,1,8,0:0:0:0:
256,192,280086,1,0,0:0:0:0:
256,192,280167,1,0,0:0:0:0:
256,192,280248,1,0,0:0:0:0:
256,192,280329,1,0,0:0:0:0:
256,192,280410,5,8,0:0:0:0:
256,192,280572,1,8,0:0:0:0:
256,192,280734,1,8,0:0:0:0:
256,192,280897,1,0,0:0:0:0:
256,192,280937,1,0,0:0:0:0:
256,192,280978,1,0,0:0:0:0:
256,192,281018,1,0,0:0:0:0:
256,192,281059,1,8,0:0:0:0:
256,192,281140,1,8,0:0:0:0:
256,192,281221,1,8,0:0:0:0:
256,192,281302,1,8,0:0:0:0:
256,192,281383,1,8,0:0:0:0:
256,192,281464,1,8,0:0:0:0:
256,192,281545,1,0,0:0:0:0:
256,192,281626,1,0,0:0:0:0:
256,192,281707,5,8,0:0:0:0:
256,192,281870,1,8,0:0:0:0:
256,192,282032,1,8,0:0:0:0:
256,192,282194,1,0,0:0:0:0:
256,192,282234,1,0,0:0:0:0:
256,192,282275,1,0,0:0:0:0:
256,192,282315,1,0,0:0:0:0:
256,192,282356,1,8,0:0:0:0:
256,192,282518,1,0,0:0:0:0:
256,192,282559,1,0,0:0:0:0:
256,192,282599,1,0,0:0:0:0:
256,192,282640,1,0,0:0:0:0:
256,192,282680,1,8,0:0:0:0:
256,192,282761,1,8,0:0:0:0:
256,192,282843,1,0,0:0:0:0:
256,192,282924,1,0,0:0:0:0:
256,192,283005,1,0,0:0:0:0:
256,192,283086,1,0,0:0:0:0:
256,192,283167,1,0,0:0:0:0:
256,192,283248,1,0,0:0:0:0:
256,192,283329,1,8,0:0:0:0:
256,192,283410,1,8,0:0:0:0:
256,192,283491,1,0,0:0:0:0:
256,192,283572,1,0,0:0:0:0:
256,192,283653,1,8,0:0:0:0:
256,192,283734,1,8,0:0:0:0:
256,192,283815,1,0,0:0:0:0:
256,192,283897,1,0,0:0:0:0:
256,192,283978,1,0,0:0:0:0:
256,192,284059,1,0,0:0:0:0:
256,192,284140,1,0,0:0:0:0:
256,192,284221,1,0,0:0:0:0:
256,192,284302,5,8,0:0:0:0:
256,192,284383,1,8,0:0:0:0:
256,192,284464,1,0,0:0:0:0:
256,192,284545,1,0,0:0:0:0:
256,192,284626,1,8,0:0:0:0:
256,192,284707,1,0,0:0:0:0:
256,192,284788,1,8,0:0:0:0:
256,192,284870,1,0,0:0:0:0:
256,192,284951,1,8,0:0:0:0:
256,192,285032,1,8,0:0:0:0:
256,192,285113,1,0,0:0:0:0:
256,192,285194,1,0,0:0:0:0:
256,192,285275,1,8,0:0:0:0:
256,192,285356,1,8,0:0:0:0:
256,192,285437,1,8,0:0:0:0:
256,192,285518,1,0,0:0:0:0:
256,192,285599,1,8,0:0:0:0:
256,192,285680,1,0,0:0:0:0:
256,192,285761,1,8,0:0:0:0:
256,192,285843,1,0,0:0:0:0:
256,192,285924,1,8,0:0:0:0:
256,192,286005,1,0,0:0:0:0:
256,192,286086,1,8,0:0:0:0:
256,192,286167,1,8,0:0:0:0:
256,192,286248,1,0,0:0:0:0:
256,192,286329,1,0,0:0:0:0:
256,192,286410,1,8,0:0:0:0:
256,192,286491,1,0,0:0:0:0:
256,192,286572,1,8,0:0:0:0:
256,192,286653,1,0,0:0:0:0:
256,192,286734,1,8,0:0:0:0:
256,192,287059,5,8,0:0:0:0:
256,192,287221,1,8,0:0:0:0:
256,192,287383,1,8,0:0:0:0:
256,192,287545,1,8,0:0:0:0:
256,192,287626,1,0,0:0:0:0:
256,192,287707,1,0,0:0:0:0:
256,192,287788,1,0,0:0:0:0:
256,192,287870,1,8,0:0:0:0:
256,192,287951,1,0,0:0:0:0:
256,192,288032,1,8,0:0:0:0:
256,192,288113,1,8,0:0:0:0:
256,192,288194,1,0,0:0:0:0:
256,192,288275,1,0,0:0:0:0:
256,192,288356,1,8,0:0:0:0:
256,192,288437,1,0,0:0:0:0:
256,192,288518,1,8,0:0:0:0:
256,192,288599,1,0,0:0:0:0:
256,192,288680,1,8,0:0:0:0:
256,192,288761,1,8,0:0:0:0:
256,192,288843,1,8,0:0:0:0:
256,192,288924,1,0,0:0:0:0:
256,192,289005,1,8,0:0:0:0:
256,192,289086,1,0,0:0:0:0:
256,192,289167,1,8,0:0:0:0:
256,192,289248,1,8,0:0:0:0:
256,192,289329,1,8,0:0:0:0:
256,192,289410,1,8,0:0:0:0:
256,192,289491,5,0,0:0:0:0:
256,192,289572,1,0,0:0:0:0:
256,192,289653,1,8,0:0:0:0:
256,192,289734,1,0,0:0:0:0:
256,192,289815,1,8,0:0:0:0:
256,192,289897,1,0,0:0:0:0:
256,192,289978,1,8,0:0:0:0:
256,192,290059,1,8,0:0:0:0:
256,192,290140,1,0,0:0:0:0:
256,192,290221,1,0,0:0:0:0:
256,192,290302,1,8,0:0:0:0:
256,192,290383,1,0,0:0:0:0:
256,192,290464,1,8,0:0:0:0:
256,192,290545,1,0,0:0:0:0:
256,192,290626,1,8,0:0:0:0:
256,192,290707,1,8,0:0:0:0:
256,192,290788,1,0,0:0:0:0:
256,192,290870,1,0,0:0:0:0:
256,192,290951,1,8,0:0:0:0:
256,192,291032,1,0,0:0:0:0:
256,192,291113,1,8,0:0:0:0:
256,192,291194,1,0,0:0:0:0:
256,192,291275,1,8,0:0:0:0:
256,192,291356,1,8,0:0:0:0:
256,192,291437,1,8,0:0:0:0:
256,192,291518,1,0,0:0:0:0:
256,192,291599,1,8,0:0:0:0:
256,192,291680,1,0,0:0:0:0:
256,192,291761,1,8,0:0:0:0:
256,192,291843,1,0,0:0:0:0:
256,192,291924,1,8,0:0:0:0:
256,192,292248,5,8,0:0:0:0:
256,192,292410,1,8,0:0:0:0:
256,192,292572,1,8,0:0:0:0:
256,192,292734,1,8,0:0:0:0:
256,192,292815,1,0,0:0:0:0:
256,192,292897,1,0,0:0:0:0:
256,192,292978,1,0,0:0:0:0:
256,192,293059,1,8,0:0:0:0:
256,192,293140,1,0,0:0:0:0:
256,192,293221,1,8,0:0:0:0:
256,192,293302,1,8,0:0:0:0:
256,192,293383,1,8,0:0:0:0:
256,192,293545,1,0,0:0:0:0:
256,192,293586,1,0,0:0:0:0:
256,192,293626,1,0,0:0:0:0:
256,192,293667,1,0,0:0:0:0:
256,192,293707,1,8,0:0:0:0:
256,192,293870,1,0,0:0:0:0:
256,192,293910,1,0,0:0:0:0:
256,192,293951,1,0,0:0:0:0:
256,192,293991,1,0,0:0:0:0:
256,192,294032,1,8,0:0:0:0:
256,192,294113,1,0,0:0:0:0:
256,192,294194,1,8,0:0:0:0:
256,192,294275,1,8,0:0:0:0:
256,192,294356,1,8,0:0:0:0:
256,192,294437,1,8,0:0:0:0:
256,192,294518,1,0,0:0:0:0:
256,192,294599,1,0,0:0:0:0:
256,192,294680,5,8,0:0:0:0:
256,192,294761,1,0,0:0:0:0:
256,192,294843,1,0,0:0:0:0:
256,192,294924,1,0,0:0:0:0:
256,192,295005,1,8,0:0:0:0:
256,192,295086,1,8,0:0:0:0:
256,192,295167,1,0,0:0:0:0:
256,192,295248,1,0,0:0:0:0:
256,192,295329,1,8,0:0:0:0:
256,192,295410,1,8,0:0:0:0:
256,192,295491,1,0,0:0:0:0:
256,192,295572,1,0,0:0:0:0:
256,192,295653,1,8,0:0:0:0:
256,192,295734,1,0,0:0:0:0:
256,192,295815,1,8,0:0:0:0:
256,192,295897,1,0,0:0:0:0:
256,192,295978,1,8,0:0:0:0:
256,192,296059,1,8,0:0:0:0:
256,192,296140,1,0,0:0:0:0:
256,192,296221,1,0,0:0:0:0:
256,192,296302,1,8,0:0:0:0:
256,192,296383,1,8,0:0:0:0:
256,192,296464,1,0,0:0:0:0:
256,192,296545,1,0,0:0:0:0:
256,192,296626,1,8,0:0:0:0:
256,192,296707,1,0,0:0:0:0:
256,192,296788,1,8,0:0:0:0:
256,192,296870,1,0,0:0:0:0:
256,192,296951,1,8,0:0:0:0:
256,192,297032,1,0,0:0:0:0:
256,192,297113,1,8,0:0:0:0:
256,192,297194,1,8,0:0:0:0:
256,192,297275,5,8,0:0:0:0:
256,192,297356,1,0,0:0:0:0:
256,192,297437,1,8,0:0:0:0:
256,192,297518,1,0,0:0:0:0:
256,192,297599,1,8,0:0:0:0:
256,192,297680,1,0,0:0:0:0:
256,192,297761,1,8,0:0:0:0:
256,192,297843,1,8,0:0:0:0:
256,192,297924,1,8,0:0:0:0:
256,192,298005,1,0,0:0:0:0:
256,192,298086,1,8,0:0:0:0:
256,192,298167,1,0,0:0:0:0:
256,192,298248,1,8,0:0:0:0:
256,192,298329,1,0,0:0:0:0:
256,192,298410,1,8,0:0:0:0:
256,192,298491,1,0,0:0:0:0:
256,192,298572,1,8,0:0:0:0:
256,192,298653,1,8,0:0:0:0:
256,192,298734,1,0,0:0:0:0:
256,192,298815,1,0,0:0:0:0:
256,192,298897,1,8,0:0:0:0:
256,192,298978,1,0,0:0:0:0:
256,192,299059,1,8,0:0:0:0:
256,192,299140,1,0,0:0:0:0:
256,192,299221,1,8,0:0:0:0:
256,192,299302,1,0,0:0:0:0:
256,192,299383,1,8,0:0:0:0:
256,192,299464,1,0,0:0:0:0:
256,192,299545,1,8,0:0:0:0:
256,192,299626,1,8,0:0:0:0:
256,192,299707,1,8,0:0:0:0:
256,192,299788,1,8,0:0:0:0:
256,192,299870,5,0,0:0:0:0:
256,192,299951,1,0,0:0:0:0:
256,192,300032,1,8,0:0:0:0:
256,192,300113,1,0,0:0:0:0:
256,192,300194,1,8,0:0:0:0:
256,192,300275,1,8,0:0:0:0:
256,192,300356,1,0,0:0:0:0:
256,192,300437,1,0,0:0:0:0:
256,192,300518,1,8,0:0:0:0:
256,192,300599,1,8,0:0:0:0:
256,192,300680,1,8,0:0:0:0:
256,192,300761,1,0,0:0:0:0:
256,192,300843,1,8,0:0:0:0:
256,192,300924,1,0,0:0:0:0:
256,192,301005,1,8,0:0:0:0:
256,192,301086,1,0,0:0:0:0:
256,192,301167,1,8,0:0:0:0:
256,192,301248,1,8,0:0:0:0:
256,192,301329,1,0,0:0:0:0:
256,192,301383,1,0,0:0:0:0:
256,192,301437,1,0,0:0:0:0:
256,192,301491,1,8,0:0:0:0:
256,192,301572,1,0,0:0:0:0:
256,192,301653,1,8,0:0:0:0:
256,192,301734,1,8,0:0:0:0:
256,192,301815,1,8,0:0:0:0:
256,192,301897,1,0,0:0:0:0:
256,192,301978,1,8,0:0:0:0:
256,192,302059,1,0,0:0:0:0:
256,192,302140,1,8,0:0:0:0:
256,192,302194,1,0,0:0:0:0:
256,192,302248,1,0,0:0:0:0:
256,192,302302,1,8,0:0:0:0:
256,192,303113,5,8,0:0:0:0:
256,192,303194,1,0,0:0:0:0:
256,192,303275,1,8,0:0:0:0:
256,192,303356,1,8,0:0:0:0:
256,192,303437,1,8,0:0:0:0:
256,192,303518,1,0,0:0:0:0:
256,192,303599,1,8,0:0:0:0:
256,192,303680,1,0,0:0:0:0:
256,192,303761,1,8,0:0:0:0:
256,192,303843,1,8,0:0:0:0:
256,192,303924,1,0,0:0:0:0:
256,192,303964,1,0,0:0:0:0:
256,192,304005,1,0,0:0:0:0:
256,192,304045,1,0,0:0:0:0:
256,192,304086,1,8,0:0:0:0:
256,192,304248,1,0,0:0:0:0:
256,192,304288,1,0,0:0:0:0:
256,192,304329,1,0,0:0:0:0:
256,192,304370,1,0,0:0:0:0:
256,192,304410,1,8,0:0:0:0:
256,192,304572,1,8,0:0:0:0:
256,192,304613,1,8,0:0:0:0:
256,192,304653,1,0,0:0:0:0:
256,192,304694,1,0,0:0:0:0:
256,192,304734,1,8,0:0:0:0:
256,192,304815,1,8,0:0:0:0:
256,192,304897,1,8,0:0:0:0:
256,192,304978,1,8,0:0:0:0:
256,192,305059,5,0,0:0:0:0:
256,192,305221,1,0,0:0:0:0:
256,192,305383,1,0,0:0:0:0:
256,192,305545,1,8,0:0:0:0:
256,192,305707,1,8,0:0:0:0:
256,192,305870,1,0,0:0:0:0:
256,192,306032,1,0,0:0:0:0:
256,192,306194,1,8,0:0:0:0:
256,192,306356,1,8,0:0:0:0:
256,192,306518,1,0,0:0:0:0:
256,192,306680,1,0,0:0:0:0:
256,192,306843,1,0,0:0:0:0:
256,192,306883,1,0,0:0:0:0:
256,192,306924,1,0,0:0:0:0:
256,192,306964,1,0,0:0:0:0:
256,192,307005,1,8,0:0:0:0:
256,192,307167,1,8,0:0:0:0:
256,192,307329,1,0,0:0:0:0:
256,192,307491,1,8,0:0:0:0:
256,192,307653,1,8,0:0:0:0:
256,192,307815,1,0,0:0:0:0:
256,192,307978,1,8,0:0:0:0:
256,192,308140,5,0,0:0:0:0:
256,192,308180,1,0,0:0:0:0:
256,192,308221,1,0,0:0:0:0:
256,192,308262,1,0,0:0:0:0:
256,192,308302,1,8,0:0:0:0:
256,192,308464,1,0,0:0:0:0:
256,192,308545,1,0,0:0:0:0:
256,192,308626,1,8,0:0:0:0:
256,192,308680,1,8,0:0:0:0:
256,192,308735,1,8,0:0:0:0:
256,192,308789,1,0,0:0:0:0:
256,192,308870,1,0,0:0:0:0:
256,192,308951,1,8,0:0:0:0:
256,192,309113,1,8,0:0:0:0:
256,192,309275,1,8,0:0:0:0:
256,192,309437,1,0,0:0:0:0:
256,192,309478,1,0,0:0:0:0:
256,192,309518,1,0,0:0:0:0:
256,192,309559,1,0,0:0:0:0:
256,192,309599,1,8,0:0:0:0:
256,192,309680,1,8,0:0:0:0:
256,192,309762,1,0,0:0:0:0:
256,192,309802,1,0,0:0:0:0:
256,192,309843,1,0,0:0:0:0:
256,192,309883,1,0,0:0:0:0:
256,192,309924,1,8,0:0:0:0:
256,192,310005,1,8,0:0:0:0:
256,192,310086,1,0,0:0:0:0:
256,192,310167,1,0,0:0:0:0:
256,192,310248,5,8,0:0:0:0:
256,192,310410,1,0,0:0:0:0:
256,192,310572,1,8,0:0:0:0:
256,192,310734,1,0,0:0:0:0:
256,192,310897,1,8,0:0:0:0:
256,192,311059,1,8,0:0:0:0:
256,192,311221,1,0,0:0:0:0:
256,192,311383,1,0,0:0:0:0:
256,192,311545,1,8,0:0:0:0:
256,192,311707,1,8,0:0:0:0:
256,192,311870,1,8,0:0:0:0:
256,192,312032,1,0,0:0:0:0:
256,192,312072,1,0,0:0:0:0:
256,192,312113,1,0,0:0:0:0:
256,192,312153,1,0,0:0:0:0:
256,192,312194,1,8,0:0:0:0:
256,192,312356,1,0,0:0:0:0:
256,192,312518,1,8,0:0:0:0:
256,192,312680,1,0,0:0:0:0:
256,192,312843,1,8,0:0:0:0:
256,192,313005,1,8,0:0:0:0:
256,192,313167,1,8,0:0:0:0:
256,192,313329,1,0,0:0:0:0:
256,192,313491,1,8,0:0:0:0:
256,192,313653,1,0,0:0:0:0:
256,192,313694,1,0,0:0:0:0:
256,192,313734,1,0,0:0:0:0:
256,192,313775,1,0,0:0:0:0:
256,192,313815,1,8,0:0:0:0:
256,192,313978,1,0,0:0:0:0:
256,192,314140,5,8,0:0:0:0:
256,192,314221,1,8,0:0:0:0:
256,192,314302,1,0,0:0:0:0:
256,192,314383,1,0,0:0:0:0:
256,192,314464,1,8,0:0:0:0:
256,192,314545,1,0,0:0:0:0:
256,192,314626,1,0,0:0:0:0:
256,192,314707,1,0,0:0:0:0:
256,192,314788,1,8,0:0:0:0:
256,192,314870,1,0,0:0:0:0:
256,192,314951,1,8,0:0:0:0:
256,192,315032,1,0,0:0:0:0:
256,192,315113,1,8,0:0:0:0:
256,192,315194,1,8,0:0:0:0:
256,192,315275,1,0,0:0:0:0:
256,192,315356,1,0,0:0:0:0:
256,192,315437,5,8,0:0:0:0:
256,192,315518,1,0,0:0:0:0:
256,192,315599,1,0,0:0:0:0:
256,192,315680,1,0,0:0:0:0:
256,192,315761,1,0,0:0:0:0:
256,192,315843,1,0,0:0:0:0:
256,192,315924,1,8,0:0:0:0:
256,192,316005,1,0,0:0:0:0:
256,192,316086,1,8,0:0:0:0:
256,192,316167,1,8,0:0:0:0:
256,192,316248,1,8,0:0:0:0:
256,192,316329,1,8,0:0:0:0:
256,192,316410,1,0,0:0:0:0:
256,192,316491,1,0,0:0:0:0:
256,192,316572,1,8,0:0:0:0:
256,192,316653,1,0,0:0:0:0:
256,192,316734,1,8,0:0:0:0:
256,192,316815,1,8,0:0:0:0:
256,192,316897,1,0,0:0:0:0:
256,192,316978,1,0,0:0:0:0:
256,192,317059,1,0,0:0:0:0:
256,192,317140,1,0,0:0:0:0:
256,192,317221,1,8,0:0:0:0:
256,192,317302,1,0,0:0:0:0:
256,192,317383,1,8,0:0:0:0:
256,192,317464,1,8,0:0:0:0:
256,192,317545,1,8,0:0:0:0:
256,192,317626,1,8,0:0:0:0:
256,192,317707,1,0,0:0:0:0:
256,192,317788,1,0,0:0:0:0:
256,192,317870,1,8,0:0:0:0:
256,192,317951,1,0,0:0:0:0:
256,192,318032,1,8,0:0:0:0:
256,192,318113,1,8,0:0:0:0:
256,192,318194,1,0,0:0:0:0:
256,192,318275,1,0,0:0:0:0:
256,192,318356,1,8,0:0:0:0:
256,192,318437,1,8,0:0:0:0:
256,192,318518,1,8,0:0:0:0:
256,192,318599,1,0,0:0:0:0:
256,192,318680,1,8,0:0:0:0:
256,192,318761,1,8,0:0:0:0:
256,192,318843,1,0,0:0:0:0:
256,192,318883,1,0,0:0:0:0:
256,192,318924,1,0,0:0:0:0:
256,192,318964,1,0,0:0:0:0:
256,192,319005,1,8,0:0:0:0:
256,192,319086,1,8,0:0:0:0:
256,192,319167,1,0,0:0:0:0:
256,192,319207,1,0,0:0:0:0:
256,192,319248,1,0,0:0:0:0:
256,192,319288,1,0,0:0:0:0:
256,192,319329,5,8,0:0:0:0:
256,192,319410,1,8,0:0:0:0:
256,192,319491,1,0,0:0:0:0:
256,192,319572,1,0,0:0:0:0:
256,192,319653,1,8,0:0:0:0:
256,192,319734,1,8,0:0:0:0:
256,192,319815,1,0,0:0:0:0:
256,192,319897,1,0,0:0:0:0:
256,192,319978,1,8,0:0:0:0:
256,192,320059,1,0,0:0:0:0:
256,192,320140,1,0,0:0:0:0:
256,192,320221,1,0,0:0:0:0:
256,192,320302,1,0,0:0:0:0:
256,192,320383,1,0,0:0:0:0:
256,192,320464,1,0,0:0:0:0:
256,192,320545,1,0,0:0:0:0:
256,192,320626,5,8,0:0:0:0:
256,192,320707,1,0,0:0:0:0:
256,192,320788,1,0,0:0:0:0:
256,192,320870,1,0,0:0:0:0:
256,192,320951,1,0,0:0:0:0:
256,192,321032,1,0,0:0:0:0:
256,192,321113,1,8,0:0:0:0:
256,192,321194,1,0,0:0:0:0:
256,192,321275,1,8,0:0:0:0:
256,192,321356,1,0,0:0:0:0:
256,192,321437,1,8,0:0:0:0:
256,192,321518,1,8,0:0:0:0:
256,192,321599,1,0,0:0:0:0:
256,192,321680,1,0,0:0:0:0:
256,192,321761,1,8,0:0:0:0:
256,192,321843,1,0,0:0:0:0:
256,192,321924,1,8,0:0:0:0:
256,192,322005,1,8,0:0:0:0:
256,192,322086,1,0,0:0:0:0:
256,192,322167,1,0,0:0:0:0:
256,192,322248,1,0,0:0:0:0:
256,192,322329,1,0,0:0:0:0:
256,192,322410,1,0,0:0:0:0:
256,192,322491,1,0,0:0:0:0:
256,192,322572,1,8,0:0:0:0:
256,192,322653,1,0,0:0:0:0:
256,192,322734,1,0,0:0:0:0:
256,192,322815,1,8,0:0:0:0:
256,192,322897,1,0,0:0:0:0:
256,192,322978,1,0,0:0:0:0:
256,192,323059,1,8,0:0:0:0:
256,192,323140,1,0,0:0:0:0:
256,192,323221,1,8,0:0:0:0:
256,192,323302,1,8,0:0:0:0:
256,192,323383,1,8,0:0:0:0:
256,192,323464,1,8,0:0:0:0:
256,192,323545,1,0,0:0:0:0:
256,192,323626,1,0,0:0:0:0:
256,192,323707,1,0,0:0:0:0:
256,192,323788,1,0,0:0:0:0:
256,192,323870,1,8,0:0:0:0:
256,192,323951,1,0,0:0:0:0:
256,192,324032,1,0,0:0:0:0:
256,192,324113,1,0,0:0:0:0:
256,192,324194,1,0,0:0:0:0:
256,192,324275,1,0,0:0:0:0:
256,192,324356,1,8,0:0:0:0:
256,192,324437,1,0,0:0:0:0:
256,192,324518,1,8,0:0:0:0:
256,192,324599,1,8,0:0:0:0:
256,192,324680,1,8,0:0:0:0:
256,192,324761,1,0,0:0:0:0:
256,192,324843,1,8,0:0:0:0:
256,192,324924,1,8,0:0:0:0:
256,192,325005,1,0,0:0:0:0:
256,192,325086,1,0,0:0:0:0:
256,192,325167,1,8,0:0:0:0:
256,192,325329,1,0,0:0:0:0:
256,192,325370,1,0,0:0:0:0:
256,192,325410,1,0,0:0:0:0:
256,192,325451,1,0,0:0:0:0:
256,192,325491,1,8,0:0:0:0:
256,192,325653,1,8,0:0:0:0:
256,192,325815,5,8,0:0:0:0:
256,192,325896,1,8,0:0:0:0:
256,192,325977,1,0,0:0:0:0:
256,192,326058,1,0,0:0:0:0:
256,192,326139,1,8,0:0:0:0:
256,192,326220,1,0,0:0:0:0:
256,192,326301,1,8,0:0:0:0:
256,192,326382,1,0,0:0:0:0:
256,192,326463,1,8,0:0:0:0:
256,192,326544,1,8,0:0:0:0:
256,192,326625,1,0,0:0:0:0:
256,192,326707,1,8,0:0:0:0:
256,192,326788,1,0,0:0:0:0:
256,192,326869,1,8,0:0:0:0:
256,192,326950,1,8,0:0:0:0:
256,192,327031,1,0,0:0:0:0:
256,192,327112,1,8,0:0:0:0:
256,192,327193,1,0,0:0:0:0:
256,192,327274,1,8,0:0:0:0:
256,192,327355,1,8,0:0:0:0:
256,192,327436,1,8,0:0:0:0:
256,192,327517,1,0,0:0:0:0:
256,192,327598,1,8,0:0:0:0:
256,192,327679,1,0,0:0:0:0:
256,192,327761,1,8,0:0:0:0:
256,192,327842,1,8,0:0:0:0:
256,192,327923,1,0,0:0:0:0:
256,192,328004,1,0,0:0:0:0:
256,192,328085,1,8,0:0:0:0:
256,192,328166,1,0,0:0:0:0:
256,192,328247,1,8,0:0:0:0:
256,192,328328,1,0,0:0:0:0:
256,192,328409,5,8,0:0:0:0:
256,192,328490,1,8,0:0:0:0:
256,192,328571,1,0,0:0:0:0:
256,192,328652,1,0,0:0:0:0:
256,192,328734,1,8,0:0:0:0:
256,192,328815,1,0,0:0:0:0:
256,192,328896,1,8,0:0:0:0:
256,192,328977,1,8,0:0:0:0:
256,192,329058,1,0,0:0:0:0:
256,192,329139,1,8,0:0:0:0:
256,192,329220,1,8,0:0:0:0:
256,192,329301,1,0,0:0:0:0:
256,192,329382,1,8,0:0:0:0:
256,192,329463,1,8,0:0:0:0:
256,192,329544,1,8,0:0:0:0:
256,192,329625,1,0,0:0:0:0:
256,192,329707,1,8,0:0:0:0:
256,192,329788,1,0,0:0:0:0:
256,192,329869,1,8,0:0:0:0:
256,192,329950,1,8,0:0:0:0:
256,192,330031,1,0,0:0:0:0:
256,192,330112,1,0,0:0:0:0:
256,192,330193,1,8,0:0:0:0:
256,192,330274,1,8,0:0:0:0:
256,192,330355,1,0,0:0:0:0:
256,192,330396,1,0,0:0:0:0:
256,192,330436,1,0,0:0:0:0:
256,192,330477,1,0,0:0:0:0:
256,192,330517,1,8,0:0:0:0:
256,192,330598,1,8,0:0:0:0:
256,192,330679,1,0,0:0:0:0:
256,192,330720,1,0,0:0:0:0:
256,192,330761,1,0,0:0:0:0:
256,192,330801,1,0,0:0:0:0:
256,192,330842,1,8,0:0:0:0:
256,192,331004,5,8,0:0:0:0:
256,192,331085,1,8,0:0:0:0:
256,192,331166,1,0,0:0:0:0:
256,192,331247,1,0,0:0:0:0:
256,192,331328,1,8,0:0:0:0:
256,192,331409,1,0,0:0:0:0:
256,192,331490,1,8,0:0:0:0:
256,192,331571,1,0,0:0:0:0:
256,192,331652,1,8,0:0:0:0:
256,192,331734,1,8,0:0:0:0:
256,192,331815,1,8,0:0:0:0:
256,192,331896,1,0,0:0:0:0:
256,192,331977,1,8,0:0:0:0:
256,192,332058,1,8,0:0:0:0:
256,192,332139,1,0,0:0:0:0:
256,192,332220,1,8,0:0:0:0:
256,192,332301,1,8,0:0:0:0:
256,192,332382,1,0,0:0:0:0:
256,192,332463,1,8,0:0:0:0:
256,192,332544,1,8,0:0:0:0:
256,192,332625,1,8,0:0:0:0:
256,192,332707,1,0,0:0:0:0:
256,192,332788,1,8,0:0:0:0:
256,192,332869,1,0,0:0:0:0:
256,192,332950,1,8,0:0:0:0:
256,192,333031,1,8,0:0:0:0:
256,192,333112,1,0,0:0:0:0:
256,192,333193,1,0,0:0:0:0:
256,192,333274,1,8,0:0:0:0:
256,192,333355,1,0,0:0:0:0:
256,192,333436,1,8,0:0:0:0:
256,192,333517,1,0,0:0:0:0:
256,192,333598,5,8,0:0:0:0:
256,192,333679,1,8,0:0:0:0:
256,192,333761,1,0,0:0:0:0:
256,192,333842,1,0,0:0:0:0:
256,192,333923,1,8,0:0:0:0:
256,192,334004,1,0,0:0:0:0:
256,192,334085,1,8,0:0:0:0:
256,192,334166,1,8,0:0:0:0:
256,192,334247,1,8,0:0:0:0:
256,192,334328,1,0,0:0:0:0:
256,192,334409,1,8,0:0:0:0:
256,192,334490,1,0,0:0:0:0:
256,192,334571,1,8,0:0:0:0:
256,192,334652,1,8,0:0:0:0:
256,192,334734,1,0,0:0:0:0:
256,192,334815,1,8,0:0:0:0:
256,192,334896,1,8,0:0:0:0:
256,192,334977,1,0,0:0:0:0:
256,192,335058,1,8,0:0:0:0:
256,192,335139,1,8,0:0:0:0:
256,192,335220,1,8,0:0:0:0:
256,192,335301,1,0,0:0:0:0:
256,192,335382,1,8,0:0:0:0:
256,192,335463,1,8,0:0:0:0:
256,192,335544,1,0,0:0:0:0:
256,192,335585,1,0,0:0:0:0:
256,192,335625,1,0,0:0:0:0:
256,192,335666,1,0,0:0:0:0:
256,192,335707,1,8,0:0:0:0:
256,192,335788,1,8,0:0:0:0:
256,192,335869,1,0,0:0:0:0:
256,192,335909,1,0,0:0:0:0:
256,192,335950,1,0,0:0:0:0:
256,192,335990,1,0,0:0:0:0:
256,192,336031,1,8,0:0:0:0:
256,192,336194,5,8,0:0:0:0:
256,192,336275,1,8,0:0:0:0:
256,192,336356,1,8,0:0:0:0:
256,192,336437,1,0,0:0:0:0:
256,192,336518,1,8,0:0:0:0:
256,192,336599,1,0,0:0:0:0:
256,192,336680,1,8,0:0:0:0:
256,192,336761,1,8,0:0:0:0:
256,192,336843,1,0,0:0:0:0:
256,192,336924,1,8,0:0:0:0:
256,192,337005,1,0,0:0:0:0:
256,192,337086,1,8,0:0:0:0:
256,192,337167,1,8,0:0:0:0:
256,192,337248,1,0,0:0:0:0:
256,192,337329,1,8,0:0:0:0:
256,192,337410,1,0,0:0:0:0:
256,192,337491,1,8,0:0:0:0:
256,192,337572,1,8,0:0:0:0:
256,192,337653,1,8,0:0:0:0:
256,192,337734,1,0,0:0:0:0:
256,192,337815,1,8,0:0:0:0:
256,192,337897,1,0,0:0:0:0:
256,192,337978,1,8,0:0:0:0:
256,192,338059,1,0,0:0:0:0:
256,192,338140,1,8,0:0:0:0:
256,192,338221,1,8,0:0:0:0:
256,192,338302,1,8,0:0:0:0:
256,192,338383,1,8,0:0:0:0:
256,192,338464,1,0,0:0:0:0:
256,192,338545,1,8,0:0:0:0:
256,192,338626,1,8,0:0:0:0:
256,192,338707,1,0,0:0:0:0:
256,192,338788,1,8,0:0:0:0:
256,192,338870,1,8,0:0:0:0:
256,192,338951,1,8,0:0:0:0:
256,192,339032,1,0,0:0:0:0:
256,192,339113,1,8,0:0:0:0:
256,192,339194,1,0,0:0:0:0:
256,192,339275,1,8,0:0:0:0:
256,192,339356,1,0,0:0:0:0:
256,192,339437,1,8,0:0:0:0:
256,192,339518,1,8,0:0:0:0:
256,192,339599,1,8,0:0:0:0:
256,192,339680,1,8,0:0:0:0:
256,192,339761,1,0,0:0:0:0:
256,192,339843,1,8,0:0:0:0:
256,192,339924,1,8,0:0:0:0:
256,192,340005,1,0,0:0:0:0:
256,192,340086,1,8,0:0:0:0:
256,192,340167,1,8,0:0:0:0:
256,192,340248,1,8,0:0:0:0:
256,192,340329,1,0,0:0:0:0:
256,192,340410,1,8,0:0:0:0:
256,192,340491,1,0,0:0:0:0:
256,192,340572,1,8,0:0:0:0:
256,192,340653,1,8,0:0:0:0:
256,192,340734,5,0,0:0:0:0:
256,192,340775,1,0,0:0:0:0:
256,192,340815,1,0,0:0:0:0:
256,192,340856,1,0,0:0:0:0:
256,192,340897,1,8,0:0:0:0:
256,192,340978,1,8,0:0:0:0:
256,192,341059,1,0,0:0:0:0:
256,192,341099,1,0,0:0:0:0:
256,192,341140,1,0,0:0:0:0:
256,192,341180,1,0,0:0:0:0:
256,192,341221,1,8,0:0:0:0:
256,192,341383,5,8,0:0:0:0:
256,192,341464,1,8,0:0:0:0:
256,192,341545,1,8,0:0:0:0:
256,192,341626,1,0,0:0:0:0:
256,192,341707,1,8,0:0:0:0:
256,192,341788,1,0,0:0:0:0:
256,192,341870,1,8,0:0:0:0:
256,192,341951,1,8,0:0:0:0:
256,192,342032,1,0,0:0:0:0:
256,192,342113,1,8,0:0:0:0:
256,192,342194,1,8,0:0:0:0:
256,192,342275,1,0,0:0:0:0:
256,192,342356,1,8,0:0:0:0:
256,192,342437,1,0,0:0:0:0:
256,192,342518,1,8,0:0:0:0:
256,192,342599,1,0,0:0:0:0:
256,192,342680,1,8,0:0:0:0:
256,192,342761,1,8,0:0:0:0:
256,192,342843,1,8,0:0:0:0:
256,192,342924,1,0,0:0:0:0:
256,192,343005,1,8,0:0:0:0:
256,192,343086,1,8,0:0:0:0:
256,192,343167,1,0,0:0:0:0:
256,192,343248,1,8,0:0:0:0:
256,192,343329,1,0,0:0:0:0:
256,192,343410,1,8,0:0:0:0:
256,192,343491,1,8,0:0:0:0:
256,192,343572,1,0,0:0:0:0:
256,192,343653,1,8,0:0:0:0:
256,192,343734,1,0,0:0:0:0:
256,192,343815,1,8,0:0:0:0:
256,192,343897,1,0,0:0:0:0:
256,192,343978,1,8,0:0:0:0:
256,192,344059,1,8,0:0:0:0:
256,192,344140,1,8,0:0:0:0:
256,192,344221,1,0,0:0:0:0:
256,192,344302,1,8,0:0:0:0:
256,192,344383,1,0,0:0:0:0:
256,192,344464,1,8,0:0:0:0:
256,192,344545,1,0,0:0:0:0:
256,192,344626,1,8,0:0:0:0:
256,192,344707,1,8,0:0:0:0:
256,192,344788,1,0,0:0:0:0:
256,192,344870,1,8,0:0:0:0:
256,192,344951,1,8,0:0:0:0:
256,192,345032,1,0,0:0:0:0:
256,192,345113,1,8,0:0:0:0:
256,192,345194,1,8,0:0:0:0:
256,192,345275,1,8,0:0:0:0:
256,192,345356,1,0,0:0:0:0:
256,192,345437,1,8,0:0:0:0:
256,192,345518,1,0,0:0:0:0:
256,192,345599,1,8,0:0:0:0:
256,192,345680,1,8,0:0:0:0:
256,192,345761,1,0,0:0:0:0:
256,192,345802,1,0,0:0:0:0:
256,192,345843,1,0,0:0:0:0:
256,192,345883,1,0,0:0:0:0:
256,192,345924,1,8,0:0:0:0:
256,192,346086,1,8,0:0:0:0:
256,192,346248,1,8,0:0:0:0:
256,192,346410,1,8,0:0:0:0:
256,192,346572,1,12,0:0:0:0:
