osu file format v14

[General]
AudioFilename: audio.mp3
AudioLeadIn: 0
PreviewTime: 57632
Countdown: 0
SampleSet: Normal
StackLeniency: 0.7
Mode: 1
LetterboxInBreaks: 0
WidescreenStoryboard: 0

[Editor]
DistanceSpacing: 2.5
BeatDivisor: 4
GridSize: 32
TimelineZoom: 2.6

[Metadata]
Title:The World Is Yours
TitleUnicode:The World Is Yours
Artist:Arch Enemy
ArtistUnicode:Arch Enemy
Creator:frukoyurdakul
Version:Death
Source:
Tags:will to power melodic death metal marathon stream
BeatmapID:1379202
BeatmapSetID:650927

[Difficulty]
HPDrainRate:5
CircleSize:2
OverallDifficulty:6.5
ApproachRate:10
SliderMultiplier:1.4
SliderTickRate:1

[Events]
//Background and Video events
0,0,"BG.jpg",0,0
//Break Periods
//Storyboard Layer 0 (Background)
//Storyboard Layer 1 (Fail)
//Storyboard Layer 2 (Pass)
//Storyboard Layer 3 (Foreground)
//Storyboard Sound Samples

[TimingPoints]
16212,324.324324324324,4,1,0,10,1,0
16212,-100,4,1,0,85,0,0
57076,-90.9090909090909,4,1,0,85,0,0
57725,-90.9090909090909,4,1,0,85,0,1
77752,-91.743119266055,4,1,0,85,0,1
77833,-92.5925925925926,4,1,0,85,0,1
77914,-93.4579439252336,4,1,0,85,0,1
77995,-94.3396226415094,4,1,0,85,0,1
78076,-95.2380952380952,4,1,0,85,0,1
78157,-96.1538461538461,4,1,0,85,0,1
78239,-97.0873786407767,4,1,0,85,0,1
78320,-98.0392156862745,4,1,0,85,0,1
78482,-100,4,1,0,85,0,0
88860,-100,4,1,0,85,0,1
99239,-100,4,1,0,85,0,0
119347,-90.9090909090909,4,1,0,85,0,0
119995,-90.9090909090909,4,1,0,85,0,1
140022,-91.743119266055,4,1,0,85,0,1
140103,-92.5925925925926,4,1,0,85,0,1
140184,-93.4579439252336,4,1,0,85,0,1
140266,-94.3396226415094,4,1,0,85,0,1
140347,-95.2380952380952,4,1,0,85,0,1
140428,-96.1538461538461,4,1,0,85,0,1
140509,-97.0873786407767,4,1,0,85,0,1
140590,-98.0392156862745,4,1,0,85,0,1
140671,-99.009900990099,4,1,0,85,0,1
140752,-100,4,1,0,85,0,0
160293,-100.671140939597,4,1,0,85,0,0
160374,-101.351351351351,4,1,0,85,0,0
160455,-102.040816326531,4,1,0,85,0,0
160536,-102.739726027397,4,1,0,85,0,0
160617,-103.448275862069,4,1,0,85,0,0
160698,-104.166666666667,4,1,0,85,0,0
160779,-104.895104895105,4,1,0,85,0,0
160860,-105.633802816901,4,1,0,85,0,0
160941,-106.382978723404,4,1,0,85,0,0
161022,-107.142857142857,4,1,0,85,0,0
161103,-107.913669064748,4,1,0,85,0,0
161184,-108.695652173913,4,1,0,85,0,0
161266,-109.489051094891,4,1,0,85,0,0
161347,-110.294117647059,4,1,0,85,0,0
161509,-111.111111111111,4,1,0,85,0,0
161590,-111.111111111111,4,1,0,70,0,0
171401,-111.111111111111,4,1,0,70,0,0
171482,-110.091743119266,4,1,0,70,0,0
171563,-109.090909090909,4,1,0,70,0,0
171644,-108.108108108108,4,1,0,70,0,0
171725,-107.142857142857,4,1,0,70,0,0
171806,-106.194690265487,4,1,0,70,0,0
171887,-105.263157894737,4,1,0,70,0,0
176914,-102.564102564103,4,1,0,70,0,0
177076,-100,4,1,0,70,0,0
187374,-100,4,1,0,80,0,0
218536,-100,4,1,0,50,0,0
218585,352.941176470588,4,1,0,50,1,0
218585,-91.743119266055,4,1,0,50,0,0
218761,-100,4,1,0,50,0,0
228467,357.142857142857,4,1,0,50,1,0
229895,342.857142857143,4,1,0,70,1,0
230581,344.827586206897,4,1,0,70,1,8
230581,-99.009900990099,4,1,0,70,0,0
231270,344.827586206897,4,1,0,70,1,0
231270,-98.0392156862745,4,1,0,70,0,0
231959,340.909090909091,4,1,0,70,1,8
232640,350.877192982456,4,1,0,70,1,0
232640,-96.1538461538461,4,1,0,70,0,0
233341,346.820809248555,4,1,0,70,1,8
233341,-96.1538461538461,4,1,0,70,0,0
234034,333.333333333333,4,1,0,70,1,0
234700,346.820809248555,4,1,0,70,1,8
234700,-94.3396226415094,4,1,0,70,0,0
235393,336.134453781513,4,1,0,70,1,0
235393,-97.0873786407767,4,1,0,70,0,0
236066,331.491712707182,4,1,0,70,1,8
236728,335.195530726257,4,1,0,70,1,0
236728,-98.0392156862745,4,1,0,70,0,0
237398,331.491712707182,4,1,0,70,1,8
238061,331.95020746888,4,1,0,75,1,0
238061,-99.009900990099,4,1,0,75,0,8
240716,324.324324324324,4,1,0,80,1,8
240721,324.324324324324,4,1,0,80,1,1
240721,-86.9565217391304,4,1,0,80,0,1
260748,-88.4955752212389,4,1,0,80,0,1
260829,-89.2857142857143,4,1,0,80,0,1
260910,-90.9090909090909,4,1,0,80,0,1
260991,-91.743119266055,4,1,0,80,0,1
261072,-93.4579439252336,4,1,0,80,0,1
261153,-94.3396226415094,4,1,0,80,0,1
261234,-96.1538461538461,4,1,0,80,0,1
261315,-97.0873786407767,4,1,0,80,0,1
261477,-100,4,1,0,80,0,0
280047,-100,4,1,0,80,0,0
280126,-99.5024875621891,4,1,0,80,0,0
280207,-99.009900990099,4,1,0,80,0,0
280288,-98.5221674876847,4,1,0,80,0,0
280369,-98.0392156862745,4,1,0,80,0,0
280450,-97.5609756097561,4,1,0,80,0,0
280531,-97.0873786407767,4,1,0,80,0,0
280612,-96.6183574879227,4,1,0,80,0,0
280693,-96.1538461538461,4,1,0,80,0,0
280775,-95.6937799043062,4,1,0,80,0,0
280856,-95.2380952380952,4,1,0,80,0,0
280937,-94.7867298578199,4,1,0,80,0,0
281018,-94.3396226415094,4,1,0,80,0,0
281099,-93.8967136150235,4,1,0,80,0,0
281180,-93.4579439252336,4,1,0,80,0,0
281261,-93.0232558139535,4,1,0,80,0,0
281344,-92.5925925925926,4,1,0,80,0,0
281423,-92.1658986175115,4,1,0,80,0,0
281504,-91.743119266055,4,1,0,80,0,0
281585,-90.9090909090909,4,1,0,80,0,0
282230,352.941176470588,4,1,0,80,1,0
282230,-83.3333333333333,4,1,0,80,0,0
294935,288.461538461538,4,1,0,80,1,0
294935,-102.040816326531,4,1,0,80,0,0
295223,288.461538461538,4,1,0,80,1,8
295223,-102.040816326531,4,1,0,80,0,0
295319,363.636363636364,4,1,0,80,1,8
295319,-80.9716599190283,4,1,0,80,0,0
295440,363.636363636364,4,1,0,80,1,8
295440,-80.9716599190283,4,1,0,80,0,0
295561,352.941176470588,4,1,0,80,1,8
295561,-83.3333333333333,4,1,0,80,0,0
295678,342.857142857143,4,1,0,80,1,8
295678,-85.8369098712446,4,1,0,80,0,0
296362,436.363636363636,4,1,0,80,1,0
296362,-67.4308833445718,4,1,0,80,0,0
296580,342.857142857143,4,1,0,80,1,8
296580,-85.4700854700855,4,1,0,80,0,0
296922,352.941176470588,4,1,0,80,1,8
296922,-83.3333333333333,4,1,0,80,0,0
297274,361.44578313253,4,1,0,80,1,8
297274,-81.366965012205,4,1,0,80,0,0
297756,342.857142857143,4,1,0,80,1,0
297756,-85.8369098712446,4,1,0,80,0,0
298098,352.941176470588,4,1,0,80,1,8
298098,-83.3333333333333,4,1,0,80,0,0
299156,352.941176470588,4,1,0,80,1,0
299156,-83.3333333333333,4,1,0,80,0,0
303391,230.769230769231,4,1,0,80,1,0
303391,-127.388535031847,4,1,0,80,0,0
303621,315.789473684211,4,1,0,80,1,8
303621,-93.1966449207828,4,1,0,80,0,0
303936,428.571428571429,4,1,0,80,1,8
303936,-68.6341798215511,4,1,0,80,0,0

[HitObjects]
256,192,1130,12,0,7617,0:0:0:0:
256,192,11428,12,0,16049,0:0:0:0:
160,288,16212,5,4,0:0:0:0:
160,96,16536,1,0,0:0:0:0:
160,96,16860,1,0,0:0:0:0:
160,96,17184,1,0,0:0:0:0:
160,96,17509,1,0,0:0:0:0:
160,96,17833,1,0,0:0:0:0:
160,96,18157,1,0,0:0:0:0:
160,96,18482,1,0,0:0:0:0:
160,96,18806,1,0,0:0:0:0:
160,96,19130,1,0,0:0:0:0:
160,96,19455,1,0,0:0:0:0:
160,96,19779,1,0,0:0:0:0:
160,96,20103,1,0,0:0:0:0:
160,96,20428,1,0,0:0:0:0:
160,96,20752,1,0,0:0:0:0:
160,96,20833,1,0,0:0:0:0:
160,96,20914,1,0,0:0:0:0:
160,96,20995,1,0,0:0:0:0:
352,96,21076,1,8,0:0:0:0:
352,96,21157,1,8,0:0:0:0:
352,96,21239,1,8,0:0:0:0:
352,96,21320,1,8,0:0:0:0:
160,96,21401,1,0,0:0:0:0:
160,96,21725,1,0,0:0:0:0:
160,96,22049,1,0,0:0:0:0:
160,96,22374,1,0,0:0:0:0:
160,96,22698,1,0,0:0:0:0:
160,96,23022,1,0,0:0:0:0:
160,96,23347,1,0,0:0:0:0:
352,96,23671,1,8,0:0:0:0:
352,96,23752,1,8,0:0:0:0:
160,96,23833,1,0,0:0:0:0:
160,96,23914,1,0,0:0:0:0:
352,96,23995,1,8,0:0:0:0:
160,96,24076,1,0,0:0:0:0:
352,96,24157,1,8,0:0:0:0:
160,96,24239,1,0,0:0:0:0:
352,96,24320,1,8,0:0:0:0:
160,96,24401,1,0,0:0:0:0:
352,96,24482,1,8,0:0:0:0:
160,96,24563,1,0,0:0:0:0:
352,96,24644,1,8,0:0:0:0:
352,96,24725,1,8,0:0:0:0:
160,96,24806,1,0,0:0:0:0:
352,96,24887,1,8,0:0:0:0:
352,96,24968,1,8,0:0:0:0:
160,96,25049,1,0,0:0:0:0:
352,96,25130,1,8,0:0:0:0:
352,96,25211,1,8,0:0:0:0:
160,96,25293,1,0,0:0:0:0:
160,96,25374,1,0,0:0:0:0:
352,96,25455,1,8,0:0:0:0:
160,96,25536,1,0,0:0:0:0:
352,96,25617,1,8,0:0:0:0:
352,96,25698,1,8,0:0:0:0:
352,96,25779,1,8,0:0:0:0:
352,96,25860,1,8,0:0:0:0:
160,96,25941,1,0,0:0:0:0:
352,96,26022,1,8,0:0:0:0:
352,96,26103,1,8,0:0:0:0:
160,96,26184,1,0,0:0:0:0:
352,96,26266,1,8,0:0:0:0:
352,96,26347,1,8,0:0:0:0:
160,96,26428,1,0,0:0:0:0:
352,288,26590,1,12,0:0:0:0:
160,96,26752,1,0,0:0:0:0:
160,96,26833,1,0,0:0:0:0:
352,96,26914,1,8,0:0:0:0:
160,96,27076,1,0,0:0:0:0:
160,96,27157,1,0,0:0:0:0:
352,96,27239,1,8,0:0:0:0:
160,96,27401,1,0,0:0:0:0:
160,96,27482,1,0,0:0:0:0:
160,96,27563,1,0,0:0:0:0:
352,96,27725,1,8,0:0:0:0:
352,96,27806,1,8,0:0:0:0:
160,96,27887,1,0,0:0:0:0:
352,96,28049,1,8,0:0:0:0:
352,96,28130,1,8,0:0:0:0:
160,96,28211,1,0,0:0:0:0:
352,96,28374,1,8,0:0:0:0:
352,96,28536,1,8,0:0:0:0:
160,96,28617,1,0,0:0:0:0:
352,96,28698,1,8,0:0:0:0:
160,96,28779,1,0,0:0:0:0:
352,96,28860,1,8,0:0:0:0:
352,96,28941,1,8,0:0:0:0:
160,96,29022,1,0,0:0:0:0:
352,96,29184,1,8,0:0:0:0:
352,96,29266,1,8,0:0:0:0:
160,96,29347,1,0,0:0:0:0:
352,96,29509,1,8,0:0:0:0:
352,96,29590,1,8,0:0:0:0:
160,96,29671,1,0,0:0:0:0:
352,96,29833,1,8,0:0:0:0:
160,96,29995,1,0,0:0:0:0:
160,96,30076,1,0,0:0:0:0:
160,96,30157,1,0,0:0:0:0:
352,96,30320,1,8,0:0:0:0:
160,96,30401,1,0,0:0:0:0:
160,96,30482,1,0,0:0:0:0:
352,96,30644,1,8,0:0:0:0:
160,96,30725,1,0,0:0:0:0:
160,96,30806,1,0,0:0:0:0:
352,96,30968,1,8,0:0:0:0:
352,96,31049,1,8,0:0:0:0:
352,96,31130,1,8,0:0:0:0:
160,96,31211,1,0,0:0:0:0:
352,96,31293,1,8,0:0:0:0:
160,96,31374,1,0,0:0:0:0:
352,96,31455,1,8,0:0:0:0:
352,96,31536,1,8,0:0:0:0:
160,96,31617,1,0,0:0:0:0:
352,288,31779,1,12,0:0:0:0:
160,96,31941,1,0,0:0:0:0:
160,96,32022,1,0,0:0:0:0:
352,96,32103,1,8,0:0:0:0:
160,96,32266,1,0,0:0:0:0:
160,96,32347,1,0,0:0:0:0:
352,96,32428,1,8,0:0:0:0:
160,96,32590,1,0,0:0:0:0:
160,96,32671,1,0,0:0:0:0:
160,96,32752,1,0,0:0:0:0:
352,96,32914,1,8,0:0:0:0:
160,96,32995,1,0,0:0:0:0:
160,96,33076,1,0,0:0:0:0:
352,96,33239,1,8,0:0:0:0:
160,96,33320,1,0,0:0:0:0:
160,96,33401,1,0,0:0:0:0:
352,96,33563,1,8,0:0:0:0:
352,96,33725,1,8,0:0:0:0:
160,96,33806,1,0,0:0:0:0:
352,96,33887,1,8,0:0:0:0:
160,96,33968,1,0,0:0:0:0:
352,96,34049,1,8,0:0:0:0:
352,96,34130,1,8,0:0:0:0:
160,96,34211,1,0,0:0:0:0:
352,96,34374,1,8,0:0:0:0:
352,96,34455,1,8,0:0:0:0:
160,96,34536,1,0,0:0:0:0:
352,96,34698,1,8,0:0:0:0:
352,96,34779,1,8,0:0:0:0:
160,96,34860,1,0,0:0:0:0:
352,96,35022,1,8,0:0:0:0:
160,96,35184,1,0,0:0:0:0:
160,96,35266,1,0,0:0:0:0:
352,96,35347,1,8,0:0:0:0:
352,96,35509,1,8,0:0:0:0:
160,96,35590,1,0,0:0:0:0:
160,96,35671,1,0,0:0:0:0:
352,96,35833,1,8,0:0:0:0:
160,96,35995,1,0,0:0:0:0:
160,96,36076,1,0,0:0:0:0:
352,96,36157,1,8,0:0:0:0:
352,96,36239,1,8,0:0:0:0:
352,96,36320,1,8,0:0:0:0:
160,96,36401,1,0,0:0:0:0:
352,96,36482,1,8,0:0:0:0:
160,96,36563,1,0,0:0:0:0:
352,96,36644,1,8,0:0:0:0:
352,96,36725,1,8,0:0:0:0:
160,96,36806,1,0,0:0:0:0:
160,288,36968,1,4,0:0:0:0:
352,96,37130,1,8,0:0:0:0:
352,96,37211,1,8,0:0:0:0:
352,96,37293,1,8,0:0:0:0:
160,96,37455,1,0,0:0:0:0:
352,96,37536,1,8,0:0:0:0:
352,96,37617,1,8,0:0:0:0:
352,96,37698,1,8,0:0:0:0:
352,96,37779,1,8,0:0:0:0:
160,96,37941,1,0,0:0:0:0:
160,96,38022,1,0,0:0:0:0:
352,96,38103,1,8,0:0:0:0:
352,96,38184,1,8,0:0:0:0:
352,96,38266,1,8,0:0:0:0:
352,96,38347,1,8,0:0:0:0:
160,96,38428,1,0,0:0:0:0:
160,96,38509,1,0,0:0:0:0:
160,96,38590,1,0,0:0:0:0:
160,96,38671,1,0,0:0:0:0:
352,96,38752,1,8,0:0:0:0:
352,96,38833,1,8,0:0:0:0:
160,96,38914,1,0,0:0:0:0:
352,96,38995,1,8,0:0:0:0:
352,96,39076,1,8,0:0:0:0:
160,96,39157,1,0,0:0:0:0:
352,96,39239,1,8,0:0:0:0:
160,96,39320,1,0,0:0:0:0:
160,96,39401,1,0,0:0:0:0:
352,288,39563,1,12,0:0:0:0:
160,96,39725,1,0,0:0:0:0:
160,96,39806,1,0,0:0:0:0:
352,96,39887,1,8,0:0:0:0:
160,96,40049,1,0,0:0:0:0:
160,96,40130,1,0,0:0:0:0:
352,96,40211,1,8,0:0:0:0:
160,96,40374,1,0,0:0:0:0:
160,96,40455,1,0,0:0:0:0:
160,96,40536,1,0,0:0:0:0:
352,96,40698,1,8,0:0:0:0:
160,96,40779,1,0,0:0:0:0:
160,96,40860,1,0,0:0:0:0:
352,96,41022,1,8,0:0:0:0:
160,96,41103,1,0,0:0:0:0:
160,96,41184,1,0,0:0:0:0:
352,96,41347,1,8,0:0:0:0:
160,96,41428,1,0,0:0:0:0:
352,96,41509,1,8,0:0:0:0:
352,96,41590,1,8,0:0:0:0:
160,96,41671,1,0,0:0:0:0:
352,96,41833,1,8,0:0:0:0:
352,96,41914,1,8,0:0:0:0:
160,96,41995,1,0,0:0:0:0:
160,288,42157,1,4,0:0:0:0:
160,96,42320,1,0,0:0:0:0:
352,96,42401,1,8,0:0:0:0:
352,96,42482,1,8,0:0:0:0:
352,96,42644,1,8,0:0:0:0:
160,96,42725,1,0,0:0:0:0:
160,96,42806,1,0,0:0:0:0:
352,96,42887,1,8,0:0:0:0:
160,96,42968,1,0,0:0:0:0:
160,96,43049,1,0,0:0:0:0:
352,96,43130,1,8,0:0:0:0:
160,96,43211,1,0,0:0:0:0:
352,96,43293,1,8,0:0:0:0:
352,96,43374,1,8,0:0:0:0:
352,96,43455,1,8,0:0:0:0:
352,96,43536,1,8,0:0:0:0:
160,96,43617,1,0,0:0:0:0:
160,96,43698,1,0,0:0:0:0:
160,96,43779,1,0,0:0:0:0:
160,96,43860,1,0,0:0:0:0:
352,96,43941,1,8,0:0:0:0:
160,96,44022,1,0,0:0:0:0:
352,96,44103,1,8,0:0:0:0:
352,96,44184,1,8,0:0:0:0:
160,96,44266,1,0,0:0:0:0:
352,96,44347,1,8,0:0:0:0:
352,96,44428,1,8,0:0:0:0:
160,96,44509,1,0,0:0:0:0:
160,96,44590,1,0,0:0:0:0:
352,288,44752,1,12,0:0:0:0:
160,96,44914,1,0,0:0:0:0:
160,96,44995,1,0,0:0:0:0:
352,96,45076,1,8,0:0:0:0:
160,96,45239,1,0,0:0:0:0:
160,96,45320,1,0,0:0:0:0:
352,96,45401,1,8,0:0:0:0:
160,96,45563,1,0,0:0:0:0:
160,96,45644,1,0,0:0:0:0:
160,96,45725,1,0,0:0:0:0:
352,96,45887,1,8,0:0:0:0:
160,96,45968,1,0,0:0:0:0:
160,96,46049,1,0,0:0:0:0:
352,96,46211,1,8,0:0:0:0:
352,96,46293,1,8,0:0:0:0:
160,96,46374,1,0,0:0:0:0:
352,96,46536,1,8,0:0:0:0:
160,96,46617,1,0,0:0:0:0:
352,96,46698,1,8,0:0:0:0:
352,96,46779,1,8,0:0:0:0:
160,96,46860,1,0,0:0:0:0:
352,96,47022,1,8,0:0:0:0:
352,96,47103,1,8,0:0:0:0:
160,96,47184,1,0,0:0:0:0:
160,96,47266,1,0,0:0:0:0:
352,96,47347,1,8,0:0:0:0:
160,96,47509,1,0,0:0:0:0:
352,96,47671,1,8,0:0:0:0:
352,96,47833,1,8,0:0:0:0:
352,96,47995,1,8,0:0:0:0:
160,96,48157,1,0,0:0:0:0:
160,96,48239,1,0,0:0:0:0:
352,96,48320,1,8,0:0:0:0:
160,96,48482,1,0,0:0:0:0:
352,96,48644,1,8,0:0:0:0:
352,96,48806,1,8,0:0:0:0:
352,96,48968,1,8,0:0:0:0:
160,96,49130,1,0,0:0:0:0:
352,96,49293,1,8,0:0:0:0:
160,96,49455,1,0,0:0:0:0:
352,96,49617,1,8,0:0:0:0:
160,96,49779,1,0,0:0:0:0:
160,96,49860,1,0,0:0:0:0:
352,96,49941,1,8,0:0:0:0:
160,96,50022,1,0,0:0:0:0:
160,96,50103,1,0,0:0:0:0:
352,96,50266,1,8,0:0:0:0:
352,96,50347,1,8,0:0:0:0:
160,96,50428,1,0,0:0:0:0:
352,96,50590,1,8,0:0:0:0:
160,96,50752,1,0,0:0:0:0:
160,96,50833,1,0,0:0:0:0:
160,96,50914,1,0,0:0:0:0:
352,96,51076,1,8,0:0:0:0:
160,96,51157,1,0,0:0:0:0:
160,96,51239,1,0,0:0:0:0:
352,96,51401,1,8,0:0:0:0:
352,96,51482,1,8,0:0:0:0:
160,96,51563,1,0,0:0:0:0:
352,96,51725,1,8,0:0:0:0:
160,96,51806,1,0,0:0:0:0:
352,96,51887,1,8,0:0:0:0:
160,96,52049,1,0,0:0:0:0:
160,96,52130,1,0,0:0:0:0:
352,96,52211,1,8,0:0:0:0:
352,96,52293,1,8,0:0:0:0:
160,96,52374,1,0,0:0:0:0:
352,96,52536,1,8,0:0:0:0:
352,96,52617,1,8,0:0:0:0:
160,96,52698,1,0,0:0:0:0:
160,96,52779,1,0,0:0:0:0:
352,96,52860,1,8,0:0:0:0:
160,96,53022,1,0,0:0:0:0:
160,96,53103,1,0,0:0:0:0:
352,96,53184,1,8,0:0:0:0:
160,96,53266,1,0,0:0:0:0:
352,96,53347,1,8,0:0:0:0:
352,96,53428,1,8,0:0:0:0:
160,96,53509,1,0,0:0:0:0:
352,96,53671,1,8,0:0:0:0:
352,96,53833,1,8,0:0:0:0:
352,96,53914,1,8,0:0:0:0:
160,96,53995,1,0,0:0:0:0:
352,96,54076,1,8,0:0:0:0:
160,96,54157,1,0,0:0:0:0:
160,96,54239,1,0,0:0:0:0:
352,96,54320,1,8,0:0:0:0:
160,96,54401,1,0,0:0:0:0:
352,96,54482,1,8,0:0:0:0:
352,96,54563,1,8,0:0:0:0:
352,96,54644,1,8,0:0:0:0:
352,96,54725,1,8,0:0:0:0:
160,96,54806,1,0,0:0:0:0:
352,96,54887,1,8,0:0:0:0:
160,96,54968,1,0,0:0:0:0:
160,288,55130,1,4,0:0:0:0:
160,288,55293,1,4,0:0:0:0:
160,288,55455,1,4,0:0:0:0:
160,288,55617,1,4,0:0:0:0:
160,288,55779,1,4,0:0:0:0:
160,288,55941,1,4,0:0:0:0:
160,288,56103,1,4,0:0:0:0:
160,288,56266,1,4,0:0:0:0:
160,288,56428,1,4,0:0:0:0:
160,288,56590,1,4,0:0:0:0:
160,288,56752,1,4,0:0:0:0:
160,288,56914,1,4,0:0:0:0:
352,96,57076,1,8,0:0:0:0:
352,96,57117,1,8,0:0:0:0:
160,288,57725,1,4,0:0:0:0:
160,96,57887,1,0,0:0:0:0:
160,96,57968,1,0,0:0:0:0:
352,96,58049,1,8,0:0:0:0:
160,96,58130,1,0,0:0:0:0:
160,96,58211,1,0,0:0:0:0:
160,96,58293,1,0,0:0:0:0:
352,96,58374,1,8,0:0:0:0:
352,96,58455,1,8,0:0:0:0:
160,96,58536,1,0,0:0:0:0:
160,96,58617,1,0,0:0:0:0:
352,96,58698,1,8,0:0:0:0:
160,96,58779,1,0,0:0:0:0:
352,96,58860,1,8,0:0:0:0:
352,96,58941,1,8,0:0:0:0:
160,96,59022,1,0,0:0:0:0:
160,96,59103,1,0,0:0:0:0:
160,96,59184,1,0,0:0:0:0:
160,96,59266,1,0,0:0:0:0:
352,96,59347,1,8,0:0:0:0:
160,96,59428,1,0,0:0:0:0:
352,96,59509,1,8,0:0:0:0:
160,96,59590,1,0,0:0:0:0:
352,96,59671,1,8,0:0:0:0:
352,96,59752,1,8,0:0:0:0:
160,96,59833,1,0,0:0:0:0:
160,96,59914,1,0,0:0:0:0:
352,96,59995,1,8,0:0:0:0:
160,96,60076,1,0,0:0:0:0:
352,96,60157,1,8,0:0:0:0:
352,96,60239,1,8,0:0:0:0:
160,96,60320,1,0,0:0:0:0:
160,96,60401,1,0,0:0:0:0:
160,96,60482,1,0,0:0:0:0:
160,96,60563,1,0,0:0:0:0:
352,96,60644,1,8,0:0:0:0:
160,96,60725,1,0,0:0:0:0:
160,96,60806,1,0,0:0:0:0:
160,96,60887,1,0,0:0:0:0:
352,96,60968,1,8,0:0:0:0:
352,96,61049,1,8,0:0:0:0:
160,96,61130,1,0,0:0:0:0:
160,96,61211,1,0,0:0:0:0:
352,96,61293,1,8,0:0:0:0:
160,96,61374,1,0,0:0:0:0:
352,96,61455,1,8,0:0:0:0:
352,96,61536,1,8,0:0:0:0:
160,96,61617,1,0,0:0:0:0:
160,96,61698,1,0,0:0:0:0:
160,96,61779,1,0,0:0:0:0:
160,96,61860,1,0,0:0:0:0:
352,96,61941,1,8,0:0:0:0:
160,96,62022,1,0,0:0:0:0:
160,96,62103,1,0,0:0:0:0:
160,96,62184,1,0,0:0:0:0:
352,96,62266,1,8,0:0:0:0:
352,96,62347,1,8,0:0:0:0:
160,96,62428,1,0,0:0:0:0:
160,96,62509,1,0,0:0:0:0:
352,96,62590,1,8,0:0:0:0:
352,96,62671,1,8,0:0:0:0:
352,96,62752,1,8,0:0:0:0:
160,96,62833,1,0,0:0:0:0:
352,96,62914,1,8,0:0:0:0:
352,96,62995,1,8,0:0:0:0:
160,96,63076,1,0,0:0:0:0:
160,96,63157,1,0,0:0:0:0:
352,96,63239,1,8,0:0:0:0:
160,96,63320,1,0,0:0:0:0:
160,96,63401,1,0,0:0:0:0:
160,96,63482,1,0,0:0:0:0:
352,96,63563,1,8,0:0:0:0:
352,96,63644,1,8,0:0:0:0:
160,96,63725,1,0,0:0:0:0:
160,96,63806,1,0,0:0:0:0:
352,96,63887,1,8,0:0:0:0:
160,96,63968,1,0,0:0:0:0:
352,96,64049,1,8,0:0:0:0:
352,96,64130,1,8,0:0:0:0:
160,96,64211,1,0,0:0:0:0:
160,96,64293,1,0,0:0:0:0:
160,96,64374,1,0,0:0:0:0:
160,96,64455,1,0,0:0:0:0:
352,96,64536,1,8,0:0:0:0:
160,96,64617,1,0,0:0:0:0:
160,96,64698,1,0,0:0:0:0:
160,96,64779,1,0,0:0:0:0:
352,96,64860,1,8,0:0:0:0:
352,96,64941,1,8,0:0:0:0:
160,96,65022,1,0,0:0:0:0:
160,96,65103,1,0,0:0:0:0:
352,96,65184,1,8,0:0:0:0:
352,96,65266,1,8,0:0:0:0:
160,96,65347,1,0,0:0:0:0:
160,96,65428,1,0,0:0:0:0:
352,96,65509,1,8,0:0:0:0:
160,96,65590,1,0,0:0:0:0:
160,96,65671,1,0,0:0:0:0:
160,96,65752,1,0,0:0:0:0:
352,96,65833,1,8,0:0:0:0:
160,96,65914,1,0,0:0:0:0:
352,96,65995,1,8,0:0:0:0:
160,96,66076,1,0,0:0:0:0:
352,96,66157,1,8,0:0:0:0:
352,96,66239,1,8,0:0:0:0:
160,96,66320,1,0,0:0:0:0:
160,96,66401,1,0,0:0:0:0:
352,96,66482,1,8,0:0:0:0:
352,96,66563,1,8,0:0:0:0:
160,96,66644,1,0,0:0:0:0:
160,96,66725,1,0,0:0:0:0:
352,96,66806,1,8,0:0:0:0:
160,96,66887,1,0,0:0:0:0:
352,96,66968,1,8,0:0:0:0:
160,96,67049,1,0,0:0:0:0:
352,96,67130,1,8,0:0:0:0:
352,96,67211,1,8,0:0:0:0:
160,96,67293,1,0,0:0:0:0:
160,96,67374,1,0,0:0:0:0:
352,96,67455,1,8,0:0:0:0:
352,96,67536,1,8,0:0:0:0:
352,96,67617,1,8,0:0:0:0:
160,96,67698,1,0,0:0:0:0:
352,96,67779,1,8,0:0:0:0:
352,96,67860,1,8,0:0:0:0:
160,96,67941,1,0,0:0:0:0:
352,288,68103,1,12,0:0:0:0:
160,96,68266,1,0,0:0:0:0:
160,96,68347,1,0,0:0:0:0:
352,96,68428,1,8,0:0:0:0:
160,96,68509,1,0,0:0:0:0:
160,96,68590,1,0,0:0:0:0:
160,96,68671,1,0,0:0:0:0:
352,96,68752,1,8,0:0:0:0:
352,96,68833,1,8,0:0:0:0:
160,96,68914,1,0,0:0:0:0:
160,96,68995,1,0,0:0:0:0:
352,96,69076,1,8,0:0:0:0:
160,96,69157,1,0,0:0:0:0:
352,96,69239,1,8,0:0:0:0:
352,96,69320,1,8,0:0:0:0:
160,96,69401,1,0,0:0:0:0:
160,96,69482,1,0,0:0:0:0:
160,96,69563,1,0,0:0:0:0:
160,96,69644,1,0,0:0:0:0:
352,96,69725,1,8,0:0:0:0:
160,96,69806,1,0,0:0:0:0:
160,96,69887,1,0,0:0:0:0:
160,96,69968,1,0,0:0:0:0:
352,96,70049,1,8,0:0:0:0:
352,96,70130,1,8,0:0:0:0:
160,96,70211,1,0,0:0:0:0:
160,96,70293,1,0,0:0:0:0:
352,96,70374,1,8,0:0:0:0:
352,96,70455,1,8,0:0:0:0:
352,96,70536,1,8,0:0:0:0:
352,96,70617,1,8,0:0:0:0:
160,96,70698,1,0,0:0:0:0:
160,96,70779,1,0,0:0:0:0:
160,96,70860,1,0,0:0:0:0:
160,96,70941,1,0,0:0:0:0:
352,96,71022,1,8,0:0:0:0:
352,96,71103,1,8,0:0:0:0:
160,96,71184,1,0,0:0:0:0:
160,96,71266,1,0,0:0:0:0:
352,96,71347,1,8,0:0:0:0:
352,96,71428,1,8,0:0:0:0:
352,96,71509,1,8,0:0:0:0:
160,96,71590,1,0,0:0:0:0:
352,96,71671,1,8,0:0:0:0:
160,96,71752,1,0,0:0:0:0:
352,96,71833,1,8,0:0:0:0:
352,96,71914,1,8,0:0:0:0:
160,96,71995,1,0,0:0:0:0:
160,96,72076,1,0,0:0:0:0:
160,96,72157,1,0,0:0:0:0:
160,96,72239,1,0,0:0:0:0:
352,96,72320,1,8,0:0:0:0:
160,96,72401,1,0,0:0:0:0:
160,96,72482,1,0,0:0:0:0:
160,96,72563,1,0,0:0:0:0:
352,96,72644,1,8,0:0:0:0:
352,96,72725,1,8,0:0:0:0:
160,96,72806,1,0,0:0:0:0:
160,96,72887,1,0,0:0:0:0:
352,96,72968,1,8,0:0:0:0:
352,96,73049,1,8,0:0:0:0:
352,96,73130,1,8,0:0:0:0:
352,96,73211,1,8,0:0:0:0:
160,96,73293,1,0,0:0:0:0:
160,96,73374,1,0,0:0:0:0:
160,96,73455,1,0,0:0:0:0:
160,96,73536,1,0,0:0:0:0:
352,96,73617,1,8,0:0:0:0:
160,96,73698,1,0,0:0:0:0:
352,96,73779,1,8,0:0:0:0:
160,96,73860,1,0,0:0:0:0:
352,96,73941,1,8,0:0:0:0:
352,96,74022,1,8,0:0:0:0:
160,96,74103,1,0,0:0:0:0:
160,96,74184,1,0,0:0:0:0:
352,96,74266,1,8,0:0:0:0:
352,96,74347,1,8,0:0:0:0:
160,96,74428,1,0,0:0:0:0:
160,96,74509,1,0,0:0:0:0:
352,96,74590,1,8,0:0:0:0:
160,96,74671,1,0,0:0:0:0:
160,96,74752,1,0,0:0:0:0:
352,96,74833,1,8,0:0:0:0:
160,96,74914,1,0,0:0:0:0:
160,96,74995,1,0,0:0:0:0:
352,96,75076,1,8,0:0:0:0:
160,96,75157,1,0,0:0:0:0:
352,96,75239,1,8,0:0:0:0:
352,96,75320,1,8,0:0:0:0:
352,96,75401,1,8,0:0:0:0:
160,96,75482,1,0,0:0:0:0:
352,96,75563,1,8,0:0:0:0:
352,96,75644,1,8,0:0:0:0:
160,96,75725,1,0,0:0:0:0:
160,96,75806,1,0,0:0:0:0:
352,96,75887,1,8,0:0:0:0:
160,96,75968,1,0,0:0:0:0:
352,96,76049,1,8,0:0:0:0:
352,96,76130,1,8,0:0:0:0:
160,96,76211,1,0,0:0:0:0:
160,96,76293,1,0,0:0:0:0:
352,96,76374,1,8,0:0:0:0:
160,96,76455,1,0,0:0:0:0:
352,96,76536,1,8,0:0:0:0:
352,96,76617,1,8,0:0:0:0:
352,96,76698,1,8,0:0:0:0:
160,96,76779,1,0,0:0:0:0:
352,96,76860,1,8,0:0:0:0:
160,96,76941,1,0,0:0:0:0:
352,96,77022,1,8,0:0:0:0:
352,96,77103,1,8,0:0:0:0:
160,96,77184,1,0,0:0:0:0:
160,96,77266,1,0,0:0:0:0:
352,96,77347,1,8,0:0:0:0:
160,96,77428,1,0,0:0:0:0:
352,96,77509,1,8,0:0:0:0:
352,96,77590,1,8,0:0:0:0:
352,96,77671,1,8,0:0:0:0:
160,96,77752,1,0,0:0:0:0:
352,96,77833,1,8,0:0:0:0:
352,96,77914,1,8,0:0:0:0:
160,96,77995,1,0,0:0:0:0:
160,96,78076,1,0,0:0:0:0:
352,96,78157,1,8,0:0:0:0:
160,96,78239,1,0,0:0:0:0:
160,96,78320,1,0,0:0:0:0:
160,288,78482,1,4,0:0:0:0:
160,96,78806,1,0,0:0:0:0:
160,96,79130,1,0,0:0:0:0:
160,96,79455,1,0,0:0:0:0:
160,96,79779,1,0,0:0:0:0:
160,96,80103,1,0,0:0:0:0:
160,96,80428,1,0,0:0:0:0:
160,96,80752,1,0,0:0:0:0:
160,96,81076,1,0,0:0:0:0:
160,96,81401,1,0,0:0:0:0:
160,96,81725,1,0,0:0:0:0:
160,96,82049,1,0,0:0:0:0:
160,96,82374,1,0,0:0:0:0:
160,96,82698,1,0,0:0:0:0:
352,96,83022,1,8,0:0:0:0:
160,96,83103,1,0,0:0:0:0:
352,96,83184,1,8,0:0:0:0:
160,96,83266,1,0,0:0:0:0:
352,96,83347,1,8,0:0:0:0:
352,96,83428,1,8,0:0:0:0:
352,96,83509,1,8,0:0:0:0:
352,96,83590,1,8,0:0:0:0:
160,96,83671,1,0,0:0:0:0:
160,96,83995,1,0,0:0:0:0:
160,96,84320,1,0,0:0:0:0:
160,96,84644,1,0,0:0:0:0:
160,96,84968,1,0,0:0:0:0:
160,96,85293,1,0,0:0:0:0:
160,96,85617,1,0,0:0:0:0:
352,96,85941,1,8,0:0:0:0:
352,96,86022,1,8,0:0:0:0:
160,96,86103,1,0,0:0:0:0:
160,96,86184,1,0,0:0:0:0:
352,96,86266,1,8,0:0:0:0:
160,96,86347,1,0,0:0:0:0:
352,96,86428,1,8,0:0:0:0:
160,96,86509,1,0,0:0:0:0:
352,96,86590,1,8,0:0:0:0:
160,96,86671,1,0,0:0:0:0:
352,96,86752,1,8,0:0:0:0:
352,96,86833,1,8,0:0:0:0:
160,96,86914,1,0,0:0:0:0:
352,96,86995,1,8,0:0:0:0:
352,96,87076,1,8,0:0:0:0:
160,96,87157,1,0,0:0:0:0:
352,96,87239,1,8,0:0:0:0:
352,96,87320,1,8,0:0:0:0:
352,96,87401,1,8,0:0:0:0:
160,96,87482,1,0,0:0:0:0:
352,96,87563,1,8,0:0:0:0:
160,96,87644,1,0,0:0:0:0:
352,96,87725,1,8,0:0:0:0:
160,96,87806,1,0,0:0:0:0:
352,96,87887,1,8,0:0:0:0:
160,96,87968,1,0,0:0:0:0:
352,96,88049,1,8,0:0:0:0:
256,192,88211,2,0,L|160:192,3,70
352,96,88860,1,8,0:0:0:0:
352,96,88941,1,8,0:0:0:0:
352,96,89022,1,8,0:0:0:0:
352,96,89103,1,8,0:0:0:0:
160,96,89184,1,0,0:0:0:0:
352,96,89239,1,8,0:0:0:0:
352,96,89293,1,8,0:0:0:0:
160,96,89347,1,0,0:0:0:0:
160,96,89428,1,0,0:0:0:0:
352,96,89509,1,8,0:0:0:0:
352,96,89590,1,8,0:0:0:0:
352,96,89671,1,8,0:0:0:0:
352,96,89752,1,8,0:0:0:0:
160,96,89833,1,0,0:0:0:0:
352,96,89887,1,8,0:0:0:0:
352,96,89941,1,8,0:0:0:0:
160,96,89995,1,0,0:0:0:0:
160,96,90076,1,0,0:0:0:0:
352,96,90157,1,8,0:0:0:0:
352,96,90239,1,8,0:0:0:0:
352,96,90320,1,8,0:0:0:0:
352,96,90401,1,8,0:0:0:0:
160,96,90482,1,0,0:0:0:0:
352,96,90536,1,8,0:0:0:0:
352,96,90590,1,8,0:0:0:0:
160,96,90644,1,0,0:0:0:0:
160,96,90725,1,0,0:0:0:0:
352,96,90806,1,8,0:0:0:0:
352,96,90887,1,8,0:0:0:0:
352,96,90968,1,8,0:0:0:0:
352,96,91049,1,8,0:0:0:0:
160,96,91130,1,0,0:0:0:0:
352,96,91184,1,8,0:0:0:0:
352,96,91239,1,8,0:0:0:0:
160,96,91293,1,0,0:0:0:0:
160,96,91374,1,0,0:0:0:0:
352,96,91455,1,8,0:0:0:0:
352,96,91536,1,8,0:0:0:0:
352,96,91617,1,8,0:0:0:0:
352,96,91698,1,8,0:0:0:0:
352,96,91779,1,8,0:0:0:0:
352,96,91860,1,8,0:0:0:0:
160,96,91941,1,0,0:0:0:0:
160,96,92022,1,0,0:0:0:0:
352,96,92103,1,8,0:0:0:0:
352,96,92157,1,8,0:0:0:0:
352,96,92211,1,8,0:0:0:0:
160,96,92266,1,0,0:0:0:0:
160,96,92347,1,0,0:0:0:0:
352,96,92428,1,8,0:0:0:0:
352,96,92509,1,8,0:0:0:0:
352,96,92590,1,8,0:0:0:0:
352,96,92671,1,8,0:0:0:0:
160,96,92752,1,0,0:0:0:0:
352,96,92806,1,8,0:0:0:0:
352,96,92860,1,8,0:0:0:0:
160,96,92914,1,0,0:0:0:0:
160,96,92995,1,0,0:0:0:0:
352,96,93076,1,8,0:0:0:0:
352,96,93130,1,8,0:0:0:0:
352,96,93184,1,8,0:0:0:0:
160,96,93239,1,0,0:0:0:0:
160,96,93293,1,0,0:0:0:0:
160,96,93347,1,0,0:0:0:0:
352,96,93401,1,8,0:0:0:0:
160,96,93482,1,0,0:0:0:0:
352,96,93563,1,8,0:0:0:0:
160,96,93644,1,0,0:0:0:0:
352,96,93725,1,8,0:0:0:0:
352,96,93806,1,8,0:0:0:0:
160,96,93887,1,0,0:0:0:0:
352,96,94049,1,8,0:0:0:0:
160,96,94130,1,0,0:0:0:0:
160,96,94211,1,0,0:0:0:0:
352,96,94293,1,8,0:0:0:0:
352,96,94374,1,8,0:0:0:0:
352,96,94455,1,8,0:0:0:0:
160,96,94536,1,0,0:0:0:0:
160,96,94617,1,0,0:0:0:0:
352,96,94698,1,8,0:0:0:0:
160,96,94779,1,0,0:0:0:0:
160,96,94860,1,0,0:0:0:0:
352,96,94941,1,8,0:0:0:0:
160,96,95022,1,0,0:0:0:0:
160,96,95103,1,0,0:0:0:0:
352,96,95184,1,8,0:0:0:0:
160,96,95266,1,0,0:0:0:0:
352,96,95347,1,8,0:0:0:0:
352,96,95428,1,8,0:0:0:0:
160,96,95509,1,0,0:0:0:0:
352,96,95590,1,8,0:0:0:0:
352,96,95671,1,8,0:0:0:0:
160,96,95752,1,0,0:0:0:0:
352,96,95833,1,8,0:0:0:0:
160,96,95914,1,0,0:0:0:0:
352,96,95995,1,8,0:0:0:0:
352,96,96076,1,8,0:0:0:0:
160,96,96157,1,0,0:0:0:0:
352,96,96239,1,8,0:0:0:0:
352,96,96320,1,8,0:0:0:0:
160,96,96401,1,0,0:0:0:0:
352,96,96482,1,8,0:0:0:0:
160,96,96563,1,0,0:0:0:0:
352,96,96644,1,8,0:0:0:0:
160,96,96725,1,0,0:0:0:0:
160,96,96806,1,0,0:0:0:0:
352,96,96887,1,8,0:0:0:0:
352,96,96968,1,8,0:0:0:0:
160,96,97049,1,0,0:0:0:0:
160,96,97130,1,0,0:0:0:0:
352,96,97211,1,8,0:0:0:0:
352,96,97293,1,8,0:0:0:0:
160,96,97374,1,0,0:0:0:0:
160,96,97455,1,0,0:0:0:0:
352,96,97536,1,8,0:0:0:0:
352,96,97617,1,8,0:0:0:0:
352,96,97698,1,8,0:0:0:0:
160,96,97779,1,0,0:0:0:0:
352,96,97860,1,8,0:0:0:0:
160,96,97941,1,0,0:0:0:0:
160,96,97995,1,0,0:0:0:0:
160,96,98049,1,0,0:0:0:0:
352,96,98103,1,8,0:0:0:0:
352,96,98184,1,8,0:0:0:0:
160,96,98266,1,0,0:0:0:0:
160,96,98320,1,0,0:0:0:0:
352,96,98374,1,8,0:0:0:0:
352,96,98428,1,8,0:0:0:0:
160,96,98509,1,0,0:0:0:0:
352,96,98590,1,8,0:0:0:0:
352,96,98671,1,8,0:0:0:0:
352,96,98752,1,8,0:0:0:0:
352,96,98833,1,8,0:0:0:0:
352,96,98914,1,8,0:0:0:0:
352,96,98995,1,8,0:0:0:0:
160,96,99076,1,0,0:0:0:0:
160,288,99239,1,4,0:0:0:0:
352,96,99401,1,8,0:0:0:0:
352,96,99482,1,8,0:0:0:0:
352,96,99563,1,8,0:0:0:0:
352,96,99644,1,8,0:0:0:0:
160,96,99725,1,0,0:0:0:0:
160,96,99806,1,0,0:0:0:0:
352,96,99887,1,8,0:0:0:0:
352,96,99968,1,8,0:0:0:0:
352,96,100049,1,8,0:0:0:0:
352,96,100130,1,8,0:0:0:0:
160,96,100211,1,0,0:0:0:0:
160,96,100293,1,0,0:0:0:0:
352,96,100374,1,8,0:0:0:0:
352,96,100455,1,8,0:0:0:0:
160,96,100536,1,0,0:0:0:0:
160,96,100617,1,0,0:0:0:0:
352,96,100698,1,8,0:0:0:0:
160,96,100779,1,0,0:0:0:0:
160,96,100860,1,0,0:0:0:0:
352,96,100941,1,8,0:0:0:0:
160,96,101022,1,0,0:0:0:0:
160,96,101103,1,0,0:0:0:0:
352,96,101184,1,8,0:0:0:0:
160,96,101266,1,0,0:0:0:0:
352,96,101347,1,8,0:0:0:0:
352,96,101428,1,8,0:0:0:0:
160,96,101509,1,0,0:0:0:0:
352,96,101590,1,8,0:0:0:0:
160,96,101671,1,0,0:0:0:0:
352,288,101833,1,12,0:0:0:0:
160,96,101995,1,0,0:0:0:0:
160,96,102076,1,0,0:0:0:0:
352,96,102157,1,8,0:0:0:0:
160,96,102320,1,0,0:0:0:0:
160,96,102401,1,0,0:0:0:0:
352,96,102482,1,8,0:0:0:0:
160,96,102644,1,0,0:0:0:0:
160,96,102725,1,0,0:0:0:0:
160,96,102806,1,0,0:0:0:0:
352,96,102968,1,8,0:0:0:0:
160,96,103049,1,0,0:0:0:0:
160,96,103130,1,0,0:0:0:0:
352,96,103293,1,8,0:0:0:0:
352,96,103374,1,8,0:0:0:0:
160,96,103455,1,0,0:0:0:0:
352,96,103617,1,8,0:0:0:0:
160,96,103698,1,0,0:0:0:0:
352,96,103779,1,8,0:0:0:0:
160,96,103941,1,0,0:0:0:0:
160,96,104022,1,0,0:0:0:0:
352,96,104103,1,8,0:0:0:0:
352,96,104184,1,8,0:0:0:0:
160,96,104266,1,0,0:0:0:0:
352,96,104428,1,8,0:0:0:0:
160,96,104509,1,0,0:0:0:0:
352,96,104590,1,8,0:0:0:0:
352,96,104671,1,8,0:0:0:0:
352,96,104752,1,8,0:0:0:0:
160,96,104833,1,0,0:0:0:0:
352,96,104914,1,8,0:0:0:0:
160,96,104995,1,0,0:0:0:0:
160,96,105076,1,0,0:0:0:0:
352,96,105157,1,8,0:0:0:0:
160,96,105239,1,0,0:0:0:0:
160,96,105320,1,0,0:0:0:0:
352,96,105401,1,8,0:0:0:0:
160,96,105482,1,0,0:0:0:0:
160,96,105563,1,0,0:0:0:0:
352,96,105644,1,8,0:0:0:0:
352,96,105725,1,8,0:0:0:0:
160,96,105806,1,0,0:0:0:0:
352,96,105887,1,8,0:0:0:0:
160,96,105968,1,0,0:0:0:0:
160,96,106049,1,0,0:0:0:0:
352,96,106130,1,8,0:0:0:0:
160,96,106211,1,0,0:0:0:0:
160,96,106293,1,0,0:0:0:0:
352,96,106374,1,8,0:0:0:0:
160,96,106455,1,0,0:0:0:0:
352,96,106536,1,8,0:0:0:0:
352,96,106617,1,8,0:0:0:0:
160,96,106698,1,0,0:0:0:0:
352,96,106779,1,8,0:0:0:0:
160,96,106860,1,0,0:0:0:0:
352,288,107022,1,12,0:0:0:0:
160,96,107184,1,0,0:0:0:0:
160,96,107266,1,0,0:0:0:0:
352,96,107347,1,8,0:0:0:0:
160,96,107509,1,0,0:0:0:0:
160,96,107590,1,0,0:0:0:0:
352,96,107671,1,8,0:0:0:0:
160,96,107833,1,0,0:0:0:0:
160,96,107914,1,0,0:0:0:0:
160,96,107995,1,0,0:0:0:0:
352,96,108157,1,8,0:0:0:0:
160,96,108239,1,0,0:0:0:0:
160,96,108320,1,0,0:0:0:0:
352,96,108482,1,8,0:0:0:0:
352,96,108563,1,8,0:0:0:0:
160,96,108644,1,0,0:0:0:0:
352,96,108806,1,8,0:0:0:0:
160,96,108887,1,0,0:0:0:0:
352,96,108968,1,8,0:0:0:0:
160,96,109130,1,0,0:0:0:0:
160,96,109211,1,0,0:0:0:0:
352,96,109293,1,8,0:0:0:0:
160,96,109374,1,0,0:0:0:0:
352,96,109455,1,8,0:0:0:0:
160,96,109536,1,0,0:0:0:0:
352,96,109617,1,8,0:0:0:0:
160,96,109779,1,0,0:0:0:0:
352,96,109941,1,8,0:0:0:0:
352,96,110103,1,8,0:0:0:0:
352,96,110266,1,8,0:0:0:0:
160,96,110428,1,0,0:0:0:0:
160,96,110509,1,0,0:0:0:0:
352,96,110590,1,8,0:0:0:0:
160,96,110752,1,0,0:0:0:0:
352,96,110914,1,8,0:0:0:0:
352,96,111076,1,8,0:0:0:0:
352,96,111239,1,8,0:0:0:0:
160,96,111401,1,0,0:0:0:0:
352,96,111563,1,8,0:0:0:0:
160,96,111725,1,0,0:0:0:0:
352,96,111887,1,8,0:0:0:0:
160,96,112049,1,0,0:0:0:0:
160,96,112130,1,0,0:0:0:0:
352,96,112211,1,8,0:0:0:0:
160,96,112374,1,0,0:0:0:0:
352,96,112536,1,8,0:0:0:0:
160,96,112617,1,0,0:0:0:0:
352,96,112698,1,8,0:0:0:0:
160,96,112779,1,0,0:0:0:0:
352,96,112860,1,8,0:0:0:0:
160,96,112941,1,0,0:0:0:0:
352,96,113022,1,8,0:0:0:0:
352,96,113103,1,8,0:0:0:0:
160,96,113184,1,0,0:0:0:0:
352,96,113347,1,8,0:0:0:0:
160,96,113509,1,0,0:0:0:0:
160,96,113590,1,0,0:0:0:0:
352,96,113671,1,8,0:0:0:0:
160,96,113833,1,0,0:0:0:0:
160,96,113914,1,0,0:0:0:0:
352,96,113995,1,8,0:0:0:0:
352,96,114076,1,8,0:0:0:0:
160,96,114157,1,0,0:0:0:0:
352,96,114320,1,8,0:0:0:0:
352,96,114401,1,8,0:0:0:0:
352,96,114482,1,8,0:0:0:0:
352,96,114563,1,8,0:0:0:0:
160,96,114644,1,0,0:0:0:0:
160,96,114725,1,0,0:0:0:0:
352,96,114806,1,8,0:0:0:0:
160,96,114968,1,0,0:0:0:0:
160,96,115049,1,0,0:0:0:0:
352,96,115130,1,8,0:0:0:0:
160,96,115293,1,0,0:0:0:0:
160,96,115374,1,0,0:0:0:0:
352,96,115455,1,8,0:0:0:0:
160,96,115536,1,0,0:0:0:0:
160,96,115617,1,0,0:0:0:0:
352,96,115779,1,8,0:0:0:0:
160,96,115860,1,0,0:0:0:0:
352,96,115941,1,8,0:0:0:0:
352,96,116103,1,8,0:0:0:0:
352,96,116184,1,8,0:0:0:0:
160,96,116266,1,0,0:0:0:0:
160,96,116347,1,0,0:0:0:0:
352,96,116428,1,8,0:0:0:0:
160,96,116509,1,0,0:0:0:0:
352,96,116590,1,8,0:0:0:0:
352,96,116671,1,8,0:0:0:0:
352,96,116752,1,8,0:0:0:0:
352,96,116833,1,8,0:0:0:0:
160,96,116914,1,0,0:0:0:0:
352,288,117076,1,12,0:0:0:0:
160,288,117401,1,4,0:0:0:0:
160,288,117563,1,4,0:0:0:0:
160,288,117725,1,4,0:0:0:0:
160,288,117887,1,4,0:0:0:0:
160,288,118049,1,4,0:0:0:0:
160,288,118211,1,4,0:0:0:0:
160,288,118374,1,4,0:0:0:0:
160,288,118536,1,4,0:0:0:0:
160,288,118698,1,4,0:0:0:0:
160,288,118860,1,4,0:0:0:0:
160,288,119022,1,4,0:0:0:0:
160,288,119184,1,4,0:0:0:0:
352,96,119347,1,8,0:0:0:0:
352,96,119387,1,8,0:0:0:0:
160,288,119995,1,4,0:0:0:0:
160,96,120157,1,0,0:0:0:0:
160,96,120239,1,0,0:0:0:0:
352,96,120320,1,8,0:0:0:0:
160,96,120401,1,0,0:0:0:0:
160,96,120482,1,0,0:0:0:0:
160,96,120563,1,0,0:0:0:0:
352,96,120644,1,8,0:0:0:0:
352,96,120725,1,8,0:0:0:0:
160,96,120806,1,0,0:0:0:0:
160,96,120887,1,0,0:0:0:0:
352,96,120968,1,8,0:0:0:0:
160,96,121049,1,0,0:0:0:0:
352,96,121130,1,8,0:0:0:0:
352,96,121211,1,8,0:0:0:0:
160,96,121293,1,0,0:0:0:0:
160,96,121374,1,0,0:0:0:0:
160,96,121455,1,0,0:0:0:0:
160,96,121536,1,0,0:0:0:0:
352,96,121617,1,8,0:0:0:0:
160,96,121698,1,0,0:0:0:0:
352,96,121779,1,8,0:0:0:0:
160,96,121860,1,0,0:0:0:0:
352,96,121941,1,8,0:0:0:0:
352,96,122022,1,8,0:0:0:0:
160,96,122103,1,0,0:0:0:0:
160,96,122184,1,0,0:0:0:0:
352,96,122266,1,8,0:0:0:0:
160,96,122347,1,0,0:0:0:0:
352,96,122428,1,8,0:0:0:0:
352,96,122509,1,8,0:0:0:0:
160,96,122590,1,0,0:0:0:0:
160,96,122671,1,0,0:0:0:0:
160,96,122752,1,0,0:0:0:0:
160,96,122833,1,0,0:0:0:0:
352,96,122914,1,8,0:0:0:0:
160,96,122995,1,0,0:0:0:0:
160,96,123076,1,0,0:0:0:0:
160,96,123157,1,0,0:0:0:0:
352,96,123239,1,8,0:0:0:0:
352,96,123320,1,8,0:0:0:0:
160,96,123401,1,0,0:0:0:0:
160,96,123482,1,0,0:0:0:0:
352,96,123563,1,8,0:0:0:0:
160,96,123644,1,0,0:0:0:0:
352,96,123725,1,8,0:0:0:0:
352,96,123806,1,8,0:0:0:0:
160,96,123887,1,0,0:0:0:0:
160,96,123968,1,0,0:0:0:0:
160,96,124049,1,0,0:0:0:0:
160,96,124130,1,0,0:0:0:0:
352,96,124211,1,8,0:0:0:0:
160,96,124293,1,0,0:0:0:0:
160,96,124374,1,0,0:0:0:0:
160,96,124455,1,0,0:0:0:0:
352,96,124536,1,8,0:0:0:0:
352,96,124617,1,8,0:0:0:0:
160,96,124698,1,0,0:0:0:0:
160,96,124779,1,0,0:0:0:0:
352,96,124860,1,8,0:0:0:0:
352,96,124941,1,8,0:0:0:0:
352,96,125022,1,8,0:0:0:0:
160,96,125103,1,0,0:0:0:0:
352,96,125184,1,8,0:0:0:0:
352,96,125266,1,8,0:0:0:0:
160,96,125347,1,0,0:0:0:0:
160,96,125428,1,0,0:0:0:0:
352,96,125509,1,8,0:0:0:0:
160,96,125590,1,0,0:0:0:0:
160,96,125671,1,0,0:0:0:0:
160,96,125752,1,0,0:0:0:0:
352,96,125833,1,8,0:0:0:0:
352,96,125914,1,8,0:0:0:0:
160,96,125995,1,0,0:0:0:0:
160,96,126076,1,0,0:0:0:0:
352,96,126157,1,8,0:0:0:0:
160,96,126239,1,0,0:0:0:0:
352,96,126320,1,8,0:0:0:0:
352,96,126401,1,8,0:0:0:0:
160,96,126482,1,0,0:0:0:0:
160,96,126563,1,0,0:0:0:0:
160,96,126644,1,0,0:0:0:0:
160,96,126725,1,0,0:0:0:0:
352,96,126806,1,8,0:0:0:0:
160,96,126887,1,0,0:0:0:0:
160,96,126968,1,0,0:0:0:0:
160,96,127049,1,0,0:0:0:0:
352,96,127130,1,8,0:0:0:0:
352,96,127211,1,8,0:0:0:0:
160,96,127293,1,0,0:0:0:0:
160,96,127374,1,0,0:0:0:0:
352,96,127455,1,8,0:0:0:0:
352,96,127536,1,8,0:0:0:0:
160,96,127617,1,0,0:0:0:0:
160,96,127698,1,0,0:0:0:0:
352,96,127779,1,8,0:0:0:0:
160,96,127860,1,0,0:0:0:0:
160,96,127941,1,0,0:0:0:0:
160,96,128022,1,0,0:0:0:0:
352,96,128103,1,8,0:0:0:0:
160,96,128184,1,0,0:0:0:0:
352,96,128266,1,8,0:0:0:0:
160,96,128347,1,0,0:0:0:0:
352,96,128428,1,8,0:0:0:0:
352,96,128509,1,8,0:0:0:0:
352,96,128590,1,8,0:0:0:0:
160,96,128671,1,0,0:0:0:0:
352,96,128752,1,8,0:0:0:0:
160,96,128833,1,0,0:0:0:0:
160,96,128914,1,0,0:0:0:0:
160,96,128995,1,0,0:0:0:0:
352,96,129076,1,8,0:0:0:0:
160,96,129157,1,0,0:0:0:0:
352,96,129239,1,8,0:0:0:0:
160,96,129320,1,0,0:0:0:0:
352,96,129401,1,8,0:0:0:0:
352,96,129482,1,8,0:0:0:0:
352,96,129563,1,8,0:0:0:0:
160,96,129644,1,0,0:0:0:0:
352,96,129725,1,8,0:0:0:0:
352,96,129806,1,8,0:0:0:0:
352,96,129887,1,8,0:0:0:0:
160,96,129968,1,0,0:0:0:0:
352,96,130049,1,8,0:0:0:0:
352,96,130130,1,8,0:0:0:0:
160,96,130211,1,0,0:0:0:0:
352,288,130374,1,12,0:0:0:0:
160,96,130536,1,0,0:0:0:0:
160,96,130617,1,0,0:0:0:0:
352,96,130698,1,8,0:0:0:0:
160,96,130779,1,0,0:0:0:0:
160,96,130860,1,0,0:0:0:0:
160,96,130941,1,0,0:0:0:0:
352,96,131022,1,8,0:0:0:0:
352,96,131103,1,8,0:0:0:0:
160,96,131184,1,0,0:0:0:0:
160,96,131266,1,0,0:0:0:0:
352,96,131347,1,8,0:0:0:0:
160,96,131428,1,0,0:0:0:0:
352,96,131509,1,8,0:0:0:0:
352,96,131590,1,8,0:0:0:0:
160,96,131671,1,0,0:0:0:0:
160,96,131752,1,0,0:0:0:0:
160,96,131833,1,0,0:0:0:0:
160,96,131914,1,0,0:0:0:0:
352,96,131995,1,8,0:0:0:0:
160,96,132076,1,0,0:0:0:0:
160,96,132157,1,0,0:0:0:0:
160,96,132239,1,0,0:0:0:0:
352,96,132320,1,8,0:0:0:0:
352,96,132401,1,8,0:0:0:0:
160,96,132482,1,0,0:0:0:0:
160,96,132563,1,0,0:0:0:0:
352,96,132644,1,8,0:0:0:0:
352,96,132725,1,8,0:0:0:0:
352,96,132806,1,8,0:0:0:0:
352,96,132887,1,8,0:0:0:0:
160,96,132968,1,0,0:0:0:0:
160,96,133049,1,0,0:0:0:0:
160,96,133130,1,0,0:0:0:0:
160,96,133211,1,0,0:0:0:0:
352,96,133293,1,8,0:0:0:0:
352,96,133374,1,8,0:0:0:0:
160,96,133455,1,0,0:0:0:0:
160,96,133536,1,0,0:0:0:0:
352,96,133617,1,8,0:0:0:0:
352,96,133698,1,8,0:0:0:0:
352,96,133779,1,8,0:0:0:0:
160,96,133860,1,0,0:0:0:0:
352,96,133941,1,8,0:0:0:0:
160,96,134022,1,0,0:0:0:0:
352,96,134103,1,8,0:0:0:0:
352,96,134184,1,8,0:0:0:0:
160,96,134266,1,0,0:0:0:0:
160,96,134347,1,0,0:0:0:0:
160,96,134428,1,0,0:0:0:0:
160,96,134509,1,0,0:0:0:0:
352,96,134590,1,8,0:0:0:0:
160,96,134671,1,0,0:0:0:0:
160,96,134752,1,0,0:0:0:0:
160,96,134833,1,0,0:0:0:0:
352,96,134914,1,8,0:0:0:0:
352,96,134995,1,8,0:0:0:0:
160,96,135076,1,0,0:0:0:0:
160,96,135157,1,0,0:0:0:0:
352,96,135239,1,8,0:0:0:0:
352,96,135320,1,8,0:0:0:0:
352,96,135401,1,8,0:0:0:0:
352,96,135482,1,8,0:0:0:0:
160,96,135563,1,0,0:0:0:0:
160,96,135644,1,0,0:0:0:0:
160,96,135725,1,0,0:0:0:0:
160,96,135806,1,0,0:0:0:0:
352,96,135887,1,8,0:0:0:0:
160,96,135968,1,0,0:0:0:0:
352,96,136049,1,8,0:0:0:0:
160,96,136130,1,0,0:0:0:0:
352,96,136211,1,8,0:0:0:0:
352,96,136293,1,8,0:0:0:0:
160,96,136374,1,0,0:0:0:0:
160,96,136455,1,0,0:0:0:0:
352,96,136536,1,8,0:0:0:0:
352,96,136617,1,8,0:0:0:0:
160,96,136698,1,0,0:0:0:0:
160,96,136779,1,0,0:0:0:0:
352,96,136860,1,8,0:0:0:0:
160,96,136941,1,0,0:0:0:0:
160,96,137022,1,0,0:0:0:0:
352,96,137103,1,8,0:0:0:0:
160,96,137184,1,0,0:0:0:0:
160,96,137266,1,0,0:0:0:0:
352,96,137347,1,8,0:0:0:0:
160,96,137428,1,0,0:0:0:0:
352,96,137509,1,8,0:0:0:0:
352,96,137590,1,8,0:0:0:0:
352,96,137671,1,8,0:0:0:0:
160,96,137752,1,0,0:0:0:0:
352,96,137833,1,8,0:0:0:0:
352,96,137914,1,8,0:0:0:0:
160,96,137995,1,0,0:0:0:0:
160,96,138076,1,0,0:0:0:0:
352,96,138157,1,8,0:0:0:0:
352,96,138239,1,8,0:0:0:0:
160,96,138320,1,0,0:0:0:0:
352,96,138401,1,8,0:0:0:0:
160,96,138482,1,0,0:0:0:0:
160,96,138563,1,0,0:0:0:0:
352,96,138644,1,8,0:0:0:0:
160,96,138725,1,0,0:0:0:0:
352,96,138806,1,8,0:0:0:0:
352,96,138887,1,8,0:0:0:0:
352,96,138968,1,8,0:0:0:0:
160,96,139049,1,0,0:0:0:0:
352,96,139130,1,8,0:0:0:0:
352,96,139211,1,8,0:0:0:0:
160,96,139293,1,0,0:0:0:0:
352,96,139374,1,8,0:0:0:0:
160,96,139455,1,0,0:0:0:0:
160,96,139536,1,0,0:0:0:0:
352,96,139617,1,8,0:0:0:0:
160,96,139698,1,0,0:0:0:0:
352,96,139779,1,8,0:0:0:0:
352,96,139860,1,8,0:0:0:0:
352,96,139941,1,8,0:0:0:0:
160,96,140022,1,0,0:0:0:0:
352,96,140103,1,8,0:0:0:0:
352,96,140184,1,8,0:0:0:0:
160,96,140266,1,0,0:0:0:0:
160,96,140347,1,0,0:0:0:0:
352,96,140428,1,8,0:0:0:0:
160,96,140509,1,0,0:0:0:0:
160,96,140590,1,0,0:0:0:0:
160,96,140671,1,0,0:0:0:0:
352,96,140752,1,8,0:0:0:0:
160,96,141076,1,0,0:0:0:0:
352,96,141239,1,8,0:0:0:0:
160,96,141401,1,0,0:0:0:0:
160,96,141563,1,0,0:0:0:0:
352,96,141725,1,8,0:0:0:0:
160,96,142049,1,0,0:0:0:0:
352,96,142211,1,8,0:0:0:0:
160,96,142374,1,0,0:0:0:0:
160,96,142536,1,0,0:0:0:0:
352,96,142698,1,8,0:0:0:0:
160,96,142860,1,0,0:0:0:0:
352,96,143022,1,8,0:0:0:0:
160,96,143184,1,0,0:0:0:0:
352,96,143347,1,8,0:0:0:0:
160,96,143671,1,0,0:0:0:0:
352,96,143833,1,8,0:0:0:0:
352,96,143995,1,8,0:0:0:0:
160,96,144157,1,0,0:0:0:0:
352,96,144320,1,8,0:0:0:0:
160,96,144644,1,0,0:0:0:0:
352,96,144806,1,8,0:0:0:0:
160,96,144968,1,0,0:0:0:0:
160,96,145130,1,0,0:0:0:0:
352,96,145293,1,8,0:0:0:0:
352,96,145333,1,8,0:0:0:0:
160,96,145455,1,0,0:0:0:0:
352,96,145617,1,8,0:0:0:0:
160,96,145779,1,0,0:0:0:0:
160,288,145941,1,4,0:0:0:0:
160,96,146266,1,0,0:0:0:0:
352,96,146428,1,8,0:0:0:0:
160,96,146590,1,0,0:0:0:0:
160,96,146752,1,0,0:0:0:0:
352,96,146914,1,8,0:0:0:0:
160,96,147076,1,0,0:0:0:0:
160,96,147239,1,0,0:0:0:0:
352,96,147401,1,8,0:0:0:0:
160,96,147563,1,0,0:0:0:0:
160,96,147725,1,0,0:0:0:0:
352,96,147887,1,8,0:0:0:0:
160,96,148049,1,0,0:0:0:0:
352,96,148211,1,8,0:0:0:0:
160,96,148374,1,0,0:0:0:0:
352,96,148536,1,8,0:0:0:0:
160,96,148698,1,0,0:0:0:0:
160,96,148860,1,0,0:0:0:0:
352,96,149022,1,8,0:0:0:0:
160,96,149184,1,0,0:0:0:0:
352,96,149347,1,8,0:0:0:0:
352,96,149509,1,8,0:0:0:0:
160,96,149671,1,0,0:0:0:0:
160,96,149833,1,0,0:0:0:0:
352,288,149995,1,12,0:0:0:0:
352,288,150157,1,12,0:0:0:0:
160,96,150320,1,0,0:0:0:0:
352,288,150482,1,12,0:0:0:0:
160,96,150644,1,0,0:0:0:0:
352,288,150806,1,12,0:0:0:0:
160,96,150968,1,0,0:0:0:0:
160,288,151130,1,4,0:0:0:0:
352,96,151455,1,8,0:0:0:0:
160,96,151617,1,0,0:0:0:0:
352,96,151779,1,8,0:0:0:0:
352,96,151941,1,8,0:0:0:0:
160,96,152103,1,0,0:0:0:0:
352,96,152266,1,8,0:0:0:0:
352,96,152347,1,8,0:0:0:0:
160,96,152428,1,0,0:0:0:0:
352,96,152590,1,8,0:0:0:0:
160,96,152752,1,0,0:0:0:0:
160,96,152914,1,0,0:0:0:0:
352,96,153076,1,8,0:0:0:0:
160,96,153157,1,0,0:0:0:0:
160,96,153239,1,0,0:0:0:0:
160,96,153320,1,0,0:0:0:0:
352,96,153401,1,8,0:0:0:0:
160,96,153563,1,0,0:0:0:0:
352,288,153725,1,12,0:0:0:0:
160,96,153887,1,0,0:0:0:0:
160,96,153968,1,0,0:0:0:0:
160,96,154049,1,0,0:0:0:0:
352,96,154211,1,8,0:0:0:0:
160,96,154374,1,0,0:0:0:0:
352,96,154536,1,8,0:0:0:0:
160,96,154698,1,0,0:0:0:0:
352,96,154860,1,8,0:0:0:0:
352,96,154941,1,8,0:0:0:0:
352,96,155022,1,8,0:0:0:0:
160,96,155184,1,0,0:0:0:0:
160,96,155266,1,0,0:0:0:0:
160,96,155347,1,0,0:0:0:0:
160,96,155509,1,0,0:0:0:0:
352,96,155671,1,8,0:0:0:0:
352,96,155711,1,8,0:0:0:0:
160,96,155833,1,0,0:0:0:0:
352,96,155995,1,8,0:0:0:0:
160,96,156157,1,0,0:0:0:0:
160,288,156320,1,4,0:0:0:0:
352,96,156644,1,8,0:0:0:0:
160,96,156806,1,0,0:0:0:0:
160,96,156887,1,0,0:0:0:0:
352,96,156968,1,8,0:0:0:0:
160,96,157130,1,0,0:0:0:0:
352,96,157293,1,8,0:0:0:0:
160,96,157455,1,0,0:0:0:0:
352,96,157617,1,8,0:0:0:0:
160,96,157779,1,0,0:0:0:0:
160,96,157860,1,0,0:0:0:0:
352,96,157941,1,8,0:0:0:0:
352,96,158103,1,8,0:0:0:0:
160,96,158266,1,0,0:0:0:0:
160,96,158347,1,0,0:0:0:0:
160,96,158428,1,0,0:0:0:0:
160,96,158509,1,0,0:0:0:0:
352,96,158590,1,8,0:0:0:0:
160,96,158752,1,0,0:0:0:0:
352,288,158914,1,12,0:0:0:0:
160,96,159076,1,0,0:0:0:0:
352,288,159239,1,12,0:0:0:0:
160,96,159401,1,0,0:0:0:0:
352,288,159563,1,12,0:0:0:0:
160,96,159725,1,0,0:0:0:0:
352,288,159887,1,12,0:0:0:0:
160,96,160049,1,0,0:0:0:0:
352,96,160211,1,8,0:0:0:0:
352,96,160293,1,8,0:0:0:0:
160,96,160374,1,0,0:0:0:0:
352,96,160455,1,8,0:0:0:0:
160,96,160536,1,0,0:0:0:0:
160,96,160617,1,0,0:0:0:0:
352,96,160698,1,8,0:0:0:0:
352,96,160779,1,8,0:0:0:0:
160,96,160860,1,0,0:0:0:0:
352,96,160941,1,8,0:0:0:0:
160,96,161022,1,0,0:0:0:0:
160,96,161103,1,0,0:0:0:0:
352,96,161184,1,8,0:0:0:0:
352,96,161266,1,8,0:0:0:0:
352,96,161347,1,8,0:0:0:0:
160,288,161509,1,4,0:0:0:0:
160,96,161671,1,0,0:0:0:0:
160,96,161833,1,0,0:0:0:0:
352,96,161995,1,8,0:0:0:0:
160,96,162157,1,0,0:0:0:0:
160,96,162320,1,0,0:0:0:0:
352,96,162482,1,8,0:0:0:0:
160,96,162806,1,0,0:0:0:0:
352,96,162968,1,8,0:0:0:0:
160,96,163130,1,0,0:0:0:0:
160,96,163293,1,0,0:0:0:0:
352,96,163455,1,8,0:0:0:0:
160,96,163617,1,0,0:0:0:0:
352,96,163779,1,8,0:0:0:0:
160,96,163941,1,0,0:0:0:0:
352,96,164103,1,8,0:0:0:0:
160,96,164428,1,0,0:0:0:0:
352,96,164590,1,8,0:0:0:0:
160,96,164752,1,0,0:0:0:0:
160,96,164914,1,0,0:0:0:0:
352,96,165076,1,8,0:0:0:0:
160,96,165239,1,0,0:0:0:0:
160,96,165401,1,0,0:0:0:0:
160,96,165563,1,0,0:0:0:0:
352,96,165725,1,8,0:0:0:0:
160,96,165887,1,0,0:0:0:0:
160,96,166049,1,0,0:0:0:0:
160,96,166130,1,0,0:0:0:0:
160,96,166211,1,0,0:0:0:0:
160,96,166293,1,0,0:0:0:0:
352,96,166374,1,8,0:0:0:0:
352,96,166536,1,8,0:0:0:0:
160,288,166698,1,4,0:0:0:0:
352,288,167022,1,12,0:0:0:0:
160,96,167347,1,0,0:0:0:0:
160,96,167509,1,0,0:0:0:0:
352,96,167671,1,8,0:0:0:0:
160,96,167995,1,0,0:0:0:0:
352,96,168157,1,8,0:0:0:0:
160,96,168320,1,0,0:0:0:0:
160,96,168482,1,0,0:0:0:0:
352,96,168644,1,8,0:0:0:0:
160,96,168806,1,0,0:0:0:0:
352,96,168968,1,8,0:0:0:0:
160,96,169130,1,0,0:0:0:0:
352,96,169293,1,8,0:0:0:0:
160,96,169455,1,0,0:0:0:0:
160,96,169617,1,0,0:0:0:0:
352,96,169779,1,8,0:0:0:0:
160,96,169941,1,0,0:0:0:0:
160,96,170103,1,0,0:0:0:0:
352,96,170266,1,8,0:0:0:0:
160,96,170590,1,0,0:0:0:0:
160,96,170752,1,0,0:0:0:0:
352,96,170914,1,8,0:0:0:0:
160,96,171076,1,0,0:0:0:0:
352,96,171239,1,8,0:0:0:0:
160,96,171401,1,0,0:0:0:0:
352,96,171482,1,8,0:0:0:0:
352,96,171563,1,8,0:0:0:0:
160,96,171644,1,0,0:0:0:0:
352,96,171725,1,8,0:0:0:0:
160,96,171806,1,0,0:0:0:0:
352,96,171887,1,8,0:0:0:0:
160,96,172049,1,0,0:0:0:0:
160,96,172211,1,0,0:0:0:0:
352,96,172374,1,8,0:0:0:0:
160,96,172536,1,0,0:0:0:0:
160,96,172698,1,0,0:0:0:0:
352,96,172860,1,8,0:0:0:0:
160,96,173022,1,0,0:0:0:0:
160,96,173184,1,0,0:0:0:0:
352,96,173347,1,8,0:0:0:0:
160,96,173509,1,0,0:0:0:0:
160,96,173671,1,0,0:0:0:0:
352,96,173833,1,8,0:0:0:0:
160,96,173995,1,0,0:0:0:0:
352,96,174157,1,8,0:0:0:0:
160,96,174320,1,0,0:0:0:0:
352,288,174482,1,12,0:0:0:0:
160,96,174644,1,0,0:0:0:0:
160,96,174806,1,0,0:0:0:0:
352,96,174968,1,8,0:0:0:0:
160,96,175130,1,0,0:0:0:0:
160,96,175293,1,0,0:0:0:0:
352,96,175455,1,8,0:0:0:0:
160,96,175617,1,0,0:0:0:0:
160,96,175779,1,0,0:0:0:0:
160,96,175941,1,0,0:0:0:0:
352,96,176103,1,8,0:0:0:0:
160,96,176266,1,0,0:0:0:0:
352,96,176428,1,8,0:0:0:0:
160,96,176509,1,0,0:0:0:0:
352,96,176590,1,8,0:0:0:0:
352,96,176671,1,8,0:0:0:0:
352,96,176752,1,8,0:0:0:0:
160,96,176914,1,0,0:0:0:0:
352,96,177076,1,8,0:0:0:0:
352,96,177157,1,8,0:0:0:0:
160,96,177239,1,0,0:0:0:0:
160,96,177320,1,0,0:0:0:0:
160,96,177401,1,0,0:0:0:0:
160,96,177482,1,0,0:0:0:0:
352,96,177563,1,8,0:0:0:0:
352,96,177644,1,8,0:0:0:0:
160,96,177725,1,0,0:0:0:0:
160,96,177806,1,0,0:0:0:0:
160,96,177887,1,0,0:0:0:0:
160,96,177968,1,0,0:0:0:0:
352,96,178049,1,8,0:0:0:0:
160,96,178130,1,0,0:0:0:0:
160,96,178211,1,0,0:0:0:0:
160,96,178293,1,0,0:0:0:0:
160,96,178374,1,0,0:0:0:0:
160,96,178455,1,0,0:0:0:0:
352,96,178536,1,8,0:0:0:0:
160,96,178617,1,0,0:0:0:0:
160,96,178698,1,0,0:0:0:0:
160,96,178779,1,0,0:0:0:0:
160,96,178860,1,0,0:0:0:0:
160,96,178941,1,0,0:0:0:0:
352,96,179022,1,8,0:0:0:0:
352,96,179103,1,8,0:0:0:0:
160,96,179184,1,0,0:0:0:0:
160,96,179266,1,0,0:0:0:0:
352,96,179347,1,8,0:0:0:0:
352,96,179428,1,8,0:0:0:0:
160,96,179509,1,0,0:0:0:0:
160,96,179590,1,0,0:0:0:0:
352,96,179671,1,8,0:0:0:0:
160,96,179752,1,0,0:0:0:0:
160,96,179833,1,0,0:0:0:0:
160,96,179914,1,0,0:0:0:0:
160,96,179995,1,0,0:0:0:0:
160,96,180076,1,0,0:0:0:0:
352,96,180157,1,8,0:0:0:0:
160,96,180239,1,0,0:0:0:0:
160,96,180320,1,0,0:0:0:0:
160,96,180401,1,0,0:0:0:0:
160,96,180482,1,0,0:0:0:0:
160,96,180563,1,0,0:0:0:0:
352,96,180644,1,8,0:0:0:0:
352,96,180725,1,8,0:0:0:0:
160,96,180806,1,0,0:0:0:0:
160,96,180887,1,0,0:0:0:0:
352,96,180968,1,8,0:0:0:0:
160,96,181049,1,0,0:0:0:0:
160,96,181130,1,0,0:0:0:0:
160,96,181211,1,0,0:0:0:0:
352,96,181293,1,8,0:0:0:0:
352,96,181374,1,8,0:0:0:0:
160,96,181455,1,0,0:0:0:0:
160,96,181536,1,0,0:0:0:0:
352,96,181617,1,8,0:0:0:0:
352,96,181725,1,8,0:0:0:0:
352,96,181833,1,8,0:0:0:0:
160,96,181941,1,0,0:0:0:0:
160,96,182049,1,0,0:0:0:0:
160,96,182157,1,0,0:0:0:0:
352,96,182266,1,8,0:0:0:0:
352,96,182306,1,8,0:0:0:0:
352,96,186968,5,8,0:0:0:0:
352,96,187130,1,8,0:0:0:0:
352,96,187293,1,8,0:0:0:0:
160,288,187455,1,4,0:0:0:0:
160,96,187617,1,0,0:0:0:0:
160,96,187779,1,0,0:0:0:0:
160,96,187941,1,0,0:0:0:0:
160,96,188022,1,0,0:0:0:0:
352,96,188103,1,8,0:0:0:0:
160,96,188266,1,0,0:0:0:0:
160,96,188428,1,0,0:0:0:0:
160,96,188509,1,0,0:0:0:0:
160,96,188590,1,0,0:0:0:0:
160,96,188752,1,0,0:0:0:0:
160,96,188914,1,0,0:0:0:0:
160,96,188995,1,0,0:0:0:0:
160,96,189076,1,0,0:0:0:0:
160,96,189239,1,0,0:0:0:0:
352,96,189401,1,8,0:0:0:0:
160,96,189482,1,0,0:0:0:0:
160,96,189563,1,0,0:0:0:0:
160,96,189644,1,0,0:0:0:0:
160,96,189725,1,0,0:0:0:0:
160,96,189806,1,0,0:0:0:0:
160,96,189887,1,0,0:0:0:0:
160,96,189968,1,0,0:0:0:0:
352,96,190049,1,8,0:0:0:0:
160,96,190130,1,0,0:0:0:0:
160,96,190211,1,0,0:0:0:0:
160,96,190374,1,0,0:0:0:0:
160,96,190536,1,0,0:0:0:0:
160,96,190617,1,0,0:0:0:0:
352,96,190698,1,8,0:0:0:0:
160,96,190860,1,0,0:0:0:0:
160,96,191022,1,0,0:0:0:0:
160,96,191103,1,0,0:0:0:0:
160,96,191184,1,0,0:0:0:0:
160,96,191347,1,0,0:0:0:0:
160,96,191509,1,0,0:0:0:0:
160,96,191590,1,0,0:0:0:0:
160,96,191671,1,0,0:0:0:0:
160,96,191833,1,0,0:0:0:0:
352,96,191995,1,8,0:0:0:0:
160,96,192076,1,0,0:0:0:0:
160,96,192157,1,0,0:0:0:0:
352,96,192320,1,8,0:0:0:0:
160,96,192401,1,0,0:0:0:0:
160,96,192482,1,0,0:0:0:0:
160,96,192644,1,0,0:0:0:0:
160,96,192725,1,0,0:0:0:0:
160,96,192806,1,0,0:0:0:0:
160,96,192968,1,0,0:0:0:0:
160,96,193130,1,0,0:0:0:0:
160,96,193211,1,0,0:0:0:0:
352,96,193293,1,8,0:0:0:0:
160,96,193455,1,0,0:0:0:0:
160,96,193617,1,0,0:0:0:0:
160,96,193698,1,0,0:0:0:0:
160,96,193779,1,0,0:0:0:0:
160,96,193941,1,0,0:0:0:0:
160,96,194103,1,0,0:0:0:0:
160,96,194184,1,0,0:0:0:0:
160,96,194266,1,0,0:0:0:0:
160,96,194428,1,0,0:0:0:0:
352,96,194590,1,8,0:0:0:0:
160,96,194671,1,0,0:0:0:0:
160,96,194752,1,0,0:0:0:0:
160,96,194833,1,0,0:0:0:0:
160,96,194914,1,0,0:0:0:0:
160,96,194995,1,0,0:0:0:0:
160,96,195076,1,0,0:0:0:0:
160,96,195157,1,0,0:0:0:0:
352,96,195239,1,8,0:0:0:0:
160,96,195320,1,0,0:0:0:0:
160,96,195401,1,0,0:0:0:0:
160,96,195563,1,0,0:0:0:0:
160,96,195725,1,0,0:0:0:0:
160,96,195806,1,0,0:0:0:0:
352,96,195887,1,8,0:0:0:0:
160,96,196049,1,0,0:0:0:0:
160,96,196211,1,0,0:0:0:0:
160,96,196293,1,0,0:0:0:0:
160,96,196374,1,0,0:0:0:0:
160,96,196536,1,0,0:0:0:0:
160,96,196698,1,0,0:0:0:0:
160,96,196779,1,0,0:0:0:0:
160,96,196860,1,0,0:0:0:0:
160,96,197022,1,0,0:0:0:0:
352,96,197184,1,8,0:0:0:0:
352,96,197266,1,8,0:0:0:0:
160,96,197347,1,0,0:0:0:0:
352,96,197509,1,8,0:0:0:0:
352,96,197590,1,8,0:0:0:0:
160,96,197671,1,0,0:0:0:0:
160,96,197833,1,0,0:0:0:0:
160,96,197914,1,0,0:0:0:0:
160,96,197995,1,0,0:0:0:0:
160,96,198157,1,0,0:0:0:0:
160,96,198320,1,0,0:0:0:0:
160,96,198401,1,0,0:0:0:0:
352,96,198482,1,8,0:0:0:0:
160,96,198644,1,0,0:0:0:0:
160,96,198806,1,0,0:0:0:0:
160,96,198887,1,0,0:0:0:0:
160,96,198968,1,0,0:0:0:0:
160,96,199130,1,0,0:0:0:0:
160,96,199293,1,0,0:0:0:0:
160,96,199374,1,0,0:0:0:0:
160,96,199455,1,0,0:0:0:0:
160,96,199617,1,0,0:0:0:0:
352,96,199779,1,8,0:0:0:0:
160,96,199860,1,0,0:0:0:0:
160,96,199941,1,0,0:0:0:0:
160,96,200022,1,0,0:0:0:0:
160,96,200103,1,0,0:0:0:0:
160,96,200184,1,0,0:0:0:0:
160,96,200266,1,0,0:0:0:0:
160,96,200347,1,0,0:0:0:0:
352,96,200428,1,8,0:0:0:0:
160,96,200509,1,0,0:0:0:0:
160,96,200590,1,0,0:0:0:0:
160,96,200752,1,0,0:0:0:0:
160,96,200914,1,0,0:0:0:0:
160,96,200995,1,0,0:0:0:0:
352,96,201076,1,8,0:0:0:0:
160,96,201239,1,0,0:0:0:0:
160,96,201401,1,0,0:0:0:0:
160,96,201482,1,0,0:0:0:0:
160,96,201563,1,0,0:0:0:0:
352,96,201725,1,8,0:0:0:0:
160,96,201806,1,0,0:0:0:0:
160,96,201887,1,0,0:0:0:0:
160,96,201968,1,0,0:0:0:0:
352,96,202049,1,8,0:0:0:0:
160,96,202130,1,0,0:0:0:0:
160,96,202211,1,0,0:0:0:0:
160,96,202293,1,0,0:0:0:0:
352,96,202374,1,8,0:0:0:0:
352,96,202455,1,8,0:0:0:0:
352,96,202536,1,8,0:0:0:0:
160,96,202617,1,0,0:0:0:0:
352,96,202698,1,8,0:0:0:0:
352,96,202779,1,8,0:0:0:0:
160,96,202860,1,0,0:0:0:0:
160,96,202941,1,0,0:0:0:0:
352,96,203022,1,8,0:0:0:0:
160,96,203103,1,0,0:0:0:0:
160,96,203184,1,0,0:0:0:0:
352,96,203347,1,8,0:0:0:0:
160,96,203428,1,0,0:0:0:0:
160,96,203509,1,0,0:0:0:0:
352,96,203671,1,8,0:0:0:0:
160,96,203995,1,0,0:0:0:0:
352,96,204157,1,8,0:0:0:0:
160,96,204320,1,0,0:0:0:0:
352,96,204482,1,8,0:0:0:0:
160,96,204644,1,0,0:0:0:0:
352,96,204806,1,8,0:0:0:0:
352,96,204968,1,8,0:0:0:0:
160,96,205130,1,0,0:0:0:0:
160,96,205293,1,0,0:0:0:0:
160,96,205455,1,0,0:0:0:0:
352,96,205617,1,8,0:0:0:0:
160,96,205779,1,0,0:0:0:0:
352,96,205941,1,8,0:0:0:0:
160,96,206103,1,0,0:0:0:0:
352,96,206266,1,8,0:0:0:0:
160,96,206590,1,0,0:0:0:0:
352,96,206752,1,8,0:0:0:0:
160,96,206914,1,0,0:0:0:0:
352,96,207076,1,8,0:0:0:0:
160,96,207239,1,0,0:0:0:0:
352,96,207401,1,8,0:0:0:0:
352,96,207563,1,8,0:0:0:0:
160,288,207725,1,4,0:0:0:0:
160,288,207887,1,4,0:0:0:0:
160,288,208049,1,4,0:0:0:0:
352,288,208211,1,12,0:0:0:0:
160,96,208374,1,0,0:0:0:0:
352,96,208536,1,8,0:0:0:0:
160,96,208698,1,0,0:0:0:0:
352,96,208860,1,8,0:0:0:0:
160,96,209184,1,0,0:0:0:0:
352,96,209347,1,8,0:0:0:0:
160,96,209509,1,0,0:0:0:0:
352,96,209671,1,8,0:0:0:0:
160,96,209833,1,0,0:0:0:0:
352,96,209995,1,8,0:0:0:0:
352,96,210157,1,8,0:0:0:0:
160,96,210320,1,0,0:0:0:0:
160,96,210482,1,0,0:0:0:0:
160,96,210644,1,0,0:0:0:0:
352,96,210806,1,8,0:0:0:0:
160,96,210968,1,0,0:0:0:0:
352,96,211130,1,8,0:0:0:0:
160,96,211293,1,0,0:0:0:0:
352,96,211455,1,8,0:0:0:0:
160,96,211779,1,0,0:0:0:0:
352,96,211941,1,8,0:0:0:0:
160,96,212103,1,0,0:0:0:0:
352,96,212266,1,8,0:0:0:0:
160,96,212428,1,0,0:0:0:0:
352,96,212590,1,8,0:0:0:0:
352,96,212752,1,8,0:0:0:0:
160,288,212914,1,4,0:0:0:0:
160,288,213076,1,4,0:0:0:0:
160,288,213239,1,4,0:0:0:0:
352,288,213401,1,12,0:0:0:0:
160,96,213563,1,0,0:0:0:0:
352,96,213725,1,8,0:0:0:0:
160,96,213887,1,0,0:0:0:0:
352,96,214049,1,8,0:0:0:0:
160,96,214211,1,0,0:0:0:0:
160,96,214293,1,0,0:0:0:0:
160,96,214374,1,0,0:0:0:0:
352,96,214536,1,8,0:0:0:0:
160,96,214698,1,0,0:0:0:0:
352,96,214860,1,8,0:0:0:0:
160,96,215022,1,0,0:0:0:0:
352,96,215184,1,8,0:0:0:0:
352,96,215347,1,8,0:0:0:0:
160,96,215509,1,0,0:0:0:0:
160,96,215590,1,0,0:0:0:0:
160,96,215671,1,0,0:0:0:0:
160,96,215833,1,0,0:0:0:0:
352,96,215995,1,8,0:0:0:0:
160,96,216157,1,0,0:0:0:0:
352,96,216320,1,8,0:0:0:0:
160,96,216482,1,0,0:0:0:0:
352,96,216644,1,8,0:0:0:0:
160,96,216806,1,0,0:0:0:0:
160,96,216968,1,0,0:0:0:0:
160,96,217049,1,0,0:0:0:0:
160,96,217130,1,0,0:0:0:0:
160,96,217211,1,0,0:0:0:0:
160,96,217293,1,0,0:0:0:0:
352,96,217401,1,8,0:0:0:0:
352,96,217509,1,8,0:0:0:0:
160,96,217617,1,0,0:0:0:0:
160,96,217725,1,0,0:0:0:0:
160,96,217833,1,0,0:0:0:0:
352,96,217941,1,8,0:0:0:0:
352,96,218049,1,8,0:0:0:0:
352,96,218157,1,8,0:0:0:0:
160,96,218266,1,0,0:0:0:0:
160,96,218374,1,0,0:0:0:0:
160,96,218482,1,0,0:0:0:0:
352,288,218585,1,12,0:0:0:0:
352,96,218937,1,8,0:0:0:0:
352,96,219290,1,8,0:0:0:0:
352,96,219643,1,8,0:0:0:0:
352,96,219820,1,8,0:0:0:0:
352,96,221761,1,8,0:0:0:0:
352,96,222114,1,8,0:0:0:0:
352,96,222467,1,8,0:0:0:0:
352,96,222643,1,8,0:0:0:0:
352,96,224585,1,8,0:0:0:0:
352,96,224937,1,8,0:0:0:0:
352,96,225290,1,8,0:0:0:0:
352,96,225467,1,8,0:0:0:0:
352,96,226349,1,8,0:0:0:0:
352,96,226702,1,8,0:0:0:0:
352,96,226879,1,8,0:0:0:0:
160,96,228467,5,0,0:0:0:0:
160,96,228556,1,0,0:0:0:0:
160,96,228645,1,0,0:0:0:0:
160,96,228734,1,0,0:0:0:0:
352,96,228824,1,8,0:0:0:0:
160,96,229181,1,0,0:0:0:0:
160,96,229270,1,0,0:0:0:0:
160,96,229359,1,0,0:0:0:0:
160,96,229449,1,0,0:0:0:0:
352,96,229538,1,8,0:0:0:0:
160,288,229895,1,4,0:0:0:0:
352,96,230237,1,8,0:0:0:0:
352,96,230581,1,8,0:0:0:0:
352,96,230925,1,8,0:0:0:0:
352,96,231098,1,8,0:0:0:0:
160,96,231270,1,0,0:0:0:0:
352,96,231614,1,8,0:0:0:0:
352,96,231959,1,8,0:0:0:0:
352,96,232299,1,8,0:0:0:0:
352,96,232470,1,8,0:0:0:0:
160,96,232640,1,0,0:0:0:0:
352,96,232990,1,8,0:0:0:0:
352,96,233341,1,8,0:0:0:0:
352,96,233687,1,8,0:0:0:0:
352,96,233861,1,8,0:0:0:0:
160,96,234034,1,0,0:0:0:0:
352,96,234200,1,8,0:0:0:0:
352,96,234367,1,8,0:0:0:0:
352,96,234700,1,8,0:0:0:0:
352,96,235046,1,8,0:0:0:0:
352,96,235220,1,8,0:0:0:0:
160,288,235393,1,4,0:0:0:0:
352,96,235729,1,8,0:0:0:0:
352,96,236066,1,8,0:0:0:0:
352,96,236397,1,8,0:0:0:0:
352,96,236563,1,8,0:0:0:0:
160,96,236728,1,0,0:0:0:0:
352,96,237063,1,8,0:0:0:0:
352,96,237398,1,8,0:0:0:0:
352,96,237729,1,8,0:0:0:0:
352,96,237895,1,8,0:0:0:0:
352,96,238061,1,8,0:0:0:0:
352,96,238143,1,8,0:0:0:0:
160,96,238226,1,0,0:0:0:0:
160,96,238309,1,0,0:0:0:0:
160,96,238392,1,0,0:0:0:0:
160,96,238475,1,0,0:0:0:0:
352,96,238558,1,8,0:0:0:0:
352,96,238641,1,8,0:0:0:0:
160,96,238724,1,0,0:0:0:0:
160,96,238807,1,0,0:0:0:0:
352,96,238890,1,8,0:0:0:0:
160,96,238973,1,0,0:0:0:0:
160,96,239056,1,0,0:0:0:0:
160,96,239139,1,0,0:0:0:0:
160,96,239222,1,0,0:0:0:0:
160,96,239305,1,0,0:0:0:0:
352,96,239388,1,8,0:0:0:0:
352,96,239471,1,8,0:0:0:0:
160,96,239554,1,0,0:0:0:0:
160,96,239637,1,0,0:0:0:0:
352,96,239720,1,8,0:0:0:0:
160,96,239803,1,0,0:0:0:0:
160,96,239886,1,0,0:0:0:0:
160,96,239969,1,0,0:0:0:0:
352,96,240052,1,8,0:0:0:0:
352,96,240135,1,8,0:0:0:0:
160,96,240218,1,0,0:0:0:0:
352,288,240384,1,12,0:0:0:0:
160,288,240721,1,4,0:0:0:0:
160,96,240883,1,0,0:0:0:0:
160,96,240964,1,0,0:0:0:0:
352,96,241045,1,8,0:0:0:0:
352,96,241126,1,8,0:0:0:0:
160,96,241207,1,0,0:0:0:0:
160,96,241288,1,0,0:0:0:0:
352,96,241369,1,8,0:0:0:0:
352,96,241450,1,8,0:0:0:0:
160,96,241531,1,0,0:0:0:0:
160,96,241612,1,0,0:0:0:0:
352,96,241693,1,8,0:0:0:0:
160,96,241775,1,0,0:0:0:0:
352,96,241856,1,8,0:0:0:0:
352,96,241937,1,8,0:0:0:0:
160,96,242018,1,0,0:0:0:0:
160,96,242099,1,0,0:0:0:0:
160,96,242180,1,0,0:0:0:0:
160,96,242261,1,0,0:0:0:0:
352,96,242342,1,8,0:0:0:0:
160,96,242423,1,0,0:0:0:0:
352,96,242504,1,8,0:0:0:0:
160,96,242585,1,0,0:0:0:0:
352,96,242666,1,8,0:0:0:0:
352,96,242748,1,8,0:0:0:0:
160,96,242829,1,0,0:0:0:0:
160,96,242910,1,0,0:0:0:0:
352,96,242991,1,8,0:0:0:0:
160,96,243072,1,0,0:0:0:0:
352,96,243153,1,8,0:0:0:0:
352,96,243234,1,8,0:0:0:0:
160,96,243315,1,0,0:0:0:0:
160,96,243396,1,0,0:0:0:0:
160,96,243477,1,0,0:0:0:0:
160,96,243558,1,0,0:0:0:0:
352,96,243639,1,8,0:0:0:0:
160,96,243721,1,0,0:0:0:0:
160,96,243802,1,0,0:0:0:0:
160,96,243883,1,0,0:0:0:0:
352,96,243964,1,8,0:0:0:0:
352,96,244045,1,8,0:0:0:0:
160,96,244126,1,0,0:0:0:0:
160,96,244207,1,0,0:0:0:0:
352,96,244288,1,8,0:0:0:0:
160,96,244369,1,0,0:0:0:0:
352,96,244450,1,8,0:0:0:0:
352,96,244531,1,8,0:0:0:0:
160,96,244612,1,0,0:0:0:0:
160,96,244693,1,0,0:0:0:0:
160,96,244775,1,0,0:0:0:0:
160,96,244856,1,0,0:0:0:0:
352,96,244937,1,8,0:0:0:0:
160,96,245018,1,0,0:0:0:0:
160,96,245099,1,0,0:0:0:0:
160,96,245180,1,0,0:0:0:0:
352,96,245261,1,8,0:0:0:0:
352,96,245342,1,8,0:0:0:0:
160,96,245423,1,0,0:0:0:0:
160,96,245504,1,0,0:0:0:0:
352,96,245585,1,8,0:0:0:0:
352,96,245666,1,8,0:0:0:0:
352,96,245748,1,8,0:0:0:0:
160,96,245829,1,0,0:0:0:0:
352,96,245910,1,8,0:0:0:0:
352,96,245991,1,8,0:0:0:0:
160,96,246072,1,0,0:0:0:0:
160,96,246153,1,0,0:0:0:0:
352,96,246234,1,8,0:0:0:0:
160,96,246315,1,0,0:0:0:0:
160,96,246396,1,0,0:0:0:0:
160,96,246477,1,0,0:0:0:0:
352,96,246558,1,8,0:0:0:0:
352,96,246639,1,8,0:0:0:0:
160,96,246721,1,0,0:0:0:0:
160,96,246802,1,0,0:0:0:0:
352,96,246883,1,8,0:0:0:0:
160,96,246964,1,0,0:0:0:0:
352,96,247045,1,8,0:0:0:0:
352,96,247126,1,8,0:0:0:0:
160,96,247207,1,0,0:0:0:0:
160,96,247288,1,0,0:0:0:0:
160,96,247369,1,0,0:0:0:0:
160,96,247450,1,0,0:0:0:0:
352,96,247531,1,8,0:0:0:0:
160,96,247612,1,0,0:0:0:0:
160,96,247693,1,0,0:0:0:0:
160,96,247775,1,0,0:0:0:0:
352,96,247856,1,8,0:0:0:0:
352,96,247937,1,8,0:0:0:0:
160,96,248018,1,0,0:0:0:0:
160,96,248099,1,0,0:0:0:0:
352,96,248180,1,8,0:0:0:0:
352,96,248261,1,8,0:0:0:0:
160,96,248342,1,0,0:0:0:0:
160,96,248423,1,0,0:0:0:0:
352,96,248504,1,8,0:0:0:0:
160,96,248585,1,0,0:0:0:0:
352,96,248666,1,8,0:0:0:0:
160,96,248748,1,0,0:0:0:0:
352,96,248829,1,8,0:0:0:0:
160,96,248910,1,0,0:0:0:0:
352,96,248991,1,8,0:0:0:0:
160,96,249072,1,0,0:0:0:0:
352,96,249153,1,8,0:0:0:0:
352,96,249234,1,8,0:0:0:0:
352,96,249315,1,8,0:0:0:0:
160,96,249396,1,0,0:0:0:0:
352,96,249477,1,8,0:0:0:0:
160,96,249558,1,0,0:0:0:0:
352,96,249639,1,8,0:0:0:0:
160,96,249721,1,0,0:0:0:0:
352,96,249802,1,8,0:0:0:0:
160,96,249883,1,0,0:0:0:0:
352,96,249964,1,8,0:0:0:0:
160,96,250045,1,0,0:0:0:0:
352,96,250126,1,8,0:0:0:0:
352,96,250207,1,8,0:0:0:0:
352,96,250288,1,8,0:0:0:0:
160,96,250369,1,0,0:0:0:0:
352,96,250450,1,8,0:0:0:0:
352,96,250531,1,8,0:0:0:0:
352,96,250612,1,8,0:0:0:0:
160,96,250693,1,0,0:0:0:0:
352,96,250775,1,8,0:0:0:0:
352,96,250856,1,8,0:0:0:0:
160,96,250937,1,0,0:0:0:0:
352,288,251099,1,12,0:0:0:0:
160,96,251261,1,0,0:0:0:0:
160,96,251342,1,0,0:0:0:0:
352,96,251423,1,8,0:0:0:0:
160,96,251504,1,0,0:0:0:0:
160,96,251585,1,0,0:0:0:0:
160,96,251666,1,0,0:0:0:0:
352,96,251748,1,8,0:0:0:0:
352,96,251829,1,8,0:0:0:0:
160,96,251910,1,0,0:0:0:0:
160,96,251991,1,0,0:0:0:0:
352,96,252072,1,8,0:0:0:0:
160,96,252153,1,0,0:0:0:0:
352,96,252234,1,8,0:0:0:0:
352,96,252315,1,8,0:0:0:0:
160,96,252396,1,0,0:0:0:0:
160,96,252477,1,0,0:0:0:0:
160,96,252558,1,0,0:0:0:0:
160,96,252639,1,0,0:0:0:0:
352,96,252721,1,8,0:0:0:0:
160,96,252802,1,0,0:0:0:0:
160,96,252883,1,0,0:0:0:0:
160,96,252964,1,0,0:0:0:0:
352,96,253045,1,8,0:0:0:0:
352,96,253126,1,8,0:0:0:0:
160,96,253207,1,0,0:0:0:0:
160,96,253288,1,0,0:0:0:0:
352,96,253369,1,8,0:0:0:0:
352,96,253450,1,8,0:0:0:0:
352,96,253531,1,8,0:0:0:0:
352,96,253612,1,8,0:0:0:0:
160,96,253693,1,0,0:0:0:0:
160,96,253775,1,0,0:0:0:0:
160,96,253856,1,0,0:0:0:0:
160,96,253937,1,0,0:0:0:0:
352,96,254018,1,8,0:0:0:0:
352,96,254099,1,8,0:0:0:0:
352,96,254180,1,8,0:0:0:0:
160,96,254261,1,0,0:0:0:0:
352,96,254342,1,8,0:0:0:0:
352,96,254423,1,8,0:0:0:0:
352,96,254504,1,8,0:0:0:0:
160,96,254585,1,0,0:0:0:0:
352,96,254666,1,8,0:0:0:0:
160,96,254748,1,0,0:0:0:0:
352,96,254829,1,8,0:0:0:0:
352,96,254910,1,8,0:0:0:0:
160,96,254991,1,0,0:0:0:0:
160,96,255072,1,0,0:0:0:0:
160,96,255153,1,0,0:0:0:0:
160,96,255234,1,0,0:0:0:0:
352,96,255315,1,8,0:0:0:0:
160,96,255396,1,0,0:0:0:0:
160,96,255477,1,0,0:0:0:0:
160,96,255558,1,0,0:0:0:0:
352,96,255639,1,8,0:0:0:0:
352,96,255721,1,8,0:0:0:0:
160,96,255802,1,0,0:0:0:0:
160,96,255883,1,0,0:0:0:0:
352,96,255964,1,8,0:0:0:0:
352,96,256045,1,8,0:0:0:0:
352,96,256126,1,8,0:0:0:0:
352,96,256207,1,8,0:0:0:0:
160,96,256288,1,0,0:0:0:0:
160,96,256369,1,0,0:0:0:0:
160,96,256450,1,0,0:0:0:0:
160,96,256531,1,0,0:0:0:0:
352,96,256612,1,8,0:0:0:0:
160,96,256693,1,0,0:0:0:0:
352,96,256775,1,8,0:0:0:0:
160,96,256856,1,0,0:0:0:0:
352,96,256937,1,8,0:0:0:0:
352,96,257018,1,8,0:0:0:0:
160,96,257099,1,0,0:0:0:0:
160,96,257180,1,0,0:0:0:0:
352,96,257261,1,8,0:0:0:0:
352,96,257342,1,8,0:0:0:0:
160,96,257423,1,0,0:0:0:0:
160,96,257504,1,0,0:0:0:0:
352,96,257585,1,8,0:0:0:0:
160,96,257666,1,0,0:0:0:0:
352,96,257748,1,8,0:0:0:0:
352,96,257829,1,8,0:0:0:0:
160,96,257910,1,0,0:0:0:0:
160,96,257991,1,0,0:0:0:0:
352,96,258072,1,8,0:0:0:0:
160,96,258153,1,0,0:0:0:0:
352,96,258234,1,8,0:0:0:0:
352,96,258315,1,8,0:0:0:0:
352,96,258396,1,8,0:0:0:0:
160,96,258477,1,0,0:0:0:0:
352,96,258558,1,8,0:0:0:0:
352,96,258639,1,8,0:0:0:0:
160,96,258720,1,0,0:0:0:0:
160,96,258802,1,0,0:0:0:0:
352,96,258883,1,8,0:0:0:0:
160,96,258964,1,0,0:0:0:0:
352,96,259045,1,8,0:0:0:0:
352,96,259126,1,8,0:0:0:0:
160,96,259207,1,0,0:0:0:0:
352,96,259288,1,8,0:0:0:0:
352,96,259369,1,8,0:0:0:0:
160,96,259450,1,0,0:0:0:0:
352,96,259531,1,8,0:0:0:0:
352,96,259612,1,8,0:0:0:0:
352,96,259693,1,8,0:0:0:0:
160,96,259775,1,0,0:0:0:0:
352,96,259856,1,8,0:0:0:0:
160,96,259937,1,0,0:0:0:0:
352,96,260018,1,8,0:0:0:0:
352,96,260099,1,8,0:0:0:0:
160,96,260180,1,0,0:0:0:0:
352,96,260261,1,8,0:0:0:0:
352,96,260342,1,8,0:0:0:0:
160,96,260423,1,0,0:0:0:0:
352,96,260504,1,8,0:0:0:0:
352,96,260585,1,8,0:0:0:0:
352,96,260666,1,8,0:0:0:0:
160,96,260748,1,0,0:0:0:0:
352,96,260829,1,8,0:0:0:0:
352,96,260910,1,8,0:0:0:0:
160,96,260991,1,0,0:0:0:0:
160,96,261072,1,0,0:0:0:0:
352,96,261153,1,8,0:0:0:0:
160,96,261234,1,0,0:0:0:0:
160,96,261315,1,0,0:0:0:0:
352,288,261477,1,12,0:0:0:0:
160,96,261639,1,0,0:0:0:0:
160,96,261720,1,0,0:0:0:0:
352,96,261802,1,8,0:0:0:0:
352,96,261883,1,8,0:0:0:0:
352,96,261964,1,8,0:0:0:0:
352,96,262045,1,8,0:0:0:0:
160,96,262126,1,0,0:0:0:0:
160,96,262207,1,0,0:0:0:0:
160,96,262288,1,0,0:0:0:0:
160,96,262369,1,0,0:0:0:0:
352,96,262450,1,8,0:0:0:0:
160,96,262531,1,0,0:0:0:0:
352,96,262612,1,8,0:0:0:0:
160,96,262693,1,0,0:0:0:0:
352,96,262775,1,8,0:0:0:0:
352,96,262856,1,8,0:0:0:0:
352,96,262937,1,8,0:0:0:0:
352,96,263018,1,8,0:0:0:0:
160,96,263099,1,0,0:0:0:0:
160,96,263180,1,0,0:0:0:0:
352,96,263261,1,8,0:0:0:0:
160,96,263342,1,0,0:0:0:0:
352,96,263423,1,8,0:0:0:0:
352,96,263504,1,8,0:0:0:0:
160,96,263585,1,0,0:0:0:0:
160,96,263666,1,0,0:0:0:0:
352,96,263748,1,8,0:0:0:0:
160,96,263829,1,0,0:0:0:0:
352,96,263910,1,8,0:0:0:0:
352,96,263991,1,8,0:0:0:0:
352,96,264072,1,8,0:0:0:0:
160,96,264153,1,0,0:0:0:0:
160,96,264234,1,0,0:0:0:0:
352,96,264315,1,8,0:0:0:0:
160,96,264396,1,0,0:0:0:0:
160,96,264477,1,0,0:0:0:0:
352,96,264558,1,8,0:0:0:0:
160,96,264639,1,0,0:0:0:0:
160,96,264721,1,0,0:0:0:0:
352,96,264802,1,8,0:0:0:0:
160,96,264883,1,0,0:0:0:0:
352,96,264964,1,8,0:0:0:0:
160,96,265045,1,0,0:0:0:0:
160,96,265126,1,0,0:0:0:0:
352,96,265207,1,8,0:0:0:0:
160,96,265288,1,0,0:0:0:0:
352,96,265369,1,8,0:0:0:0:
160,96,265450,1,0,0:0:0:0:
160,96,265531,1,0,0:0:0:0:
160,96,265612,1,0,0:0:0:0:
352,96,265693,1,8,0:0:0:0:
352,96,265775,1,8,0:0:0:0:
160,96,265856,1,0,0:0:0:0:
160,96,265937,1,0,0:0:0:0:
352,96,266018,1,8,0:0:0:0:
160,96,266099,1,0,0:0:0:0:
352,96,266180,1,8,0:0:0:0:
160,96,266261,1,0,0:0:0:0:
352,96,266342,1,8,0:0:0:0:
352,96,266423,1,8,0:0:0:0:
352,96,266504,1,8,0:0:0:0:
160,96,266585,1,0,0:0:0:0:
352,96,266666,1,8,0:0:0:0:
160,96,266748,1,0,0:0:0:0:
352,96,266829,1,8,0:0:0:0:
352,96,266910,1,8,0:0:0:0:
160,96,266991,1,0,0:0:0:0:
352,96,267072,1,8,0:0:0:0:
352,96,267153,1,8,0:0:0:0:
160,96,267234,1,0,0:0:0:0:
352,96,267315,1,8,0:0:0:0:
352,96,267396,1,8,0:0:0:0:
160,96,267477,1,0,0:0:0:0:
352,96,267558,1,8,0:0:0:0:
352,96,267639,1,8,0:0:0:0:
160,96,267721,1,0,0:0:0:0:
352,96,267802,1,8,0:0:0:0:
352,96,267883,1,8,0:0:0:0:
160,96,267964,1,0,0:0:0:0:
352,96,268045,1,8,0:0:0:0:
352,96,268126,1,8,0:0:0:0:
160,96,268207,1,0,0:0:0:0:
352,96,268288,1,8,0:0:0:0:
160,96,268369,1,0,0:0:0:0:
352,96,268450,1,8,0:0:0:0:
160,96,268531,1,0,0:0:0:0:
352,96,268612,1,8,0:0:0:0:
352,96,268693,1,8,0:0:0:0:
352,96,268775,1,8,0:0:0:0:
160,96,268856,1,0,0:0:0:0:
352,96,268937,1,8,0:0:0:0:
352,96,269018,1,8,0:0:0:0:
160,96,269099,1,0,0:0:0:0:
160,96,269180,1,0,0:0:0:0:
352,96,269261,1,8,0:0:0:0:
160,96,269342,1,0,0:0:0:0:
352,96,269423,1,8,0:0:0:0:
352,96,269504,1,8,0:0:0:0:
160,96,269585,1,0,0:0:0:0:
160,96,269666,1,0,0:0:0:0:
352,96,269748,1,8,0:0:0:0:
352,96,269829,1,8,0:0:0:0:
160,96,269910,1,0,0:0:0:0:
352,96,269991,1,8,0:0:0:0:
160,96,270072,1,0,0:0:0:0:
160,96,270153,1,0,0:0:0:0:
352,96,270234,1,8,0:0:0:0:
160,96,270315,1,0,0:0:0:0:
352,96,270396,1,8,0:0:0:0:
352,96,270477,1,8,0:0:0:0:
160,96,270558,1,0,0:0:0:0:
160,96,270639,1,0,0:0:0:0:
352,96,270721,1,8,0:0:0:0:
352,96,270802,1,8,0:0:0:0:
160,96,270883,1,0,0:0:0:0:
352,96,270964,1,8,0:0:0:0:
160,96,271045,1,0,0:0:0:0:
160,96,271126,1,0,0:0:0:0:
352,96,271207,1,8,0:0:0:0:
352,96,271288,1,8,0:0:0:0:
352,96,271369,1,8,0:0:0:0:
160,96,271450,1,0,0:0:0:0:
352,96,271531,1,8,0:0:0:0:
352,96,271612,1,8,0:0:0:0:
160,96,271693,1,0,0:0:0:0:
352,288,271856,1,12,0:0:0:0:
160,96,272018,1,0,0:0:0:0:
160,96,272099,1,0,0:0:0:0:
352,96,272180,1,8,0:0:0:0:
160,96,272261,1,0,0:0:0:0:
160,96,272342,1,0,0:0:0:0:
160,96,272423,1,0,0:0:0:0:
352,96,272504,1,8,0:0:0:0:
352,96,272585,1,8,0:0:0:0:
160,96,272666,1,0,0:0:0:0:
160,96,272748,1,0,0:0:0:0:
352,96,272829,1,8,0:0:0:0:
160,96,272910,1,0,0:0:0:0:
352,96,272991,1,8,0:0:0:0:
352,96,273072,1,8,0:0:0:0:
160,96,273153,1,0,0:0:0:0:
160,96,273234,1,0,0:0:0:0:
160,96,273315,1,0,0:0:0:0:
160,96,273396,1,0,0:0:0:0:
352,96,273477,1,8,0:0:0:0:
352,96,273558,1,8,0:0:0:0:
160,96,273639,1,0,0:0:0:0:
160,96,273720,1,0,0:0:0:0:
352,96,273802,1,8,0:0:0:0:
352,96,273883,1,8,0:0:0:0:
160,96,273964,1,0,0:0:0:0:
160,96,274045,1,0,0:0:0:0:
352,96,274126,1,8,0:0:0:0:
352,96,274207,1,8,0:0:0:0:
352,96,274288,1,8,0:0:0:0:
352,96,274369,1,8,0:0:0:0:
160,96,274450,1,0,0:0:0:0:
160,96,274531,1,0,0:0:0:0:
160,96,274612,1,0,0:0:0:0:
160,96,274693,1,0,0:0:0:0:
352,96,274775,1,8,0:0:0:0:
352,96,274856,1,8,0:0:0:0:
160,96,274937,1,0,0:0:0:0:
160,96,275018,1,0,0:0:0:0:
352,96,275099,1,8,0:0:0:0:
352,96,275180,1,8,0:0:0:0:
160,96,275261,1,0,0:0:0:0:
160,96,275342,1,0,0:0:0:0:
352,96,275423,1,8,0:0:0:0:
160,96,275504,1,0,0:0:0:0:
352,96,275585,1,8,0:0:0:0:
352,96,275666,1,8,0:0:0:0:
160,96,275748,1,0,0:0:0:0:
160,96,275829,1,0,0:0:0:0:
160,96,275910,1,0,0:0:0:0:
160,96,275991,1,0,0:0:0:0:
352,96,276072,1,8,0:0:0:0:
352,96,276153,1,8,0:0:0:0:
160,96,276234,1,0,0:0:0:0:
352,96,276315,1,8,0:0:0:0:
160,96,276396,1,0,0:0:0:0:
160,96,276477,1,0,0:0:0:0:
352,96,276558,1,8,0:0:0:0:
160,96,276639,1,0,0:0:0:0:
352,96,276720,1,8,0:0:0:0:
352,96,276802,1,8,0:0:0:0:
160,96,276883,1,0,0:0:0:0:
352,96,276964,1,8,0:0:0:0:
352,96,277045,1,8,0:0:0:0:
352,96,277126,1,8,0:0:0:0:
160,96,277207,1,0,0:0:0:0:
160,96,277288,1,0,0:0:0:0:
352,96,277369,1,8,0:0:0:0:
352,96,277450,1,8,0:0:0:0:
352,96,277531,1,8,0:0:0:0:
352,96,277612,1,8,0:0:0:0:
160,96,277693,1,0,0:0:0:0:
160,96,277775,1,0,0:0:0:0:
352,96,277856,1,8,0:0:0:0:
160,96,277937,1,0,0:0:0:0:
352,96,278018,1,8,0:0:0:0:
160,96,278099,1,0,0:0:0:0:
352,96,278180,1,8,0:0:0:0:
160,96,278261,1,0,0:0:0:0:
352,96,278342,1,8,0:0:0:0:
160,96,278423,1,0,0:0:0:0:
352,96,278504,1,8,0:0:0:0:
352,96,278585,1,8,0:0:0:0:
160,96,278666,1,0,0:0:0:0:
352,96,278748,1,8,0:0:0:0:
352,96,278829,1,8,0:0:0:0:
160,96,278910,1,0,0:0:0:0:
352,96,278991,1,8,0:0:0:0:
352,96,279072,1,8,0:0:0:0:
352,96,279153,1,8,0:0:0:0:
160,96,279234,1,0,0:0:0:0:
352,96,279315,1,8,0:0:0:0:
160,96,279396,1,0,0:0:0:0:
160,96,279477,1,0,0:0:0:0:
160,96,279558,1,0,0:0:0:0:
352,96,279639,1,8,0:0:0:0:
352,96,279720,1,8,0:0:0:0:
160,96,279802,1,0,0:0:0:0:
352,96,279883,1,8,0:0:0:0:
160,96,279964,1,0,0:0:0:0:
160,96,280045,1,0,0:0:0:0:
352,96,280126,1,8,0:0:0:0:
352,96,280207,1,8,0:0:0:0:
160,96,280288,1,0,0:0:0:0:
352,96,280369,1,8,0:0:0:0:
160,96,280450,1,0,0:0:0:0:
160,96,280531,1,0,0:0:0:0:
352,96,280612,1,8,0:0:0:0:
352,96,280693,1,8,0:0:0:0:
160,96,280775,1,0,0:0:0:0:
352,96,280856,1,8,0:0:0:0:
160,96,280937,1,0,0:0:0:0:
160,96,281018,1,0,0:0:0:0:
352,96,281099,1,8,0:0:0:0:
352,96,281180,1,8,0:0:0:0:
160,96,281261,1,0,0:0:0:0:
352,96,281342,1,8,0:0:0:0:
160,96,281423,1,0,0:0:0:0:
160,96,281504,1,0,0:0:0:0:
352,96,281585,1,8,0:0:0:0:
352,96,281639,1,8,0:0:0:0:
352,96,281693,1,8,0:0:0:0:
352,96,281802,1,8,0:0:0:0:
160,96,281910,1,0,0:0:0:0:
160,96,282018,1,0,0:0:0:0:
160,96,282126,1,0,0:0:0:0:
352,288,282230,1,12,0:0:0:0:
352,288,283641,1,12,0:0:0:0:
160,288,285053,1,4,0:0:0:0:
352,288,286465,1,12,0:0:0:0:
160,96,286700,1,0,0:0:0:0:
160,96,287053,1,0,0:0:0:0:
352,96,287171,1,8,0:0:0:0:
160,96,287288,1,0,0:0:0:0:
160,96,287406,1,0,0:0:0:0:
352,96,287524,1,8,0:0:0:0:
160,96,287641,1,0,0:0:0:0:
160,96,287759,1,0,0:0:0:0:
352,288,287877,1,12,0:0:0:0:
352,288,289288,1,12,0:0:0:0:
352,288,290700,1,12,0:0:0:0:
352,96,291759,1,8,0:0:0:0:
352,96,291877,1,8,0:0:0:0:
352,96,291994,1,8,0:0:0:0:
160,96,292112,1,0,0:0:0:0:
352,96,292230,1,8,0:0:0:0:
352,96,292347,1,8,0:0:0:0:
352,96,292465,1,8,0:0:0:0:
352,96,292582,1,8,0:0:0:0:
352,96,292700,1,8,0:0:0:0:
160,96,292818,1,0,0:0:0:0:
352,96,292935,1,8,0:0:0:0:
160,96,293053,1,0,0:0:0:0:
352,96,293171,1,8,0:0:0:0:
352,96,293288,1,8,0:0:0:0:
352,96,293406,1,8,0:0:0:0:
160,288,293524,1,4,0:0:0:0:
160,288,294935,1,4,0:0:0:0:
352,96,295079,1,8,0:0:0:0:
352,96,295151,1,8,0:0:0:0:
352,96,295223,1,8,0:0:0:0:
352,96,295319,1,8,0:0:0:0:
352,96,295440,1,8,0:0:0:0:
352,96,295561,1,8,0:0:0:0:
160,96,295678,1,0,0:0:0:0:
352,96,295792,1,8,0:0:0:0:
352,96,295906,1,8,0:0:0:0:
160,96,296020,1,0,0:0:0:0:
352,96,296135,1,8,0:0:0:0:
352,96,296249,1,8,0:0:0:0:
160,288,296363,1,4,0:0:0:0:
160,288,296580,1,4,0:0:0:0:
352,96,296694,1,8,0:0:0:0:
352,96,296808,1,8,0:0:0:0:
352,96,296922,1,8,0:0:0:0:
352,96,297039,1,8,0:0:0:0:
352,96,297157,1,8,0:0:0:0:
160,96,297274,1,0,0:0:0:0:
352,96,297394,1,8,0:0:0:0:
352,96,297514,1,8,0:0:0:0:
352,96,297635,1,8,0:0:0:0:
160,96,297756,1,0,0:0:0:0:
160,96,297813,1,0,0:0:0:0:
160,96,297870,1,0,0:0:0:0:
160,96,297984,1,0,0:0:0:0:
160,96,298098,1,0,0:0:0:0:
160,96,298156,1,0,0:0:0:0:
160,96,298215,1,0,0:0:0:0:
160,96,298333,1,0,0:0:0:0:
160,96,298450,1,0,0:0:0:0:
160,96,298568,1,0,0:0:0:0:
160,96,298686,1,0,0:0:0:0:
160,96,298803,1,0,0:0:0:0:
160,96,298921,1,0,0:0:0:0:
160,96,299039,1,0,0:0:0:0:
352,288,299156,1,12,0:0:0:0:
352,288,300567,1,12,0:0:0:0:
352,288,301979,1,12,0:0:0:0:
160,96,303214,1,0,0:0:0:0:
160,96,303273,1,0,0:0:0:0:
160,96,303332,1,0,0:0:0:0:
352,96,303391,1,8,0:0:0:0:
352,288,303621,1,12,0:0:0:0:
352,288,303936,1,12,0:0:0:0:
352,288,304150,1,12,0:0:0:0:
