osu file format v14

[General]
AudioFilename: audio.mp3
AudioLeadIn: 0
PreviewTime: 146442
Countdown: 0
SampleSet: Normal
StackLeniency: 0.4
Mode: 0
LetterboxInBreaks: 0
WidescreenStoryboard: 0

[Editor]
Bookmarks: 1323,3993,14218,25449,46905,57634,79091,80395,104001,114493,124985,146442,161026,167899,189356
DistanceSpacing: 0.7
BeatDivisor: 4
GridSize: 16
TimelineZoom: 5.999997

[Metadata]
Title:The Race
TitleUnicode:The Race
Artist:Arch Enemy
ArtistUnicode:Arch Enemy
Creator:Spicy Salsa
Version:Exhaustion
Source:Will To Power (2017)
Tags:stream kickslider
BeatmapID:1552367
BeatmapSetID:735362

[Difficulty]
HPDrainRate:8
CircleSize:4.2
OverallDifficulty:7.8
ApproachRate:9.6
SliderMultiplier:2.2
SliderTickRate:1

[Events]
//Background and Video events
0,0,"fantasyart-1517776052257-5003.jpg",0,0
//Break Periods
2,1523,3484
//Storyboard Layer 0 (Background)
//Storyboard Layer 1 (Fail)
//Storyboard Layer 2 (Pass)
//Storyboard Layer 3 (Foreground)
//Storyboard Sound Samples

[TimingPoints]
19.0257737360619,326.086956521739,4,1,0,50,1,0
3993,335.262957913323,4,1,0,50,1,0
3993,-100,4,1,0,50,0,1
4160,-100,4,1,0,50,0,0
14721,-100,4,1,0,50,0,1
14889,-100,4,1,0,50,0,0
20085,-57.1428571428571,4,1,0,50,0,0
20337,-57.1428571428571,4,1,0,15,0,0
20420,-100,4,1,0,50,0,0
24108,335.262957913323,4,1,0,50,1,0
24108,335.262957913323,4,1,0,50,1,0
24108,-66.6666666666667,4,1,0,50,0,0
24359,-83.3333333333333,4,1,0,50,0,0
24610,-100,4,1,0,50,0,0
25449,-100,4,1,0,50,0,1
25616,-76.9230769230769,4,1,0,50,0,1
25616,-76.9230769230769,4,1,0,50,0,0
25700,-76.9230769230769,4,1,0,50,0,1
45732,-66.6666666666667,4,1,0,50,0,1
46067,-76.9230769230769,4,1,0,50,0,1
46402,-76.9230769230769,4,1,0,50,0,0
46905,-100,4,1,0,50,0,1
47073,-100,4,1,0,50,0,0
52605,-83.3333333333333,4,1,0,50,0,0
52856,-100,4,1,0,50,0,0
56293,-83.3333333333333,4,1,0,50,0,0
57634,-76.9230769230769,4,1,0,50,0,1
79091,-100,4,1,0,50,0,0
80395,327.868852459016,4,1,0,50,1,0
80395,-200,4,1,0,50,0,0
111870,-166.666666666667,4,1,0,50,0,0
114165,-133.333333333333,4,1,0,50,0,0
114493,-133.333333333333,4,1,0,50,0,1
114657,-133.333333333333,4,1,0,50,0,0
123017,-100,4,1,0,50,0,0
124985,335.26670466356,4,1,0,50,1,0
146442,-76.9230769230769,4,1,0,50,0,1
166558,-66.6666666666667,4,1,0,50,0,0
166893,-76.9230769230769,4,1,0,50,0,0
167899,-100,4,1,0,50,0,1
168066,-100,4,1,0,50,0,0
170246,-83.3333333333333,4,1,0,50,0,0
170581,-66.6666666666667,4,1,0,50,0,0
171167,-83.3333333333333,4,1,0,50,0,0
185500,-66.6666666666667,4,1,0,50,0,0
186003,-83.3333333333333,4,1,0,50,0,0
186171,-66.6666666666667,4,1,0,50,0,0
186674,-83.3333333333333,4,1,0,50,0,0
186841,-55.5555555555556,4,1,0,50,0,0
187344,-83.3333333333333,4,1,0,50,0,0
187512,-66.6666666666667,4,1,0,50,0,0
189356,-133.333333333333,4,1,0,50,0,1
189523,-100,4,1,0,50,0,0
190697,-55.5555555555556,4,1,0,50,0,0
192038,-100,4,1,0,50,0,0

[Colours]
Combo1 : 94,94,94
Combo2 : 159,0,0
Combo3 : 255,255,255
Combo4 : 113,0,0

[HitObjects]
256,13,19,6,0,P|263:55|250:104,1,55
150,336,182,2,0,P|169:297|209:265,1,55
426,136,345,2,0,P|388:157|337:159,1,55
85,136,508,2,0,P|128:142|171:170,1,55
361,336,671,6,0,P|329:306|311:259,1,55
256,32,834,2,0,P|263:70|251:114,1,55
161,321,997,2,0,P|178:286|214:258,1,55
408,142,1160,2,0,P|374:160|328:163,1,55
103,142,1323,5,0,0:0:0:0:
38,187,3993,6,0,L|100:178,1,55
344,229,4160,2,0,P|285:246|225:224,1,110
168,123,4412,1,0,0:0:0:0:
163,107,4495,2,0,L|168:41,1,55
398,230,4663,6,0,P|368:227|344:228,1,55
181,283,4831,2,0,P|153:284|126:281,1,55
277,101,4998,1,0,0:0:0:0:
274,117,5082,1,0,0:0:0:0:
272,133,5166,2,0,L|267:192,1,55
407,282,5334,6,0,P|384:265|351:253,1,55
21,289,5501,2,0,P|81:298|138:269,1,110
234,184,5753,1,0,0:0:0:0:
234,167,5836,2,0,L|229:101,1,55
133,54,6004,6,0,L|137:0,1,55
365,160,6172,2,0,P|328:147|272:144,1,55
3,183,6339,1,0,0:0:0:0:
3,183,6423,1,0,0:0:0:0:
3,183,6507,2,0,P|29:177|55:167,1,55
295,121,6675,6,0,P|322:124|348:133,1,55
158,315,6842,2,0,B|147:195,1,110
226,23,7094,1,0,0:0:0:0:
227,39,7177,2,0,P|221:86|213:111,1,55
54,176,7345,6,0,L|-3:172,1,55
197,101,7513,2,0,L|140:97,1,55
287,228,7680,2,0,L|230:224,1,55
430,153,7848,2,0,L|373:149,1,55
70,183,8016,6,0,P|102:176|165:179,1,55
411,239,8183,2,0,P|358:244|280:202,1,110
487,78,8435,1,0,0:0:0:0:
486,94,8519,2,0,P|486:125|481:160,1,55
400,261,8686,6,0,P|400:292|405:327,1,55
504,73,8854,2,0,P|504:104|499:139,1,55
321,262,9021,1,0,0:0:0:0:
304,259,9105,1,0,0:0:0:0:
287,256,9189,2,0,L|217:247,1,55
8,165,9357,6,0,P|38:162|96:170,1,55
324,123,9524,2,0,P|265:132|199:108,1,110
75,0,9776,1,0,0:0:0:0:
79,15,9860,2,0,P|82:57|76:90,1,55
2,240,10027,5,0,0:0:0:0:
2,256,10111,1,0,0:0:0:0:
2,272,10195,2,0,L|5:333,1,55
148,144,10362,1,0,0:0:0:0:
148,160,10446,1,0,0:0:0:0:
148,176,10530,2,0,L|145:237,1,55
3,74,10698,6,0,P|62:81|82:80,1,55
351,154,10865,2,0,B|293:154|293:154|240:174,1,110
127,277,11117,1,0,0:0:0:0:
121,292,11201,2,0,P|121:239|117:217,1,55
68,44,11368,6,0,P|113:70|134:78,1,55
309,122,11536,2,0,P|263:148|246:162,1,55
114,313,11704,6,0,P|114:252|109:226,1,55
52,27,11871,2,0,P|105:57|130:66,1,55
331,117,12039,6,0,P|278:147|258:164,1,55
9,297,12206,2,0,P|73:294|135:332,1,110
278,276,12458,1,0,0:0:0:0:
293,282,12542,2,0,P|339:283|368:277,1,55
130,230,12709,5,0,0:0:0:0:
144,221,12793,1,0,0:0:0:0:
156,210,12877,2,0,P|179:170|189:142,1,55
33,324,13045,1,0,0:0:0:0:
32,307,13129,1,0,0:0:0:0:
29,291,13213,2,0,P|6:250|-12:228,1,55
205,337,13380,5,0,0:0:0:0:
246,80,13547,2,0,B|232:141|232:141|239:188|239:188|220:261,1,165
380,138,13883,2,0,P|347:139|303:154,1,55
154,192,14050,6,0,L|75:184,1,55
377,307,14218,2,0,P|345:298|305:274,1,55
171,181,14385,2,0,L|92:171,1,55
411,112,14553,2,0,P|378:108|332:118,1,55
189,170,14721,5,0,0:0:0:0:
241,184,14804,1,0,0:0:0:0:
295,173,14888,1,0,0:0:0:0:
337,139,14972,1,0,0:0:0:0:
360,89,15056,1,0,0:0:0:0:
354,144,15140,1,0,0:0:0:0:
363,198,15224,1,0,0:0:0:0:
390,245,15308,1,0,0:0:0:0:
433,278,15391,5,0,0:0:0:0:
419,224,15474,1,0,0:0:0:0:
390,178,15558,1,0,0:0:0:0:
347,143,15642,1,0,0:0:0:0:
296,124,15726,1,0,0:0:0:0:
242,121,15810,1,0,0:0:0:0:
189,135,15893,1,0,0:0:0:0:
143,165,15977,1,0,0:0:0:0:
109,208,16062,6,0,L|109:290,1,55
296,124,16230,2,0,L|296:205,1,55
24,55,16397,1,0,0:0:0:0:
74,34,16480,1,0,0:0:0:0:
129,34,16564,1,0,0:0:0:0:
180,53,16648,1,0,0:0:0:0:
220,91,16732,6,0,P|253:90|292:76,1,55
504,167,16900,2,0,P|471:166|432:152,1,55
161,192,17068,1,0,0:0:0:0:
196,197,17151,1,0,0:0:0:0:
233,203,17235,1,0,0:0:0:0:
269,208,17319,1,0,0:0:0:0:
306,215,17403,6,0,L|381:208,1,55
441,95,17571,2,0,L|366:102,1,55
211,273,17738,6,0,L|136:280,1,55
32,168,17906,2,0,L|107:175,1,55
380,315,18074,6,0,P|381:285|389:241,1,55
450,105,18241,2,0,P|449:75|441:31,1,55
372,350,18409,6,0,P|362:321|355:277,1,55
365,128,18576,2,0,P|353:100|331:61,1,55
415,279,18744,1,0,0:0:0:0:
425,283,18828,1,0,0:0:0:0:
435,286,18912,1,0,0:0:0:0:
445,289,18996,1,0,0:0:0:0:
455,292,19079,5,0,0:0:0:0:
443,238,19163,1,0,0:0:0:0:
399,203,19247,1,0,0:0:0:0:
344,199,19331,1,0,0:0:0:0:
298,230,19415,6,0,L|285:305,1,55
261,55,19582,2,0,L|248:130,1,55
166,286,19750,6,0,L|153:361,1,55
129,111,19917,2,0,L|116:186,1,55
292,289,20085,6,0,P|349:261|239:239,1,288.750002753735
361,257,20420,1,0,0:0:0:0:
376,261,20504,1,0,0:0:0:0:
391,265,20588,2,0,P|420:265|466:256,1,55
188,314,20755,1,0,0:0:0:0:
173,318,20839,1,0,0:0:0:0:
158,322,20923,2,0,P|129:322|83:313,1,55
279,58,21091,5,0,0:0:0:0:
273,112,21174,1,0,0:0:0:0:
268,167,21258,1,0,0:0:0:0:
262,222,21342,1,0,0:0:0:0:
257,276,21426,6,0,P|262:326|274:356,1,55
370,131,21594,2,0,L|308:138,1,55
121,224,21761,2,0,L|59:231,1,55
195,49,21929,2,0,P|200:75|201:103,1,55
156,325,22097,5,0,0:0:0:0:
155,313,22181,1,0,0:0:0:0:
155,302,22264,1,0,0:0:0:0:
157,291,22348,1,0,0:0:0:0:
159,279,22432,5,0,0:0:0:0:
203,312,22516,1,0,0:0:0:0:
255,327,22600,1,0,0:0:0:0:
307,313,22683,1,0,0:0:0:0:
350,278,22767,6,0,P|359:245|362:212,1,55
408,44,22935,1,0,0:0:0:0:
410,60,23019,2,0,P|413:87|421:113,1,55
265,158,23186,1,0,0:0:0:0:
248,154,23270,2,0,P|201:148|165:150,1,55
33,270,23438,5,0,0:0:0:0:
66,226,23521,1,0,0:0:0:0:
77,173,23605,1,0,0:0:0:0:
65,120,23689,1,0,0:0:0:0:
32,76,23773,5,0,0:0:0:0:
63,97,23856,1,0,0:0:0:0:
100,107,23940,1,0,0:0:0:0:
138,103,24024,1,0,0:0:0:0:
213,68,24108,6,0,P|260:57|309:56,1,82.5000031471254
104,247,24275,5,0,0:0:0:0:
42,208,24359,2,0,P|9:172|-16:130,1,65.9999979858399
227,169,24527,1,0,0:0:0:0:
223,239,24610,2,0,L|220:304,1,55
130,57,24778,5,0,0:0:0:0:
193,69,24861,1,0,0:0:0:0:
238,116,24945,1,0,0:0:0:0:
249,179,25029,1,0,0:0:0:0:
223,239,25113,5,0,0:0:0:0:
220,174,25196,1,0,0:0:0:0:
251,117,25280,1,0,0:0:0:0:
307,83,25364,1,0,0:0:0:0:
372,82,25448,1,0,0:0:0:0:
136,174,25616,5,0,0:0:0:0:
342,196,25784,1,0,0:0:0:0:
338,189,25868,1,0,0:0:0:0:
334,183,25951,1,0,0:0:0:0:
54,182,26119,2,0,P|101:172|134:158,1,71.4999967269899
410,177,26287,2,0,P|363:187|330:201,1,71.4999967269899
209,350,26454,2,0,L|215:274,1,71.4999967269899
274,58,26622,5,0,0:0:0:0:
277,64,26706,1,0,0:0:0:0:
280,70,26790,2,0,P|306:98|341:111,1,71.4999967269899
54,182,26957,5,0,0:0:0:0:
57,176,27041,1,0,0:0:0:0:
61,170,27125,2,0,P|72:133|66:96,1,71.4999967269899
279,304,27292,5,0,0:0:0:0:
271,303,27375,1,0,0:0:0:0:
264,303,27459,1,0,0:0:0:0:
257,303,27543,1,0,0:0:0:0:
250,304,27627,1,0,0:0:0:0:
243,305,27711,1,0,0:0:0:0:
236,307,27795,6,0,P|184:323|146:345,1,71.4999967269899
0,195,27963,2,0,P|32:209|67:218,1,71.4999967269899
273,143,28131,6,0,B|324:140|324:140|371:154|371:154|418:150,1,142.99999345398
152,43,28382,1,0,0:0:0:0:
158,44,28466,2,0,L|164:129,1,71.4999967269899
355,240,28634,2,0,P|277:225|223:232,1,71.4999967269899
77,252,28801,1,0,0:0:0:0:
424,182,28969,1,0,0:0:0:0:
156,325,29136,5,0,0:0:0:0:
149,322,29219,1,0,0:0:0:0:
142,319,29304,2,0,P|177:314|211:304,1,71.4999967269899
43,109,29472,2,0,L|34:185,1,71.4999967269899
131,50,29639,5,0,0:0:0:0:
126,44,29722,1,0,0:0:0:0:
121,39,29806,1,0,0:0:0:0:
115,34,29890,1,0,0:0:0:0:
110,30,29974,1,0,0:0:0:0:
104,26,30058,1,0,0:0:0:0:
98,22,30142,5,0,0:0:0:0:
134,56,30225,1,0,0:0:0:0:
179,75,30309,1,0,0:0:0:0:
229,78,30393,1,0,0:0:0:0:
277,63,30477,1,0,0:0:0:0:
324,48,30560,1,0,0:0:0:0:
374,50,30644,1,0,0:0:0:0:
419,70,30728,1,0,0:0:0:0:
455,105,30813,6,0,L|434:266,1,142.99999345398
339,157,31064,2,0,L|317:317,1,142.99999345398
504,262,31316,2,0,P|452:246|419:250,1,71.4999967269899
48,140,31483,6,0,L|66:281,1,142.99999345398
183,333,31735,2,0,L|164:191,1,142.99999345398
0,297,31986,2,0,P|32:283|68:281,1,71.4999967269899
290,353,32154,6,0,P|373:348|423:298,1,142.99999345398
356,129,32405,2,0,P|318:203|337:271,1,142.99999345398
489,211,32657,2,0,L|406:209,1,71.4999967269899
15,143,32824,6,0,P|98:148|148:198,1,142.99999345398
190,285,33075,2,0,P|152:210|171:142,1,142.99999345398
269,91,33327,2,0,L|342:98,1,71.4999967269899
512,232,33495,6,0,B|470:228|470:228|417:245|417:245|324:236,1,142.99999345398
179,315,33746,2,0,B|223:310|223:310|276:327|276:327|318:323,1,142.99999345398
104,240,33998,2,0,L|16:232,1,71.4999967269899
274,34,34165,6,0,B|286:77|286:77|278:132|278:132|289:173,1,142.99999345398
175,337,34417,2,0,B|187:293|187:293|179:238|179:238|190:197,1,142.99999345398
92,45,34668,2,0,L|103:129,1,71.4999967269899
379,225,34836,6,0,L|295:241,1,71.4999967269899
175,337,35004,2,0,L|104:323,1,71.4999967269899
330,77,35171,1,0,0:0:0:0:
330,84,35255,1,0,0:0:0:0:
330,91,35339,2,0,P|325:143|309:204,1,71.4999967269899
432,355,35506,2,0,P|425:319|423:284,1,71.4999967269899
344,71,35674,5,0,0:0:0:0:
340,141,35757,1,0,0:0:0:0:
295,195,35841,1,0,0:0:0:0:
227,212,35925,1,0,0:0:0:0:
162,185,36009,1,0,0:0:0:0:
126,124,36093,1,0,0:0:0:0:
133,54,36176,1,0,0:0:0:0:
295,324,36345,5,0,0:0:0:0:
61,193,36512,1,0,0:0:0:0:
63,199,36596,1,0,0:0:0:0:
65,205,36680,1,0,0:0:0:0:
346,135,36847,6,0,L|338:225,1,71.4999967269899
166,39,37015,2,0,P|214:42|260:60,1,71.4999967269899
365,150,37183,2,0,L|357:240,1,71.4999967269899
122,32,37351,2,0,P|169:22|218:27,1,71.4999967269899
385,164,37518,2,0,L|468:157,1,71.4999967269899
74,109,37686,6,0,B|94:268|94:268|114:187,1,214.49999018097
239,131,38021,2,0,P|185:139|143:159,1,71.4999967269899
405,247,38189,1,0,0:0:0:0:
403,240,38272,1,0,0:0:0:0:
401,233,38356,2,0,L|384:159,1,71.4999967269899
507,43,38524,2,0,L|490:117,1,71.4999967269899
326,34,38691,2,0,P|384:24|426:29,1,71.4999967269899
239,131,38859,6,0,B|167:126|167:126|100:150|100:150|4:144,1,214.49999018097
309,10,39194,2,0,P|314:49|312:85,1,71.4999967269899
397,304,39362,2,0,P|395:268|400:232,1,71.4999967269899
323,0,39530,2,0,P|328:39|326:75,1,71.4999967269899
410,316,39697,1,0,0:0:0:0:
402,314,39781,1,0,0:0:0:0:
394,313,39865,2,0,L|279:299,1,71.4999967269899
139,240,40032,2,0,L|68:248,1,71.4999967269899
278,224,40200,5,0,0:0:0:0:
279,202,40283,1,0,0:0:0:0:
277,181,40367,1,0,0:0:0:0:
271,160,40451,1,0,0:0:0:0:
260,141,40535,5,0,0:0:0:0:
290,170,40618,1,0,0:0:0:0:
330,185,40702,1,0,0:0:0:0:
372,183,40786,1,0,0:0:0:0:
410,163,40871,6,0,P|455:163|505:180,1,71.4999967269899
209,245,41038,2,0,P|164:245|114:228,1,71.4999967269899
350,46,41206,1,0,0:0:0:0:
342,103,41289,1,0,0:0:0:0:
334,159,41373,1,0,0:0:0:0:
326,216,41457,1,0,0:0:0:0:
317,273,41541,6,0,L|306:355,2,71.4999967269899
217,143,41793,2,0,L|206:61,2,71.4999967269899
87,304,42044,2,0,P|136:304|173:290,1,71.4999967269899
341,94,42212,6,0,L|352:12,2,71.4999967269899
441,224,42464,2,0,L|452:306,2,71.4999967269899
296,246,42715,2,0,P|261:237|225:239,1,71.4999967269899
74,210,42882,6,0,P|39:218|3:216,2,71.4999967269899
176,85,43134,2,0,P|200:111|216:142,2,71.4999967269899
19,101,43385,2,0,L|29:21,1,71.4999967269899
429,216,43553,6,0,P|412:247|388:273,2,71.4999967269899
216,142,43805,2,0,P|251:140|286:148,2,71.4999967269899
241,329,44056,2,0,L|232:258,1,71.4999967269899
361,27,44223,6,0,L|369:97,2,71.4999967269899
437,145,44475,2,0,L|428:215,2,71.4999967269899
482,279,44726,2,0,L|456:345,1,71.4999967269899
151,27,44894,6,0,L|142:97,2,71.4999967269899
75,145,45146,2,0,L|83:215,2,71.4999967269899
30,279,45397,2,0,L|55:345,1,71.4999967269899
17,66,45564,1,0,0:0:0:0:
206,309,45732,6,8,B|238:286|238:286|268:304|268:304|340:256|305:153|232:145,1,247.500009441376
343,197,46067,2,0,P|402:208|441:205,1,71.4999967269899
128,134,46235,2,0,P|187:123|226:126,1,71.4999967269899
247,336,46402,1,0,0:0:0:0:
177,315,46485,1,0,0:0:0:0:
105,331,46570,1,0,0:0:0:0:
60,309,46653,1,0,0:0:0:0:
34,267,46737,1,0,0:0:0:0:
33,217,46821,1,0,0:0:0:0:
58,175,46905,6,0,L|128:179,1,55
352,130,47073,2,0,L|282:126,1,55
22,79,47241,5,0,0:0:0:0:
66,48,47324,1,0,0:0:0:0:
120,44,47408,1,0,0:0:0:0:
169,68,47492,1,0,0:0:0:0:
224,61,47576,5,0,0:0:0:0:
272,85,47660,1,0,0:0:0:0:
326,81,47744,1,0,0:0:0:0:
371,50,47827,1,0,0:0:0:0:
397,1,47911,1,0,0:0:0:0:
393,33,47994,1,0,0:0:0:0:
389,66,48078,1,0,0:0:0:0:
385,99,48162,1,0,0:0:0:0:
381,132,48246,6,0,P|386:179|392:207,1,55
332,349,48414,2,0,P|327:302|321:274,1,55
87,184,48582,1,0,0:0:0:0:
132,213,48665,1,0,0:0:0:0:
186,218,48749,1,0,0:0:0:0:
237,197,48833,1,0,0:0:0:0:
271,155,48917,6,0,P|302:146|353:145,1,55
512,79,49085,2,0,P|484:75|458:66,1,55
263,0,49252,1,0,0:0:0:0:
286,49,49335,1,0,0:0:0:0:
289,103,49419,1,0,0:0:0:0:
271,155,49503,1,0,0:0:0:0:
237,197,49587,6,0,L|171:194,1,55
433,126,49755,2,0,L|366:122,1,55
114,80,49923,6,0,P|155:80|178:85,1,55
398,36,50090,2,0,P|357:36|334:41,1,55
59,153,50258,5,0,0:0:0:0:
60,169,50342,1,0,0:0:0:0:
60,185,50426,2,0,L|62:263,1,55
255,219,50593,1,0,0:0:0:0:
254,235,50677,1,0,0:0:0:0:
254,251,50761,2,0,L|252:329,1,55
481,216,50929,6,0,P|480:179|474:149,1,55
379,17,51096,2,0,P|375:44|375:71,1,55
402,273,51263,1,0,0:0:0:0:
404,300,51347,1,0,0:0:0:0:
430,323,51431,5,0,0:0:0:0:
428,350,51514,1,0,0:0:0:0:
444,372,51599,6,0,P|398:343|358:333,1,55
231,290,51767,2,0,P|176:287|137:299,1,55
53,105,51934,1,0,0:0:0:0:
92,142,52017,1,0,0:0:0:0:
144,160,52101,1,0,0:0:0:0:
198,155,52185,1,0,0:0:0:0:
245,127,52270,6,0,L|253:57,1,55
53,105,52437,2,0,L|58:159,1,55
230,276,52605,6,0,B|188:270|188:270|142:280|142:280|90:271,1,131.99999597168
237,243,52856,5,0,0:0:0:0:
266,258,52940,2,0,P|299:268|343:271,1,55
465,186,53108,2,0,L|461:124,1,55
266,69,53275,1,0,0:0:0:0:
219,97,53358,1,0,0:0:0:0:
164,101,53442,1,0,0:0:0:0:
114,80,53526,1,0,0:0:0:0:
78,39,53611,6,0,P|88:78|89:112,1,55
167,244,53778,2,0,P|155:281|139:311,1,55
93,14,53946,6,0,P|102:52|103:86,1,55
179,264,54113,2,0,P|167:301|151:331,1,55
0,143,54281,6,0,L|71:148,1,55
301,207,54449,2,0,L|246:210,1,55
147,96,54616,1,0,0:0:0:0:
150,150,54699,1,0,0:0:0:0:
153,205,54783,1,0,0:0:0:0:
157,260,54867,1,0,0:0:0:0:
160,315,54952,6,0,L|164:379,1,55
66,198,55119,2,0,L|69:143,1,55
266,89,55287,5,0,0:0:0:0:
280,96,55371,1,0,0:0:0:0:
296,101,55455,1,0,0:0:0:0:
312,104,55539,1,0,0:0:0:0:
327,103,55622,5,0,0:0:0:0:
294,82,55705,1,0,0:0:0:0:
257,74,55789,1,0,0:0:0:0:
219,78,55873,1,0,0:0:0:0:
184,95,55957,6,0,P|136:103|103:100,1,55
66,198,56125,2,0,P|17:188|-12:174,1,55
257,74,56293,5,0,0:0:0:0:
275,144,56377,2,0,P|283:181|306:230,1,65.9999979858399
127,353,56544,5,0,0:0:0:0:
145,283,56628,2,0,P|153:246|176:197,1,65.9999979858399
48,85,56796,2,0,P|56:122|79:171,1,65.9999979858399
216,219,56963,5,0,0:0:0:0:
288,215,57046,1,0,0:0:0:0:
361,212,57130,1,0,0:0:0:0:
14,175,57299,5,0,0:0:0:0:
67,149,57382,1,0,0:0:0:0:
125,148,57466,1,0,0:0:0:0:
179,173,57550,1,0,0:0:0:0:
216,219,57634,1,0,0:0:0:0:
153,28,57801,5,0,0:0:0:0:
111,275,57969,1,0,0:0:0:0:
108,268,58053,1,0,0:0:0:0:
105,261,58137,1,0,0:0:0:0:
270,162,58304,2,0,P|230:161|185:146,1,71.4999967269899
48,40,58472,2,0,P|67:75|76:121,1,71.4999967269899
54,294,58640,2,0,P|74:259|110:228,1,71.4999967269899
280,189,58807,5,0,0:0:0:0:
315,194,58891,1,0,0:0:0:0:
350,199,58975,2,0,L|439:208,1,71.4999967269899
145,115,59142,1,0,0:0:0:0:
180,110,59226,1,0,0:0:0:0:
215,105,59310,2,0,L|304:96,1,71.4999967269899
80,192,59478,1,0,0:0:0:0:
72,178,59561,1,0,0:0:0:0:
66,163,59645,5,0,0:0:0:0:
72,197,59728,1,0,0:0:0:0:
68,232,59812,1,0,0:0:0:0:
52,264,59896,1,0,0:0:0:0:
27,289,59981,6,0,P|71:275|132:276,1,71.4999967269899
237,184,60148,2,0,P|281:198|342:197,1,71.4999967269899
504,117,60316,6,0,P|427:106|352:160,1,142.99999345398
259,338,60567,1,0,0:0:0:0:
261,344,60651,2,0,L|250:241,1,71.4999967269899
232,37,60819,1,0,0:0:0:0:
451,221,60986,1,0,0:0:0:0:
115,220,61154,1,0,0:0:0:0:
107,219,61238,1,0,0:0:0:0:
99,218,61322,2,0,P|143:220|200:208,1,71.4999967269899
394,294,61489,2,0,P|358:290|322:292,1,71.4999967269899
30,306,61657,5,0,0:0:0:0:
37,305,61740,1,0,0:0:0:0:
45,304,61824,1,0,0:0:0:0:
52,304,61908,1,0,0:0:0:0:
59,304,61992,1,0,0:0:0:0:
66,304,62076,1,0,0:0:0:0:
73,305,62159,1,0,0:0:0:0:
80,306,62243,1,0,0:0:0:0:
87,307,62327,5,0,0:0:0:0:
78,258,62410,1,0,0:0:0:0:
101,215,62494,1,0,0:0:0:0:
146,194,62578,1,0,0:0:0:0:
194,206,62662,1,0,0:0:0:0:
225,244,62746,1,0,0:0:0:0:
226,293,62829,1,0,0:0:0:0:
196,333,62913,1,0,0:0:0:0:
148,351,62998,6,0,B|129:308|129:308|129:261|129:261|95:191,1,142.99999345398
151,72,63249,2,0,B|173:116|173:116|174:163|174:163|194:206,1,142.99999345398
20,151,63501,2,0,L|94:137,1,71.4999967269899
423,212,63669,6,0,B|401:256|401:256|401:303|401:303|382:346,1,142.99999345398
337,201,63921,2,0,B|356:158|356:158|357:111|357:111|379:67,1,142.99999345398
314,286,64172,2,0,L|243:272,1,71.4999967269899
18,287,64339,6,0,P|71:330|157:325,1,142.99999345398
243,272,64591,2,0,P|313:272|368:315,1,142.99999345398
310,185,64842,2,0,L|306:103,1,71.4999967269899
512,208,65010,6,0,P|457:251|387:252,1,142.99999345398
282,186,65262,2,0,P|211:186|156:229,1,142.99999345398
366,350,65513,2,0,L|371:279,1,71.4999967269899
379,56,65680,6,0,B|327:68|327:68|235:49,1,142.99999345398
37,114,65932,2,0,B|89:102|89:102|177:121,1,142.99999345398
353,180,66183,2,0,L|282:186,1,71.4999967269899
44,265,66351,6,0,B|132:247|132:247|184:259,1,142.99999345398
453,321,66602,2,0,B|365:339|365:339|313:327,1,142.99999345398
131,342,66854,2,0,L|200:357,1,71.4999967269899
70,178,67021,6,0,P|20:183|-27:197,1,71.4999967269899
161,64,67189,2,0,P|195:71|231:73,1,71.4999967269899
427,140,67356,1,0,0:0:0:0:
424,133,67440,1,0,0:0:0:0:
422,126,67524,2,0,P|413:88|413:43,1,71.4999967269899
512,253,67692,6,0,P|510:288|501:323,1,71.4999967269899
319,352,67859,2,0,L|231:347,1,71.4999967269899
84,114,68027,1,0,0:0:0:0:
138,158,68110,1,0,0:0:0:0:
160,225,68194,1,0,0:0:0:0:
142,293,68278,1,0,0:0:0:0:
90,341,68362,1,0,0:0:0:0:
315,160,68530,5,0,0:0:0:0:
49,234,68697,1,0,0:0:0:0:
50,226,68781,1,0,0:0:0:0:
51,219,68865,1,0,0:0:0:0:
323,82,69033,2,0,P|329:131|344:162,1,71.4999967269899
51,305,69200,2,0,P|45:256|30:225,1,71.4999967269899
337,151,69368,6,0,L|249:158,1,71.4999967269899
51,305,69536,1,0,0:0:0:0:
71,308,69619,1,0,0:0:0:0:
92,306,69703,2,0,P|148:299|191:284,1,71.4999967269899
474,330,69871,2,0,B|419:339|377:300|377:300|318:285|257:330,1,214.49999018097
452,233,70206,2,0,P|457:187|453:144,1,71.4999967269899
293,52,70374,5,0,0:0:0:0:
271,54,70458,1,0,0:0:0:0:
249,57,70541,2,0,L|136:70,1,71.4999967269899
152,239,70709,2,0,L|197:134,1,71.4999967269899
42,63,70877,2,0,L|109:154,1,71.4999967269899
360,114,71044,6,0,P|266:100|180:174,1,214.49999018097
284,290,71380,2,0,P|293:241|291:210,1,71.4999967269899
374,121,71547,2,0,P|357:74|340:48,1,71.4999967269899
125,203,71715,5,0,0:0:0:0:
120,208,71799,1,0,0:0:0:0:
116,213,71882,2,0,L|229:205,1,71.4999967269899
445,126,72050,2,0,L|332:118,1,71.4999967269899
51,121,72218,2,0,L|164:113,1,71.4999967269899
372,205,72385,5,0,0:0:0:0:
364,192,72468,1,0,0:0:0:0:
359,179,72552,1,0,0:0:0:0:
356,165,72636,1,0,0:0:0:0:
355,151,72721,5,0,0:0:0:0:
362,193,72804,1,0,0:0:0:0:
357,235,72888,1,0,0:0:0:0:
340,274,72972,1,0,0:0:0:0:
311,306,73056,6,0,L|219:301,1,71.4999967269899
71,199,73224,2,0,L|0:203,1,71.4999967269899
414,79,73391,1,0,0:0:0:0:
350,47,73474,1,0,0:0:0:0:
280,54,73558,1,0,0:0:0:0:
224,96,73642,1,0,0:0:0:0:
199,162,73726,6,0,L|210:243,2,71.4999967269899
120,358,73978,2,0,P|119:312|105:276,2,71.4999967269899
34,175,74229,2,0,P|35:129|49:93,1,71.4999967269899
313,162,74397,6,0,L|302:243,2,71.4999967269899
392,358,74649,2,0,P|393:312|407:276,2,71.4999967269899
478,175,74900,2,0,P|477:129|463:93,1,71.4999967269899
205,50,75067,6,0,L|130:56,2,71.4999967269899
35,150,75319,2,0,L|110:156,2,71.4999967269899
270,236,75570,2,0,P|201:252|172:267,1,71.4999967269899
360,330,75738,6,0,L|431:335,2,71.4999967269899
200,252,75990,2,0,L|125:246,2,71.4999967269899
354,183,76241,2,0,P|389:188|423:199,1,71.4999967269899
187,114,76409,6,0,P|111:138|42:118,1,142.99999345398
301,23,76660,2,0,L|268:188,1,142.99999345398
378,72,76911,2,0,P|422:51|476:46,1,71.4999967269899
183,246,77079,6,0,L|150:81,1,142.99999345398
391,316,77330,2,0,P|315:292|246:312,1,142.99999345398
444,241,77582,2,0,P|478:232|509:210,1,71.4999967269899
309,86,77750,6,0,L|319:174,1,71.4999967269899
413,333,77917,1,0,0:0:0:0:
385,310,78000,1,0,0:0:0:0:
352,296,78084,1,0,0:0:0:0:
317,294,78168,1,0,0:0:0:0:
282,302,78252,5,0,0:0:0:0:
324,247,78335,1,0,0:0:0:0:
308,180,78419,1,0,0:0:0:0:
245,150,78503,1,0,0:0:0:0:
183,180,78587,1,0,0:0:0:0:
167,247,78671,1,0,0:0:0:0:
206,307,78755,2,0,L|294:302,1,71.4999967269899
446,188,78923,5,0,0:0:0:0:
450,259,79006,1,0,0:0:0:0:
454,330,79090,1,0,0:0:0:0:
454,330,79761,6,0,P|426:216|400:359,1,385
395,284,80395,5,0,0:0:0:0:
117,233,80558,1,0,0:0:0:0:
413,273,80722,1,0,0:0:0:0:
80,322,80886,1,0,0:0:0:0:
485,276,81050,6,0,L|429:269,1,55
98,222,81378,1,0,0:0:0:0:
332,361,81542,2,0,L|391:350,1,55
5,260,81870,5,0,0:0:0:0:
507,280,82034,2,0,P|466:277|430:264,1,55
52,165,82362,2,0,P|93:162|129:149,1,55
382,11,82690,2,0,L|388:109,1,82.5
395,82,83017,5,0,0:0:0:0:
76,47,83181,1,0,0:0:0:0:
472,42,83345,5,0,0:0:0:0:
150,84,83509,1,0,0:0:0:0:
505,147,83673,6,0,L|441:141,1,55
56,40,84001,1,0,0:0:0:0:
378,91,84165,1,0,0:0:0:0:
2,126,84329,5,0,0:0:0:0:
360,83,84493,1,0,0:0:0:0:
110,47,84657,2,0,L|40:37,1,55
378,91,84985,2,0,L|448:81,1,55
441,181,85313,2,0,L|511:171,1,55
94,167,85640,5,0,0:0:0:0:
378,91,85804,1,0,0:0:0:0:
194,322,85968,1,0,0:0:0:0:
207,26,86132,1,0,0:0:0:0:
369,274,86296,6,0,P|368:317|364:339,1,55
192,42,86624,5,0,0:0:0:0:
207,334,86788,1,0,0:0:0:0:
111,50,86952,6,0,P|156:52|207:32,1,82.5
207,26,87280,1,0,0:0:0:0:
131,267,87444,1,0,0:0:0:0:
352,65,87608,5,0,0:0:0:0:
71,180,87772,1,0,0:0:0:0:
395,244,87935,5,0,0:0:0:0:
72,74,88099,1,0,0:0:0:0:
372,75,88263,5,0,0:0:0:0:
64,198,88427,1,0,0:0:0:0:
392,222,88591,5,0,0:0:0:0:
93,74,88755,1,0,0:0:0:0:
508,170,88919,6,0,P|467:174|446:181,1,55
236,336,89247,1,0,0:0:0:0:
293,25,89411,1,0,0:0:0:0:
344,371,89575,5,0,0:0:0:0:
207,8,89739,1,0,0:0:0:0:
229,253,89903,6,0,L|237:353,1,82.5
296,197,90231,2,0,B|303:281|303:281|286:330|286:330|308:377|308:377|276:343|225:333,1,275
449,197,91214,6,0,L|441:297,1,82.5
381,175,91542,2,0,B|417:172|449:198|449:198|443:146|443:146|464:101|464:101|454:43,1,220
234,335,92362,5,0,0:0:0:0:
449,197,92526,1,0,0:0:0:0:
213,338,92690,1,0,0:0:0:0:
378,80,92854,6,0,P|384:121|384:145,1,55
192,342,93181,1,0,0:0:0:0:
242,0,93345,6,0,P|280:15|301:27,1,55
168,347,93673,1,0,0:0:0:0:
29,93,93837,6,0,L|90:86,1,55
468,130,94165,2,0,L|407:123,1,55
0,203,94493,2,0,L|61:196,1,55
407,227,94821,5,0,0:0:0:0:
105,288,94985,1,0,0:0:0:0:
315,61,95149,1,0,0:0:0:0:
279,369,95312,1,0,0:0:0:0:
128,98,95476,6,0,P|159:124|178:151,1,55
259,377,95804,1,0,0:0:0:0:
315,61,95968,6,0,P|303:99|285:127,1,55
105,288,96296,1,0,0:0:0:0:
485,237,96460,6,0,L|425:226,1,55
58,187,96788,2,0,L|118:176,1,55
61,81,97116,2,0,L|7:91,1,55
480,125,97444,5,0,0:0:0:0:
147,62,97608,1,0,0:0:0:0:
512,47,97772,5,0,0:0:0:0:
108,130,97935,1,0,0:0:0:0:
492,114,98099,6,0,L|430:106,1,55
93,117,98427,1,0,0:0:0:0:
506,102,98591,1,0,0:0:0:0:
77,103,98755,6,0,L|139:95,1,55
395,196,99083,5,0,0:0:0:0:
59,89,99247,1,0,0:0:0:0:
430,116,99411,5,0,0:0:0:0:
50,197,99575,1,0,0:0:0:0:
421,31,99739,5,0,0:0:0:0:
103,317,99903,1,0,0:0:0:0:
447,130,100067,5,0,0:0:0:0:
70,181,100231,1,0,0:0:0:0:
437,145,100394,5,0,0:0:0:0:
149,100,100558,1,0,0:0:0:0:
428,161,100722,2,0,P|396:165|361:176,1,55
91,204,101050,5,0,0:0:0:0:
411,245,101214,1,0,0:0:0:0:
99,218,101378,2,0,P|131:222|166:233,1,55
402,327,101706,6,0,L|412:228,1,82.5
199,250,102034,2,0,B|240:221|285:235|285:235|324:227|324:227|369:254|425:242,1,220
257,332,102854,1,0,0:0:0:0:
99,61,103017,6,0,L|89:160,1,82.5
269,159,103345,2,0,B|236:174|199:164|199:164|159:133|159:133|112:128|74:151,1,192.5
219,245,104001,6,0,P|273:240|338:207,1,110
376,25,104657,2,0,L|382:114,1,82.5
381,107,104985,1,0,0:0:0:0:
493,181,105149,2,0,B|436:173|436:173|396:194|396:194|327:181,1,165
143,36,105968,6,0,P|164:95|90:216,1,192.5
172,158,106624,2,0,B|233:141|277:176|277:176|325:211|398:187,1,220
381,191,107608,5,0,0:0:0:0:
352,308,107772,1,0,0:0:0:0:
398,196,107935,5,0,0:0:0:0:
367,78,108099,1,0,0:0:0:0:
266,11,108263,5,0,0:0:0:0:
357,90,108427,1,0,0:0:0:0:
477,104,108591,5,0,0:0:0:0:
356,109,108755,1,0,0:0:0:0:
283,206,108919,1,0,0:0:0:0:
282,327,109083,1,0,0:0:0:0:
302,207,109247,6,0,B|312:150|291:111|291:111|319:162|369:182|429:163|429:163|403:153|379:128,1,302.5
392,141,110231,1,0,0:0:0:0:
106,187,110394,6,0,P|172:191|213:171,1,110
315,19,110886,2,0,L|307:130,1,110
512,92,111378,2,0,P|461:71|407:77,1,110
150,109,111870,6,0,B|115:123|115:123|135:89|125:52|125:52|163:97|172:165|123:207,1,263.99999194336
136,194,112854,1,0,0:0:0:0:
388,103,113017,1,0,0:0:0:0:
107,87,113181,5,0,0:0:0:0:
132,81,113262,1,0,0:0:0:0:
154,95,113345,1,0,0:0:0:0:
179,89,113426,1,0,0:0:0:0:
200,105,113509,2,0,P|218:60|222:22,1,65.9999979858399
326,217,113837,2,0,P|308:172|304:134,1,65.9999979858399
110,290,114165,2,0,P|171:284|226:311,1,123.750004720688
304,285,114493,5,0,0:0:0:0:
321,296,114574,1,0,0:0:0:0:
340,304,114656,1,0,0:0:0:0:
360,307,114738,1,0,0:0:0:0:
380,306,114820,1,0,0:0:0:0:
400,301,114902,1,0,0:0:0:0:
419,292,114984,1,0,0:0:0:0:
434,279,115066,1,0,0:0:0:0:
447,262,115149,5,0,0:0:0:0:
425,237,115230,1,0,0:0:0:0:
413,206,115312,1,0,0:0:0:0:
414,174,115394,1,0,0:0:0:0:
427,143,115476,1,0,0:0:0:0:
450,120,115558,1,0,0:0:0:0:
479,106,115640,5,0,0:0:0:0:
458,119,115721,1,0,0:0:0:0:
434,126,115803,1,0,0:0:0:0:
410,129,115885,1,0,0:0:0:0:
385,127,115967,1,0,0:0:0:0:
361,120,116049,1,0,0:0:0:0:
340,109,116132,5,0,0:0:0:0:
349,140,116213,1,0,0:0:0:0:
359,172,116295,1,0,0:0:0:0:
368,203,116377,1,0,0:0:0:0:
378,235,116459,1,0,0:0:0:0:
387,266,116541,1,0,0:0:0:0:
397,298,116624,5,0,0:0:0:0:
369,267,116705,1,0,0:0:0:0:
332,250,116787,1,0,0:0:0:0:
291,248,116869,1,0,0:0:0:0:
253,264,116951,1,0,0:0:0:0:
224,293,117033,1,0,0:0:0:0:
209,331,117116,5,0,0:0:0:0:
244,297,117197,1,0,0:0:0:0:
262,251,117279,1,0,0:0:0:0:
259,202,117361,1,0,0:0:0:0:
236,159,117443,1,0,0:0:0:0:
196,130,117525,1,0,0:0:0:0:
148,121,117607,1,0,0:0:0:0:
98,129,117690,1,0,0:0:0:0:
62,164,117772,5,0,0:0:0:0:
83,168,117853,1,0,0:0:0:0:
103,168,117935,1,0,0:0:0:0:
124,165,118017,1,0,0:0:0:0:
141,157,118099,6,0,L|152:105,1,41.2500015735627
286,141,118263,2,0,L|297:89,1,41.2500015735627
437,189,118427,5,0,0:0:0:0:
442,213,118508,1,0,0:0:0:0:
442,237,118590,1,0,0:0:0:0:
437,261,118672,1,0,0:0:0:0:
427,284,118755,6,0,L|351:277,1,41.2500015735627
156,328,118919,2,0,L|232:321,1,41.2500015735627
90,53,119083,5,0,0:0:0:0:
68,87,119164,1,0,0:0:0:0:
66,128,119246,1,0,0:0:0:0:
84,165,119329,1,0,0:0:0:0:
66,201,119411,5,0,0:0:0:0:
87,235,119492,1,0,0:0:0:0:
89,276,119574,1,0,0:0:0:0:
71,313,119657,1,0,0:0:0:0:
38,337,119739,5,0,0:0:0:0:
48,319,119820,1,0,0:0:0:0:
61,303,119902,1,0,0:0:0:0:
76,289,119984,1,0,0:0:0:0:
94,279,120066,1,0,0:0:0:0:
114,272,120148,1,0,0:0:0:0:
134,268,120230,1,0,0:0:0:0:
154,268,120312,1,0,0:0:0:0:
175,272,120394,1,0,0:0:0:0:
194,279,120476,1,0,0:0:0:0:
212,289,120558,1,0,0:0:0:0:
227,303,120640,1,0,0:0:0:0:
240,319,120722,1,0,0:0:0:0:
251,337,120804,1,0,0:0:0:0:
256,355,120886,5,0,0:0:0:0:
245,332,120967,1,0,0:0:0:0:
239,308,121049,1,0,0:0:0:0:
239,284,121131,1,0,0:0:0:0:
244,259,121213,1,0,0:0:0:0:
255,237,121295,1,0,0:0:0:0:
296,212,121378,5,0,0:0:0:0:
306,189,121459,1,0,0:0:0:0:
312,165,121541,1,0,0:0:0:0:
312,141,121623,1,0,0:0:0:0:
307,116,121706,6,0,P|353:131|400:128,1,82.5000031471254
255,46,121952,2,0,L|166:61,1,82.5000031471254
198,182,122198,2,0,L|215:133,1,41.2500015735627
453,240,122362,5,0,0:0:0:0:
438,225,122443,1,0,0:0:0:0:
421,213,122525,1,0,0:0:0:0:
402,205,122607,1,0,0:0:0:0:
382,200,122689,1,0,0:0:0:0:
362,199,122771,1,0,0:0:0:0:
341,202,122853,1,0,0:0:0:0:
322,209,122935,1,0,0:0:0:0:
303,220,123017,6,0,L|295:285,1,55
213,81,123181,2,0,L|221:146,1,55
296,274,123345,5,0,0:0:0:0:
276,324,123426,1,0,0:0:0:0:
234,359,123508,1,0,0:0:0:0:
181,368,123590,1,0,0:0:0:0:
130,348,123673,6,0,L|148:274,1,55
250,10,123837,2,0,L|278:80,1,55
350,353,124001,2,0,L|285:313,1,55
67,135,124165,2,0,L|142:129,1,55
425,145,124329,6,0,L|366:194,1,55
203,326,124493,2,0,L|221:252,1,55
270,60,124657,2,0,L|298:130,1,55
386,321,124821,2,0,L|321:281,1,55
150,155,124985,5,0,0:0:0:0:
413,33,125152,2,0,B|417:75|417:75|411:107|411:107|415:147,1,110
371,252,125404,1,0,0:0:0:0:
371,268,125487,2,0,P|381:311|393:332,1,55
328,70,125655,5,0,0:0:0:0:
311,72,125739,1,0,0:0:0:0:
294,74,125823,2,0,L|204:82,1,55
42,144,125990,1,0,0:0:0:0:
59,146,126074,1,0,0:0:0:0:
76,148,126158,2,0,L|166:156,1,55
300,19,126326,6,0,P|294:53|294:81,1,55
340,222,126493,2,0,P|357:251|375:273,1,55
223,48,126661,5,0,0:0:0:0:
186,37,126744,1,0,0:0:0:0:
147,39,126828,1,0,0:0:0:0:
112,54,126912,1,0,0:0:0:0:
79,74,126996,2,0,P|38:72|8:64,1,55
300,19,127164,2,0,P|341:21|371:29,1,55
107,147,127331,6,0,P|134:146|161:142,1,55
317,37,127499,2,0,P|357:42|386:53,1,55
87,140,127667,1,0,0:0:0:0:
432,111,127834,2,0,P|362:134|300:102,1,110
235,20,128086,1,0,0:0:0:0:
239,35,128170,2,0,L|233:97,1,55
320,218,128337,6,0,L|314:280,1,55
445,111,128505,2,0,L|439:173,1,55
106,195,128672,5,0,0:0:0:0:
141,182,128755,1,0,0:0:0:0:
180,181,128839,1,0,0:0:0:0:
217,193,128923,1,0,0:0:0:0:
247,216,129008,2,0,P|276:227|310:233,1,55
409,318,129175,2,0,P|439:313|472:301,1,55
162,280,129343,5,0,0:0:0:0:
159,284,129426,1,0,0:0:0:0:
156,289,129510,1,0,0:0:0:0:
153,294,129594,1,0,0:0:0:0:
150,298,129678,2,0,P|154:264|154:238,1,55
221,45,129846,2,0,P|221:72|225:99,1,55
78,204,130014,6,0,L|23:199,1,55
133,46,130181,2,0,L|78:50,1,55
278,165,130349,6,0,L|332:160,1,55
509,89,130516,2,0,P|450:87|397:119,1,110
340,248,130768,5,0,0:0:0:0:
338,264,130852,2,0,L|331:349,1,55
176,189,131019,2,0,L|183:274,1,55
377,104,131187,2,0,L|370:189,1,55
140,48,131355,5,0,0:0:0:0:
187,22,131438,1,0,0:0:0:0:
242,20,131522,1,0,0:0:0:0:
291,43,131606,1,0,0:0:0:0:
325,86,131690,6,0,P|366:102|395:104,1,55
477,9,131857,2,0,B|461:63|461:63|468:117|468:117|450:183,1,165
419,287,132193,2,0,P|411:261|398:234,1,55
253,153,132360,2,0,L|182:161,1,55
432,313,132528,2,0,P|435:285|434:256,1,55
376,67,132696,1,0,0:0:0:0:
372,70,132779,1,0,0:0:0:0:
368,74,132863,1,0,0:0:0:0:
444,333,133031,5,0,0:0:0:0:
352,86,133199,2,0,B|287:76|287:76|246:93|246:93|157:78,1,165
434,43,133534,2,0,P|477:52|515:73,1,55
345,192,133701,2,0,P|302:183|264:162,1,55
88,112,133869,6,0,P|45:121|7:142,1,55
177,261,134037,2,0,P|220:252|258:231,1,55
334,47,134204,2,0,L|340:111,1,55
312,303,134372,5,0,0:0:0:0:
316,300,134455,1,0,0:0:0:0:
321,297,134539,1,0,0:0:0:0:
326,294,134623,1,0,0:0:0:0:
331,292,134707,2,0,L|254:283,1,55
122,341,134875,2,0,L|45:332,1,55
203,40,135043,5,0,0:0:0:0:
207,55,135126,1,0,0:0:0:0:
208,71,135210,2,0,P|206:114|201:140,1,55
336,323,135378,5,0,0:0:0:0:
332,308,135461,1,0,0:0:0:0:
331,292,135545,2,0,P|333:249|338:223,1,55
473,110,135713,5,0,0:0:0:0:
424,133,135796,1,0,0:0:0:0:
370,127,135880,1,0,0:0:0:0:
328,92,135964,1,0,0:0:0:0:
312,40,136048,5,0,0:0:0:0:
341,86,136131,1,0,0:0:0:0:
347,141,136215,1,0,0:0:0:0:
329,192,136299,1,0,0:0:0:0:
282,223,136384,5,0,0:0:0:0:
335,222,136467,1,0,0:0:0:0:
376,257,136551,1,0,0:0:0:0:
385,311,136635,1,0,0:0:0:0:
356,356,136719,1,0,0:0:0:0:
305,373,136803,1,0,0:0:0:0:
255,351,136886,1,0,0:0:0:0:
231,303,136970,1,0,0:0:0:0:
241,249,137054,6,0,P|254:217|267:196,1,55
431,253,137222,2,0,P|396:257|372:256,1,55
149,200,137389,1,0,0:0:0:0:
97,186,137472,1,0,0:0:0:0:
52,216,137556,1,0,0:0:0:0:
45,269,137640,1,0,0:0:0:0:
79,309,137725,6,0,L|150:314,1,55
332,224,137892,2,0,L|261:228,1,55
409,318,138060,1,0,0:0:0:0:
448,280,138143,1,0,0:0:0:0:
462,228,138227,1,0,0:0:0:0:
448,176,138311,1,0,0:0:0:0:
408,138,138395,6,0,P|397:110|390:64,1,55
275,0,138563,2,0,P|268:26|258:52,1,55
52,181,138730,5,0,0:0:0:0:
95,149,138813,1,0,0:0:0:0:
150,150,138897,1,0,0:0:0:0:
192,183,138981,1,0,0:0:0:0:
207,235,139066,5,0,0:0:0:0:
201,180,139149,1,0,0:0:0:0:
195,126,139233,1,0,0:0:0:0:
190,71,139317,1,0,0:0:0:0:
184,16,139401,6,0,P|156:39|126:52,1,55
54,155,139569,2,0,P|18:160|-14:156,1,55
359,56,139736,6,0,P|324:67|292:69,1,55
189,141,139904,2,0,P|153:133|124:119,1,55
509,152,140072,6,0,P|472:150|441:141,1,55
320,174,140240,2,0,P|289:155|266:131,1,55
498,18,140407,6,0,L|492:85,1,55
382,306,140574,2,0,L|376:239,1,55
474,44,140742,5,0,0:0:0:0:
473,54,140825,1,0,0:0:0:0:
472,65,140909,1,0,0:0:0:0:
471,76,140993,1,0,0:0:0:0:
468,87,141077,6,0,P|472:138|480:170,1,55
369,340,141245,2,0,P|365:289|357:257,1,55
68,92,141413,5,0,0:0:0:0:
115,118,141496,1,0,0:0:0:0:
169,116,141580,1,0,0:0:0:0:
214,86,141664,1,0,0:0:0:0:
237,36,141748,5,0,0:0:0:0:
212,77,141831,1,0,0:0:0:0:
214,124,141915,1,0,0:0:0:0:
241,162,141999,1,0,0:0:0:0:
277,194,142083,5,0,0:0:0:0:
303,234,142166,1,0,0:0:0:0:
302,282,142250,1,0,0:0:0:0:
274,321,142334,1,0,0:0:0:0:
232,342,142418,6,0,P|187:342|141:332,1,55
378,260,142586,2,0,P|423:260|469:270,1,55
258,228,142754,5,0,0:0:0:0:
232,179,142837,1,0,0:0:0:0:
237,125,142921,1,0,0:0:0:0:
271,83,143005,1,0,0:0:0:0:
325,72,143089,5,0,0:0:0:0:
290,114,143172,1,0,0:0:0:0:
239,133,143256,1,0,0:0:0:0:
185,125,143340,1,0,0:0:0:0:
143,91,143424,5,0,0:0:0:0:
162,123,143507,1,0,0:0:0:0:
169,161,143591,1,0,0:0:0:0:
163,199,143675,1,0,0:0:0:0:
144,232,143759,5,0,0:0:0:0:
160,229,143842,1,0,0:0:0:0:
176,226,143926,1,0,0:0:0:0:
193,223,144010,1,0,0:0:0:0:
209,220,144095,6,0,P|251:221|293:232,1,55
400,169,144262,2,0,P|435:190|466:221,1,55
185,342,144430,6,0,B|196:221,1,110
323,92,144681,1,0,0:0:0:0:
314,106,144765,2,0,P|292:139|270:157,1,55
132,130,144933,2,0,P|120:104|115:78,1,55
391,216,145101,2,0,P|355:233|326:242,1,55
68,214,145268,2,0,P|45:197|26:178,1,55
458,290,145436,5,0,0:0:0:0:
409,315,145519,1,0,0:0:0:0:
355,312,145603,1,0,0:0:0:0:
310,281,145687,1,0,0:0:0:0:
287,232,145771,6,0,L|300:157,1,55
176,31,145939,2,0,L|185:85,1,55
179,326,146106,6,0,L|192:251,1,55
78,4,146274,2,0,L|87:58,1,55
54,327,146442,5,0,0:0:0:0:
186,49,146609,1,0,0:0:0:0:
25,203,146777,1,0,0:0:0:0:
17,202,146861,1,0,0:0:0:0:
9,201,146944,1,0,0:0:0:0:
261,138,147112,6,0,P|212:161|171:170,1,71.4999967269899
55,60,147280,2,0,P|99:90|127:121,1,71.4999967269899
181,264,147447,2,0,L|169:347,1,71.4999967269899
358,105,147615,5,0,0:0:0:0:
379,102,147699,1,0,0:0:0:0:
400,100,147783,2,0,P|437:102|486:116,1,71.4999967269899
188,101,147950,5,0,0:0:0:0:
202,85,148034,1,0,0:0:0:0:
216,70,148118,2,0,P|245:47|292:26,1,71.4999967269899
62,112,148286,5,0,0:0:0:0:
58,106,148369,1,0,0:0:0:0:
54,99,148453,1,0,0:0:0:0:
20,135,148536,1,0,0:0:0:0:
9,183,148620,1,0,0:0:0:0:
23,230,148704,1,0,0:0:0:0:
59,264,148788,6,0,L|136:260,1,71.4999967269899
340,162,148956,2,0,L|263:157,1,71.4999967269899
20,135,149124,6,0,P|88:142|162:88,1,142.99999345398
226,237,149375,1,0,0:0:0:0:
226,258,149459,2,0,L|231:347,1,71.4999967269899
409,150,149627,2,0,P|339:162|289:151,1,71.4999967269899
41,155,149794,2,0,P|76:157|110:167,1,71.4999967269899
251,359,149962,5,0,0:0:0:0:
249,337,150046,1,0,0:0:0:0:
247,315,150130,2,0,L|242:226,1,71.4999967269899
339,161,150297,2,0,L|334:72,1,71.4999967269899
132,107,150465,5,0,0:0:0:0:
138,104,150548,1,0,0:0:0:0:
145,101,150632,1,0,0:0:0:0:
151,98,150716,1,0,0:0:0:0:
157,94,150800,1,0,0:0:0:0:
163,90,150884,1,0,0:0:0:0:
169,86,150967,1,0,0:0:0:0:
174,81,151051,1,0,0:0:0:0:
181,76,151135,5,0,0:0:0:0:
146,111,151218,1,0,0:0:0:0:
135,159,151302,1,0,0:0:0:0:
150,206,151386,1,0,0:0:0:0:
187,239,151471,5,0,0:0:0:0:
172,191,151554,1,0,0:0:0:0:
137,157,151638,1,0,0:0:0:0:
89,146,151722,1,0,0:0:0:0:
41,160,151806,6,0,B|23:224|23:224|24:241|24:241|2:321,1,142.99999345398
242,262,152057,2,0,P|158:263|112:226,1,142.99999345398
129,271,152309,2,0,P|138:311|138:348,1,71.4999967269899
207,119,152476,6,0,P|277:113|336:153,1,142.99999345398
408,221,152728,2,0,B|426:156|426:156|425:140|425:140|441:83,1,142.99999345398
312,41,152979,2,0,P|313:76|321:111,1,71.4999967269899
485,235,153147,6,0,P|407:221|341:261,1,142.99999345398
187,148,153398,2,0,P|265:134|331:174,1,142.99999345398
348,320,153650,2,0,L|353:230,1,71.4999967269899
43,215,153817,6,0,P|122:215|180:164,1,142.99999345398
351,248,154069,2,0,P|273:275|216:257,1,142.99999345398
163,107,154320,2,0,L|173:196,1,71.4999967269899
119,325,154488,6,0,B|68:305|10:299|10:299|58:283,1,142.99999345398
163,107,154739,2,0,B|171:161|194:214|194:214|157:180,1,142.99999345398
2,170,154991,2,0,P|38:166|83:170,1,71.4999967269899
368,138,155159,6,0,B|419:158|477:164|477:164|448:174,1,142.99999345398
324,357,155410,2,0,B|315:302|292:249|292:249|315:270,1,142.99999345398
485,294,155661,2,0,P|449:298|414:296,1,71.4999967269899
187,212,155829,6,0,L|110:218,1,71.4999967269899
234,58,155997,2,0,L|157:64,1,71.4999967269899
325,212,156164,1,0,0:0:0:0:
332,212,156247,1,0,0:0:0:0:
339,213,156331,1,0,0:0:0:0:
346,213,156415,1,0,0:0:0:0:
353,214,156500,6,0,P|402:212|440:203,1,71.4999967269899
234,58,156667,2,0,L|226:151,1,71.4999967269899
466,262,156835,1,0,0:0:0:0:
406,223,156918,1,0,0:0:0:0:
336,223,157002,1,0,0:0:0:0:
276,261,157086,1,0,0:0:0:0:
247,326,157170,5,0,0:0:0:0:
424,62,157338,1,0,0:0:0:0:
374,344,157505,1,0,0:0:0:0:
381,343,157589,1,0,0:0:0:0:
388,342,157673,1,0,0:0:0:0:
110,192,157841,6,0,P|65:200|18:218,1,71.4999967269899
124,342,158008,2,0,P|169:334|216:316,1,71.4999967269899
402,192,158176,6,0,P|447:200|494:218,1,71.4999967269899
388,342,158343,2,0,P|343:334|296:316,1,71.4999967269899
125,173,158511,6,0,P|80:181|33:199,1,71.4999967269899
221,356,158679,2,0,B|235:283|235:283|218:215|218:215|237:117,1,214.49999018097
385,222,159014,2,0,P|345:223|290:202,1,71.4999967269899
65,298,159182,2,0,P|105:299|160:278,1,71.4999967269899
242,47,159349,5,0,0:0:0:0:
243,68,159433,1,0,0:0:0:0:
244,89,159517,2,0,L|248:160,1,71.4999967269899
389,293,159685,2,0,L|385:222,1,71.4999967269899
75,228,159852,6,0,P|151:244|251:141,1,214.49999018097
367,197,160188,2,0,P|417:199|462:217,1,71.4999967269899
247,333,160355,2,0,P|197:331|152:313,1,71.4999967269899
84,114,160523,5,0,0:0:0:0:
82,135,160607,1,0,0:0:0:0:
80,156,160690,2,0,L|73:251,1,71.4999967269899
269,66,160858,2,0,L|262:161,1,71.4999967269899
95,183,161026,2,0,L|89:254,1,71.4999967269899
345,154,161194,5,0,0:0:0:0:
326,142,161277,1,0,0:0:0:0:
306,136,161361,1,0,0:0:0:0:
285,134,161445,1,0,0:0:0:0:
261,135,161529,5,0,0:0:0:0:
296,135,161612,1,0,0:0:0:0:
330,125,161696,1,0,0:0:0:0:
359,104,161780,1,0,0:0:0:0:
379,75,161864,5,0,0:0:0:0:
349,123,161947,1,0,0:0:0:0:
340,179,162031,1,0,0:0:0:0:
354,234,162115,1,0,0:0:0:0:
388,279,162199,5,0,0:0:0:0:
337,230,162282,1,0,0:0:0:0:
270,209,162366,1,0,0:0:0:0:
200,222,162450,1,0,0:0:0:0:
139,262,162534,6,0,L|147:343,2,71.4999967269899
129,138,162786,2,0,L|121:57,2,71.4999967269899
133,294,163037,2,0,P|129:338|119:370,1,71.4999967269899
319,123,163205,6,0,L|327:42,2,71.4999967269899
309,247,163457,2,0,L|301:328,2,71.4999967269899
313,91,163708,2,0,P|309:47|299:15,1,71.4999967269899
275,238,163875,6,0,B|324:225|324:225|441:239,1,142.99999345398
512,127,164127,2,0,B|463:140|463:140|346:126,1,142.99999345398
415,235,164378,2,0,L|491:244,1,71.4999967269899
178,129,164546,6,0,B|87:140|87:140|38:127,1,142.99999345398
134,235,164798,2,0,B|226:225|226:225|275:238,1,142.99999345398
249,121,165049,2,0,L|178:130,1,71.4999967269899
66,314,165217,6,0,P|111:334|150:336,2,71.4999967269899
12,91,165468,2,0,L|-1:243,1,142.99999345398
114,110,165719,2,0,P|109:52|94:10,1,71.4999967269899
223,180,165887,6,0,P|215:214|214:250,1,71.4999967269899
120,26,166055,2,0,P|127:60|128:96,1,71.4999967269899
63,258,166222,1,0,0:0:0:0:
70,256,166305,1,0,0:0:0:0:
77,255,166389,1,0,0:0:0:0:
84,254,166473,1,0,0:0:0:0:
91,253,166558,6,0,B|146:244|146:244|196:259|196:259|266:245,1,165
328,82,166809,1,0,0:0:0:0:
328,103,166893,2,0,P|338:158|360:197,1,71.4999967269899
355,305,167060,2,0,P|400:336|444:348,1,71.4999967269899
312,121,167228,5,0,0:0:0:0:
331,188,167311,1,0,0:0:0:0:
391,223,167395,1,0,0:0:0:0:
459,207,167479,1,0,0:0:0:0:
497,148,167563,5,0,0:0:0:0:
465,186,167646,1,0,0:0:0:0:
451,234,167730,1,0,0:0:0:0:
456,283,167814,1,0,0:0:0:0:
481,326,167899,6,0,P|420:304|402:302,1,55
136,325,168066,2,0,P|262:340|325:242,1,220
360,37,168485,1,0,0:0:0:0:
362,53,168569,2,0,P|374:91|397:122,1,55
211,237,168736,5,0,0:0:0:0:
212,221,168820,1,0,0:0:0:0:
214,205,168904,2,0,P|226:167|249:136,1,55
61,50,169072,5,0,0:0:0:0:
62,66,169156,1,0,0:0:0:0:
64,82,169240,2,0,P|76:120|99:151,1,55
339,151,169407,2,0,B|311:139|311:139|208:158,1,110
414,106,169659,5,0,0:0:0:0:
428,113,169743,2,0,P|470:119|505:113,1,55
288,10,169910,2,0,L|295:82,1,55
224,295,170078,2,0,L|217:223,1,55
353,141,170246,6,0,P|322:155|252:163,1,65.9999979858399
145,155,170413,2,0,P|112:147|82:133,1,65.9999979858399
411,47,170581,6,0,B|482:94|482:228|360:250|360:250|303:189|209:197|168:271,1,495.000018882752
183,152,171167,1,0,0:0:0:0:
183,132,171251,2,0,P|179:87|173:56,1,65.9999979858399
267,317,171419,2,0,P|269:285|274:252,1,65.9999979858399
330,91,171587,2,0,P|326:46|320:15,1,65.9999979858399
414,276,171755,2,0,P|416:243|421:210,1,65.9999979858399
510,60,171922,6,0,L|427:54,1,65.9999979858399
183,132,172089,2,0,L|266:126,1,65.9999979858399
490,75,172257,6,0,L|407:69,1,65.9999979858399
198,152,172425,2,0,L|115:146,1,65.9999979858399
306,22,172592,6,0,P|303:68|282:119,1,65.9999979858399
215,269,172760,2,0,P|218:315|239:366,1,65.9999979858399
131,101,172928,1,0,0:0:0:0:
125,96,173011,1,0,0:0:0:0:
120,93,173095,1,0,0:0:0:0:
114,90,173179,1,0,0:0:0:0:
108,87,173263,5,0,0:0:0:0:
149,107,173346,1,0,0:0:0:0:
195,107,173430,1,0,0:0:0:0:
236,89,173514,1,0,0:0:0:0:
266,54,173598,2,0,P|298:37|341:26,1,65.9999979858399
470,250,173766,5,0,0:0:0:0:
427,280,173849,1,0,0:0:0:0:
375,280,173933,1,0,0:0:0:0:
333,250,174017,1,0,0:0:0:0:
317,201,174101,2,0,L|324:130,1,65.9999979858399
152,41,174269,5,0,0:0:0:0:
87,35,174352,1,0,0:0:0:0:
38,76,174436,1,0,0:0:0:0:
30,140,174520,1,0,0:0:0:0:
70,190,174604,1,0,0:0:0:0:
134,199,174688,1,0,0:0:0:0:
185,161,174772,6,0,P|216:148|271:143,1,65.9999979858399
282,287,174939,2,0,P|277:320|254:370,1,65.9999979858399
124,308,175107,2,0,B|123:309|88:284|75:255,1,65.9999979858399
261,11,175275,5,0,0:0:0:0:
282,79,175358,1,0,0:0:0:0:
264,148,175442,1,0,0:0:0:0:
213,198,175526,1,0,0:0:0:0:
143,214,175610,5,0,0:0:0:0:
184,182,175693,1,0,0:0:0:0:
235,170,175777,1,0,0:0:0:0:
286,180,175861,1,0,0:0:0:0:
329,210,175945,5,0,0:0:0:0:
390,230,176028,1,0,0:0:0:0:
452,211,176112,1,0,0:0:0:0:
491,158,176196,1,0,0:0:0:0:
491,93,176280,1,0,0:0:0:0:
453,40,176364,1,0,0:0:0:0:
392,20,176447,1,0,0:0:0:0:
330,39,176531,1,0,0:0:0:0:
291,91,176616,6,0,P|291:146|303:183,1,65.9999979858399
257,281,176783,2,0,P|295:319|330:337,1,65.9999979858399
491,158,176951,6,0,L|418:164,1,65.9999979858399
95,268,177118,2,0,L|168:273,1,65.9999979858399
471,269,177286,5,0,0:0:0:0:
426,241,177369,1,0,0:0:0:0:
374,238,177453,1,0,0:0:0:0:
327,261,177537,1,0,0:0:0:0:
293,292,177621,5,0,0:0:0:0:
259,312,177704,1,0,0:0:0:0:
220,317,177788,1,0,0:0:0:0:
182,307,177872,1,0,0:0:0:0:
151,283,177957,6,0,B|162:217|162:217|149:156|149:156|169:56,1,197.99999395752
249,85,178292,6,0,P|211:85|149:64,1,65.9999979858399
67,290,178460,2,0,P|105:290|167:311,1,65.9999979858399
383,211,178627,6,0,P|345:211|283:232,1,65.9999979858399
20,120,178795,1,0,0:0:0:0:
77,106,178879,2,0,P|115:106|177:127,1,65.9999979858399
451,74,179046,1,0,0:0:0:0:
394,60,179130,2,0,P|356:60|294:81,1,65.9999979858399
132,295,179298,5,0,0:0:0:0:
167,248,179381,1,0,0:0:0:0:
172,189,179465,1,0,0:0:0:0:
145,137,179549,1,0,0:0:0:0:
95,106,179633,5,0,0:0:0:0:
154,113,179716,1,0,0:0:0:0:
214,120,179800,1,0,0:0:0:0:
273,126,179884,1,0,0:0:0:0:
332,133,179968,6,0,P|376:127|424:111,1,65.9999979858399
267,276,180136,5,0,0:0:0:0:
231,323,180220,2,0,P|213:363|204:413,1,65.9999979858399
139,195,180387,5,0,0:0:0:0:
116,140,180471,2,0,P|89:104|50:71,1,65.9999979858399
64,308,180639,1,0,0:0:0:0:
110,331,180722,1,0,0:0:0:0:
163,333,180806,1,0,0:0:0:0:
211,314,180890,1,0,0:0:0:0:
247,276,180974,5,0,0:0:0:0:
293,253,181057,1,0,0:0:0:0:
346,251,181141,1,0,0:0:0:0:
394,270,181225,1,0,0:0:0:0:
430,308,181309,6,0,L|425:378,1,65.9999979858399
300,135,181477,1,0,0:0:0:0:
297,187,181561,2,0,L|292:257,1,65.9999979858399
460,34,181728,1,0,0:0:0:0:
457,86,181812,2,0,L|452:156,1,65.9999979858399
242,317,181980,6,0,P|254:267|268:238,1,65.9999979858399
163,68,182147,2,2,P|174:98|180:131,1,65.9999979858399,0|2,0:0|0:0,0:0:0:0:
217,326,182315,2,0,P|229:276|243:247,1,65.9999979858399
332,138,182483,2,0,P|378:115|409:107,1,65.9999979858399
135,214,182650,5,0,0:0:0:0:
115,211,182733,1,0,0:0:0:0:
95,208,182817,1,0,0:0:0:0:
76,206,182901,1,0,0:0:0:0:
56,204,182986,1,0,0:0:0:0:
101,177,183069,1,0,0:0:0:0:
153,173,183153,1,0,0:0:0:0:
201,192,183237,1,0,0:0:0:0:
236,231,183321,6,0,P|298:247|318:245,1,65.9999979858399
507,258,183489,2,2,P|474:261|443:273,1,65.9999979858399
276,263,183656,6,0,P|243:259|212:247,1,65.9999979858399
397,92,183824,2,0,L|395:183,1,65.9999979858399
227,306,183991,5,0,0:0:0:0:
276,263,184074,1,0,0:0:0:0:
340,255,184158,1,0,0:0:0:0:
399,283,184242,1,0,0:0:0:0:
432,339,184327,5,0,0:0:0:0:
410,298,184410,1,0,0:0:0:0:
406,252,184494,1,0,0:0:0:0:
419,208,184578,1,0,0:0:0:0:
449,173,184662,6,0,P|407:184|361:183,1,65.9999979858399
227,169,184830,2,0,P|185:157|145:133,1,65.9999979858399
364,45,184997,5,0,0:0:0:0:
363,64,185080,1,0,0:0:0:0:
361,86,185165,2,0,L|356:152,2,43.9999986572266
438,54,185333,2,0,P|459:33|493:13,1,65.9999979858399
276,193,185500,5,0,0:0:0:0:
236,189,185583,1,0,0:0:0:0:
197,185,185667,1,0,0:0:0:0:
157,181,185751,1,0,0:0:0:0:
118,177,185835,2,0,L|42:170,2,55.0000020980836
171,254,186003,2,0,P|203:265|240:298,1,65.9999979858399
489,150,186171,5,0,0:0:0:0:
434,112,186254,1,0,0:0:0:0:
369,108,186338,1,0,0:0:0:0:
311,137,186422,1,0,0:0:0:0:
276,193,186506,2,0,L|280:278,2,55.0000020980836
333,119,186674,2,0,P|329:90|308:37,1,65.9999979858399
54,265,186841,5,0,0:0:0:0:
101,320,186924,1,0,0:0:0:0:
172,337,187008,1,0,0:0:0:0:
239,309,187092,1,0,0:0:0:0:
278,247,187176,2,0,P|273:206|276:168,2,65.9999979858399
321,334,187344,2,0,P|353:366|378:382,1,65.9999979858399
484,121,187512,6,0,L|393:128,1,82.5000031471254
195,253,187679,2,0,L|278:247,1,82.5000031471254
40,87,187847,2,0,P|42:150|62:196,1,82.5000031471254
420,232,188015,5,0,0:0:0:0:
361,189,188098,1,0,0:0:0:0:
288,191,188182,1,0,0:0:0:0:
232,238,188266,1,0,0:0:0:0:
218,311,188350,5,0,0:0:0:0:
251,245,188434,1,0,0:0:0:0:
235,174,188518,1,0,0:0:0:0:
179,127,188602,1,0,0:0:0:0:
106,125,188685,6,0,B|2:150|2:150|100:185,1,165.000006294251
248,238,188937,6,0,B|278:135|278:135|199:202,1,165.000006294251
18,296,189188,2,0,P|63:298|118:282,1,82.5000031471254
401,129,189356,5,0,0:0:0:0:
256,192,189440,12,0,190613,0:0:0:0:
401,129,190697,6,0,B|450:79|450:79|363:100,1,98.9999969787599
206,317,190864,2,0,B|195:386|195:386|253:318,1,98.9999969787599
252,48,191032,2,0,B|219:-14|219:-14|212:75,1,98.9999969787599
372,294,191200,2,0,B|434:325|434:325|387:248,1,98.9999969787599
132,166,191367,6,0,B|62:177|62:177|145:211,1,98.9999969787599
321,241,191535,2,0,B|370:191|370:191|283:212,1,98.9999969787599
123,289,191703,2,0,B|112:358|112:358|170:290,1,98.9999969787599
254,135,191870,2,0,B|221:72|221:72|214:162,1,98.9999969787599
240,337,192038,6,0,B|296:350|296:350|347:336|347:336|431:357,1,165
