osu file format v14

[General]
AudioFilename: Nemesis.mp3
AudioLeadIn: 0
PreviewTime: 92977
Countdown: 0
SampleSet: None
StackLeniency: 0.9
Mode: 2
LetterboxInBreaks: 1
WidescreenStoryboard: 0

[Editor]
Bookmarks: 105284,129011,145511,195215
DistanceSpacing: 0.9
BeatDivisor: 16
GridSize: 4
TimelineZoom: 2.199999

[Metadata]
Title:Nemesis
TitleUnicode:Nemesis
Artist:Arch Enemy
ArtistUnicode:Arch Enemy
Creator:moshiri
Version:ForCTB
Source:
Tags:heavy metal ar9
BeatmapID:1523592
BeatmapSetID:171521

[Difficulty]
HPDrainRate:7
CircleSize:4
OverallDifficulty:7
ApproachRate:9
SliderMultiplier:1.5
SliderTickRate:1

[Events]
//Background and Video events
0,0,"bg2.jpg",0,0
//Break Periods
//Storyboard Layer 0 (Background)
//Storyboard Layer 1 (Fail)
//Storyboard Layer 2 (Pass)
//Storyboard Layer 3 (Foreground)
//Storyboard Sound Samples

[TimingPoints]
400,307.692307692308,4,3,0,100,1,0
74246,292.682926829268,4,3,0,100,1,0
92977,307.692307692308,4,3,0,100,1,0
127438,292.682926829268,4,3,0,100,1,0
146169,315.789473684211,4,3,0,100,1,0
176484,292.682926829268,4,3,0,100,1,0
232654,307.692307692308,4,3,0,100,1,0
234423,292.682926829268,4,3,0,100,1,0
239703,307.692307692308,4,3,0,100,1,0

[Colours]
Combo1 : 198,117,45
Combo2 : 95,74,232
Combo3 : 202,78,243
Combo4 : 26,191,38
Combo5 : 202,40,85

[HitObjects]
88,80,400,5,0,0:0:0:0:
200,328,1015,1,0,0:0:0:0:
304,80,1630,1,0,0:0:0:0:
124,284,2246,1,0,0:0:0:0:
340,124,2861,1,0,0:0:0:0:
104,252,3476,1,0,0:0:0:0:
320,88,4092,1,0,0:0:0:0:
452,112,4400,5,0,0:0:0:0:
444,144,4476,1,0,0:0:0:0:
436,176,4553,1,0,0:0:0:0:
428,208,4630,1,0,0:0:0:0:
412,240,4707,1,0,0:0:0:0:
396,272,4784,1,0,0:0:0:0:
368,292,4861,1,0,0:0:0:0:
340,308,4938,1,0,0:0:0:0:
308,320,5015,5,0,0:0:0:0:
276,328,5092,1,0,0:0:0:0:
244,332,5169,1,0,0:0:0:0:
212,320,5246,1,0,0:0:0:0:
184,300,5323,1,0,0:0:0:0:
156,280,5400,1,0,0:0:0:0:
132,260,5476,1,0,0:0:0:0:
104,240,5553,1,0,0:0:0:0:
80,220,5630,5,0,0:0:0:0:
120,92,5938,1,0,0:0:0:0:
316,48,6400,1,0,0:0:0:0:
440,100,6707,1,0,0:0:0:0:
112,96,8092,5,0,0:0:0:0:
108,232,8400,1,0,0:0:0:0:
260,96,8862,1,0,0:0:0:0:
292,228,9169,1,0,0:0:0:0:
448,100,9630,1,0,0:0:0:0:
180,68,10246,5,0,0:0:0:0:
104,180,10553,1,0,0:0:0:0:
172,296,10861,1,0,0:0:0:0:
308,292,11169,1,0,0:0:0:0:
384,180,11476,1,0,0:0:0:0:
308,68,11784,1,0,0:0:0:0:
244,188,12092,1,0,0:0:0:0:
184,68,12400,1,0,0:0:0:0:
76,152,12707,5,0,0:0:0:0:
156,260,13015,1,0,0:0:0:0:
268,336,13323,1,0,0:0:0:0:
348,228,13630,1,0,0:0:0:0:
248,140,13938,1,0,0:0:0:0:
144,52,14246,1,0,0:0:0:0:
152,188,14553,1,0,0:0:0:0:
168,324,14861,1,0,0:0:0:0:
272,236,15169,5,0,0:0:0:0:
368,140,15476,1,0,0:0:0:0:
452,36,15784,1,0,0:0:0:0:
320,60,16092,1,0,0:0:0:0:
188,88,16400,1,0,0:0:0:0:
56,116,16707,1,0,0:0:0:0:
176,180,17015,1,0,0:0:0:0:
308,208,17323,1,0,0:0:0:0:
440,220,17630,5,0,0:0:0:0:
368,104,17939,1,0,0:0:0:0:
240,60,18246,1,0,0:0:0:0:
124,128,18554,1,0,0:0:0:0:
248,180,18861,1,0,0:0:0:0:
116,208,19169,1,0,0:0:0:0:
168,84,19476,5,0,0:0:0:0:
232,60,19630,1,0,0:0:0:0:
272,112,19784,1,0,0:0:0:0:
332,80,19938,1,0,0:0:0:0:
396,64,20092,5,0,0:0:0:0:
416,128,20246,1,0,0:0:0:0:
432,192,20400,1,0,0:0:0:0:
348,296,20707,1,0,0:0:0:0:
284,276,20861,1,0,0:0:0:0:
284,208,21015,1,0,0:0:0:0:
152,176,21323,1,0,0:0:0:0:
216,156,21476,1,0,0:0:0:0:
248,96,21630,1,0,0:0:0:0:
380,124,21938,1,0,0:0:0:0:
372,192,22092,1,0,0:0:0:0:
416,244,22246,1,0,0:0:0:0:
296,308,22553,5,0,0:0:0:0:
236,276,22707,1,0,0:0:0:0:
172,300,22861,1,0,0:0:0:0:
276,212,23169,1,0,0:0:0:0:
228,164,23323,1,0,0:0:0:0:
236,96,23476,1,0,0:0:0:0:
368,116,23784,1,0,0:0:0:0:
416,160,23938,1,0,0:0:0:0:
388,220,24092,1,0,0:0:0:0:
300,116,24400,1,0,0:0:0:0:
348,68,24554,1,0,0:0:0:0:
416,68,24708,1,0,0:0:0:0:
456,196,25015,5,0,0:0:0:0:
412,248,25169,1,0,0:0:0:0:
348,224,25323,1,0,0:0:0:0:
224,172,25630,1,0,0:0:0:0:
164,136,25784,1,0,0:0:0:0:
108,100,25938,1,0,0:0:0:0:
100,236,26246,1,0,0:0:0:0:
168,232,26400,1,0,0:0:0:0:
236,224,26553,1,0,0:0:0:0:
324,124,26861,1,0,0:0:0:0:
380,88,27015,1,0,0:0:0:0:
440,56,27169,1,0,0:0:0:0:
372,172,27476,5,0,0:0:0:0:
340,232,27630,1,0,0:0:0:0:
300,284,27784,1,0,0:0:0:0:
164,280,28092,1,0,0:0:0:0:
148,216,28246,1,0,0:0:0:0:
160,148,28400,1,0,0:0:0:0:
276,80,28707,5,0,0:0:0:0:
344,88,28861,1,0,0:0:0:0:
408,108,29015,1,0,0:0:0:0:
416,176,29169,1,0,0:0:0:0:
380,232,29323,1,0,0:0:0:0:
356,296,29476,1,0,0:0:0:0:
296,328,29630,1,0,0:0:0:0:
228,328,29784,1,0,0:0:0:0:
172,292,29938,5,0,0:0:0:0:
148,160,30246,1,0,0:0:0:0:
156,116,30348,1,0,0:0:0:0:
172,72,30451,1,0,0:0:0:0:
196,32,30553,1,0,0:0:0:0:
300,116,30861,1,0,0:0:0:0:
416,48,31169,1,0,0:0:0:0:
440,180,31476,5,0,0:0:0:0:
328,256,31784,1,0,0:0:0:0:
264,232,31938,1,0,0:0:0:0:
216,280,32092,1,0,0:0:0:0:
164,156,32400,1,0,0:0:0:0:
200,100,32553,1,0,0:0:0:0:
208,32,32707,1,0,0:0:0:0:
336,80,33015,5,0,0:0:0:0:
404,196,33323,1,0,0:0:0:0:
392,264,33476,1,0,0:0:0:0:
440,312,33630,1,0,0:0:0:0:
304,316,33938,1,0,0:0:0:0:
172,308,34246,1,0,0:0:0:0:
124,260,34400,1,0,0:0:0:0:
60,272,34553,1,0,0:0:0:0:
140,164,34861,5,0,0:0:0:0:
168,104,35015,1,0,0:0:0:0:
112,68,35169,1,0,0:0:0:0:
248,72,35476,1,0,0:0:0:0:
312,92,35630,1,0,0:0:0:0:
364,48,35784,1,0,0:0:0:0:
420,172,36092,5,0,0:0:0:0:
392,232,36246,1,0,0:0:0:0:
424,292,36400,1,0,0:0:0:0:
288,304,36707,1,0,0:0:0:0:
232,180,37015,1,0,0:0:0:0:
136,84,37323,1,0,0:0:0:0:
76,204,37630,1,0,0:0:0:0:
160,312,37938,1,0,0:0:0:0:
296,320,38246,1,0,0:0:0:0:
344,272,38400,1,0,0:0:0:0:
412,276,38553,1,0,0:0:0:0:
404,140,38861,5,0,0:0:0:0:
300,228,39169,1,0,0:0:0:0:
164,268,39476,1,0,0:0:0:0:
228,148,39784,5,0,0:0:0:0:
356,196,40092,1,0,0:0:0:0:
416,316,40400,1,0,0:0:0:0:
280,304,40707,1,0,0:0:0:0:
188,208,41015,1,0,0:0:0:0:
236,80,41323,1,0,0:0:0:0:
104,104,41630,1,0,0:0:0:0:
100,240,41938,1,0,0:0:0:0:
196,336,42246,5,0,0:0:0:0:
228,336,42323,1,0,0:0:0:0:
260,336,42400,1,0,0:0:0:0:
292,336,42476,1,0,0:0:0:0:
324,336,42553,5,0,0:0:0:0:
352,316,42630,1,0,0:0:0:0:
376,292,42707,1,0,0:0:0:0:
404,272,42784,1,0,0:0:0:0:
428,252,42860,1,0,0:0:0:0:
428,220,42937,1,0,0:0:0:0:
428,184,43015,1,0,0:0:0:0:
428,152,43092,1,0,0:0:0:0:
424,120,43169,5,0,0:0:0:0:
400,96,43245,1,0,0:0:0:0:
372,76,43322,1,0,0:0:0:0:
340,60,43400,1,0,0:0:0:0:
312,44,43476,1,0,0:0:0:0:
280,44,43553,1,0,0:0:0:0:
248,44,43630,1,0,0:0:0:0:
216,44,43706,1,0,0:0:0:0:
184,44,43783,5,0,0:0:0:0:
156,64,43860,1,0,0:0:0:0:
128,84,43937,1,0,0:0:0:0:
104,108,44014,1,0,0:0:0:0:
80,132,44092,1,0,0:0:0:0:
80,164,44169,1,0,0:0:0:0:
80,196,44245,1,0,0:0:0:0:
80,228,44322,1,0,0:0:0:0:
80,260,44399,5,0,0:0:0:0:
108,280,44476,1,0,0:0:0:0:
136,296,44552,1,0,0:0:0:0:
168,312,44630,1,0,0:0:0:0:
200,328,44706,1,0,0:0:0:0:
232,316,44784,1,0,0:0:0:0:
264,304,44861,1,0,0:0:0:0:
296,292,44937,1,0,0:0:0:0:
324,276,45014,5,0,0:0:0:0:
344,248,45091,1,0,0:0:0:0:
364,220,45168,1,0,0:0:0:0:
380,188,45245,1,0,0:0:0:0:
392,156,45323,1,0,0:0:0:0:
372,128,45400,1,0,0:0:0:0:
348,104,45476,1,0,0:0:0:0:
324,80,45553,1,0,0:0:0:0:
300,56,45630,5,0,0:0:0:0:
268,56,45706,1,0,0:0:0:0:
236,56,45783,1,0,0:0:0:0:
200,56,45861,1,0,0:0:0:0:
168,56,45937,1,0,0:0:0:0:
148,84,46015,1,0,0:0:0:0:
132,112,46092,1,0,0:0:0:0:
116,140,46168,1,0,0:0:0:0:
100,172,46245,5,0,0:0:0:0:
116,200,46322,1,0,0:0:0:0:
140,224,46399,1,0,0:0:0:0:
168,244,46476,1,0,0:0:0:0:
192,264,46552,1,0,0:0:0:0:
224,264,46629,1,0,0:0:0:0:
260,264,46707,1,0,0:0:0:0:
292,264,46784,1,0,0:0:0:0:
324,260,46861,5,0,0:0:0:0:
348,236,46937,1,0,0:0:0:0:
376,216,47014,1,0,0:0:0:0:
396,188,47092,1,0,0:0:0:0:
416,160,47168,1,0,0:0:0:0:
392,136,47246,1,0,0:0:0:0:
368,112,47323,1,0,0:0:0:0:
340,92,47399,1,0,0:0:0:0:
312,72,47476,5,0,0:0:0:0:
280,80,47553,1,0,0:0:0:0:
252,100,47630,1,0,0:0:0:0:
224,120,47707,1,0,0:0:0:0:
196,136,47783,1,0,0:0:0:0:
192,168,47860,1,0,0:0:0:0:
192,204,47938,1,0,0:0:0:0:
192,236,48015,1,0,0:0:0:0:
192,268,48092,5,0,0:0:0:0:
224,280,48168,1,0,0:0:0:0:
256,292,48245,1,0,0:0:0:0:
288,300,48323,1,0,0:0:0:0:
320,308,48399,1,0,0:0:0:0:
344,284,48476,1,0,0:0:0:0:
368,260,48553,1,0,0:0:0:0:
388,232,48629,1,0,0:0:0:0:
404,204,48706,5,0,0:0:0:0:
376,184,48783,1,0,0:0:0:0:
344,168,48860,1,0,0:0:0:0:
312,156,48937,1,0,0:0:0:0:
280,144,49015,1,0,0:0:0:0:
248,156,49092,1,0,0:0:0:0:
220,172,49168,1,0,0:0:0:0:
192,188,49245,1,0,0:0:0:0:
164,208,49322,5,0,0:0:0:0:
192,224,49400,1,0,0:0:0:0:
220,240,49476,1,0,0:0:0:0:
248,256,49553,1,0,0:0:0:0:
280,268,49629,1,0,0:0:0:0:
260,296,49707,1,0,0:0:0:0:
236,320,49784,1,0,0:0:0:0:
212,344,49860,1,0,0:0:0:0:
184,360,49937,5,0,0:0:0:0:
156,340,50014,1,0,0:0:0:0:
128,320,50091,1,0,0:0:0:0:
100,300,50168,1,0,0:0:0:0:
72,280,50246,1,0,0:0:0:0:
92,256,50323,1,0,0:0:0:0:
116,232,50399,1,0,0:0:0:0:
144,212,50476,1,0,0:0:0:0:
168,188,50553,5,0,0:0:0:0:
196,204,50629,1,0,0:0:0:0:
224,224,50706,1,0,0:0:0:0:
252,240,50784,1,0,0:0:0:0:
284,256,50860,5,0,0:0:0:0:
308,232,50938,1,0,0:0:0:0:
328,208,51015,1,0,0:0:0:0:
344,180,51091,1,0,0:0:0:0:
364,152,51169,1,0,0:0:0:0:
336,132,51246,1,0,0:0:0:0:
304,116,51323,1,0,0:0:0:0:
276,100,51400,1,0,0:0:0:0:
248,84,51476,1,0,0:0:0:0:
308,48,51630,1,0,0:0:0:0:
368,84,51784,1,0,0:0:0:0:
396,104,51861,1,0,0:0:0:0:
424,124,51938,1,0,0:0:0:0:
452,140,52015,1,0,0:0:0:0:
432,168,52092,5,0,0:0:0:0:
388,220,52246,1,0,0:0:0:0:
348,272,52400,1,0,0:0:0:0:
216,252,52707,1,0,0:0:0:0:
160,220,52861,1,0,0:0:0:0:
192,160,53015,1,0,0:0:0:0:
268,60,53323,1,0,0:0:0:0:
324,100,53476,1,0,0:0:0:0:
384,68,53630,1,0,0:0:0:0:
360,200,53938,1,0,0:0:0:0:
340,264,54092,1,0,0:0:0:0:
372,324,54246,1,0,0:0:0:0:
236,316,54553,5,0,0:0:0:0:
184,272,54707,1,0,0:0:0:0:
124,308,54861,1,0,0:0:0:0:
128,172,55169,1,0,0:0:0:0:
132,104,55323,1,0,0:0:0:0:
184,144,55476,1,0,0:0:0:0:
300,76,55784,1,0,0:0:0:0:
368,64,55938,1,0,0:0:0:0:
344,128,56092,1,0,0:0:0:0:
412,244,56400,1,0,0:0:0:0:
404,312,56553,1,0,0:0:0:0:
348,276,56707,1,0,0:0:0:0:
216,304,57015,5,0,0:0:0:0:
188,244,57169,1,0,0:0:0:0:
140,292,57323,1,0,0:0:0:0:
144,156,57630,1,0,0:0:0:0:
180,100,57784,1,0,0:0:0:0:
112,88,57938,1,0,0:0:0:0:
228,156,58246,1,0,0:0:0:0:
288,192,58400,1,0,0:0:0:0:
332,144,58554,1,0,0:0:0:0:
444,68,58861,1,0,0:0:0:0:
416,128,59015,1,0,0:0:0:0:
444,188,59169,1,0,0:0:0:0:
344,276,59476,5,0,0:0:0:0:
280,300,59630,1,0,0:0:0:0:
220,332,59784,1,0,0:0:0:0:
100,268,60092,1,0,0:0:0:0:
92,200,60246,1,0,0:0:0:0:
88,132,60400,1,0,0:0:0:0:
184,228,60707,1,0,0:0:0:0:
248,204,60861,1,0,0:0:0:0:
312,180,61015,1,0,0:0:0:0:
360,228,61169,1,0,0:0:0:0:
380,292,61323,1,0,0:0:0:0:
324,328,61476,1,0,0:0:0:0:
256,332,61630,1,0,0:0:0:0:
200,296,61784,1,0,0:0:0:0:
132,288,61938,5,0,0:0:0:0:
100,228,62092,1,0,0:0:0:0:
136,172,62246,1,0,0:0:0:0:
88,124,62400,1,0,0:0:0:0:
148,92,62554,1,0,0:0:0:0:
280,72,62861,1,0,0:0:0:0:
384,160,63169,5,0,0:0:0:0:
428,288,63476,1,0,0:0:0:0:
296,320,63784,1,0,0:0:0:0:
228,320,63938,1,0,0:0:0:0:
168,348,64092,1,0,0:0:0:0:
156,212,64400,1,0,0:0:0:0:
220,232,64553,1,0,0:0:0:0:
284,216,64707,1,0,0:0:0:0:
408,168,65015,1,0,0:0:0:0:
388,104,65169,1,0,0:0:0:0:
428,48,65323,1,0,0:0:0:0:
296,80,65630,5,0,0:0:0:0:
228,72,65784,1,0,0:0:0:0:
164,92,65938,1,0,0:0:0:0:
104,216,66246,1,0,0:0:0:0:
108,284,66400,1,0,0:0:0:0:
156,332,66553,1,0,0:0:0:0:
292,320,66861,1,0,0:0:0:0:
356,304,67015,1,0,0:0:0:0:
424,316,67169,1,0,0:0:0:0:
428,180,67476,1,0,0:0:0:0:
416,148,67553,1,0,0:0:0:0:
408,116,67630,1,0,0:0:0:0:
400,84,67707,1,0,0:0:0:0:
380,60,67784,1,0,0:0:0:0:
244,56,68092,5,0,0:0:0:0:
180,80,68246,1,0,0:0:0:0:
132,128,68400,1,0,0:0:0:0:
168,256,68707,1,0,0:0:0:0:
232,276,68861,1,0,0:0:0:0:
296,296,69015,1,0,0:0:0:0:
424,252,69323,1,0,0:0:0:0:
416,184,69476,1,0,0:0:0:0:
404,116,69630,1,0,0:0:0:0:
280,60,69938,1,0,0:0:0:0:
216,80,70092,1,0,0:0:0:0:
152,64,70246,1,0,0:0:0:0:
116,192,70553,5,0,0:0:0:0:
152,248,70707,1,0,0:0:0:0:
180,308,70861,1,0,0:0:0:0:
248,316,71015,1,0,0:0:0:0:
316,316,71169,1,0,0:0:0:0:
348,304,71246,1,0,0:0:0:0:
376,284,71323,1,0,0:0:0:0:
404,264,71400,1,0,0:0:0:0:
432,248,71476,1,0,0:0:0:0:
456,224,71553,1,0,0:0:0:0:
468,192,71630,1,0,0:0:0:0:
464,160,71707,1,0,0:0:0:0:
444,132,71784,5,0,0:0:0:0:
324,68,72092,1,0,0:0:0:0:
188,80,72400,1,0,0:0:0:0:
96,176,72707,1,0,0:0:0:0:
140,304,73015,1,0,0:0:0:0:
272,332,73323,1,0,0:0:0:0:
396,280,73630,1,0,0:0:0:0:
388,144,73938,1,0,0:0:0:0:
364,120,74015,1,0,0:0:0:0:
336,100,74092,1,0,0:0:0:0:
268,80,74246,5,0,0:0:0:0:
132,84,74538,1,0,0:0:0:0:
132,220,74831,1,0,0:0:0:0:
168,276,74977,1,0,0:0:0:0:
296,316,75270,1,0,0:0:0:0:
364,316,75416,1,0,0:0:0:0:
436,200,75709,1,0,0:0:0:0:
404,168,75806,1,0,0:0:0:0:
376,132,75904,1,0,0:0:0:0:
356,92,76002,1,0,0:0:0:0:
292,72,76148,1,0,0:0:0:0:
284,208,76441,5,0,0:0:0:0:
352,220,76587,1,0,0:0:0:0:
432,328,76880,1,0,0:0:0:0:
452,196,77172,1,0,0:0:0:0:
432,132,77319,1,0,0:0:0:0:
312,68,77611,1,0,0:0:0:0:
244,64,77758,1,0,0:0:0:0:
112,88,78050,1,0,0:0:0:0:
176,104,78197,1,0,0:0:0:0:
240,124,78343,1,0,0:0:0:0:
304,140,78489,1,0,0:0:0:0:
428,84,78782,5,0,0:0:0:0:
360,76,78928,1,0,0:0:0:0:
444,180,79221,1,0,0:0:0:0:
432,316,79514,1,0,0:0:0:0:
364,316,79660,1,0,0:0:0:0:
228,332,79953,1,0,0:0:0:0:
164,308,80099,1,0,0:0:0:0:
88,196,80392,1,0,0:0:0:0:
104,152,80489,1,0,0:0:0:0:
116,108,80587,1,0,0:0:0:0:
128,64,80685,1,0,0:0:0:0:
196,64,80831,1,0,0:0:0:0:
324,104,81124,5,0,0:0:0:0:
392,116,81270,1,0,0:0:0:0:
436,244,81563,1,0,0:0:0:0:
332,328,81855,1,0,0:0:0:0:
264,324,82002,1,0,0:0:0:0:
132,300,82294,1,0,0:0:0:0:
120,232,82441,1,0,0:0:0:0:
112,96,82733,1,0,0:0:0:0:
180,100,82880,1,0,0:0:0:0:
248,96,83026,1,0,0:0:0:0:
316,88,83172,1,0,0:0:0:0:
436,80,83465,5,0,0:0:0:0:
444,148,83611,1,0,0:0:0:0:
376,264,83904,1,0,0:0:0:0:
244,296,84197,1,0,0:0:0:0:
176,296,84343,1,0,0:0:0:0:
64,220,84636,1,0,0:0:0:0:
92,160,84782,1,0,0:0:0:0:
156,40,85075,1,0,0:0:0:0:
188,44,85148,1,0,0:0:0:0:
220,52,85221,1,0,0:0:0:0:
252,60,85294,1,0,0:0:0:0:
284,68,85367,1,0,0:0:0:0:
348,92,85514,1,0,0:0:0:0:
440,188,85806,5,0,0:0:0:0:
436,256,85953,1,0,0:0:0:0:
320,324,86245,1,0,0:0:0:0:
192,276,86538,1,0,0:0:0:0:
252,244,86685,1,0,0:0:0:0:
160,148,86977,1,0,0:0:0:0:
124,92,87124,1,0,0:0:0:0:
256,116,87416,1,0,0:0:0:0:
320,100,87563,1,0,0:0:0:0:
388,88,87709,1,0,0:0:0:0:
456,96,87855,1,0,0:0:0:0:
420,228,88148,5,0,0:0:0:0:
416,296,88294,1,0,0:0:0:0:
284,328,88587,1,0,0:0:0:0:
156,288,88880,1,0,0:0:0:0:
112,236,89026,1,0,0:0:0:0:
48,116,89319,1,0,0:0:0:0:
112,132,89465,1,0,0:0:0:0:
224,208,89758,1,0,0:0:0:0:
248,184,89831,1,0,0:0:0:0:
264,156,89904,1,0,0:0:0:0:
284,128,89977,1,0,0:0:0:0:
296,96,90050,1,0,0:0:0:0:
296,28,90197,1,0,0:0:0:0:
420,80,90489,5,0,0:0:0:0:
424,148,90636,1,0,0:0:0:0:
412,284,90928,1,0,0:0:0:0:
356,320,91075,1,0,0:0:0:0:
292,336,91221,1,0,0:0:0:0:
224,336,91367,1,0,0:0:0:0:
172,296,91514,1,0,0:0:0:0:
120,252,91660,1,0,0:0:0:0:
108,184,91806,5,0,0:0:0:0:
116,116,91953,1,0,0:0:0:0:
136,88,92026,1,0,0:0:0:0:
156,64,92099,1,0,0:0:0:0:
208,28,92245,1,0,0:0:0:0:
276,40,92392,1,0,0:0:0:0:
336,68,92538,1,0,0:0:0:0:
396,104,92685,1,0,0:0:0:0:
444,152,92831,1,0,0:0:0:0:
424,212,92977,5,0,0:0:0:0:
372,336,93284,1,0,0:0:0:0:
236,348,93592,1,0,0:0:0:0:
80,220,94053,1,0,0:0:0:0:
120,92,94361,1,0,0:0:0:0:
448,172,95130,1,0,0:0:0:0:
364,280,95438,5,0,0:0:0:0:
232,308,95746,1,0,0:0:0:0:
104,260,96053,1,0,0:0:0:0:
236,228,96361,1,0,0:0:0:0:
360,180,96669,1,0,0:0:0:0:
364,44,96977,1,0,0:0:0:0:
264,132,97284,1,0,0:0:0:0:
380,140,97592,1,0,0:0:0:0:
416,268,97900,5,0,0:0:0:0:
280,268,98207,1,0,0:0:0:0:
172,352,98515,1,0,0:0:0:0:
220,224,98823,1,0,0:0:0:0:
84,228,99130,1,0,0:0:0:0:
196,152,99438,1,0,0:0:0:0:
72,96,99746,1,0,0:0:0:0:
204,72,100053,1,0,0:0:0:0:
340,64,100361,5,0,0:0:0:0:
464,120,100669,1,0,0:0:0:0:
332,148,100977,1,0,0:0:0:0:
460,192,101284,1,0,0:0:0:0:
328,220,101592,1,0,0:0:0:0:
440,296,101900,1,0,0:0:0:0:
308,328,102207,1,0,0:0:0:0:
256,204,102515,1,0,0:0:0:0:
308,80,102823,5,0,0:0:0:0:
444,72,103130,1,0,0:0:0:0:
324,136,103438,1,0,0:0:0:0:
196,96,103746,1,0,0:0:0:0:
320,48,104054,1,0,0:0:0:0:
232,152,104361,1,0,0:0:0:0:
368,164,104669,1,0,0:0:0:0:
248,224,104977,1,0,0:0:0:0:
296,96,105285,5,0,0:0:0:0:
428,120,105592,2,0,B|427:200|427:200|399:273|399:273,1,150
212,336,106361,2,0,B|116:336|116:336|76:299|76:299,1,150
68,96,107130,2,0,B|134:52|134:52|206:56|206:56,1,150
272,64,107592,1,0,0:0:0:0:
472,96,108053,2,0,B|471:176|471:176|443:249|443:249,1,150
196,344,108977,2,0,B|100:344|100:344|60:307|60:307,1,150
64,172,109592,2,0,B|130:128|130:128|201:137|201:137,1,150
332,156,110207,1,0,0:0:0:0:
400,80,110823,5,0,0:0:0:0:
296,328,111437,1,0,0:0:0:0:
84,160,112053,1,0,0:0:0:0:
332,56,112668,1,0,0:0:0:0:
408,316,113284,1,0,0:0:0:0:
252,96,113899,5,0,0:0:0:0:
216,96,113977,1,0,0:0:0:0:
184,100,114053,1,0,0:0:0:0:
152,108,114130,1,0,0:0:0:0:
124,124,114207,1,0,0:0:0:0:
100,148,114284,1,0,0:0:0:0:
92,180,114361,1,0,0:0:0:0:
84,212,114438,1,0,0:0:0:0:
96,244,114515,5,0,0:0:0:0:
124,260,114592,1,0,0:0:0:0:
152,280,114669,1,0,0:0:0:0:
184,288,114746,1,0,0:0:0:0:
216,292,114823,1,0,0:0:0:0:
248,296,114900,1,0,0:0:0:0:
280,296,114977,1,0,0:0:0:0:
312,300,115053,1,0,0:0:0:0:
344,296,115130,5,0,0:0:0:0:
368,272,115207,1,0,0:0:0:0:
388,244,115284,1,0,0:0:0:0:
404,216,115361,1,0,0:0:0:0:
408,184,115438,1,0,0:0:0:0:
416,152,115515,1,0,0:0:0:0:
420,120,115592,1,0,0:0:0:0:
424,88,115669,1,0,0:0:0:0:
396,72,115746,5,0,0:0:0:0:
364,68,115823,1,0,0:0:0:0:
332,64,115900,1,0,0:0:0:0:
300,64,115977,1,0,0:0:0:0:
268,64,116053,1,0,0:0:0:0:
132,64,116360,5,0,0:0:0:0:
352,220,116977,1,0,0:0:0:0:
100,316,117591,1,0,0:0:0:0:
288,120,118207,1,0,0:0:0:0:
44,240,118822,1,0,0:0:0:0:
304,308,119438,1,0,0:0:0:0:
180,68,120053,1,0,0:0:0:0:
400,228,120669,1,0,0:0:0:0:
132,252,121283,5,0,0:0:0:0:
316,52,121900,1,0,0:0:0:0:
104,220,122514,1,0,0:0:0:0:
344,100,123130,1,0,0:0:0:0:
80,164,123745,1,0,0:0:0:0:
352,156,124361,1,0,0:0:0:0:
84,116,124977,1,0,0:0:0:0:
336,216,125592,1,0,0:0:0:0:
76,292,126207,1,0,0:0:0:0:
308,152,126823,1,0,0:0:0:0:
28,196,127438,5,0,0:0:0:0:
140,120,127730,1,0,0:0:0:0:
272,88,128023,1,0,0:0:0:0:
340,88,128169,1,0,0:0:0:0:
460,148,128462,1,0,0:0:0:0:
476,208,128608,1,0,0:0:0:0:
428,332,128901,1,0,0:0:0:0:
376,332,129011,1,0,0:0:0:0:
336,328,129102,1,0,0:0:0:0:
296,324,129193,1,0,0:0:0:0:
232,296,129340,1,0,0:0:0:0:
120,236,129633,5,0,0:0:0:0:
104,172,129779,1,0,0:0:0:0:
84,40,130072,1,0,0:0:0:0:
220,52,130364,1,0,0:0:0:0:
284,68,130511,1,0,0:0:0:0:
416,88,130803,1,0,0:0:0:0:
424,156,130949,1,0,0:0:0:0:
396,288,131242,1,0,0:0:0:0:
332,304,131389,1,0,0:0:0:0:
264,308,131534,1,0,0:0:0:0:
200,304,131681,1,0,0:0:0:0:
112,224,131974,5,0,0:0:0:0:
92,160,132120,1,0,0:0:0:0:
192,60,132431,1,0,0:0:0:0:
316,44,132705,1,0,0:0:0:0:
372,80,132852,1,0,0:0:0:0:
408,208,133145,1,0,0:0:0:0:
380,268,133290,1,0,0:0:0:0:
252,308,133584,1,0,0:0:0:0:
204,296,133694,1,0,0:0:0:0:
164,288,133785,1,0,0:0:0:0:
124,276,133877,1,0,0:0:0:0:
108,212,134023,5,0,0:0:0:0:
96,76,134316,1,0,0:0:0:0:
160,60,134462,1,0,0:0:0:0:
292,32,134755,1,0,0:0:0:0:
388,128,135047,1,0,0:0:0:0:
412,192,135194,1,0,0:0:0:0:
392,324,135486,1,0,0:0:0:0:
324,324,135632,1,0,0:0:0:0:
188,320,135925,1,0,0:0:0:0:
128,292,136072,1,0,0:0:0:0:
180,248,136217,1,0,0:0:0:0:
208,184,136364,1,0,0:0:0:0:
332,132,136657,1,0,0:0:0:0:
392,160,136803,5,0,0:0:0:0:
428,288,137096,1,0,0:0:0:0:
292,300,137388,1,0,0:0:0:0:
260,240,137535,1,0,0:0:0:0:
236,108,137828,1,0,0:0:0:0:
288,68,137973,1,0,0:0:0:0:
420,44,138267,1,0,0:0:0:0:
416,84,138358,1,0,0:0:0:0:
408,136,138468,1,0,0:0:0:0:
400,176,138558,1,0,0:0:0:0:
340,208,138706,1,0,0:0:0:0:
212,252,138998,5,0,0:0:0:0:
236,316,139145,1,0,0:0:0:0:
372,328,139438,1,0,0:0:0:0:
464,228,139730,1,0,0:0:0:0:
400,248,139877,1,0,0:0:0:0:
268,264,140169,1,0,0:0:0:0:
204,288,140315,1,0,0:0:0:0:
72,264,140608,1,0,0:0:0:0:
96,200,140755,1,0,0:0:0:0:
148,160,140900,1,0,0:0:0:0:
212,140,141047,1,0,0:0:0:0:
340,100,141340,5,0,0:0:0:0:
408,100,141486,1,0,0:0:0:0:
416,236,141779,1,0,0:0:0:0:
312,324,142071,1,0,0:0:0:0:
244,312,142218,1,0,0:0:0:0:
112,284,142511,1,0,0:0:0:0:
84,224,142656,1,0,0:0:0:0:
92,88,142950,1,0,0:0:0:0:
132,100,143041,1,0,0:0:0:0:
172,116,143133,1,0,0:0:0:0:
216,140,143241,1,0,0:0:0:0:
348,160,143535,1,0,0:0:0:0:
464,88,143828,5,0,0:0:0:0:
456,120,143901,1,0,0:0:0:0:
444,152,143974,1,0,0:0:0:0:
432,184,144047,1,0,0:0:0:0:
416,216,144120,1,0,0:0:0:0:
388,236,144194,1,0,0:0:0:0:
356,248,144267,1,0,0:0:0:0:
328,264,144340,1,0,0:0:0:0:
300,280,144413,5,0,0:0:0:0:
272,300,144486,1,0,0:0:0:0:
240,312,144559,1,0,0:0:0:0:
208,320,144633,1,0,0:0:0:0:
176,320,144706,1,0,0:0:0:0:
144,312,144779,1,0,0:0:0:0:
116,296,144852,1,0,0:0:0:0:
88,276,144925,1,0,0:0:0:0:
76,244,144998,5,0,0:0:0:0:
84,212,145072,1,0,0:0:0:0:
92,180,145145,1,0,0:0:0:0:
112,152,145218,1,0,0:0:0:0:
132,124,145291,1,0,0:0:0:0:
160,104,145364,1,0,0:0:0:0:
192,92,145437,1,0,0:0:0:0:
224,84,145511,1,0,0:0:0:0:
256,80,145584,5,0,0:0:0:0:
288,76,145657,1,0,0:0:0:0:
320,76,145730,1,0,0:0:0:0:
352,64,145803,1,0,0:0:0:0:
384,56,145876,1,0,0:0:0:0:
408,80,145950,1,0,0:0:0:0:
432,104,146023,1,0,0:0:0:0:
448,132,146096,1,0,0:0:0:0:
468,156,146169,5,0,0:0:0:0:
468,188,146247,1,0,0:0:0:0:
460,220,146326,1,0,0:0:0:0:
440,284,146484,1,0,0:0:0:0:
384,320,146642,1,0,0:0:0:0:
320,340,146800,1,0,0:0:0:0:
252,344,146958,1,0,0:0:0:0:
188,328,147116,1,0,0:0:0:0:
148,276,147274,1,0,0:0:0:0:
128,212,147432,5,0,0:0:0:0:
128,180,147511,1,0,0:0:0:0:
128,148,147590,1,0,0:0:0:0:
188,116,147747,1,0,0:0:0:0:
252,92,147905,1,0,0:0:0:0:
320,96,148063,1,0,0:0:0:0:
388,108,148221,1,0,0:0:0:0:
432,160,148379,1,0,0:0:0:0:
440,228,148537,1,0,0:0:0:0:
400,284,148695,5,0,0:0:0:0:
376,308,148774,1,0,0:0:0:0:
348,328,148853,1,0,0:0:0:0:
288,356,149011,1,0,0:0:0:0:
224,340,149169,1,0,0:0:0:0:
168,304,149327,1,0,0:0:0:0:
124,252,149485,1,0,0:0:0:0:
96,192,149643,1,0,0:0:0:0:
76,128,149801,1,0,0:0:0:0:
140,112,149958,5,0,0:0:0:0:
168,96,150037,1,0,0:0:0:0:
200,84,150116,1,0,0:0:0:0:
264,64,150274,1,0,0:0:0:0:
332,68,150432,1,0,0:0:0:0:
400,68,150590,1,0,0:0:0:0:
456,104,150748,1,0,0:0:0:0:
424,164,150906,1,0,0:0:0:0:
408,228,151064,1,0,0:0:0:0:
352,192,151221,5,0,0:0:0:0:
320,184,151300,1,0,0:0:0:0:
288,184,151379,1,0,0:0:0:0:
276,252,151537,1,0,0:0:0:0:
324,300,151695,1,0,0:0:0:0:
272,340,151853,1,0,0:0:0:0:
212,312,152011,1,0,0:0:0:0:
156,272,152169,1,0,0:0:0:0:
124,212,152327,1,0,0:0:0:0:
136,144,152484,5,0,0:0:0:0:
168,152,152563,1,0,0:0:0:0:
200,152,152642,1,0,0:0:0:0:
268,156,152800,1,0,0:0:0:0:
328,188,152958,1,0,0:0:0:0:
376,236,153116,1,0,0:0:0:0:
384,304,153274,1,0,0:0:0:0:
316,316,153432,1,0,0:0:0:0:
256,284,153590,1,0,0:0:0:0:
292,228,153747,5,0,0:0:0:0:
312,204,153826,1,0,0:0:0:0:
328,176,153905,1,0,0:0:0:0:
432,68,154261,1,0,0:0:0:0:
400,64,154340,1,0,0:0:0:0:
368,52,154419,1,0,0:0:0:0:
252,52,154695,5,0,0:0:0:0:
224,72,154774,1,0,0:0:0:0:
192,88,154853,1,0,0:0:0:0:
96,184,155169,1,0,0:0:0:0:
116,208,155247,1,0,0:0:0:0:
132,240,155326,1,0,0:0:0:0:
260,288,155642,1,0,0:0:0:0:
292,288,155721,1,0,0:0:0:0:
324,296,155800,1,0,0:0:0:0:
372,248,155958,5,0,0:0:0:0:
360,216,156037,1,0,0:0:0:0:
352,184,156116,1,0,0:0:0:0:
332,120,156274,5,0,0:0:0:0:
296,60,156432,5,0,0:0:0:0:
228,64,156590,1,0,0:0:0:0:
164,84,156747,1,0,0:0:0:0:
108,124,156905,1,0,0:0:0:0:
96,192,157063,1,0,0:0:0:0:
136,244,157221,1,0,0:0:0:0:
184,292,157378,1,0,0:0:0:0:
252,300,157537,5,0,0:0:0:0:
320,288,157695,1,0,0:0:0:0:
388,280,157853,1,0,0:0:0:0:
420,220,158010,1,0,0:0:0:0:
420,152,158169,1,0,0:0:0:0:
380,96,158326,1,0,0:0:0:0:
320,64,158484,1,0,0:0:0:0:
252,60,158641,1,0,0:0:0:0:
192,92,158800,5,0,0:0:0:0:
72,336,159432,1,0,0:0:0:0:
340,292,160063,1,0,0:0:0:0:
384,240,160221,1,0,0:0:0:0:
348,40,160695,1,0,0:0:0:0:
424,300,161326,5,0,0:0:0:0:
408,272,161405,1,0,0:0:0:0:
388,244,161484,1,0,0:0:0:0:
352,188,161642,1,0,0:0:0:0:
316,132,161799,1,0,0:0:0:0:
284,72,161958,1,0,0:0:0:0:
216,80,162116,1,0,0:0:0:0:
156,108,162274,1,0,0:0:0:0:
132,172,162431,1,0,0:0:0:0:
116,236,162589,5,0,0:0:0:0:
144,256,162669,1,0,0:0:0:0:
168,276,162747,1,0,0:0:0:0:
224,312,162905,1,0,0:0:0:0:
292,340,163062,1,0,0:0:0:0:
356,324,163221,1,0,0:0:0:0:
400,272,163379,1,0,0:0:0:0:
408,204,163537,1,0,0:0:0:0:
396,136,163694,1,0,0:0:0:0:
392,68,163852,5,0,0:0:0:0:
124,104,164484,1,0,0:0:0:0:
384,32,165115,1,0,0:0:0:0:
332,76,165274,1,0,0:0:0:0:
204,116,165590,1,0,0:0:0:0:
272,104,165747,1,0,0:0:0:0:
404,136,166063,1,0,0:0:0:0:
276,176,166379,5,0,0:0:0:0:
244,176,166458,1,0,0:0:0:0:
212,172,166537,1,0,0:0:0:0:
144,156,166695,1,0,0:0:0:0:
84,120,166853,1,0,0:0:0:0:
144,88,167011,1,0,0:0:0:0:
212,100,167169,1,0,0:0:0:0:
280,112,167326,1,0,0:0:0:0:
344,132,167484,1,0,0:0:0:0:
400,96,167642,5,0,0:0:0:0:
376,76,167721,1,0,0:0:0:0:
344,60,167800,1,0,0:0:0:0:
280,40,167958,1,0,0:0:0:0:
204,36,168116,1,0,0:0:0:0:
136,44,168274,1,0,0:0:0:0:
88,92,168432,1,0,0:0:0:0:
100,160,168590,1,0,0:0:0:0:
112,224,168747,1,0,0:0:0:0:
144,284,168905,5,0,0:0:0:0:
344,312,169379,1,0,0:0:0:0:
316,252,169537,1,0,0:0:0:0:
236,120,169853,5,0,0:0:0:0:
224,76,169932,1,0,0:0:0:0:
248,52,170011,1,0,0:0:0:0:
280,48,170090,1,0,0:0:0:0:
312,52,170168,1,0,0:0:0:0:
448,52,170484,1,0,0:0:0:0:
452,84,170563,1,0,0:0:0:0:
456,116,170642,1,0,0:0:0:0:
452,148,170721,1,0,0:0:0:0:
456,180,170800,1,0,0:0:0:0:
372,288,171116,1,0,0:0:0:0:
244,336,171432,5,0,0:0:0:0:
216,320,171511,1,0,0:0:0:0:
188,300,171590,1,0,0:0:0:0:
132,264,171747,1,0,0:0:0:0:
84,216,171905,1,0,0:0:0:0:
60,152,172063,1,0,0:0:0:0:
56,84,172221,1,0,0:0:0:0:
108,44,172379,1,0,0:0:0:0:
176,56,172537,1,0,0:0:0:0:
240,76,172695,5,0,0:0:0:0:
272,88,172774,1,0,0:0:0:0:
304,100,172853,1,0,0:0:0:0:
360,140,173011,1,0,0:0:0:0:
408,188,173169,1,0,0:0:0:0:
440,248,173326,1,0,0:0:0:0:
412,308,173484,1,0,0:0:0:0:
348,328,173642,1,0,0:0:0:0:
280,324,173800,1,0,0:0:0:0:
216,308,173958,5,0,0:0:0:0:
192,284,174037,1,0,0:0:0:0:
164,264,174116,1,0,0:0:0:0:
140,244,174195,1,0,0:0:0:0:
120,216,174274,1,0,0:0:0:0:
96,196,174353,1,0,0:0:0:0:
84,164,174432,1,0,0:0:0:0:
84,132,174511,1,0,0:0:0:0:
116,116,174590,5,0,0:0:0:0:
148,112,174669,1,0,0:0:0:0:
180,96,174748,1,0,0:0:0:0:
212,88,174827,1,0,0:0:0:0:
244,80,174906,1,0,0:0:0:0:
276,76,174985,1,0,0:0:0:0:
308,72,175064,1,0,0:0:0:0:
340,64,175143,1,0,0:0:0:0:
368,84,175221,5,0,0:0:0:0:
392,108,175300,1,0,0:0:0:0:
408,136,175379,1,0,0:0:0:0:
424,164,175458,1,0,0:0:0:0:
428,196,175537,1,0,0:0:0:0:
428,228,175616,1,0,0:0:0:0:
424,260,175695,1,0,0:0:0:0:
420,292,175774,1,0,0:0:0:0:
388,300,175853,5,0,0:0:0:0:
356,312,175932,1,0,0:0:0:0:
324,320,176011,1,0,0:0:0:0:
292,324,176090,1,0,0:0:0:0:
260,332,176169,1,0,0:0:0:0:
228,336,176248,1,0,0:0:0:0:
196,340,176327,1,0,0:0:0:0:
164,340,176406,1,0,0:0:0:0:
136,320,176484,5,0,0:0:0:0:
116,88,177654,1,0,0:0:0:0:
416,84,178825,1,0,0:0:0:0:
408,292,179996,1,0,0:0:0:0:
104,288,181166,1,0,0:0:0:0:
120,92,182336,1,0,0:0:0:0:
328,88,183507,1,0,0:0:0:0:
224,312,184678,1,0,0:0:0:0:
160,148,185849,5,0,0:0:0:0:
256,192,187019,1,0,0:0:0:0:
256,192,188190,1,0,0:0:0:0:
256,192,189361,1,0,0:0:0:0:
256,192,190532,1,0,0:0:0:0:
256,192,191702,1,0,0:0:0:0:
232,88,192873,5,0,0:0:0:0:
176,124,193020,1,0,0:0:0:0:
128,172,193166,1,0,0:0:0:0:
136,240,193313,1,0,0:0:0:0:
180,288,193459,1,0,0:0:0:0:
240,320,193606,1,0,0:0:0:0:
304,300,193752,1,0,0:0:0:0:
360,260,193899,1,0,0:0:0:0:
416,224,194044,1,0,0:0:0:0:
444,164,194191,1,0,0:0:0:0:
452,96,194337,5,0,0:0:0:0:
428,60,194435,1,0,0:0:0:0:
384,48,194532,1,0,0:0:0:0:
340,48,194630,1,0,0:0:0:0:
296,60,194727,1,0,0:0:0:0:
264,92,194825,5,0,0:0:0:0:
240,128,194923,1,0,0:0:0:0:
228,172,195020,1,0,0:0:0:0:
216,216,195118,1,0,0:0:0:0:
208,260,195215,5,0,0:0:0:0:
336,308,195508,1,0,0:0:0:0:
436,220,195801,1,0,0:0:0:0:
408,160,195947,1,0,0:0:0:0:
280,116,196240,1,0,0:0:0:0:
212,124,196385,1,0,0:0:0:0:
84,164,196679,1,0,0:0:0:0:
92,212,196788,1,0,0:0:0:0:
116,256,196898,1,0,0:0:0:0:
148,296,197008,1,0,0:0:0:0:
192,320,197118,1,0,0:0:0:0:
320,272,197410,5,0,0:0:0:0:
364,220,197556,1,0,0:0:0:0:
408,92,197849,1,0,0:0:0:0:
280,52,198142,1,0,0:0:0:0:
216,72,198288,1,0,0:0:0:0:
148,188,198581,1,0,0:0:0:0:
212,208,198727,1,0,0:0:0:0:
348,224,199020,1,0,0:0:0:0:
404,188,199166,1,0,0:0:0:0:
436,128,199313,1,0,0:0:0:0:
420,64,199459,1,0,0:0:0:0:
284,52,199752,5,0,0:0:0:0:
220,76,199898,1,0,0:0:0:0:
116,164,200191,1,0,0:0:0:0:
196,272,200484,1,0,0:0:0:0:
256,300,200630,1,0,0:0:0:0:
388,284,200923,1,0,0:0:0:0:
416,224,201068,1,0,0:0:0:0:
364,100,201362,1,0,0:0:0:0:
328,72,201459,1,0,0:0:0:0:
288,52,201557,1,0,0:0:0:0:
244,48,201654,1,0,0:0:0:0:
176,52,201801,1,0,0:0:0:0:
96,160,202093,5,0,0:0:0:0:
128,220,202239,1,0,0:0:0:0:
236,304,202532,1,0,0:0:0:0:
372,300,202825,1,0,0:0:0:0:
408,244,202971,1,0,0:0:0:0:
372,112,203264,1,0,0:0:0:0:
324,64,203410,1,0,0:0:0:0:
188,52,203703,1,0,0:0:0:0:
136,92,203849,1,0,0:0:0:0:
112,156,203996,1,0,0:0:0:0:
136,220,204142,1,0,0:0:0:0:
256,280,204435,5,0,0:0:0:0:
324,284,204581,1,0,0:0:0:0:
408,176,204874,1,0,0:0:0:0:
384,44,205167,1,0,0:0:0:0:
316,56,205313,1,0,0:0:0:0:
180,60,205606,1,0,0:0:0:0:
116,76,205751,1,0,0:0:0:0:
80,204,206044,1,0,0:0:0:0:
108,240,206142,1,0,0:0:0:0:
144,268,206240,1,0,0:0:0:0:
188,280,206337,1,0,0:0:0:0:
256,288,206483,1,0,0:0:0:0:
388,312,206776,5,0,0:0:0:0:
448,280,206922,1,0,0:0:0:0:
456,144,207215,1,0,0:0:0:0:
368,44,207508,1,0,0:0:0:0:
300,44,207654,1,0,0:0:0:0:
316,180,207947,5,0,0:0:0:0:
320,248,208093,1,0,0:0:0:0:
220,336,208386,1,0,0:0:0:0:
156,316,208532,1,0,0:0:0:0:
92,288,208679,1,0,0:0:0:0:
48,240,208825,1,0,0:0:0:0:
104,116,209118,5,0,0:0:0:0:
168,92,209264,1,0,0:0:0:0:
296,52,209557,1,0,0:0:0:0:
428,76,209850,1,0,0:0:0:0:
476,124,209996,1,0,0:0:0:0:
436,252,210289,5,0,0:0:0:0:
392,200,210434,1,0,0:0:0:0:
288,112,210727,1,0,0:0:0:0:
244,124,210825,1,0,0:0:0:0:
200,136,210923,1,0,0:0:0:0:
160,156,211020,1,0,0:0:0:0:
84,268,211313,1,0,0:0:0:0:
204,328,211605,1,0,0:0:0:0:
380,88,212776,1,0,0:0:0:0:
176,88,213947,5,0,0:0:0:0:
148,148,214093,1,0,0:0:0:0:
120,208,214240,1,0,0:0:0:0:
136,272,214386,1,0,0:0:0:0:
196,304,214532,1,0,0:0:0:0:
264,316,214679,1,0,0:0:0:0:
324,284,214825,1,0,0:0:0:0:
380,244,214971,1,0,0:0:0:0:
408,184,215117,5,0,0:0:0:0:
340,168,215264,1,0,0:0:0:0:
272,168,215411,1,0,0:0:0:0:
204,164,215557,1,0,0:0:0:0:
136,164,215703,1,0,0:0:0:0:
68,156,215850,1,0,0:0:0:0:
80,88,215996,1,0,0:0:0:0:
144,68,216142,1,0,0:0:0:0:
208,80,216288,5,0,0:0:0:0:
276,96,216435,1,0,0:0:0:0:
344,108,216582,1,0,0:0:0:0:
404,136,216728,1,0,0:0:0:0:
400,204,216874,1,0,0:0:0:0:
380,268,217021,1,0,0:0:0:0:
340,320,217167,1,0,0:0:0:0:
272,316,217313,1,0,0:0:0:0:
204,304,217459,5,0,0:0:0:0:
140,288,217605,1,0,0:0:0:0:
92,240,217752,1,0,0:0:0:0:
60,180,217898,1,0,0:0:0:0:
80,116,218044,1,0,0:0:0:0:
136,76,218191,1,0,0:0:0:0:
200,56,218337,1,0,0:0:0:0:
268,68,218483,1,0,0:0:0:0:
272,136,218630,5,0,0:0:0:0:
240,196,218776,1,0,0:0:0:0:
304,216,218923,1,0,0:0:0:0:
328,280,219069,1,0,0:0:0:0:
384,240,219215,1,0,0:0:0:0:
424,184,219362,1,0,0:0:0:0:
388,124,219508,1,0,0:0:0:0:
360,64,219654,1,0,0:0:0:0:
296,44,219800,5,0,0:0:0:0:
228,40,219947,1,0,0:0:0:0:
160,48,220094,1,0,0:0:0:0:
96,64,220240,1,0,0:0:0:0:
68,124,220386,1,0,0:0:0:0:
100,184,220533,1,0,0:0:0:0:
144,236,220679,1,0,0:0:0:0:
192,284,220825,1,0,0:0:0:0:
260,284,220971,5,0,0:0:0:0:
320,256,221118,1,0,0:0:0:0:
372,212,221265,1,0,0:0:0:0:
312,184,221411,1,0,0:0:0:0:
244,172,221557,1,0,0:0:0:0:
176,176,221704,1,0,0:0:0:0:
116,208,221850,1,0,0:0:0:0:
80,264,221996,1,0,0:0:0:0:
132,308,222142,5,0,0:0:0:0:
192,336,222288,1,0,0:0:0:0:
260,340,222435,1,0,0:0:0:0:
320,312,222581,1,0,0:0:0:0:
328,244,222727,1,0,0:0:0:0:
276,200,222874,1,0,0:0:0:0:
228,152,223020,1,0,0:0:0:0:
260,92,223166,1,0,0:0:0:0:
324,76,223313,5,0,0:0:0:0:
92,212,223898,1,0,0:0:0:0:
356,268,224483,1,0,0:0:0:0:
180,64,225069,1,0,0:0:0:0:
132,328,225654,1,0,0:0:0:0:
348,168,226240,1,0,0:0:0:0:
88,96,226825,1,0,0:0:0:0:
244,316,227410,1,0,0:0:0:0:
360,72,227996,5,0,0:0:0:0:
92,108,228581,1,0,0:0:0:0:
256,320,229166,1,0,0:0:0:0:
396,88,229752,1,0,0:0:0:0:
128,104,230337,1,0,0:0:0:0:
400,108,230923,1,0,0:0:0:0:
220,308,231508,1,0,0:0:0:0:
116,60,232093,1,0,0:0:0:0:
376,128,232674,5,0,0:0:0:0:
284,68,232981,1,0,0:0:0:0:
152,104,233289,1,0,0:0:0:0:
76,308,233750,1,0,0:0:0:0:
208,336,234058,1,0,0:0:0:0:
372,244,234423,5,0,0:0:0:0:
360,200,234520,1,0,0:0:0:0:
340,160,234618,1,0,0:0:0:0:
328,116,234715,1,0,0:0:0:0:
304,80,234813,1,0,0:0:0:0:
272,48,234911,1,0,0:0:0:0:
232,64,235008,5,0,0:0:0:0:
248,108,235106,1,0,0:0:0:0:
256,152,235204,1,0,0:0:0:0:
272,192,235301,1,0,0:0:0:0:
284,236,235399,1,0,0:0:0:0:
284,280,235497,1,0,0:0:0:0:
240,272,235593,5,0,0:0:0:0:
200,252,235691,1,0,0:0:0:0:
164,228,235789,1,0,0:0:0:0:
124,204,235886,1,0,0:0:0:0:
84,184,235984,1,0,0:0:0:0:
48,156,236082,1,0,0:0:0:0:
24,120,236179,5,0,0:0:0:0:
60,96,236276,1,0,0:0:0:0:
104,80,236374,1,0,0:0:0:0:
148,72,236471,1,0,0:0:0:0:
192,68,236569,1,0,0:0:0:0:
236,64,236667,1,0,0:0:0:0:
280,64,236764,5,0,0:0:0:0:
