osu file format v14

[General]
AudioFilename: audio.mp3
AudioLeadIn: 0
PreviewTime: 74192
Countdown: 0
SampleSet: Normal
StackLeniency: 0.7
Mode: 1
LetterboxInBreaks: 0
WidescreenStoryboard: 1

[Editor]
DistanceSpacing: 0.6
BeatDivisor: 4
GridSize: 32
TimelineZoom: 3.199999

[Metadata]
Title:Nemesis
TitleUnicode:Nemesis
Artist:Arch Enemy
ArtistUnicode:Arch Enemy
Creator:frukoyurdakul
Version:Muzukashii
Source:
Tags:doomsday machine melodic death metal angela gossow vulkin
BeatmapID:1320923
BeatmapSetID:626651

[Difficulty]
HPDrainRate:5
CircleSize:2
OverallDifficulty:4
ApproachRate:10
SliderMultiplier:1.4
SliderTickRate:1

[Events]
//Background and Video events
0,0,"BG.jpg",0,0
//Break Periods
2,176707,188935
//Storyboard Layer 0 (Background)
//Storyboard Layer 1 (Fail)
//Storyboard Layer 2 (Pass)
//Storyboard Layer 3 (Foreground)
//Storyboard Sound Samples

[TimingPoints]
423,307.692307692308,4,1,0,70,1,0
4346,-100,4,1,0,85,0,0
10269,-100,4,1,0,100,0,1
20115,-100,4,1,0,100,0,0
42269,-100,4,1,0,100,0,1
52115,-100,4,1,0,100,0,0
74269,292.682926829268,4,1,0,100,1,1
93000,307.692307692308,4,1,0,100,1,0
95461,-100,4,1,0,100,0,1
105307,-100,4,1,0,100,0,0
125287,307.692307692308,4,1,0,100,1,8
126211,307.692307692308,4,1,0,100,1,0
127441,307.692307692308,4,1,0,100,1,8
127456,292.682926829268,4,1,0,100,1,1
146187,292.682926829268,4,1,0,100,1,9
146192,315.789473684211,4,1,0,100,1,0
176507,292.682926829268,4,1,0,100,1,0
189311,-100,4,1,0,20,0,0
189458,-100,4,1,0,22,0,0
189604,-100,4,1,0,24,0,0
189750,-100,4,1,0,25,0,0
189897,-100,4,1,0,27,0,0
190043,-100,4,1,0,29,0,0
190189,-100,4,1,0,30,0,0
190336,-100,4,1,0,32,0,0
190482,-100,4,1,0,34,0,0
190628,-100,4,1,0,35,0,0
190775,-100,4,1,0,37,0,0
190921,-100,4,1,0,39,0,0
191067,-100,4,1,0,40,0,0
191214,-100,4,1,0,42,0,0
191360,-100,4,1,0,44,0,0
191507,-100,4,1,0,45,0,0
191653,-100,4,1,0,47,0,0
191799,-100,4,1,0,49,0,0
191946,-100,4,1,0,50,0,0
192092,-100,4,1,0,52,0,0
192238,-100,4,1,0,54,0,0
192385,-100,4,1,0,55,0,0
192531,-100,4,1,0,57,0,0
192677,-100,4,1,0,59,0,0
192824,-100,4,1,0,60,0,0
192970,-100,4,1,0,65,0,0
193116,-100,4,1,0,70,0,0
193263,-100,4,1,0,75,0,0
193409,-100,4,1,0,80,0,0
193555,-100,4,1,0,85,0,0
193702,-100,4,1,0,90,0,0
193848,-100,4,1,0,95,0,0
193994,-100,4,1,0,100,0,0
195238,-95.2380952380952,4,1,0,100,0,1
213970,-95.2380952380952,4,1,0,100,0,0
231531,291.26213592233,4,1,0,100,1,0
231531,-96.1538461538461,4,1,0,100,0,0
232696,294.117647058824,4,1,0,100,1,0
232696,-97.0873786407767,4,1,0,100,0,0
232987,297.029702970297,4,1,0,100,1,8
232987,-95.2380952380952,4,1,0,100,0,8
234163,294.117647058824,4,1,0,100,1,0
234457,-97.0873786407767,4,1,0,100,0,0
235045,291.970802919708,4,1,0,100,1,0
235045,-98.0392156862745,4,1,0,100,0,0

[HitObjects]
160,288,423,5,4,0:0:0:0:
328,80,730,1,8,0:0:0:0:
328,80,1038,1,8,0:0:0:0:
328,80,1499,1,8,0:0:0:0:
328,80,1807,1,8,0:0:0:0:
328,80,2269,1,8,0:0:0:0:
328,80,2576,1,8,0:0:0:0:
192,80,2884,1,0,0:0:0:0:
328,80,3192,1,8,0:0:0:0:
328,80,3499,1,8,0:0:0:0:
328,80,3961,1,8,0:0:0:0:
328,80,4269,1,8,0:0:0:0:
192,80,4423,1,0,0:0:0:0:
328,80,4730,1,8,0:0:0:0:
328,80,4807,1,8,0:0:0:0:
328,80,4884,1,8,0:0:0:0:
328,80,5038,1,8,0:0:0:0:
192,80,5346,1,0,0:0:0:0:
192,80,5423,1,0,0:0:0:0:
192,80,5499,1,0,0:0:0:0:
352,288,5653,1,12,0:0:0:0:
352,288,5961,1,12,0:0:0:0:
352,288,6423,1,12,0:0:0:0:
352,288,6730,1,12,0:0:0:0:
352,288,8115,1,12,0:0:0:0:
352,288,8423,1,12,0:0:0:0:
352,288,8884,1,12,0:0:0:0:
352,288,9192,1,12,0:0:0:0:
328,80,9653,1,8,0:0:0:0:
192,80,9807,1,0,0:0:0:0:
352,288,9961,1,12,0:0:0:0:
160,288,10269,1,4,0:0:0:0:
192,80,10423,1,0,0:0:0:0:
328,80,10576,1,8,0:0:0:0:
192,80,10730,1,0,0:0:0:0:
328,80,10884,1,8,0:0:0:0:
192,80,11192,1,0,0:0:0:0:
328,80,11346,1,8,0:0:0:0:
328,80,11423,1,8,0:0:0:0:
328,80,11499,1,8,0:0:0:0:
328,80,11653,1,8,0:0:0:0:
192,80,11807,1,0,0:0:0:0:
328,80,12115,1,8,0:0:0:0:
328,80,12423,1,8,0:0:0:0:
192,80,12576,1,0,0:0:0:0:
192,80,12653,1,0,0:0:0:0:
192,80,12730,1,0,0:0:0:0:
328,80,13038,1,8,0:0:0:0:
328,80,13346,1,8,0:0:0:0:
192,80,13499,1,0,0:0:0:0:
328,80,13653,1,8,0:0:0:0:
328,80,13807,1,8,0:0:0:0:
192,80,13961,1,0,0:0:0:0:
328,80,14115,1,8,0:0:0:0:
192,80,14269,1,0,0:0:0:0:
328,80,14576,1,8,0:0:0:0:
192,80,14884,1,0,0:0:0:0:
192,80,14961,1,0,0:0:0:0:
192,80,15038,1,0,0:0:0:0:
328,80,15192,1,8,0:0:0:0:
192,80,15346,1,0,0:0:0:0:
328,80,15499,1,8,0:0:0:0:
328,80,15807,1,8,0:0:0:0:
328,80,16115,1,8,0:0:0:0:
328,80,16269,1,8,0:0:0:0:
192,80,16423,1,0,0:0:0:0:
328,80,16576,1,8,0:0:0:0:
192,80,16730,1,0,0:0:0:0:
328,80,17038,1,8,0:0:0:0:
328,80,17346,1,8,0:0:0:0:
328,80,17423,1,8,0:0:0:0:
328,80,17499,1,8,0:0:0:0:
328,80,17653,1,8,0:0:0:0:
192,80,17807,1,0,0:0:0:0:
328,80,17961,1,8,0:0:0:0:
192,80,18269,1,0,0:0:0:0:
192,80,18346,1,0,0:0:0:0:
192,80,18423,1,0,0:0:0:0:
328,80,18576,1,8,0:0:0:0:
192,80,18884,1,0,0:0:0:0:
192,80,19038,1,0,0:0:0:0:
328,80,19192,1,8,0:0:0:0:
328,80,19346,1,8,0:0:0:0:
328,80,19423,1,8,0:0:0:0:
328,80,19499,1,8,0:0:0:0:
328,80,19653,1,8,0:0:0:0:
328,80,19807,1,8,0:0:0:0:
160,288,20115,1,4,0:0:0:0:
328,80,20423,1,8,0:0:0:0:
328,80,20730,1,8,0:0:0:0:
192,80,20884,1,0,0:0:0:0:
192,80,21038,1,0,0:0:0:0:
328,80,21192,1,8,0:0:0:0:
328,80,21499,1,8,0:0:0:0:
192,80,21653,1,0,0:0:0:0:
192,80,21807,1,0,0:0:0:0:
328,80,21961,1,8,0:0:0:0:
328,80,22269,1,8,0:0:0:0:
328,80,22423,1,8,0:0:0:0:
192,80,22576,1,0,0:0:0:0:
328,80,22884,1,8,0:0:0:0:
328,80,23192,1,8,0:0:0:0:
328,80,23346,1,8,0:0:0:0:
192,80,23499,1,0,0:0:0:0:
192,80,23653,1,0,0:0:0:0:
328,80,23807,1,8,0:0:0:0:
192,80,24115,1,0,0:0:0:0:
192,80,24423,1,0,0:0:0:0:
192,80,24499,1,0,0:0:0:0:
192,80,24576,1,0,0:0:0:0:
352,288,24730,1,12,0:0:0:0:
192,80,25038,1,0,0:0:0:0:
192,80,25192,1,0,0:0:0:0:
328,80,25346,1,8,0:0:0:0:
328,80,25653,1,8,0:0:0:0:
328,80,25807,1,8,0:0:0:0:
192,80,25961,1,0,0:0:0:0:
328,80,26115,1,8,0:0:0:0:
328,80,26423,1,8,0:0:0:0:
192,80,26576,1,0,0:0:0:0:
192,80,26730,1,0,0:0:0:0:
328,80,26884,1,8,0:0:0:0:
328,80,27192,1,8,0:0:0:0:
328,80,27346,1,8,0:0:0:0:
192,80,27499,1,0,0:0:0:0:
328,80,27807,1,8,0:0:0:0:
328,80,28115,1,8,0:0:0:0:
192,80,28269,1,0,0:0:0:0:
328,80,28423,1,8,0:0:0:0:
328,80,28730,1,8,0:0:0:0:
192,80,28884,1,0,0:0:0:0:
328,80,29038,1,8,0:0:0:0:
328,80,29192,1,8,0:0:0:0:
328,80,29346,1,8,0:0:0:0:
328,80,29653,1,8,0:0:0:0:
192,80,29807,1,0,0:0:0:0:
328,80,29961,1,8,0:0:0:0:
192,80,30269,1,0,0:0:0:0:
192,80,30346,1,0,0:0:0:0:
192,80,30423,1,0,0:0:0:0:
352,288,30576,1,12,0:0:0:0:
352,288,30884,1,12,0:0:0:0:
160,288,31192,1,4,0:0:0:0:
192,80,31346,1,0,0:0:0:0:
328,80,31499,1,8,0:0:0:0:
328,80,31807,1,8,0:0:0:0:
192,80,31961,1,0,0:0:0:0:
192,80,32115,1,0,0:0:0:0:
328,80,32269,1,8,0:0:0:0:
192,80,32423,1,0,0:0:0:0:
328,80,32576,1,8,0:0:0:0:
192,80,32884,1,0,0:0:0:0:
328,80,33038,1,8,0:0:0:0:
328,80,33346,1,8,0:0:0:0:
328,80,33499,1,8,0:0:0:0:
192,80,33653,1,0,0:0:0:0:
192,80,33807,1,0,0:0:0:0:
328,80,33961,1,8,0:0:0:0:
328,80,34269,1,8,0:0:0:0:
192,80,34423,1,0,0:0:0:0:
192,80,34576,1,0,0:0:0:0:
328,80,34730,1,8,0:0:0:0:
328,80,34884,1,8,0:0:0:0:
328,80,35192,1,8,0:0:0:0:
192,80,35499,1,0,0:0:0:0:
192,80,35576,1,0,0:0:0:0:
192,80,35653,1,0,0:0:0:0:
352,288,35807,1,12,0:0:0:0:
192,80,36115,1,0,0:0:0:0:
192,80,36269,1,0,0:0:0:0:
328,80,36423,1,8,0:0:0:0:
328,80,36730,1,8,0:0:0:0:
328,80,36884,1,8,0:0:0:0:
328,80,37038,1,8,0:0:0:0:
328,80,37192,1,8,0:0:0:0:
192,80,37499,1,0,0:0:0:0:
328,80,37653,1,8,0:0:0:0:
328,80,37961,1,8,0:0:0:0:
192,80,38115,1,0,0:0:0:0:
328,80,38269,1,8,0:0:0:0:
328,80,38423,1,8,0:0:0:0:
192,80,38576,1,0,0:0:0:0:
328,80,38884,1,8,0:0:0:0:
328,80,39192,1,8,0:0:0:0:
328,80,39269,1,8,0:0:0:0:
328,80,39346,1,8,0:0:0:0:
328,80,39499,1,8,0:0:0:0:
328,80,39807,1,8,0:0:0:0:
192,80,39961,1,0,0:0:0:0:
328,80,40115,1,8,0:0:0:0:
328,80,40423,1,8,0:0:0:0:
328,80,40499,1,8,0:0:0:0:
328,80,40576,1,8,0:0:0:0:
192,80,40730,1,0,0:0:0:0:
328,80,41038,1,8,0:0:0:0:
328,80,41192,1,8,0:0:0:0:
328,80,41346,1,8,0:0:0:0:
192,80,41499,1,0,0:0:0:0:
192,80,41653,1,0,0:0:0:0:
192,80,41730,1,0,0:0:0:0:
192,80,41807,1,0,0:0:0:0:
192,80,41961,1,0,0:0:0:0:
192,80,42038,1,0,0:0:0:0:
192,80,42115,1,0,0:0:0:0:
352,288,42269,1,12,0:0:0:0:
328,80,42576,1,8,0:0:0:0:
328,80,42884,1,8,0:0:0:0:
192,80,43038,1,0,0:0:0:0:
328,80,43192,1,8,0:0:0:0:
328,80,43346,1,8,0:0:0:0:
192,80,43499,1,0,0:0:0:0:
328,80,43653,1,8,0:0:0:0:
192,80,44115,1,0,0:0:0:0:
192,80,44192,1,0,0:0:0:0:
192,80,44269,1,0,0:0:0:0:
328,80,44423,1,8,0:0:0:0:
192,80,44730,1,0,0:0:0:0:
192,80,44884,1,0,0:0:0:0:
328,80,45038,1,8,0:0:0:0:
328,80,45346,1,8,0:0:0:0:
328,80,45653,1,8,0:0:0:0:
192,80,45807,1,0,0:0:0:0:
192,80,45884,1,0,0:0:0:0:
192,80,45961,1,0,0:0:0:0:
328,80,46115,1,8,0:0:0:0:
328,80,46423,1,8,0:0:0:0:
192,80,46576,1,0,0:0:0:0:
328,80,46730,1,8,0:0:0:0:
328,80,46807,1,8,0:0:0:0:
328,80,46884,1,8,0:0:0:0:
328,80,47192,1,8,0:0:0:0:
328,80,47346,1,8,0:0:0:0:
328,80,47423,1,8,0:0:0:0:
328,80,47499,1,8,0:0:0:0:
328,80,47653,1,8,0:0:0:0:
328,80,47961,1,8,0:0:0:0:
328,80,48115,1,8,0:0:0:0:
328,80,48269,1,8,0:0:0:0:
328,80,48346,1,8,0:0:0:0:
328,80,48423,1,8,0:0:0:0:
328,80,48730,1,8,0:0:0:0:
328,80,48807,1,8,0:0:0:0:
328,80,48884,1,8,0:0:0:0:
328,80,49038,1,8,0:0:0:0:
328,80,49192,1,8,0:0:0:0:
328,80,49346,1,8,0:0:0:0:
192,80,49499,1,0,0:0:0:0:
328,80,49653,1,8,0:0:0:0:
192,80,49961,1,0,0:0:0:0:
328,80,50115,1,8,0:0:0:0:
328,80,50192,1,8,0:0:0:0:
328,80,50269,1,8,0:0:0:0:
192,80,50576,1,0,0:0:0:0:
192,80,50653,1,0,0:0:0:0:
192,80,50730,1,0,0:0:0:0:
328,80,50884,1,8,0:0:0:0:
328,80,51192,1,8,0:0:0:0:
328,80,51269,1,8,0:0:0:0:
328,80,51346,1,8,0:0:0:0:
328,80,51499,1,8,0:0:0:0:
328,80,51653,1,8,0:0:0:0:
328,80,51807,1,8,0:0:0:0:
328,80,51884,1,8,0:0:0:0:
328,80,51961,1,8,0:0:0:0:
160,288,52115,1,4,0:0:0:0:
192,80,52269,1,0,0:0:0:0:
328,80,52423,1,8,0:0:0:0:
328,80,52730,1,8,0:0:0:0:
192,80,52884,1,0,0:0:0:0:
192,80,53038,1,0,0:0:0:0:
328,80,53192,1,8,0:0:0:0:
328,80,53499,1,8,0:0:0:0:
192,80,53653,1,0,0:0:0:0:
192,80,53807,1,0,0:0:0:0:
328,80,53961,1,8,0:0:0:0:
328,80,54269,1,8,0:0:0:0:
328,80,54423,1,8,0:0:0:0:
192,80,54576,1,0,0:0:0:0:
192,80,54730,1,0,0:0:0:0:
328,80,54884,1,8,0:0:0:0:
328,80,55192,1,8,0:0:0:0:
192,80,55346,1,0,0:0:0:0:
328,80,55499,1,8,0:0:0:0:
192,80,55653,1,0,0:0:0:0:
328,80,55807,1,8,0:0:0:0:
328,80,56115,1,8,0:0:0:0:
192,80,56269,1,0,0:0:0:0:
192,80,56346,1,0,0:0:0:0:
192,80,56423,1,0,0:0:0:0:
352,288,56730,1,12,0:0:0:0:
192,80,57038,1,0,0:0:0:0:
192,80,57192,1,0,0:0:0:0:
328,80,57346,1,8,0:0:0:0:
328,80,57653,1,8,0:0:0:0:
192,80,57807,1,0,0:0:0:0:
328,80,57961,1,8,0:0:0:0:
328,80,58115,1,8,0:0:0:0:
328,80,58269,1,8,0:0:0:0:
328,80,58576,1,8,0:0:0:0:
328,80,58884,1,8,0:0:0:0:
192,80,59038,1,0,0:0:0:0:
328,80,59192,1,8,0:0:0:0:
192,80,59499,1,0,0:0:0:0:
192,80,59653,1,0,0:0:0:0:
328,80,59807,1,8,0:0:0:0:
328,80,60115,1,8,0:0:0:0:
192,80,60269,1,0,0:0:0:0:
328,80,60423,1,8,0:0:0:0:
192,80,60576,1,0,0:0:0:0:
328,80,60730,1,8,0:0:0:0:
328,80,61038,1,8,0:0:0:0:
328,80,61192,1,8,0:0:0:0:
328,80,61269,1,8,0:0:0:0:
328,80,61346,1,8,0:0:0:0:
192,80,61653,1,0,0:0:0:0:
192,80,61807,1,0,0:0:0:0:
192,80,61884,1,0,0:0:0:0:
192,80,61961,1,0,0:0:0:0:
328,80,62269,1,8,0:0:0:0:
328,80,62346,1,8,0:0:0:0:
328,80,62423,1,8,0:0:0:0:
352,288,62576,1,12,0:0:0:0:
352,288,62884,1,12,0:0:0:0:
160,288,63192,1,4,0:0:0:0:
192,80,63346,1,0,0:0:0:0:
328,80,63499,1,8,0:0:0:0:
328,80,63807,1,8,0:0:0:0:
192,80,63961,1,0,0:0:0:0:
192,80,64115,1,0,0:0:0:0:
328,80,64269,1,8,0:0:0:0:
192,80,64423,1,0,0:0:0:0:
328,80,64576,1,8,0:0:0:0:
328,80,64884,1,8,0:0:0:0:
328,80,65038,1,8,0:0:0:0:
192,80,65192,1,0,0:0:0:0:
328,80,65346,1,8,0:0:0:0:
192,80,65653,1,0,0:0:0:0:
192,80,65807,1,0,0:0:0:0:
328,80,65961,1,8,0:0:0:0:
328,80,66115,1,8,0:0:0:0:
328,80,66269,1,8,0:0:0:0:
328,80,66576,1,8,0:0:0:0:
192,80,66730,1,0,0:0:0:0:
328,80,66884,1,8,0:0:0:0:
192,80,67038,1,0,0:0:0:0:
328,80,67192,1,8,0:0:0:0:
192,80,67499,1,0,0:0:0:0:
192,80,67576,1,0,0:0:0:0:
192,80,67653,1,0,0:0:0:0:
352,288,67807,1,12,0:0:0:0:
192,80,68115,1,0,0:0:0:0:
192,80,68269,1,0,0:0:0:0:
328,80,68423,1,8,0:0:0:0:
192,80,68576,1,0,0:0:0:0:
328,80,68730,1,8,0:0:0:0:
328,80,69038,1,8,0:0:0:0:
192,80,69192,1,0,0:0:0:0:
328,80,69346,1,8,0:0:0:0:
192,80,69499,1,0,0:0:0:0:
328,80,69653,1,8,0:0:0:0:
328,80,69961,1,8,0:0:0:0:
192,80,70115,1,0,0:0:0:0:
328,80,70269,1,8,0:0:0:0:
328,80,70423,1,8,0:0:0:0:
192,80,70576,1,0,0:0:0:0:
328,80,70884,1,8,0:0:0:0:
328,80,71192,1,8,0:0:0:0:
328,80,71269,1,8,0:0:0:0:
328,80,71346,1,8,0:0:0:0:
192,80,71499,1,0,0:0:0:0:
192,80,71653,1,0,0:0:0:0:
160,288,71807,1,4,0:0:0:0:
160,288,72115,1,4,0:0:0:0:
160,288,72423,1,4,0:0:0:0:
160,288,72730,1,4,0:0:0:0:
328,80,73038,1,8,0:0:0:0:
160,288,73346,1,4,0:0:0:0:
160,288,73653,1,4,0:0:0:0:
328,80,73935,1,8,0:0:0:0:
352,288,74269,1,12,0:0:0:0:
192,80,74561,1,0,0:0:0:0:
328,80,74854,1,8,0:0:0:0:
192,80,75000,1,0,0:0:0:0:
192,80,75293,1,0,0:0:0:0:
328,80,75439,1,8,0:0:0:0:
192,80,75732,1,0,0:0:0:0:
328,80,76025,1,8,0:0:0:0:
192,80,76464,1,0,0:0:0:0:
328,80,76610,1,8,0:0:0:0:
192,80,76903,1,0,0:0:0:0:
328,80,77195,1,8,0:0:0:0:
192,80,77342,1,0,0:0:0:0:
192,80,77634,1,0,0:0:0:0:
328,80,77781,1,8,0:0:0:0:
192,80,78073,1,0,0:0:0:0:
192,80,78220,1,0,0:0:0:0:
328,80,78366,1,8,0:0:0:0:
328,80,78659,1,8,0:0:0:0:
192,80,78805,1,0,0:0:0:0:
160,288,78951,1,4,0:0:0:0:
192,80,79244,1,0,0:0:0:0:
328,80,79537,1,8,0:0:0:0:
192,80,79683,1,0,0:0:0:0:
192,80,79976,1,0,0:0:0:0:
328,80,80122,1,8,0:0:0:0:
192,80,80415,1,0,0:0:0:0:
328,80,80708,1,8,0:0:0:0:
192,80,81147,1,0,0:0:0:0:
328,80,81293,1,8,0:0:0:0:
192,80,81586,1,0,0:0:0:0:
328,80,81878,1,8,0:0:0:0:
192,80,82025,1,0,0:0:0:0:
192,80,82317,1,0,0:0:0:0:
328,80,82464,1,8,0:0:0:0:
192,80,82756,1,0,0:0:0:0:
192,80,82903,1,0,0:0:0:0:
352,288,83049,1,12,0:0:0:0:
192,80,83342,1,0,0:0:0:0:
192,80,83415,1,0,0:0:0:0:
192,80,83488,1,0,0:0:0:0:
352,288,83634,1,12,0:0:0:0:
192,80,83927,1,0,0:0:0:0:
328,80,84220,1,8,0:0:0:0:
192,80,84366,1,0,0:0:0:0:
192,80,84659,1,0,0:0:0:0:
328,80,84805,1,8,0:0:0:0:
192,80,85098,1,0,0:0:0:0:
328,80,85390,1,8,0:0:0:0:
192,80,85829,1,0,0:0:0:0:
328,80,85976,1,8,0:0:0:0:
192,80,86268,1,0,0:0:0:0:
328,80,86561,1,8,0:0:0:0:
192,80,86708,1,0,0:0:0:0:
192,80,87000,1,0,0:0:0:0:
328,80,87147,1,8,0:0:0:0:
192,80,87439,1,0,0:0:0:0:
192,80,87586,1,0,0:0:0:0:
328,80,87732,1,8,0:0:0:0:
328,80,88025,1,8,0:0:0:0:
192,80,88171,1,0,0:0:0:0:
352,288,88317,1,12,0:0:0:0:
192,80,88610,1,0,0:0:0:0:
328,80,88903,1,8,0:0:0:0:
192,80,89049,1,0,0:0:0:0:
192,80,89342,1,0,0:0:0:0:
328,80,89488,1,8,0:0:0:0:
192,80,89781,1,0,0:0:0:0:
328,80,90073,1,8,0:0:0:0:
192,80,90512,1,0,0:0:0:0:
352,288,90659,1,12,0:0:0:0:
192,80,90951,1,0,0:0:0:0:
192,80,91098,1,0,0:0:0:0:
328,80,91244,1,8,0:0:0:0:
192,80,91537,1,0,0:0:0:0:
192,80,91683,1,0,0:0:0:0:
328,80,91829,1,8,0:0:0:0:
328,80,91976,1,8,0:0:0:0:
328,80,92415,1,8,0:0:0:0:
192,80,92561,1,0,0:0:0:0:
192,80,92708,1,0,0:0:0:0:
328,80,93000,1,8,0:0:0:0:
352,288,93307,1,12,0:0:0:0:
352,288,93615,1,12,0:0:0:0:
352,288,94076,1,12,0:0:0:0:
352,288,94384,1,12,0:0:0:0:
328,80,95153,1,8,0:0:0:0:
160,288,95461,1,4,0:0:0:0:
192,80,95615,1,0,0:0:0:0:
328,80,95769,1,8,0:0:0:0:
328,80,96076,1,8,0:0:0:0:
192,80,96230,1,0,0:0:0:0:
328,80,96384,1,8,0:0:0:0:
328,80,96538,1,8,0:0:0:0:
192,80,96692,1,0,0:0:0:0:
328,80,96846,1,8,0:0:0:0:
192,80,97000,1,0,0:0:0:0:
328,80,97307,1,8,0:0:0:0:
192,80,97538,1,0,0:0:0:0:
192,80,97769,1,0,0:0:0:0:
328,80,97923,1,8,0:0:0:0:
192,80,98230,1,0,0:0:0:0:
192,80,98307,1,0,0:0:0:0:
192,80,98384,1,0,0:0:0:0:
328,80,98538,1,8,0:0:0:0:
192,80,98692,1,0,0:0:0:0:
328,80,99000,1,8,0:0:0:0:
328,80,99153,1,8,0:0:0:0:
192,80,99461,1,0,0:0:0:0:
192,80,99538,1,0,0:0:0:0:
192,80,99615,1,0,0:0:0:0:
328,80,99769,1,8,0:0:0:0:
192,80,100076,1,0,0:0:0:0:
328,80,100384,1,8,0:0:0:0:
192,80,100538,1,0,0:0:0:0:
328,80,100692,1,8,0:0:0:0:
192,80,100846,1,0,0:0:0:0:
328,80,101000,1,8,0:0:0:0:
192,80,101307,1,0,0:0:0:0:
192,80,101461,1,0,0:0:0:0:
328,80,101615,1,8,0:0:0:0:
192,80,101769,1,0,0:0:0:0:
328,80,101923,1,8,0:0:0:0:
192,80,102076,1,0,0:0:0:0:
328,80,102230,1,8,0:0:0:0:
192,80,102384,1,0,0:0:0:0:
328,80,102538,1,8,0:0:0:0:
192,80,102692,1,0,0:0:0:0:
328,80,102846,1,8,0:0:0:0:
328,80,102923,1,8,0:0:0:0:
328,80,103000,1,8,0:0:0:0:
328,80,103307,1,8,0:0:0:0:
328,80,103384,1,8,0:0:0:0:
328,80,103461,1,8,0:0:0:0:
328,80,103769,1,8,0:0:0:0:
328,80,103846,1,8,0:0:0:0:
328,80,103923,1,8,0:0:0:0:
192,80,104076,1,0,0:0:0:0:
352,288,104384,1,12,0:0:0:0:
328,80,104538,1,8,0:0:0:0:
328,80,104615,1,8,0:0:0:0:
328,80,104692,1,8,0:0:0:0:
192,80,105000,1,0,0:0:0:0:
192,80,105076,1,0,0:0:0:0:
192,80,105153,1,0,0:0:0:0:
160,288,105307,1,4,0:0:0:0:
328,80,105615,1,8,0:0:0:0:
328,80,105923,1,8,0:0:0:0:
192,80,106076,1,0,0:0:0:0:
192,80,106230,1,0,0:0:0:0:
328,80,106384,1,8,0:0:0:0:
328,80,106692,1,8,0:0:0:0:
192,80,106846,1,0,0:0:0:0:
192,80,107000,1,0,0:0:0:0:
328,80,107153,1,8,0:0:0:0:
328,80,107461,1,8,0:0:0:0:
328,80,107615,1,8,0:0:0:0:
192,80,107769,1,0,0:0:0:0:
192,80,107923,1,0,0:0:0:0:
328,80,108076,1,8,0:0:0:0:
328,80,108384,1,8,0:0:0:0:
192,80,108538,1,0,0:0:0:0:
328,80,108692,1,8,0:0:0:0:
328,80,108846,1,8,0:0:0:0:
192,80,109000,1,0,0:0:0:0:
328,80,109307,1,8,0:0:0:0:
192,80,109461,1,0,0:0:0:0:
328,80,109615,1,8,0:0:0:0:
192,80,109769,1,0,0:0:0:0:
192,80,109846,1,0,0:0:0:0:
192,80,109923,1,0,0:0:0:0:
160,288,110230,1,4,0:0:0:0:
328,80,110538,1,8,0:0:0:0:
192,80,110692,1,0,0:0:0:0:
328,80,110846,1,8,0:0:0:0:
192,80,111153,1,0,0:0:0:0:
328,80,111307,1,8,0:0:0:0:
192,80,111461,1,0,0:0:0:0:
328,80,111615,1,8,0:0:0:0:
192,80,111769,1,0,0:0:0:0:
328,80,112076,1,8,0:0:0:0:
192,80,112230,1,0,0:0:0:0:
328,80,112384,1,8,0:0:0:0:
328,80,112538,1,8,0:0:0:0:
192,80,112692,1,0,0:0:0:0:
192,80,112846,1,0,0:0:0:0:
328,80,113000,1,8,0:0:0:0:
328,80,113307,1,8,0:0:0:0:
192,80,113461,1,0,0:0:0:0:
328,80,113615,1,8,0:0:0:0:
328,80,113923,1,8,0:0:0:0:
328,80,114000,1,8,0:0:0:0:
328,80,114076,1,8,0:0:0:0:
192,80,114230,1,0,0:0:0:0:
328,80,114538,1,8,0:0:0:0:
328,80,114846,1,8,0:0:0:0:
328,80,114923,1,8,0:0:0:0:
328,80,115000,1,8,0:0:0:0:
192,80,115153,1,0,0:0:0:0:
328,80,115461,1,8,0:0:0:0:
192,80,115615,1,0,0:0:0:0:
192,80,115692,1,0,0:0:0:0:
192,80,115769,1,0,0:0:0:0:
192,80,115923,1,0,0:0:0:0:
352,288,116076,1,12,0:0:0:0:
160,288,116384,1,4,0:0:0:0:
192,80,116538,1,0,0:0:0:0:
328,80,116692,1,8,0:0:0:0:
328,80,116846,1,8,0:0:0:0:
328,80,117000,1,8,0:0:0:0:
328,80,117307,1,8,0:0:0:0:
192,80,117461,1,0,0:0:0:0:
328,80,117615,1,8,0:0:0:0:
328,80,117769,1,8,0:0:0:0:
192,80,118076,1,0,0:0:0:0:
328,80,118230,1,8,0:0:0:0:
192,80,118384,1,0,0:0:0:0:
328,80,118538,1,8,0:0:0:0:
328,80,118692,1,8,0:0:0:0:
192,80,118846,1,0,0:0:0:0:
328,80,119153,1,8,0:0:0:0:
328,80,119307,1,8,0:0:0:0:
328,80,119461,1,8,0:0:0:0:
192,80,119769,1,0,0:0:0:0:
192,80,119923,1,0,0:0:0:0:
328,80,120076,1,8,0:0:0:0:
192,80,120230,1,0,0:0:0:0:
192,80,120384,1,0,0:0:0:0:
192,80,120538,1,0,0:0:0:0:
352,288,120692,1,12,0:0:0:0:
352,288,121000,1,12,0:0:0:0:
160,288,121307,1,4,0:0:0:0:
192,80,121461,1,0,0:0:0:0:
328,80,121615,1,8,0:0:0:0:
328,80,121923,1,8,0:0:0:0:
328,80,122076,1,8,0:0:0:0:
328,80,122153,1,8,0:0:0:0:
328,80,122230,1,8,0:0:0:0:
328,80,122538,1,8,0:0:0:0:
328,80,122692,1,8,0:0:0:0:
328,80,122846,1,8,0:0:0:0:
328,80,123153,1,8,0:0:0:0:
328,80,123230,1,8,0:0:0:0:
328,80,123307,1,8,0:0:0:0:
328,80,123461,1,8,0:0:0:0:
192,80,123769,1,0,0:0:0:0:
192,80,123923,1,0,0:0:0:0:
328,80,124076,1,8,0:0:0:0:
328,80,124153,1,8,0:0:0:0:
328,80,124230,1,8,0:0:0:0:
328,80,124384,1,8,0:0:0:0:
328,80,124692,1,8,0:0:0:0:
192,80,124846,1,0,0:0:0:0:
352,288,125000,1,12,0:0:0:0:
160,288,125287,1,4,0:0:0:0:
352,288,125595,1,12,0:0:0:0:
352,288,125902,1,12,0:0:0:0:
328,80,126211,1,8,0:0:0:0:
160,288,126518,1,4,0:0:0:0:
352,288,126826,1,12,0:0:0:0:
328,80,127134,1,8,0:0:0:0:
352,288,127456,1,12,0:0:0:0:
192,80,127748,1,0,0:0:0:0:
328,80,128041,1,8,0:0:0:0:
192,80,128187,1,0,0:0:0:0:
192,80,128480,1,0,0:0:0:0:
328,80,128626,1,8,0:0:0:0:
192,80,128919,1,0,0:0:0:0:
328,80,129212,1,8,0:0:0:0:
192,80,129651,1,0,0:0:0:0:
328,80,129797,1,8,0:0:0:0:
192,80,130090,1,0,0:0:0:0:
328,80,130382,1,8,0:0:0:0:
192,80,130529,1,0,0:0:0:0:
192,80,130821,1,0,0:0:0:0:
328,80,130968,1,8,0:0:0:0:
192,80,131260,1,0,0:0:0:0:
192,80,131407,1,0,0:0:0:0:
328,80,131553,1,8,0:0:0:0:
328,80,131846,1,8,0:0:0:0:
192,80,131992,1,0,0:0:0:0:
160,288,132138,1,4,0:0:0:0:
192,80,132431,1,0,0:0:0:0:
328,80,132724,1,8,0:0:0:0:
192,80,132870,1,0,0:0:0:0:
192,80,133163,1,0,0:0:0:0:
328,80,133309,1,8,0:0:0:0:
192,80,133602,1,0,0:0:0:0:
328,80,133895,1,8,0:0:0:0:
192,80,134334,1,0,0:0:0:0:
328,80,134480,1,8,0:0:0:0:
192,80,134773,1,0,0:0:0:0:
328,80,135065,1,8,0:0:0:0:
192,80,135212,1,0,0:0:0:0:
192,80,135504,1,0,0:0:0:0:
328,80,135651,1,8,0:0:0:0:
192,80,135943,1,0,0:0:0:0:
192,80,136090,1,0,0:0:0:0:
352,288,136236,1,12,0:0:0:0:
328,80,136529,1,8,0:0:0:0:
192,80,136675,1,0,0:0:0:0:
352,288,136821,1,12,0:0:0:0:
192,80,137114,1,0,0:0:0:0:
328,80,137407,1,8,0:0:0:0:
192,80,137553,1,0,0:0:0:0:
192,80,137846,1,0,0:0:0:0:
328,80,137992,1,8,0:0:0:0:
192,80,138285,1,0,0:0:0:0:
328,80,138577,1,8,0:0:0:0:
192,80,139016,1,0,0:0:0:0:
328,80,139163,1,8,0:0:0:0:
192,80,139456,1,0,0:0:0:0:
328,80,139748,1,8,0:0:0:0:
192,80,139895,1,0,0:0:0:0:
192,80,140187,1,0,0:0:0:0:
328,80,140334,1,8,0:0:0:0:
192,80,140626,1,0,0:0:0:0:
192,80,140773,1,0,0:0:0:0:
328,80,140919,1,8,0:0:0:0:
328,80,141212,1,8,0:0:0:0:
192,80,141358,1,0,0:0:0:0:
352,288,141504,1,12,0:0:0:0:
192,80,141797,1,0,0:0:0:0:
328,80,142090,1,8,0:0:0:0:
192,80,142236,1,0,0:0:0:0:
192,80,142529,1,0,0:0:0:0:
328,80,142675,1,8,0:0:0:0:
192,80,142968,1,0,0:0:0:0:
192,80,143041,1,0,0:0:0:0:
192,80,143114,1,0,0:0:0:0:
328,80,143260,1,8,0:0:0:0:
328,80,143553,1,8,0:0:0:0:
328,80,143846,1,8,0:0:0:0:
192,80,144041,1,0,0:0:0:0:
192,80,144236,1,0,0:0:0:0:
328,80,144431,1,8,0:0:0:0:
192,80,144626,1,0,0:0:0:0:
192,80,144821,1,0,0:0:0:0:
328,80,145016,1,8,0:0:0:0:
328,80,145212,1,8,0:0:0:0:
192,80,145407,1,0,0:0:0:0:
328,80,145602,1,8,0:0:0:0:
192,80,145895,1,0,0:0:0:0:
328,80,146192,1,8,0:0:0:0:
328,80,146270,1,8,0:0:0:0:
328,80,146349,1,8,0:0:0:0:
328,80,146507,1,8,0:0:0:0:
328,80,146823,1,8,0:0:0:0:
328,80,147139,1,8,0:0:0:0:
328,80,147455,1,8,0:0:0:0:
328,80,147534,1,8,0:0:0:0:
328,80,147613,1,8,0:0:0:0:
328,80,147770,1,8,0:0:0:0:
328,80,148086,1,8,0:0:0:0:
328,80,148402,1,8,0:0:0:0:
328,80,148718,1,8,0:0:0:0:
328,80,148797,1,8,0:0:0:0:
328,80,148876,1,8,0:0:0:0:
328,80,149034,1,8,0:0:0:0:
328,80,149349,1,8,0:0:0:0:
328,80,149665,1,8,0:0:0:0:
328,80,149981,1,8,0:0:0:0:
328,80,150060,1,8,0:0:0:0:
328,80,150139,1,8,0:0:0:0:
328,80,150297,1,8,0:0:0:0:
328,80,150613,1,8,0:0:0:0:
328,80,150928,1,8,0:0:0:0:
328,80,151244,1,8,0:0:0:0:
328,80,151323,1,8,0:0:0:0:
328,80,151402,1,8,0:0:0:0:
328,80,151560,1,8,0:0:0:0:
328,80,151718,1,8,0:0:0:0:
328,80,151876,1,8,0:0:0:0:
328,80,152192,1,8,0:0:0:0:
328,80,152507,1,8,0:0:0:0:
328,80,152586,1,8,0:0:0:0:
328,80,152665,1,8,0:0:0:0:
328,80,152823,1,8,0:0:0:0:
328,80,152981,1,8,0:0:0:0:
328,80,153139,1,8,0:0:0:0:
328,80,153455,1,8,0:0:0:0:
192,80,153770,1,0,0:0:0:0:
192,80,153849,1,0,0:0:0:0:
192,80,153928,1,0,0:0:0:0:
328,80,154244,1,8,0:0:0:0:
328,80,154323,1,8,0:0:0:0:
328,80,154402,1,8,0:0:0:0:
192,80,154718,1,0,0:0:0:0:
192,80,154797,1,0,0:0:0:0:
192,80,154876,1,0,0:0:0:0:
328,80,155192,1,8,0:0:0:0:
328,80,155270,1,8,0:0:0:0:
328,80,155349,1,8,0:0:0:0:
192,80,155665,1,0,0:0:0:0:
192,80,155744,1,0,0:0:0:0:
192,80,155823,1,0,0:0:0:0:
352,288,155981,1,12,0:0:0:0:
160,288,156297,1,4,0:0:0:0:
192,80,156770,1,0,0:0:0:0:
328,80,156928,1,8,0:0:0:0:
192,80,157560,1,0,0:0:0:0:
192,80,157718,1,0,0:0:0:0:
192,80,158034,1,0,0:0:0:0:
328,80,158192,1,8,0:0:0:0:
192,80,158823,1,0,0:0:0:0:
328,80,159139,1,8,0:0:0:0:
192,80,159297,1,0,0:0:0:0:
328,80,159613,1,8,0:0:0:0:
192,80,159770,1,0,0:0:0:0:
328,80,160086,1,8,0:0:0:0:
192,80,160244,1,0,0:0:0:0:
328,80,160402,1,8,0:0:0:0:
328,80,160718,1,8,0:0:0:0:
192,80,160876,1,0,0:0:0:0:
328,80,161034,1,8,0:0:0:0:
160,288,161349,1,4,0:0:0:0:
192,80,161823,1,0,0:0:0:0:
328,80,161981,1,8,0:0:0:0:
192,80,162297,1,0,0:0:0:0:
192,80,162613,1,0,0:0:0:0:
192,80,162770,1,0,0:0:0:0:
192,80,163086,1,0,0:0:0:0:
328,80,163244,1,8,0:0:0:0:
192,80,163560,1,0,0:0:0:0:
192,80,163876,1,0,0:0:0:0:
328,80,164192,1,8,0:0:0:0:
192,80,164349,1,0,0:0:0:0:
328,80,164665,1,8,0:0:0:0:
192,80,164823,1,0,0:0:0:0:
328,80,165139,1,8,0:0:0:0:
192,80,165297,1,0,0:0:0:0:
328,80,165455,1,8,0:0:0:0:
328,80,165613,1,8,0:0:0:0:
352,288,165770,1,12,0:0:0:0:
328,80,166086,1,8,0:0:0:0:
192,80,166402,1,0,0:0:0:0:
192,80,166481,1,0,0:0:0:0:
192,80,166560,1,0,0:0:0:0:
192,80,166718,1,0,0:0:0:0:
328,80,167034,1,8,0:0:0:0:
328,80,167349,1,8,0:0:0:0:
328,80,167665,1,8,0:0:0:0:
328,80,167744,1,8,0:0:0:0:
328,80,167823,1,8,0:0:0:0:
328,80,167981,1,8,0:0:0:0:
328,80,168297,1,8,0:0:0:0:
192,80,168613,1,0,0:0:0:0:
192,80,168928,1,0,0:0:0:0:
328,80,169244,1,8,0:0:0:0:
192,80,169402,1,0,0:0:0:0:
328,80,169560,1,8,0:0:0:0:
192,80,169876,1,0,0:0:0:0:
192,80,169955,1,0,0:0:0:0:
192,80,170034,1,0,0:0:0:0:
328,80,170192,1,8,0:0:0:0:
328,80,170507,1,8,0:0:0:0:
328,80,170586,1,8,0:0:0:0:
328,80,170665,1,8,0:0:0:0:
328,80,170823,1,8,0:0:0:0:
192,80,171139,1,0,0:0:0:0:
192,80,171455,1,0,0:0:0:0:
192,80,171534,1,0,0:0:0:0:
192,80,171613,1,0,0:0:0:0:
192,80,171770,1,0,0:0:0:0:
328,80,172086,1,8,0:0:0:0:
328,80,172402,1,8,0:0:0:0:
328,80,172718,1,8,0:0:0:0:
328,80,172797,1,8,0:0:0:0:
328,80,172876,1,8,0:0:0:0:
328,80,173034,1,8,0:0:0:0:
328,80,173349,1,8,0:0:0:0:
328,80,173665,1,8,0:0:0:0:
192,80,173823,1,0,0:0:0:0:
328,80,173981,1,8,0:0:0:0:
192,80,174297,1,0,0:0:0:0:
192,80,174455,1,0,0:0:0:0:
328,80,174613,1,8,0:0:0:0:
192,80,174770,1,0,0:0:0:0:
192,80,174849,1,0,0:0:0:0:
192,80,174928,1,0,0:0:0:0:
328,80,175244,1,8,0:0:0:0:
192,80,175402,1,0,0:0:0:0:
192,80,175481,1,0,0:0:0:0:
192,80,175560,1,0,0:0:0:0:
192,80,175718,1,0,0:0:0:0:
328,80,175876,1,8,0:0:0:0:
192,80,176192,1,0,0:0:0:0:
192,80,176270,1,0,0:0:0:0:
192,80,176349,1,0,0:0:0:0:
352,288,176507,1,12,0:0:0:0:
328,80,189385,5,8,0:0:0:0:
328,80,189531,1,8,0:0:0:0:
328,80,189677,1,8,0:0:0:0:
328,80,189970,1,8,0:0:0:0:
328,80,190116,1,8,0:0:0:0:
328,80,190263,1,8,0:0:0:0:
328,80,190555,1,8,0:0:0:0:
328,80,190702,1,8,0:0:0:0:
328,80,190848,1,8,0:0:0:0:
328,80,191141,1,8,0:0:0:0:
328,80,191287,1,8,0:0:0:0:
328,80,191433,1,8,0:0:0:0:
328,80,191726,1,8,0:0:0:0:
328,80,191872,1,8,0:0:0:0:
328,80,192019,1,8,0:0:0:0:
328,80,192165,1,8,0:0:0:0:
328,80,192311,1,8,0:0:0:0:
328,80,192604,1,8,0:0:0:0:
328,80,192750,1,8,0:0:0:0:
328,80,192897,1,8,0:0:0:0:
328,80,193043,1,8,0:0:0:0:
328,80,193189,1,8,0:0:0:0:
328,80,193482,1,8,0:0:0:0:
328,80,193628,1,8,0:0:0:0:
328,80,193775,1,8,0:0:0:0:
328,80,193921,1,8,0:0:0:0:
328,80,194067,1,8,0:0:0:0:
192,80,194360,1,0,0:0:0:0:
328,80,194653,1,8,0:0:0:0:
192,80,194946,1,0,0:0:0:0:
352,288,195238,1,12,0:0:0:0:
192,80,195531,1,0,0:0:0:0:
328,80,195824,1,8,0:0:0:0:
192,80,195970,1,0,0:0:0:0:
192,80,196263,1,0,0:0:0:0:
328,80,196409,1,8,0:0:0:0:
192,80,196702,1,0,0:0:0:0:
328,80,196994,1,8,0:0:0:0:
192,80,197141,1,0,0:0:0:0:
192,80,197433,1,0,0:0:0:0:
328,80,197580,1,8,0:0:0:0:
192,80,197872,1,0,0:0:0:0:
328,80,198165,1,8,0:0:0:0:
192,80,198311,1,0,0:0:0:0:
192,80,198604,1,0,0:0:0:0:
328,80,198750,1,8,0:0:0:0:
192,80,199043,1,0,0:0:0:0:
192,80,199189,1,0,0:0:0:0:
328,80,199336,1,8,0:0:0:0:
328,80,199628,1,8,0:0:0:0:
192,80,199775,1,0,0:0:0:0:
160,288,199921,1,4,0:0:0:0:
192,80,200214,1,0,0:0:0:0:
328,80,200506,1,8,0:0:0:0:
192,80,200653,1,0,0:0:0:0:
192,80,200946,1,0,0:0:0:0:
328,80,201092,1,8,0:0:0:0:
192,80,201385,1,0,0:0:0:0:
328,80,201677,1,8,0:0:0:0:
192,80,201824,1,0,0:0:0:0:
192,80,202116,1,0,0:0:0:0:
328,80,202263,1,8,0:0:0:0:
192,80,202555,1,0,0:0:0:0:
328,80,202848,1,8,0:0:0:0:
192,80,202994,1,0,0:0:0:0:
192,80,203287,1,0,0:0:0:0:
328,80,203433,1,8,0:0:0:0:
192,80,203726,1,0,0:0:0:0:
192,80,203872,1,0,0:0:0:0:
352,288,204019,1,12,0:0:0:0:
328,80,204311,1,8,0:0:0:0:
192,80,204458,1,0,0:0:0:0:
352,288,204604,1,12,0:0:0:0:
192,80,204897,1,0,0:0:0:0:
328,80,205189,1,8,0:0:0:0:
192,80,205336,1,0,0:0:0:0:
192,80,205628,1,0,0:0:0:0:
328,80,205775,1,8,0:0:0:0:
192,80,206067,1,0,0:0:0:0:
328,80,206360,1,8,0:0:0:0:
192,80,206506,1,0,0:0:0:0:
192,80,206799,1,0,0:0:0:0:
328,80,206946,1,8,0:0:0:0:
192,80,207238,1,0,0:0:0:0:
328,80,207531,1,8,0:0:0:0:
192,80,207677,1,0,0:0:0:0:
192,80,207970,1,0,0:0:0:0:
328,80,208116,1,8,0:0:0:0:
192,80,208409,1,0,0:0:0:0:
192,80,208555,1,0,0:0:0:0:
328,80,208702,1,8,0:0:0:0:
328,80,208994,1,8,0:0:0:0:
192,80,209141,1,0,0:0:0:0:
352,288,209287,1,12,0:0:0:0:
192,80,209580,1,0,0:0:0:0:
328,80,209872,1,8,0:0:0:0:
192,80,210019,1,0,0:0:0:0:
192,80,210311,1,0,0:0:0:0:
328,80,210458,1,8,0:0:0:0:
192,80,210750,1,0,0:0:0:0:
328,80,211043,1,8,0:0:0:0:
328,80,211336,1,8,0:0:0:0:
328,80,211628,1,8,0:0:0:0:
328,80,211824,1,8,0:0:0:0:
192,80,212019,1,0,0:0:0:0:
328,80,212214,1,8,0:0:0:0:
328,80,212409,1,8,0:0:0:0:
192,80,212604,1,0,0:0:0:0:
328,80,212799,1,8,0:0:0:0:
328,80,212994,1,8,0:0:0:0:
192,80,213189,1,0,0:0:0:0:
328,80,213385,1,8,0:0:0:0:
328,80,213580,1,8,0:0:0:0:
192,80,213775,1,0,0:0:0:0:
328,80,213970,1,8,0:0:0:0:
192,80,214263,1,0,0:0:0:0:
192,80,214409,1,0,0:0:0:0:
328,80,214555,1,8,0:0:0:0:
192,80,214848,1,0,0:0:0:0:
328,80,215141,1,8,0:0:0:0:
328,80,215287,1,8,0:0:0:0:
192,80,215433,1,0,0:0:0:0:
192,80,215580,1,0,0:0:0:0:
328,80,215726,1,8,0:0:0:0:
328,80,216019,1,8,0:0:0:0:
192,80,216165,1,0,0:0:0:0:
328,80,216311,1,8,0:0:0:0:
328,80,216604,1,8,0:0:0:0:
192,80,216750,1,0,0:0:0:0:
328,80,216897,1,8,0:0:0:0:
192,80,217189,1,0,0:0:0:0:
328,80,217482,1,8,0:0:0:0:
192,80,217628,1,0,0:0:0:0:
328,80,217775,1,8,0:0:0:0:
328,80,218067,1,8,0:0:0:0:
328,80,218214,1,8,0:0:0:0:
328,80,218360,1,8,0:0:0:0:
328,80,218653,1,8,0:0:0:0:
192,80,218946,1,0,0:0:0:0:
192,80,219092,1,0,0:0:0:0:
328,80,219238,1,8,0:0:0:0:
192,80,219531,1,0,0:0:0:0:
328,80,219824,1,8,0:0:0:0:
328,80,220116,1,8,0:0:0:0:
192,80,220263,1,0,0:0:0:0:
192,80,220409,1,0,0:0:0:0:
328,80,220555,1,8,0:0:0:0:
192,80,220848,1,0,0:0:0:0:
328,80,220994,1,8,0:0:0:0:
328,80,221141,1,8,0:0:0:0:
192,80,221287,1,0,0:0:0:0:
328,80,221433,1,8,0:0:0:0:
192,80,221726,1,0,0:0:0:0:
328,80,221872,1,8,0:0:0:0:
328,80,222165,1,8,0:0:0:0:
192,80,222311,1,0,0:0:0:0:
192,80,222385,1,0,0:0:0:0:
192,80,222458,1,0,0:0:0:0:
352,288,222750,1,12,0:0:0:0:
192,80,223043,1,0,0:0:0:0:
192,80,223189,1,0,0:0:0:0:
352,288,223336,1,12,0:0:0:0:
192,80,223628,1,0,0:0:0:0:
192,80,223775,1,0,0:0:0:0:
328,80,223921,1,8,0:0:0:0:
192,80,224067,1,0,0:0:0:0:
328,80,224214,1,8,0:0:0:0:
328,80,224506,1,8,0:0:0:0:
192,80,224799,1,0,0:0:0:0:
328,80,224946,1,8,0:0:0:0:
328,80,225092,1,8,0:0:0:0:
192,80,225385,1,0,0:0:0:0:
328,80,225531,1,8,0:0:0:0:
328,80,225677,1,8,0:0:0:0:
192,80,225970,1,0,0:0:0:0:
328,80,226116,1,8,0:0:0:0:
328,80,226263,1,8,0:0:0:0:
192,80,226555,1,0,0:0:0:0:
192,80,226702,1,0,0:0:0:0:
328,80,226848,1,8,0:0:0:0:
192,80,226994,1,0,0:0:0:0:
328,80,227141,1,8,0:0:0:0:
192,80,227433,1,0,0:0:0:0:
328,80,227580,1,8,0:0:0:0:
192,80,227726,1,0,0:0:0:0:
192,80,227872,1,0,0:0:0:0:
352,288,228019,1,12,0:0:0:0:
192,80,228311,1,0,0:0:0:0:
328,80,228458,1,8,0:0:0:0:
328,80,228604,1,8,0:0:0:0:
192,80,228897,1,0,0:0:0:0:
328,80,229189,1,8,0:0:0:0:
192,80,229336,1,0,0:0:0:0:
328,80,229482,1,8,0:0:0:0:
192,80,229775,1,0,0:0:0:0:
192,80,229848,1,0,0:0:0:0:
192,80,229921,1,0,0:0:0:0:
192,80,230067,1,0,0:0:0:0:
328,80,230360,1,8,0:0:0:0:
328,80,230653,1,8,0:0:0:0:
328,80,230946,1,8,0:0:0:0:
192,80,231092,1,0,0:0:0:0:
192,80,231238,1,0,0:0:0:0:
328,80,231531,1,8,0:0:0:0:
328,80,231603,1,8,0:0:0:0:
328,80,231676,1,8,0:0:0:0:
192,80,231822,1,0,0:0:0:0:
328,80,232113,1,8,0:0:0:0:
192,80,232259,1,0,0:0:0:0:
192,80,232331,1,0,0:0:0:0:
192,80,232404,1,0,0:0:0:0:
192,80,232550,1,0,0:0:0:0:
328,80,232696,1,8,0:0:0:0:
352,288,232987,1,12,0:0:0:0:
352,288,233284,1,12,0:0:0:0:
352,288,233748,1,12,0:0:0:0:
352,288,234063,1,12,0:0:0:0:
328,80,234457,1,8,0:0:0:0:
328,80,234530,1,8,0:0:0:0:
328,80,234604,1,8,0:0:0:0:
192,80,234751,1,0,0:0:0:0:
192,80,234898,1,0,0:0:0:0:
328,80,235045,1,8,0:0:0:0:
192,80,235336,1,0,0:0:0:0:
328,80,235628,1,8,0:0:0:0:
192,80,235823,1,0,0:0:0:0:
192,80,236018,1,0,0:0:0:0:
328,80,236212,1,8,0:0:0:0:
192,80,236407,1,0,0:0:0:0:
192,80,236602,1,0,0:0:0:0:
328,80,236796,1,8,0:0:0:0:
