osu file format v14

[General]
AudioFilename: audio.mp3
AudioLeadIn: 0
PreviewTime: 107096
Countdown: 0
SampleSet: Normal
StackLeniency: 0.3
Mode: 0
LetterboxInBreaks: 0
WidescreenStoryboard: 1

[Editor]
Bookmarks: 150005
DistanceSpacing: 0.8
BeatDivisor: 8
GridSize: 4
TimelineZoom: 1.4

[Metadata]
Title:Coffee Syrup
TitleUnicode:Coffee Syrup
Artist:Arca & Limpid
ArtistUnicode:あるか & Limpid
Creator:NyarkoO
Version:Salted Caramel (1/8 Slider Jump Nerf)
Source:
Tags:SuZuKi4 Ki4-Fu3 YOU X NEOWIZ Music Festival Japanese Future Bass X enc'ount
BeatmapID:2015201
BeatmapSetID:944203

[Difficulty]
HPDrainRate:4.5
CircleSize:4.2
OverallDifficulty:8
ApproachRate:9.4
SliderMultiplier:2.8
SliderTickRate:1

[Events]
//Background and Video events
0,0,"BG.png",0,0
//Break Periods
//Storyboard Layer 0 (Background)
//Storyboard Layer 1 (Fail)
//Storyboard Layer 2 (Pass)
//Storyboard Layer 3 (Foreground)
//Storyboard Sound Samples

[TimingPoints]
1460,363.636363636364,4,2,1,20,1,0
1460,-200,4,2,1,20,0,0
7278,-166.666666666667,4,2,1,25,0,0
7914,-166.666666666667,4,2,1,35,0,0
8732,-142.857142857143,4,2,1,50,0,0
9460,-142.857142857143,4,2,1,55,0,0
10187,-125,4,2,1,60,0,0
11641,-111.111111111111,4,2,1,65,0,0
12005,-125,4,2,1,70,0,0
12369,-142.857142857143,4,2,1,75,0,0
12732,-200,4,2,1,60,0,0
12891,-100,4,2,1,85,0,0
12960,-133.333333333333,4,2,1,70,0,0
13096,-66.6666666666667,4,2,1,75,0,1
13278,-66.6666666666667,4,2,1,75,0,0
13369,-66.6666666666667,4,2,1,75,0,1
13550,-66.6666666666667,4,2,1,75,0,0
13641,-72.992700729927,4,2,1,75,0,1
13823,-227.272727272727,4,2,1,50,0,0
14550,-80,4,2,1,70,0,1
14732,-80,4,2,1,70,0,0
14823,-80,4,2,1,70,0,1
15005,-80,4,2,1,70,0,0
15096,-80,4,2,1,70,0,1
15278,-200,4,2,1,35,0,0
16005,-66.6666666666667,4,2,1,75,0,1
16187,-66.6666666666667,4,2,1,75,0,0
16278,-66.6666666666667,4,2,1,75,0,1
16460,-66.6666666666667,4,2,1,75,0,0
16550,-80,4,2,1,75,0,1
16732,-200,4,2,1,50,0,0
17096,-200,4,2,1,50,0,0
17217,-100,4,2,1,50,0,0
17338,-66.6666666666667,4,2,1,50,0,0
17460,-57.1428571428571,4,2,1,80,0,1
17641,-57.1428571428571,4,2,1,80,0,0
17732,-57.1428571428571,4,2,1,80,0,1
17914,-57.1428571428571,4,2,1,80,0,0
18005,-57.1428571428571,4,2,1,80,0,1
18187,-200,4,2,1,50,0,0
18914,-66.6666666666667,4,2,1,75,0,1
19096,-66.6666666666667,4,2,1,75,0,0
19187,-66.6666666666667,4,2,1,75,0,1
19369,-66.6666666666667,4,2,1,75,0,0
19460,-72.992700729927,4,2,1,75,0,1
19641,-200,4,2,1,50,0,0
20369,-80,4,2,1,70,0,1
20550,-80,4,2,1,70,0,0
20641,-80,4,2,1,70,0,1
20823,-80,4,2,1,70,0,0
20914,-80,4,2,1,70,0,1
21096,-200,4,2,1,50,0,0
21823,-66.6666666666667,4,2,1,75,0,1
22005,-66.6666666666667,4,2,1,75,0,0
22096,-66.6666666666667,4,2,1,75,0,1
22278,-66.6666666666667,4,2,1,75,0,0
22369,-86.9565217391304,4,2,1,75,0,1
22550,-200,4,2,1,50,0,0
22914,-200,4,2,1,50,0,0
23035,-100,4,2,1,50,0,0
23156,-66.6666666666667,4,2,1,50,0,0
23278,-57.1428571428571,4,2,1,80,0,1
23460,-57.1428571428571,4,2,1,80,0,0
23550,-56.8181818181818,4,2,1,80,0,1
23732,-56.8181818181818,4,2,1,80,0,0
23823,-56.8181818181818,4,2,1,80,0,1
24005,-200,4,2,1,40,0,0
24732,-133.333333333333,4,1,1,55,0,0
25096,-79.9999999999999,4,1,1,70,0,0
25278,-133.333333333333,4,1,1,55,0,0
26187,-133.333333333333,4,1,1,55,0,0
29096,-133.333333333333,4,1,1,60,0,0
29369,-66.6666666666667,4,1,1,60,0,0
29550,-133.333333333333,4,1,1,60,0,0
30550,-100,4,1,1,45,0,0
30732,-200,4,1,1,55,0,0
30914,-133.333333333333,4,1,1,55,0,0
31005,-133.333333333333,4,1,1,5,0,0
31096,-200,4,1,1,40,0,0
31187,-200,4,1,1,5,0,0
31278,-133.333333333333,4,1,1,60,0,0
31460,-100,4,1,1,70,0,0
31641,-200,4,1,1,55,0,0
32914,-100,4,1,1,65,0,0
33096,-133.333333333333,4,1,1,45,0,0
33460,-66.6666666666667,4,1,1,80,0,1
33823,-133.333333333333,4,1,1,40,0,0
34005,-79.9999999999999,4,1,1,74,0,1
34369,-153.846153846153,4,1,1,40,0,0
34550,-100,4,1,1,68,0,1
34914,-200,4,1,1,40,0,0
35096,-133.333333333333,4,1,1,62,0,1
35460,-222.222222222221,4,1,1,40,0,0
35641,-66.6666666666667,4,1,1,80,0,1
36005,-133.333333333333,4,1,1,60,0,0
36369,-200,4,2,2,40,0,0
42187,-200,4,2,2,30,0,0
42914,-166.666666666667,4,2,2,35,0,0
43641,-133.333333333333,4,2,2,40,0,0
44369,-100,4,2,2,45,0,0
45096,-80,4,2,2,46,0,0
45278,-76.9230769230769,4,2,2,47,0,0
45460,-74.0740740740741,4,2,2,48,0,0
45641,-71.4285714285714,4,2,2,49,0,0
45823,-68.9655172413793,4,2,2,50,0,0
46005,-66.6666666666667,4,2,2,51,0,0
46187,-64.5161290322581,4,2,2,52,0,0
46369,-62.5,4,2,2,53,0,0
46550,-1000,4,2,2,40,0,0
47278,-200,4,2,1,60,0,0
47641,-200,4,2,1,40,0,0
48005,-80,4,1,3,75,0,1
48096,-80,4,1,2,75,0,1
50914,-133.333333333333,4,1,2,45,0,1
51278,-66.6666666666667,4,1,2,45,0,1
51323,-66.6666666666667,4,1,2,5,0,1
51369,-200,4,1,2,45,0,1
51641,-80,4,1,2,75,0,1
56187,-80,4,1,2,5,0,1
56278,-80,4,1,2,75,0,1
56460,-80,4,1,2,5,0,1
56551,-80,4,1,2,75,0,1
56732,-66.6666666666667,4,1,2,80,0,1
57823,-62.5,4,1,2,85,0,1
59096,-62.5,4,1,2,5,0,1
59187,-62.5,4,1,2,85,0,1
59369,-62.5,4,1,2,5,0,1
59460,-62.5,4,1,2,85,0,0
59641,-80,4,1,3,75,0,1
59732,-80,4,1,2,75,0,1
62550,-133.333333333333,4,1,2,75,0,1
62914,-66.6666666666667,4,1,2,75,0,1
62960,-66.6666666666667,4,1,2,5,0,1
63005,-200,4,1,2,75,0,1
63278,-80,4,1,2,75,0,1
68187,-40,4,1,2,75,0,1
68369,-80,4,1,2,75,0,1
69460,-100,4,1,2,75,0,1
69823,-80,4,1,2,75,0,1
70005,-80,4,1,1,75,0,1
70550,-133.333333333333,4,1,2,50,0,0
70914,-133.333333333333,4,1,1,35,0,0
70960,-133.333333333333,4,1,2,35,0,0
71278,-66.6666666666667,4,2,1,75,0,1
71460,-66.6666666666667,4,2,1,75,0,0
71550,-66.6666666666667,4,2,1,75,0,1
71732,-66.6666666666667,4,2,1,75,0,0
71823,-98.0392156862745,4,2,1,75,0,1
72005,-227.272727272727,4,2,1,50,0,0
72732,-80,4,2,1,70,0,1
72914,-80,4,2,1,70,0,0
73005,-80,4,2,1,70,0,1
73187,-80,4,2,1,70,0,0
73278,-80,4,2,1,70,0,1
73460,-200,4,2,1,35,0,0
74187,-66.6666666666667,4,2,1,75,0,1
74369,-66.6666666666667,4,2,1,75,0,0
74460,-66.6666666666667,4,2,1,75,0,1
74641,-66.6666666666667,4,2,1,75,0,0
74732,-72.992700729927,4,2,1,75,0,1
74914,-200,4,2,1,50,0,0
75278,-200,4,2,1,50,0,0
75399,-100,4,2,1,50,0,0
75520,-66.6666666666667,4,2,1,50,0,0
75641,-57.1428571428571,4,2,1,80,0,1
75823,-57.1428571428571,4,2,1,80,0,0
75914,-57.1428571428571,4,2,1,80,0,1
76096,-57.1428571428571,4,2,1,80,0,0
76187,-57.1428571428571,4,2,1,80,0,1
76369,-200,4,2,1,50,0,0
77096,-66.6666666666667,4,2,1,75,0,1
77278,-66.6666666666667,4,2,1,75,0,0
77369,-66.6666666666667,4,2,1,75,0,1
77550,-66.6666666666667,4,2,1,75,0,0
77641,-94.3396226415094,4,2,1,75,0,1
77823,-200,4,2,1,50,0,0
78550,-80,4,2,1,70,0,1
78732,-80,4,2,1,70,0,0
78823,-80,4,2,1,70,0,1
79005,-80,4,2,1,70,0,0
79096,-80,4,2,1,70,0,1
79278,-200,4,2,1,50,0,0
80005,-66.6666666666667,4,2,1,75,0,1
80187,-66.6666666666667,4,2,1,75,0,0
80278,-66.6666666666667,4,2,1,75,0,1
80460,-66.6666666666667,4,2,1,75,0,0
80550,-80,4,2,1,75,0,1
80732,-200,4,2,1,50,0,0
81096,-200,4,2,1,50,0,0
81217,-100,4,2,1,50,0,0
81338,-66.6666666666667,4,2,1,50,0,0
81460,-57.1428571428571,4,2,1,80,0,1
81641,-57.1428571428571,4,2,1,80,0,0
81732,-56.8181818181818,4,2,1,80,0,1
81914,-56.8181818181818,4,2,1,80,0,0
82005,-56.8181818181818,4,2,1,80,0,1
82187,-416.666666666667,4,2,1,30,0,0
82914,-200,4,2,1,30,0,0
83550,-200,4,2,1,5,0,0
83641,-200,4,2,1,30,0,0
85005,-200,4,2,1,5,0,0
85096,-200,4,2,1,30,0,0
86460,-200,4,2,1,5,0,0
86528,-200,4,2,1,30,0,0
88732,-400,4,2,1,30,0,0
89369,-400,4,2,1,5,0,0
89460,-200,4,2,1,40,0,0
90096,-200,4,2,1,5,0,0
90187,-133.333333333333,4,2,1,50,0,0
90823,-133.333333333333,4,2,1,5,0,0
90914,-100,4,2,1,60,0,0
91550,-100,4,2,1,5,0,0
91641,-66.6666666666667,4,1,1,80,0,1
92005,-133.333333333333,4,1,1,40,0,0
92187,-79.9999999999999,4,1,1,74,0,1
92550,-153.846153846153,4,1,1,40,0,0
92732,-100,4,1,1,68,0,1
93096,-200,4,1,1,40,0,0
93278,-133.333333333333,4,1,1,62,0,1
93641,-222.222222222221,4,1,1,40,0,0
93823,-66.6666666666667,4,1,1,80,0,1
94187,-133.333333333333,4,1,1,60,0,0
94550,-200,4,2,2,40,0,0
100369,-200,4,2,2,30,0,0
101823,-133.333333333333,4,2,2,35,0,0
102550,-100,4,2,2,40,0,0
103278,-80,4,2,2,45,0,0
104005,-80,4,2,2,50,0,0
104732,-400,4,2,2,20,0,0
105369,-400,4,2,2,5,0,0
105460,-400,4,2,2,20,0,0
106187,-200,4,2,2,30,0,0
106550,-200,4,1,1,30,0,0
106641,-200,4,2,2,30,0,0
107096,-200,4,1,1,30,0,0
107187,-200,4,2,2,50,0,0
107278,-80,4,1,1,50,0,0
107641,-80,4,1,3,100,0,1
107732,-80,4,1,1,80,0,1
110187,-100,4,1,1,80,0,1
110550,-80,4,1,1,80,0,1
113460,-133.333333333333,4,1,1,50,0,0
113823,-79.9999999999999,4,1,1,80,0,1
113914,-79.9999999999999,4,1,1,80,0,1
114914,-79.9999999999999,4,1,1,85,0,1
116369,-79.9999999999999,4,1,1,80,0,1
117096,-133.333333333333,4,1,1,80,0,1
117278,-79.9999999999999,4,1,1,80,0,1
117460,-133.333333333333,4,1,1,80,0,1
117642,-79.9999999999999,4,1,1,80,0,1
118914,-200,4,1,1,50,0,0
119278,-79.9999999999999,4,1,3,100,0,1
119369,-79.9999999999999,4,1,1,80,0,1
125096,-120.481927710843,4,1,1,50,0,0
125460,-79.9999999999999,4,1,1,80,0,1
126550,-79.9999999999999,4,1,1,85,0,1
128005,-79.9999999999999,4,1,1,80,0,1
129460,-133.333333333333,4,1,1,70,0,1
130550,-79.9999999999999,4,1,1,80,0,1
130914,-100,4,1,3,55,0,0
131278,-79.9999999999999,4,2,2,70,0,0
131369,-79.9999999999999,4,2,2,60,0,0
131641,-100,4,2,2,60,0,0
131732,-100,4,2,2,85,0,0
131823,-100,4,2,2,55,0,0
133641,-100,4,2,1,55,0,0
133823,-79.9999999999999,4,2,2,65,0,0
135278,-200,4,2,2,50,0,0
136369,-200,4,2,2,80,0,0
136460,-200,4,2,2,5,0,0
136550,-200,4,2,2,80,0,0
136641,-200,4,2,2,5,0,0
136732,-200,4,1,1,70,0,0
137096,-66.6666666666667,4,1,1,100,0,1
137187,-66.6666666666667,4,1,1,85,0,1
137641,-100,4,1,1,85,0,1
137823,-66.6666666666667,4,1,1,85,0,1
138187,-74.0740740740741,4,1,1,85,0,1
141460,-100,4,1,1,85,0,1
141823,-74.0740740740741,4,1,1,85,0,1
142187,-100,4,2,1,85,0,0
142278,-100,4,1,1,60,0,0
142550,-66.6666666666667,4,1,3,85,0,1
142641,-66.6666666666667,4,1,1,85,0,1
142914,-74.0740740740741,4,1,1,85,0,1
145096,-100,4,1,1,85,0,1
145460,-74.0740740740741,4,1,1,85,0,1
148369,-100,4,1,1,85,0,0
148732,-74.0740740740741,4,1,1,100,0,1
148823,-74.0740740740741,4,1,1,65,0,1
149278,-74.0740740740741,4,1,3,85,0,1
149369,-74.0740740740741,4,1,1,65,0,1
149641,-74.0740740740741,4,1,3,85,0,1
149732,-74.0740740740741,4,1,1,65,0,1
149823,-74.0740740740741,4,1,1,68,0,1
150732,-74.0740740740741,4,1,3,85,0,1
150823,-74.0740740740741,4,1,1,65,0,1
151096,-74.0740740740741,4,1,3,85,0,1
151187,-74.0740740740741,4,1,1,65,0,1
151278,-66.6666666666667,4,1,1,71,0,1
152005,-66.6666666666667,4,1,1,74,0,1
152187,-66.6666666666667,4,1,3,85,0,1
152232,-66.6666666666667,4,1,1,74,0,1
152550,-66.6666666666667,4,1,3,85,0,1
152595,-66.6666666666667,4,1,1,74,0,1
152732,-100,4,1,2,100,0,1
152823,-100,4,3,4,65,0,1
153460,-57.1428571428571,4,1,2,80,0,1
153732,-66.6666666666667,4,1,2,70,0,1
154005,-80,4,1,2,60,0,1
154187,-666.666666666667,4,2,1,45,0,0
154460,-666.666666666667,4,2,1,5,0,0
156278,-666.666666666667,4,2,1,5,0,0
156369,-666.666666666667,4,2,1,10,0,0
156732,-666.666666666667,4,2,1,10,0,0
156823,-666.666666666667,4,2,1,10,0,0
156914,-666.666666666667,4,2,1,10,0,0
157005,-666.666666666667,4,2,1,10,0,0

[Colours]
Combo1 : 240,160,107
Combo2 : 96,104,181
Combo3 : 164,123,163
Combo4 : 172,116,115

[HitObjects]
96,120,1460,6,0,P|120:96|220:88,1,140,2|0,0:0|0:0,0:0:0:0:
247,189,2005,2,0,P|212:194|179:183,1,70,2|8,0:0|0:0,0:0:0:0:
304,120,2369,1,0,0:0:0:0:
340,200,2550,2,0,L|336:272,1,70,2|0,0:0|0:0,0:0:0:0:
332,352,2914,5,2,0:0:0:0:
332,352,3096,1,0,0:0:0:0:
264,304,3278,2,0,L|192:312,1,70
116,344,3641,2,0,L|46:336,1,70,8|0,0:0|0:0,0:0:0:0:
4,264,4005,1,0,0:0:0:0:
4,264,4187,1,0,0:0:0:0:
12,180,4369,6,0,P|24:148|116:108,1,140,2|0,0:0|0:0,0:0:0:0:
170,181,4914,2,0,P|140:197|105:199,1,70,2|8,0:0|0:0,0:0:0:0:
216,100,5278,1,0,0:0:0:0:
268,172,5460,2,0,L|264:244,1,70,2|0,0:0|0:0,0:0:0:0:
256,352,5823,5,2,0:0:0:0:
256,352,6005,1,0,0:0:0:0:
171,324,6187,1,0,0:0:0:0:
171,324,6369,1,0,0:0:0:0:
336,300,6550,2,0,L|408:288,1,70,10|0,0:0|0:0,0:0:0:0:
468,368,6914,2,0,L|398:379,1,70,2|2,0:0|0:0,0:0:0:0:
256,352,7277,5,2,0:0:0:0:
232,342,7460,1,0,0:0:0:0:
199,310,7641,1,0,0:0:0:0:
186,263,7823,1,2,0:0:0:0:
226,188,8005,1,10,0:0:0:0:
336,148,8187,1,2,0:0:0:0:
440,216,8369,1,2,0:0:0:0:
464,344,8550,1,2,0:0:0:0:
323,375,8732,6,0,P|315:335|331:279,1,97.9999970092774,2|2,0:0|0:0,0:0:0:0:
444,121,9096,2,0,P|453:169|440:216,1,97.9999970092774,2|2,0:0|0:0,0:0:0:0:
416,340,9460,1,10,0:0:0:0:
416,340,9641,1,2,0:0:0:0:
224,316,9823,1,2,0:0:0:0:
330,281,10005,1,2,0:0:0:0:
304,376,10187,5,2,0:0:0:0:
280,192,10369,1,2,0:0:0:0:
420,260,10550,2,0,P|421:314|387:358,1,112,2|2,0:0|0:0,0:0:0:0:
140,212,10914,1,10,0:0:0:0:
330,281,11096,1,2,0:0:0:0:
144,384,11278,1,2,0:0:0:0:
280,192,11460,1,2,0:0:0:0:
387,358,11641,6,0,P|329:380|271:357,1,125.999996154785,2|2,0:0|0:0,0:0:0:0:
233,100,12005,2,0,P|274:137|280:192,1,112,2|2,0:0|0:0,0:0:0:0:
56,376,12369,2,0,P|66:329|104:301,1,97.9999970092774,10|2,0:0|0:0,0:0:0:0:
404,223,12732,6,0,L|396:259,1,35,2|2,0:0|0:0,0:0:0:0:
368,371,12891,1,2,0:0:0:0:
294,330,12960,2,0,P|306:304|326:290,1,52.5000020027161,2|0,0:0|0:0,0:0:0:0:
294,330,13096,6,0,B|252:282|195:314|195:314|144:342|105:301,1,210.000008010865,14|0,0:3|0:0,0:0:0:0:
105,301,13369,2,0,B|153:266|201:314|201:314|243:357|294:330,1,210.000008010865,14|0,0:3|0:0,0:0:0:0:
294,330,13641,2,0,B|105:301,1,191.800005414276,14|10,0:3|0:0,0:0:0:0:
0,269,14005,6,2,B|33:233|33:233|47:288|6:329,1,154.000004699707,10|0,0:0|0:0,0:0:0:0:
60,377,14550,6,0,P|98:322|104:217,1,175,14|0,0:3|0:0,0:0:0:0:
77,141,14823,2,0,P|115:196|125:302,1,175,14|0,0:3|0:0,0:0:0:0:
177,383,15096,2,0,P|198:335|205:293,1,87.5,14|0,0:3|0:0,0:0:0:0:
249,180,15278,6,0,L|250:197,4,17.5,2|0|2|0|2,0:0|0:0|0:0|0:0|0:0,0:0:0:0:
251,211,15550,2,2,B|277:208|277:208|289:192|289:192|316:219|316:219|335:201|335:201|363:198,1,140
468,272,16005,6,0,B|498:233|504:177|504:177|483:124|432:101,1,210.000008010865,14|0,0:3|0:0,0:0:0:0:
432,101,16278,2,0,B|403:141|395:191|395:191|415:245|468:272,1,210.000008010865,14|0,0:3|0:0,0:0:0:0:
468,272,16550,2,0,L|432:101,1,175,14|2,0:3|0:0,0:0:0:0:
353,38,16793,6,0,P|339:36|323:36,4,23.3333333333333,2|2|2|2|2,0:0|0:0|0:0|0:0|0:0,0:0:0:0:
395,135,17096,6,0,L|399:157,1,23.3333333333333,2|2,0:0|0:0,0:0:0:0:
375,127,17217,6,0,L|383:172,1,46.6666666666667,2|2,0:0|0:0,0:0:0:0:
356,119,17338,6,0,L|368:186,1,70.0000026702882,2|2,0:0|0:0,0:0:0:0:
336,111,17460,6,0,B|350:193|350:193|423:222|423:222|436:304,1,245.000002336502,14|0,0:3|0:0,0:0:0:0:
370,311,17732,2,0,B|357:231|357:231|415:178|415:178|401:94,1,245.000002336502,14|0,0:3|0:0,0:0:0:0:
336,111,18005,2,0,B|355:53|355:53|401:94,1,122.500001168251,14|0,0:3|0:0,0:0:0:0:
336,111,18187,6,0,P|356:15|401:94,1,245,2|0,0:0|0:0,0:0:0:0:
400,192,18914,6,0,B|358:240|301:208|301:208|250:180|211:221,1,210.000008010865,14|0,0:3|0:0,0:0:0:0:
211,221,19187,2,0,B|259:256|307:208|307:208|349:165|400:192,1,210.000008010865,14|0,0:3|0:0,0:0:0:0:
400,192,19460,2,0,B|210:221,1,191.800005414276,14|10,0:3|0:0,0:0:0:0:
0,260,19823,6,2,B|41:294|41:294|163:299,1,175,10|0,0:0|0:0,0:0:0:0:
210,383,20369,6,0,B|242:301|242:301|210:221,1,175,14|0,0:3|0:0,0:0:0:0:
252,128,20641,2,0,B|220:210|220:210|252:290,1,175,14|0,0:3|0:0,0:0:0:0:
208,204,20914,2,0,L|240:120,1,87.5,14|0,0:3|0:0,0:0:0:0:
301,20,21096,6,0,L|284:24,4,17.5,2|0|2|0|2,0:0|0:0|0:0|0:0|0:0,0:0:0:0:
272,24,21369,2,2,P|305:84|368:117,1,140
488,228,21823,6,0,B|440:244|412:292|412:292|380:244|324:228,1,210.000008010865,14|0,0:3|0:0,0:0:0:0:
327,229,22096,2,0,B|386:226|409:170|409:170|436:226|496:229,1,210.000008010865,14|0,0:3|0:0,0:0:0:0:
488,228,22369,2,0,L|328:229,1,161.000003070831,14|0,0:3|0:0,0:0:0:0:
150,225,22611,6,0,P|152:238|158:253,4,23.3333333333333,2|2|2|2|2,0:0|0:0|0:0|0:0|0:0,0:0:0:0:
209,154,22914,6,0,L|221:135,1,23.3333333333333,2|2,0:0|0:0,0:0:0:0:
217,173,23035,6,0,L|243:135,1,46.6666666666667,2|2,0:0|0:0,0:0:0:0:
225,192,23156,6,0,L|263:136,1,70.0000026702882,2|2,0:0|0:0,0:0:0:0:
233,212,23278,6,0,B|253:186|253:186|264:181|264:181|264:170|264:170|281:144|281:144|249:71|249:71|270:44|270:44|270:35|270:35|279:32|279:32|298:4,1,245.000002336502,14|0,0:3|0:0,0:0:0:0:
293,11,23550,2,0,B|293:37|293:37|299:45|299:45|294:52|294:52|295:87|295:87|229:129|229:129|230:162|230:162|223:170|223:170|231:179|231:179|233:211,1,246.400007519531,14|0,0:3|0:0,0:0:0:0:
209,338,23823,2,0,B|213:313|213:313|241:290|241:290|274:308|274:308|281:331,1,123.200003759766,14|0,0:3|0:0,0:0:0:0:
209,338,24005,6,0,P|259:249|280:332,1,245,2|0,0:0|0:0,0:0:0:0:
277,337,24732,5,14,0:3:0:0:
146,380,24914,1,10,0:0:0:0:
106,253,25096,2,0,B|110:188|110:188|139:155|139:155|144:89,1,175,2|10,0:0|0:3,0:0:0:0:
30,53,25460,1,8,0:0:0:0:
28,72,25550,1,8,0:0:0:0:
27,92,25641,2,0,L|24:144,1,52.5000020027161,10|0,0:3|0:0,0:0:0:0:
16,228,25823,1,8,0:3:0:0:
8,360,26005,2,0,P|5:334|10:309,1,52.5000020027161,10|0,0:3|0:0,0:0:0:0:
116,280,26187,5,2,0:0:0:0:
120,296,26278,2,0,P|110:317|92:340,1,52.5000020027161,2|0,0:0|0:0,0:0:0:0:
111,188,26460,1,2,0:0:0:0:
184,216,26550,2,0,P|197:226|216:256,1,52.5000020027161,10|0,0:3|0:0,0:0:0:0:
256,356,26732,2,0,L|252:320,2,35.0000013351441,2|2|2,0:0|0:0|0:0,0:0:0:0:
260,368,26914,1,10,0:3:0:0:
324,188,27096,5,8,0:0:0:0:
296,260,27187,1,10,0:3:0:0:
320,264,27278,2,0,L|356:260,2,35.0000013351441,10|8|8,0:3|0:3|0:3,0:0:0:0:
208,240,27460,2,0,L|172:236,2,35.0000013351441,10|10|8,0:3|0:3|0:3,0:0:0:0:
296,192,27641,6,0,B|373:183|373:183|440:227,1,157.500006008148,10|10,0:3|0:3,0:0:0:0:
452,364,28005,1,2,0:0:0:0:
466,346,28096,2,0,L|468:292,1,52.5000020027161,2|8,0:0|0:3,0:0:0:0:
329,296,28278,2,0,L|376:320,1,52.5000020027161,2|8,0:0|0:0,0:0:0:0:
468,212,28460,1,8,0:3:0:0:
444,204,28550,2,0,L|399:229,1,52.5000020027161,10|2,0:3|0:0,0:0:0:0:
244,312,28732,1,8,0:3:0:0:
236,332,28823,2,0,L|192:360,1,52.5000020027161,2|8,0:0|0:3,0:0:0:0:
72,336,29005,5,2,0:0:0:0:
116,268,29096,2,0,P|131:280|142:293,2,35.0000013351441,10|8|8,0:3|0:3|0:3,0:0:0:0:
48,228,29278,5,8,0:0:0:0:
36,208,29369,2,0,B|32:72|32:72|64:140,1,210.000008010865,2|0,0:0|0:0,0:0:0:0:
120,188,29641,6,0,P|136:164|136:120,1,52.5000020027161,2|0,0:0|0:0,0:0:0:0:
120,64,29823,2,0,L|100:16,2,35.0000013351441,10|10|10,0:0|0:3|0:3,0:0:0:0:
252,92,30096,2,0,P|224:80|196:84,1,52.5000020027161,10|10,0:3|0:3,0:0:0:0:
276,176,30278,1,8,0:3:0:0:
300,172,30369,2,0,P|320:156|328:144,2,35.0000013351441,10|10|10,0:3|0:3|0:3,0:0:0:0:
220,216,30550,6,0,P|276:208|340:292,1,140,10|8,0:3|0:0,0:0:0:0:
264,384,30914,6,0,P|260:360|264:316,1,52.5000020027161,2|0,0:0|0:0,0:0:0:0:
257,289,31096,2,0,L|260:324,1,35,10|0,0:3|0:0,0:0:0:0:
360,356,31278,5,8,0:0:0:0:
434,351,31369,1,8,0:0:0:0:
506,349,31460,2,0,B|520:348|536:331|536:331|514:325|503:332,1,70,10|2,0:3|0:0,0:0:0:0:
392,288,31641,6,0,L|395:218,1,70,10|10,0:3|0:3,0:0:0:0:
460,120,32005,6,0,L|464:144,2,23.3333333333333,10|10|8,0:3|0:3|0:3,0:0:0:0:
376,108,32187,2,0,L|380:84,2,23.3333333333333,8|10|8,0:3|0:3|0:3,0:0:0:0:
316,168,32369,2,0,L|280:176,1,35,10|0,0:3|0:0,0:0:0:0:
152,136,32550,1,2,0:0:0:0:
156,156,32641,1,2,0:0:0:0:
172,216,32732,2,0,L|180:252,1,35,2|8,0:0|0:3,0:0:0:0:
208,360,32914,2,0,P|256:336|276:304,1,70,8|2,0:0|0:0,0:0:0:0:
281,175,33096,5,2,0:0:0:0:
104,328,33278,1,10,0:3:0:0:
104,328,33369,1,2,0:0:0:0:
116,348,33460,6,0,P|48:264|152:112,1,315.000012016297,14|0,0:3|0:0,0:0:0:0:
156,120,33823,1,8,0:0:0:0:
402,221,34005,6,0,B|348:268|284:224|284:224|216:180|164:236,1,262.5,14|0,0:3|0:0,0:0:0:0:
160,248,34369,1,8,0:0:0:0:
356,20,34550,6,0,B|344:160|344:160|316:96,1,210,14|0,0:3|0:0,0:0:0:0:
316,84,34914,1,8,0:0:0:0:
472,20,35096,6,0,B|468:72|468:72|480:124|480:124|476:176,1,157.500006008148,14|0,0:3|0:0,0:0:0:0:
468,188,35460,1,8,0:0:0:0:
337,355,35641,6,0,B|340:270|401:220|401:220|463:281|452:365,1,315.000012016297,14|0,0:3|0:0,0:0:0:0:
337,355,36005,6,0,P|400:316|453:368,1,157.500006008148,2|0,0:0|0:0,0:0:0:0:
441,366,36369,6,0,L|368:372,1,70,14|0,0:0|0:0,0:0:0:0:
260,360,36732,2,0,L|187:366,1,70,10|0,0:0|0:0,0:0:0:0:
80,352,37096,1,8,0:0:0:0:
147,261,37278,1,0,0:0:0:0:
147,261,37369,2,0,L|181:258,1,35,2|10,0:0|0:0,0:0:0:0:
293,249,37641,1,2,0:0:0:0:
404,242,37823,5,8,0:0:0:0:
404,242,37914,2,0,L|408:172,1,70,2|0,0:0|0:0,0:0:0:0:
416,152,38187,2,0,L|420:82,1,70,10|0,0:0|0:0,0:0:0:0:
304,76,38550,2,0,L|234:72,1,70,10|2,0:0|0:0,0:0:0:0:
212,72,38823,2,0,L|208:140,1,35,2|8,0:0|0:0,0:0:0:0:
204,228,39096,1,2,0:0:0:0:
334,238,39278,6,0,L|406:242,1,70,10|0,0:0|0:0,0:0:0:0:
512,212,39641,1,10,0:0:0:0:
512,212,39732,2,0,L|508:280,1,35,2|0,0:0|0:0,0:0:0:0:
508,268,39914,2,0,L|504:336,1,35,2|8,0:0|0:0,0:0:0:0:
412,360,40187,2,0,L|340:356,1,70,2|8,0:0|0:0,0:0:0:0:
320,355,40460,2,0,L|252:351,1,35,2|0,0:0|0:0,0:0:0:0:
184,346,40641,5,2,0:0:0:0:
184,346,40732,2,0,L|188:274,1,70,10|0,0:0|0:0,0:0:0:0:
188,256,41005,2,0,L|184:188,1,35,2|8,0:0|0:0,0:0:0:0:
204,108,41278,1,2,0:0:0:0:
331,110,41460,2,0,L|327:182,1,70,10|0,0:0|0:0,0:0:0:0:
327,198,41733,2,0,L|331:266,1,35,2|8,0:0|0:0,0:0:0:0:
336,338,42006,1,2,0:0:0:0:
236,292,42187,5,14,0:0:0:0:
208,296,42278,1,0,0:0:0:0:
180,300,42369,1,0,0:0:0:0:
152,304,42460,1,0,0:0:0:0:
124,308,42550,2,0,L|88:304,3,35,10|0|0|0,0:0|0:0|0:0|0:0,0:0:0:0:
40,240,42914,5,10,0:0:0:0:
28,208,43005,1,0,0:0:0:0:
32,176,43096,1,0,0:0:0:0:
56,152,43187,1,10,0:0:0:0:
88,144,43278,1,8,0:0:0:0:
112,120,43369,1,0,0:0:0:0:
116,88,43460,1,10,0:0:0:0:
104,56,43550,1,0,0:0:0:0:
72,40,43641,6,0,L|20:44,3,52.5000020027161,8|2|8|0,0:0|0:0|0:0|0:0,0:0:0:0:
88,144,44005,2,0,L|84:196,1,52.5000020027161,10|0,0:0|0:0,0:0:0:0:
204,60,44187,2,0,L|208:112,1,52.5000020027161,8|0,0:0|0:0,0:0:0:0:
264,220,44369,5,10,0:0:0:0:
312,192,44460,1,0,0:0:0:0:
367,201,44550,1,8,0:0:0:0:
403,244,44641,1,2,0:0:0:0:
403,300,44732,1,8,0:0:0:0:
367,343,44823,1,0,0:0:0:0:
312,353,44914,1,10,0:0:0:0:
263,325,45005,1,0,0:0:0:0:
244,272,45096,5,14,0:0:0:0:
240,241,45187,2,0,L|283:246,1,43.75,8|0,0:0|0:0,0:0:0:0:
252,214,45278,2,0,L|284:246,1,45.4999979171754,8|0,0:0|0:0,0:0:0:0:
279,201,45369,2,0,L|284:246,1,45.4999979171754,8|0,0:0|0:0,0:0:0:0:
308,205,45460,2,0,L|284:244,1,47.2500001802444,10|0,0:0|0:0,0:0:0:0:
325,223,45551,2,0,L|284:245,1,47.2500001802444,10|0,0:0|0:0,0:0:0:0:
332,252,45641,2,0,L|283:245,1,48.9999985046387,8|0,0:0|0:0,0:0:0:0:
318,280,45732,2,0,L|283:245,1,48.9999985046387,10|0,0:0|0:0,0:0:0:0:
290,295,45823,6,8,L|283:243,1,50.7500015487671,12|2,0:0|0:0,0:0:0:0:
259,290,45914,2,8,L|283:245,1,50.7500015487671,8|2,0:0|0:0,0:0:0:0:
236,268,46005,2,8,L|283:246,1,52.5000020027161,8|2,0:0|0:0,0:0:0:0:
227,225,46096,2,8,L|279:230,1,52.5000020027161,10|2,0:0|0:0,0:0:0:0:
243,176,46187,2,8,L|281:214,1,54.2500004138947,8|2,0:0|0:0,0:0:0:0:
292,139,46278,2,8,L|297:193,1,54.2500004138947,10|2,0:0|0:0,0:0:0:0:
351,134,46369,2,8,L|317:180,1,56,8|2,0:0|0:0,0:0:0:0:
410,166,46460,2,8,L|356:169,1,54.2500004138947,10|2,0:0|0:0,0:0:0:0:
444,220,46550,5,8,0:0:0:0:
424,212,46641,2,0,L|384:200,1,42,2|0,0:0|0:0,0:0:0:0:
360,208,47278,6,0,L|328:216,1,17.5,2|2,0:0|0:0,0:0:0:0:
204,248,47460,1,10,0:0:0:0:
356,296,47641,5,10,0:0:0:0:
368,293,47732,1,2,0:0:0:0:
452,292,47823,1,10,0:0:0:0:
444,256,47914,1,10,0:0:0:0:
424,229,48005,6,0,P|384:209|340:213,1,87.5,14|0,0:3|0:0,0:0:0:0:
312,361,48187,2,0,P|352:381|396:377,1,87.5,2|0,0:0|0:0,0:0:0:0:
268,229,48369,2,0,P|248:269|252:313,1,87.5,2|0,0:0|0:0,0:0:0:0:
468,361,48550,2,0,P|488:321|484:277,1,87.5,2|0,0:0|0:0,0:0:0:0:
368,293,48732,1,10,0:0:0:0:
368,293,49096,6,0,B|389:254|389:254|371:215,1,87.5,10|0,0:3|0:0,0:0:0:0:
316,120,49278,2,0,B|279:94|279:94|239:108,1,87.5,2|0,0:0|0:0,0:0:0:0:
140,160,49460,2,0,B|115:196|115:196|129:236,1,87.5,2|0,0:0|0:0,0:0:0:0:
196,324,49642,2,0,B|232:349|232:349|272:335,1,87.5,2|0,0:0|0:0,0:0:0:0:
368,293,49823,6,0,L|456:297,1,87.5,10|0,0:3|0:0,0:0:0:0:
360,128,50005,2,0,L|312:202,1,87.5,2|0,0:0|0:0,0:0:0:0:
512,212,50187,2,0,L|471:133,1,87.5,10|0,0:0|0:0,0:0:0:0:
368,304,50369,2,0,L|456:308,1,87.5,2|0,0:0|0:0,0:0:0:0:
412,216,50550,1,10,0:3:0:0:
412,216,50732,1,2,0:3:0:0:
277,335,50914,5,10,0:3:0:0:
277,335,51096,2,0,L|280:400,2,35.0000013351441,2|2|2,0:0|0:0|0:0,0:0:0:0:
224,263,51278,2,0,P|218:237|222:211,1,52.5000020027161,2|0,0:0|0:0,0:0:0:0:
222,212,51641,6,0,B|243:149|319:158|319:158|401:166|432:93,1,262.5,10|0,0:0|0:0,0:0:0:0:
400,8,52005,2,0,P|364:32|344:70,1,87.5,10|0,0:3|0:0,0:0:0:0:
297,238,52187,2,0,P|300:281|323:318,1,87.5,2|0,0:0|0:0,0:0:0:0:
467,271,52369,2,0,P|429:252|386:253,1,87.5,2|0,0:0|0:0,0:0:0:0:
355,396,52550,2,0,P|390:372|407:332,1,87.5,2|0,0:0|0:0,0:0:0:0:
323,318,52732,6,0,B|239:326|239:326|160:292|160:292|67:302,1,262.5,10|0,0:3|0:0,0:0:0:0:
24,384,53096,2,0,L|40:208,1,175,10|8,0:0|0:3,0:0:0:0:
52,128,53369,2,0,L|68:301,1,175,2|0,0:3|0:0,0:0:0:0:
152,380,53641,2,0,L|160:284,1,87.5,10|0,0:3|0:0,0:0:0:0:
172,112,53823,6,0,P|212:128|256:124,1,87.5,10|0,0:3|0:0,0:0:0:0:
336,260,54005,2,0,P|295:243|252:247,1,87.5,2|0,0:0|0:0,0:0:0:0:
178,92,54187,2,0,P|211:117|256:124,1,87.5,2|0,0:0|0:0,0:0:0:0:
329,281,54369,2,0,P|293:253|251:246,1,87.5,2|0,0:0|0:0,0:0:0:0:
185,78,54550,1,10,0:0:0:0:
185,78,54914,6,0,P|214:109|255:124,1,87.5,10|0,0:3|0:0,0:0:0:0:
323,295,55096,2,0,P|293:263|252:248,1,87.5,2|0,0:0|0:0,0:0:0:0:
172,112,55278,2,0,P|212:128|256:124,1,87.5,2|0,0:0|0:0,0:0:0:0:
336,261,55460,2,0,P|295:244|252:248,1,87.5,2|0,0:0|0:0,0:0:0:0:
172,112,55641,1,10,0:3:0:0:
172,112,56005,6,0,P|241:83|317:139,1,175,10|0,0:0|0:0,0:0:0:0:
379,198,56278,2,0,P|300:224|236:169,1,175,2|0,0:0|0:0,0:0:0:0:
316,137,56550,2,0,P|361:112|437:136,1,87.5,2|0,0:0|0:0,0:0:0:0:
486,77,56732,6,0,B|490:129|490:129|470:177,1,105.000004005432,10|0,0:3|0:0,0:0:0:0:
361,298,56914,2,0,B|358:246|358:246|379:198,1,105.000004005432,2|0,0:0|0:0,0:0:0:0:
512,336,57096,2,0,B|468:364|468:364|416:370,1,105.000004005432,2|0,0:0|0:0,0:0:0:0:
181,364,57278,2,0,B|224:335|224:335|276:329,1,105.000004005432,2|0,0:0|0:0,0:0:0:0:
361,298,57460,1,10,0:0:0:0:
361,298,57823,6,0,B|352:276|349:251|349:251|356:228|387:199,1,112,10|0,0:3|0:0,0:0:0:0:
285,85,58005,2,0,B|293:106|296:131|296:131|289:154|258:183,1,112,2|0,0:0|0:0,0:0:0:0:
263,325,58187,2,0,B|277:306|297:292|297:292|321:286|361:298,1,112,2|0,0:0|0:0,0:0:0:0:
383,58,58369,2,0,B|368:76|348:90|348:90|324:96|284:84,1,112,2|0,0:0|0:0,0:0:0:0:
263,324,58550,1,10,0:3:0:0:
263,324,58914,6,0,B|149:318|149:318|189:214,1,224,10|0,0:0|0:0,0:0:0:0:
269,171,59187,2,0,B|383:177|383:177|343:281,1,224,10|0,0:3|0:0,0:0:0:0:
362,285,59460,2,0,L|401:181,1,112,10|2,0:3|0:0,0:0:0:0:
480,116,59641,6,0,P|492:160|480:200,1,87.5,14|0,0:3|0:0,0:0:0:0:
344,279,59823,2,0,P|331:320|343:362,1,87.5,2|0,0:0|0:0,0:0:0:0:
480,359,60005,2,0,P|492:318|480:277,1,87.5,2|0,0:0|0:0,0:0:0:0:
343,195,60187,2,0,P|331:154|344:113,1,87.5,2|0,0:0|0:0,0:0:0:0:
412,40,60369,1,10,0:0:0:0:
412,320,60550,1,2,0:0:0:0:
472,197,60732,6,0,P|484:155|472:114,1,87.5,10|0,0:3|0:0,0:0:0:0:
368,115,60914,2,0,P|346:77|308:56,1,87.5,2|0,0:0|0:0,0:0:0:0:
212,92,61096,2,0,P|170:80|128:92,1,87.5,2|0,0:0|0:0,0:0:0:0:
130,196,61278,2,0,P|92:217|71:255,1,87.5,2|0,0:0|0:0,0:0:0:0:
240,304,61460,6,0,P|240:260|217:223,1,87.5,10|0,0:3|0:0,0:0:0:0:
88,344,61641,2,0,P|125:365|168:365,1,87.5,2|0,0:0|0:0,0:0:0:0:
218,224,61823,2,0,P|182:199|138:195,1,87.5,10|0,0:0|0:0,0:0:0:0:
168,365,62005,2,0,P|208:350|235:316,1,87.5,2|0,0:0|0:0,0:0:0:0:
52,204,62187,2,0,P|28:260|60:368,1,175,10|2,0:3|0:0,0:0:0:0:
152,280,62550,5,10,0:3:0:0:
152,280,62732,2,0,L|156:244,2,35.0000013351441,2|2|2,0:0|0:0|0:0,0:0:0:0:
236,316,62914,6,0,B|238:298|238:298|231:284|231:284|233:265,1,52.5000020027161,2|0,0:0|0:0,0:0:0:0:
235,249,63096,1,2,0:0:0:0:
235,249,63278,6,0,B|234:201|269:145|344:154|392:176|377:271|307:248,1,262.5,10|0,0:0|0:0,0:0:0:0:
156,245,63641,2,0,P|163:193|182:153,1,87.5,10|0,0:3|0:0,0:0:0:0:
249,103,63823,2,0,P|300:91|344:95,1,87.5,2|0,0:0|0:0,0:0:0:0:
416,141,64005,1,2,0:0:0:0:
167,75,64187,1,2,0:0:0:0:
416,141,64369,6,0,P|436:189|441:233,1,87.5,10|2,0:3|0:0,0:0:0:0:
426,318,64550,1,2,0:0:0:0:
426,318,64732,2,0,B|387:285|344:308|344:308|303:330|262:305,1,175,10|10,0:0|0:3,0:0:0:0:
221,241,65005,2,0,P|238:322|318:345,1,175,2|0,0:0|0:0,0:0:0:0:
304,245,65278,2,0,P|297:202|268:169,1,87.5,10|0,0:3|0:0,0:0:0:0:
56,164,65460,6,0,L|61:251,1,87.5,10|0,0:3|0:0,0:0:0:0:
68,348,65641,2,0,L|140:300,1,87.5,2|0,0:0|0:0,0:0:0:0:
221,241,65823,2,0,L|143:201,1,87.5,2|0,0:0|0:0,0:0:0:0:
39,165,66005,2,0,L|44:252,1,87.5,2|0,0:0|0:0,0:0:0:0:
68,370,66187,1,10,0:0:0:0:
90,355,66277,1,0,0:0:0:0:
112,341,66368,1,0,0:0:0:0:
134,327,66459,1,0,0:0:0:0:
156,313,66550,6,0,P|197:339|234:340,1,87.5,10|0,0:3|0:0,0:0:0:0:
316,367,66732,2,0,P|318:318|299:283,1,87.5,2|0,0:0|0:0,0:0:0:0:
280,198,66914,2,0,P|236:220|217:252,1,87.5,2|0,0:0|0:0,0:0:0:0:
149,331,67096,2,0,P|190:357|227:358,1,87.5,2|0,0:0|0:0,0:0:0:0:
340,372,67278,1,10,0:3:0:0:
343,346,67368,1,0,0:0:0:0:
341,320,67459,1,0,0:0:0:0:
332,295,67550,1,0,0:0:0:0:
317,274,67641,6,0,P|324:214|232:207,1,175,10|0,0:0|0:0,0:0:0:0:
131,245,67914,2,0,P|202:279|231:206,1,175,2|0,0:0|0:0,0:0:0:0:
246,99,68187,6,0,P|183:145|232:207,1,175,2|2,0:0|0:0,0:0:0:0:
324,181,68369,6,0,P|331:162|332:139,14,43.75,10|2|2|2|2|2|2|2|2|2|2|2|2|2|2,0:3|0:0|0:0|0:0|0:0|0:0|0:0|0:0|0:0|0:0|0:0|0:0|0:0|0:0|0:0,0:0:0:0:
326,61,69096,2,0,P|319:43|303:25,1,43.75,10|2,0:0|0:0,0:0:0:0:
271,31,69187,2,0,P|253:23|229:21,1,43.75,2|2,0:0|0:0,0:0:0:0:
201,39,69278,2,0,P|174:50|155:72,2,58.3333333333333,2|2|2,0:0|0:0|0:0,0:0:0:0:
208,147,69460,6,0,P|177:163|142:164,1,70,10|0,0:3|0:0,0:0:0:0:
326,61,69641,2,0,P|363:63|391:78,1,70,2|0,0:0|0:0,0:0:0:0:
441,168,69823,6,0,B|421:253,1,87.5,2|2,0:0|0:0,0:0:0:0:
354,307,70005,1,10,0:0:0:0:
431,337,70096,2,0,P|458:330|471:322,1,43.75,2|0,0:0|0:0,0:0:0:0:
431,337,70187,6,0,P|388:333|353:306,1,87.5,2|0,0:0|0:0,0:0:0:0:
420,253,70369,1,10,0:3:0:0:
445,246,70460,1,10,0:3:0:0:
300,358,70550,6,2,L|304:250,1,105.000004005432,2|10,0:0|0:0,0:0:0:0:
232,140,70914,6,0,P|229:127|224:115,1,26.2500010013581,10|0,0:0|0:0,0:0:0:0:
140,184,71096,2,0,P|152:187|165:189,1,26.2500010013581,10|0,0:0|0:0,0:0:0:0:
187,43,71278,6,0,P|91:34|72:128,1,210.000008010865,14|0,0:3|0:0,0:0:0:0:
72,128,71550,2,0,P|167:137|187:43,1,210.000008010865,14|0,0:3|0:0,0:0:0:0:
187,43,71823,2,0,L|72:128,1,142.800000871582,14|8,0:3|0:0,0:0:0:0:
72,252,72187,6,0,B|103:322|103:322|131:252,1,154.000004699707,10|0,0:0|0:0,0:0:0:0:
136,236,72732,6,0,B|216:196|216:196|296:236,1,175,14|0,0:3|0:0,0:0:0:0:
292,234,73005,2,0,B|217:275|217:275|132:234,1,175,14|0,0:3|0:0,0:0:0:0:
122,226,73278,2,0,L|199:186,1,87.5,14|0,0:3|0:0,0:0:0:0:
309,133,73460,6,0,L|326:135,4,17.5,2|0|2|0|2,0:0|0:0|0:0|0:0|0:0,0:0:0:0:
346,137,73732,2,0,B|445:147|445:147|416:116,1,140,2|2,0:0|0:0,0:0:0:0:
280,28,74187,6,0,B|232:70|264:127|264:127|292:178|251:217,1,210.000008010865,14|0,0:3|0:0,0:0:0:0:
251,217,74460,2,0,B|216:169|264:121|264:121|307:79|280:28,1,210.000008010865,14|0,0:3|0:0,0:0:0:0:
280,28,74732,2,0,B|248:236,1,191.800005414276,14|2,0:3|0:0,0:0:0:0:
208,314,74975,6,0,P|194:316|178:316,4,23.3333333333333,2|2|2|2|2,0:0|0:0|0:0|0:0|0:0,0:0:0:0:
250,217,75278,6,0,L|254:195,1,23.3333333333333,2|2,0:0|0:0,0:0:0:0:
230,225,75399,6,0,L|238:180,1,46.6666666666667,2|2,0:0|0:0,0:0:0:0:
211,233,75520,6,0,L|223:166,1,70.0000026702882,2|2,0:0|0:0,0:0:0:0:
192,240,75641,6,0,B|210:129|210:129|228:106|228:106|242:4,1,245.000002336502,6|0,0:0|0:0,0:0:0:0:
124,44,75914,2,0,B|210:115|210:115|221:142|221:142|302:205,1,245.000002336502,6|0,0:0|0:0,0:0:0:0:
336,288,76187,2,0,B|283:307|283:307|268:305|268:305|221:324,1,122.500001168251,14|0,0:3|0:0,0:0:0:0:
176,384,76369,6,0,P|188:340|88:380,1,245,2|2,0:0|0:0,0:0:0:0:
66,383,77096,6,0,P|61:321|181:289,1,210.000008010865,14|0,0:3|0:0,0:0:0:0:
181,289,77369,2,0,P|278:291|297:196,1,210.000008010865,14|0,0:3|0:0,0:0:0:0:
297,196,77641,2,0,L|181:289,1,148.40000022644,14|8,0:3|0:0,0:0:0:0:
66,383,78005,6,0,B|172:298|172:298|172:337,1,175,10|0,0:0|0:0,0:0:0:0:
266,336,78550,6,0,B|266:276|266:276|287:223|287:223|287:165,1,175,14|0,0:3|0:0,0:0:0:0:
287,165,78823,2,0,B|287:223|287:223|308:276|308:276|308:335,1,175,14|0,0:3|0:0,0:0:0:0:
308,335,79096,2,0,B|308:292|308:292|328:252,1,87.5,14|0,0:3|0:0,0:0:0:0:
448,152,79278,6,0,L|447:169,4,17.5,2|0|2|0|2,0:0|0:0|0:0|0:0|0:0,0:0:0:0:
446,183,79550,2,2,B|420:180|420:180|408:164|408:164|381:191|381:191|362:173|362:173|334:170,1,140
199,254,80005,6,0,B|245:223|256:167|256:167|241:113|205:80,1,210.000008010865,14|0,0:3|0:0,0:0:0:0:
204,79,80278,2,0,B|158:115|147:171|147:171|161:219|200:254,1,210.000008010865,14|0,0:3|0:0,0:0:0:0:
199,254,80550,2,0,L|204:80,1,175,14|2,0:3|0:0,0:0:0:0:
220,0,80793,6,0,P|233:2|248:8,4,23.3333333333333,2|2|2|2|2,0:0|0:0|0:0|0:0|0:0,0:0:0:0:
149,59,81096,6,0,L|130:70,1,23.3333333333333,2|2,0:0|0:0,0:0:0:0:
168,67,81217,6,0,L|130:93,1,46.6666666666667,2|2,0:0|0:0,0:0:0:0:
187,74,81338,6,0,L|131:112,1,70.0000026702882,2|2,0:0|0:0,0:0:0:0:
204,80,81460,6,0,B|165:108|165:108|156:107|156:107|153:116|153:116|114:144|114:144|112:153|112:153|103:152|103:152|59:182|59:182|51:182|51:182|49:190|49:190|8:220,1,246.400007519531,14|0,0:3|0:0,0:0:0:0:
13,216,81732,2,0,B|28:170|28:170|36:166|36:166|33:155|33:155|50:111|50:111|46:103|46:103|54:99|54:99|73:49|73:49|79:44|79:44|76:36|76:36|93:-11,1,246.400007519531,14|0,0:3|0:0,0:0:0:0:
90,0,82005,2,0,B|110:13|110:13|110:17|110:17|117:17|117:17|136:30|136:30|140:30|140:30|144:34|144:34|163:48|163:48|164:53|164:53|169:53|169:53|186:65,1,123.200003759766,14|0,0:3|0:0,0:0:0:0:
242,74,82187,6,0,L|147:142,1,117.600002871094,2|0,0:0|0:0,0:0:0:0:
121,140,82914,6,2,P|144:176|71:344,1,245,14|0,0:3|0:0,0:0:0:0:
0,351,83641,1,10,0:0:0:0:
30,225,84028,1,2,0:0:0:0:
121,140,84369,6,2,P|157:164|323:94,1,245,0|0,0:0|0:0,0:0:0:0:
333,20,85096,1,10,0:0:0:0:
206,48,85437,1,2,0:0:0:0:
121,140,85823,6,2,P|98:176|171:344,1,245,0|0,0:0|0:0,0:0:0:0:
242,351,86528,1,8,0:0:0:0:
242,351,87278,6,2,B|329:299|346:401|440:342,1,210,2|0,0:0|0:0,0:0:0:0:
495,250,88005,2,2,P|464:347|369:380,1,210,10|0,0:0|0:0,0:0:0:0:
371,242,88732,6,2,P|406:260|357:268,1,122.5,2|0,0:0|0:0,0:0:0:0:
371,220,89460,6,2,P|405:225|345:238,1,245,10|0,0:0|0:0,0:0:0:0:
367,196,90187,6,2,P|431:313|318:239,1,367.500014019013,2|0,0:0|0:0,0:0:0:0:
355,178,90914,6,2,P|407:176|301:226,1,490,10|0,0:0|0:0,0:0:0:0:
292,124,91641,6,0,B|368:84|372:-4|372:-4|388:84|464:116,1,315.000012016297,14|0,0:3|0:0,0:0:0:0:
484,128,92005,1,8,0:0:0:0:
229,222,92187,6,0,P|175:109|244:4,1,262.5,14|0,0:3|0:0,0:0:0:0:
264,0,92550,1,8,0:0:0:0:
384,268,92732,6,0,B|316:272|316:272|256:308|256:308|184:304,1,210,14|0,0:3|0:0,0:0:0:0:
172,304,93096,1,8,0:0:0:0:
448,192,93278,6,0,B|480:236|480:236|476:340,1,157.500006008148,14|0,0:3|0:0,0:0:0:0:
476,348,93641,1,8,0:0:0:0:
164,296,93823,6,0,B|216:252|224:156|224:156|232:252|288:296,1,315.000012016297,14|0,0:3|0:0,0:0:0:0:
164,296,94187,6,0,P|223:337|288:296,1,157.500006008148,2|0,0:0|0:0,0:0:0:0:
279,228,94550,6,0,P|247:241|226:268,1,70,14|0,0:0|0:0,0:0:0:0:
362,341,94914,2,0,P|375:309|371:275,1,70,10|0,0:0|0:0,0:0:0:0:
357,171,95278,2,0,L|356:200,1,17.5,10|0,0:0|0:0,0:0:0:0:
280,136,95550,2,0,L|279:118,2,17.5,2|0|10,0:0|0:0|0:0,0:0:0:0:
350,60,95823,2,0,L|349:77,1,17.5,2|0,0:0|0:0,0:0:0:0:
408,163,96005,5,8,0:0:0:0:
422,159,96096,2,0,P|435:127|431:93,1,70,2|0,0:3|0:0,0:0:0:0:
431,92,96369,2,0,P|420:116|421:157,1,70,10|0,0:0|0:0,0:0:0:0:
482,294,96732,1,10,0:0:0:0:
355,259,96914,1,0,0:0:0:0:
355,259,97005,1,2,0:0:0:0:
355,259,97096,1,8,0:0:0:0:
266,346,97278,1,2,0:0:0:0:
180,300,97460,6,0,P|188:266|179:233,1,70,10|0,0:0|0:0,0:0:0:0:
112,132,97823,1,10,0:0:0:0:
112,132,97914,1,2,0:0:0:0:
32,268,98096,1,2,0:0:0:0:
40,276,98187,1,8,0:0:0:0:
179,233,98369,1,2,0:0:0:0:
24,100,98550,1,10,0:0:0:0:
24,100,98641,2,0,P|15:133|24:166,1,70,2|2,0:3|0:0,0:0:0:0:
32,176,98914,5,10,0:0:0:0:
144,124,99096,1,2,0:0:0:0:
144,124,99187,1,2,0:0:0:0:
144,124,99278,2,0,P|152:90|143:57,1,70,10|2,0:0|0:0,0:0:0:0:
248,44,99641,2,0,L|332:40,1,70,10|0,0:0|0:0,0:0:0:0:
396,116,99914,2,0,L|360:112,1,35,2|10,0:0|0:0,0:0:0:0:
436,44,100187,1,2,0:0:0:0:
484,143,100369,6,0,P|488:127|488:109,3,35,14|0|0|0,0:0|0:0|0:0|0:0,0:0:0:0:
436,44,100732,1,10,0:0:0:0:
424,40,100823,1,0,0:0:0:0:
412,36,100914,1,0,0:0:0:0:
400,32,101005,1,0,0:0:0:0:
388,28,101096,6,0,P|383:44|383:62,2,35,10|0|0,0:0|0:0|0:0,0:0:0:0:
452,124,101369,2,0,P|468:119|483:110,2,35,10|8|0,0:0|0:0|0:0,0:0:0:0:
508,24,101641,2,0,P|495:11|480:3,1,35,10|0,0:0|0:0,0:0:0:0:
296,56,101823,5,8,0:0:0:0:
296,56,101914,1,2,0:0:0:0:
296,56,102005,2,0,L|244:52,1,52.5000020027161,8|0,0:0|0:0,0:0:0:0:
168,164,102187,2,0,L|197:120,2,52.5000020027161,10|0|8,0:0|0:0|0:0,0:0:0:0:
84,48,102460,5,0,0:0:0:0:
79,30,102550,2,0,P|114:34|144:52,1,70,10|0,0:0|0:0,0:0:0:0:
280,140,102732,1,10,0:0:0:0:
316,211,102823,2,0,P|282:221|248:214,2,70,2|8|0,0:0|0:0|0:0,0:0:0:0:
360,128,103096,2,0,P|348:95|323:71,1,70,10|0,0:0|0:0,0:0:0:0:
224,84,103278,6,0,L|184:64,1,43.75,14|0,0:0|0:0,0:0:0:0:
212,100,103369,2,0,L|168:96,1,43.75,8|0,0:0|0:0,0:0:0:0:
204,120,103460,2,0,L|160:128,1,43.75,8|0,0:0|0:0,0:0:0:0:
204,140,103550,2,0,L|164:156,1,43.75,10|0,0:0|0:0,0:0:0:0:
208,160,103641,2,0,L|166:177,1,43.75,10|0,0:0|0:0,0:0:0:0:
212,177,103732,2,0,L|180:208,1,43.75,8|0,0:0|0:0,0:0:0:0:
223,197,103823,2,0,L|200:235,1,43.75,10|0,0:0|0:0,0:0:0:0:
237,210,103914,2,0,L|223:250,1,43.75,10|0,0:0|0:0,0:0:0:0:
256,219,104005,6,8,L|258:277,1,43.75,14|2,0:0|0:0,0:0:0:0:
278,220,104096,2,8,L|304:256,1,43.75,8|2,0:0|0:0,0:0:0:0:
307,216,104187,2,8,L|348:232,1,43.75,10|2,0:0|0:0,0:0:0:0:
324,200,104278,2,8,L|370:195,1,43.75,8|2,0:0|0:0,0:0:0:0:
332,176,104369,2,8,L|308:139,1,43.75,8|2,0:0|0:0,0:0:0:0:
368,147,104460,2,8,L|360:103,1,43.75,10|2,0:0|0:0,0:0:0:0:
416,135,104550,2,8,L|424:91,1,43.75,10|2,0:0|0:0,0:0:0:0:
456,163,104641,2,8,L|484:127,1,43.75,10|2,0:0|0:0,0:0:0:0:
472,203,104732,6,0,B|512:192|512:192|480:216|468:248|468:264,1,122.5,6|0,0:0|0:0,0:0:0:0:
468,272,105460,5,2,0:0:0:0:
468,272,105641,1,2,0:0:0:0:
468,272,105823,5,2,0:0:0:0:
462,270,105914,1,2,0:0:0:0:
429,283,106005,1,2,0:0:0:0:
423,281,106096,1,2,0:0:0:0:
392,263,106187,6,0,L|306:268,1,70,4|2,0:0|0:0,0:0:0:0:
302,268,106460,1,10,0:0:0:0:
231,246,106550,2,0,P|228:267|229:281,1,35,10|0,0:0|0:0,0:0:0:0:
273,376,106732,2,0,P|276:355|275:341,1,35,2|0,0:0|0:0,0:0:0:0:
162,320,106914,1,2,0:0:0:0:
168,335,107005,2,0,P|181:346|196:354,2,35,2|8|2,0:0|0:0|0:0,0:0:0:0:
271,185,107278,6,0,B|247:161|205:158|178:199|194:245|218:276|284:282|318:258|339:222,1,262.5,10|0,0:0|0:0,0:0:0:0:
408,216,107641,6,0,P|356:111|308:83,1,175,14|0,0:3|0:0,0:0:0:0:
204,320,108005,2,0,P|320:328|368:300,1,175,10|0,0:0|0:0,0:0:0:0:
200,88,108369,2,0,P|135:184|135:240,1,175,10|0,0:3|0:0,0:0:0:0:
271,185,108732,1,10,0:0:0:0:
32,128,108914,1,2,0:0:0:0:
102,363,109096,5,10,0:3:0:0:
284,264,109278,2,0,L|329:267,1,43.75,2|2,0:0|0:0,0:0:0:0:
278,224,109369,2,0,L|321:228,1,43.75,2|2,0:0|0:0,0:0:0:0:
271,185,109460,2,0,P|231:203|208:239,1,87.5,10|0,0:0|0:0,0:0:0:0:
96,288,109641,1,2,0:0:0:0:
96,288,109732,1,2,0:0:0:0:
96,288,109823,6,0,B|112:328|112:328|100:372,1,87.5,10|0,0:3|0:0,0:0:0:0:
12,136,110005,2,0,B|-4:176|-4:176|8:220,1,87.5,2|0,0:3|0:0,0:0:0:0:
173,181,110187,2,0,L|104:176,1,70,10|0,0:0|0:0,0:0:0:0:
311,279,110369,2,0,L|241:284,1,70,2|2,0:0|0:0,0:0:0:0:
268,172,110550,5,10,0:3:0:0:
284,384,110732,1,2,0:0:0:0:
268,160,110914,2,0,P|316:108|428:124,1,175,10|2,0:0|0:0,0:0:0:0:
360,200,111278,5,10,0:3:0:0:
180,80,111460,1,2,0:0:0:0:
180,80,111550,1,2,0:0:0:0:
180,80,111641,1,10,0:0:0:0:
242,284,111823,1,2,0:0:0:0:
436,152,112005,5,10,0:3:0:0:
292,340,112187,1,2,0:0:0:0:
268,172,112369,1,10,0:0:0:0:
463,276,112550,2,0,L|456:352,2,58.3333333333333,2|2|0,0:0|0:0|0:0,0:0:0:0:
379,114,112732,6,0,L|387:202,1,87.5,10|0,0:3|0:0,0:0:0:0:
455,363,112914,2,0,L|463:276,1,87.5,2|2,0:0|0:0,0:0:0:0:
387,201,113096,5,10,0:0:0:0:
305,229,113187,1,2,0:0:0:0:
333,275,113278,1,8,0:3:0:0:
388,289,113369,1,2,0:0:0:0:
463,276,113460,6,0,P|492:221|456:125,1,157.500006008148,10|0,0:3|0:0,0:0:0:0:
444,112,113823,6,0,L|356:120,1,87.5,14|0,0:0|0:0,0:0:0:0:
220,220,114005,2,0,L|308:228,1,87.5,2|0,0:0|0:0,0:0:0:0:
387,201,114187,1,10,0:3:0:0:
152,176,114369,1,2,0:0:0:0:
372,368,114550,1,10,0:0:0:0:
285,98,114732,1,2,0:0:0:0:
144,88,114914,6,0,L|152:176,1,87.5,10|0,0:3|0:0,0:0:0:0:
252,296,115096,2,0,L|244:384,1,87.5,2|0,0:0|0:0,0:0:0:0:
68,284,115278,2,0,B|92:268|92:268|152:276,1,87.5,10|2,0:0|0:0,0:0:0:0:
356,176,115460,2,0,B|332:192|332:192|273:184,1,87.5,2|0,0:0|0:0,0:0:0:0:
212,64,115641,5,10,0:3:0:0:
243,1,115732,1,2,0:0:0:0:
312,11,115823,1,2,0:0:0:0:
323,80,115914,1,2,0:0:0:0:
262,112,116005,2,0,P|254:80|282:24,1,87.5,10|0,0:0|0:0,0:0:0:0:
420,144,116187,2,0,P|428:176|400:232,1,87.5,2|0,0:0|0:0,0:0:0:0:
252,296,116369,5,10,0:3:0:0:
323,80,116550,1,2,0:0:0:0:
376,360,116732,5,10,0:0:0:0:
356,176,116913,1,2,0:0:0:0:
147,282,117096,2,0,L|275:298,1,105.000004005432,10|2,0:3|0:0,0:0:0:0:
427,67,117460,2,0,L|323:79,1,105.000004005432,10|2,0:0|0:0,0:0:0:0:
288,376,117823,5,10,0:3:0:0:
356,176,118005,1,2,0:0:0:0:
84,252,118187,1,10,0:0:0:0:
84,252,118278,1,2,0:0:0:0:
84,252,118369,2,0,P|76:284|104:340,1,87.5,2|2,0:0|0:0,0:0:0:0:
228,344,118550,1,10,0:3:0:0:
228,328,118641,1,2,0:0:0:0:
224,312,118732,2,0,P|200:289|137:285,1,87.5,10|10,0:3|0:3,0:0:0:0:
167,386,118914,6,0,L|164:352,1,35,10|2,0:0|0:0,0:0:0:0:
148,208,119096,2,0,L|144:173,1,35,2|2,0:0|0:0,0:0:0:0:
64,104,119278,6,0,P|128:144|152:4,1,262.5,14|0,0:3|0:0,0:0:0:0:
128,72,119641,2,0,L|148:248,1,175,10|0,0:0|0:0,0:0:0:0:
348,208,120005,2,0,L|328:381,1,175,10|0,0:3|0:0,0:0:0:0:
236,280,120369,1,10,0:0:0:0:
440,312,120550,1,2,0:0:0:0:
204,360,120732,6,0,P|168:336|152:296,1,87.5,10|0,0:3|0:0,0:0:0:0:
320,240,120914,2,0,L|364:244,1,43.75,2|2,0:0|0:0,0:0:0:0:
295,201,121005,2,0,L|338:204,1,43.75,2|2,0:0|0:0,0:0:0:0:
276,160,121096,2,0,L|238:79,1,87.5,10|0,0:0|0:0,0:0:0:0:
372,84,121278,1,2,0:0:0:0:
440,88,121369,1,2,0:0:0:0:
508,92,121460,6,0,B|523:133|523:133|504:172,1,87.5,10|0,0:3|0:0,0:0:0:0:
338,204,121641,2,0,B|323:245|323:245|342:284,1,87.5,2|0,0:0|0:0,0:0:0:0:
511,365,121823,2,0,P|470:351|427:359,1,87.5,10|0,0:0|0:0,0:0:0:0:
295,379,122005,2,0,P|252:387|211:373,1,87.5,2|2,0:0|0:0,0:0:0:0:
90,384,122187,6,0,P|108:292|63:225,1,175,10|2,0:3|0:0,0:0:0:0:
0,318,122550,1,10,0:0:0:0:
212,268,122732,1,2,0:0:0:0:
60,112,122914,1,10,0:3:0:0:
84,228,123096,1,2,0:0:0:0:
164,128,123278,2,0,P|164:84|140:48,1,87.5,10|0,0:0|0:0,0:0:0:0:
0,104,123460,1,2,0:0:0:0:
0,104,123550,1,2,0:0:0:0:
0,104,123641,6,0,L|92:108,1,87.5,10|0,0:3|0:0,0:0:0:0:
320,168,123823,2,0,L|228:172,1,87.5,2|0,0:0|0:0,0:0:0:0:
64,304,124005,2,0,L|111:229,1,87.5,10|0,0:0|0:0,0:0:0:0:
152,52,124187,2,0,L|120:4,2,58.3333333333333,2|2|2,0:0|0:0|0:0,0:0:0:0:
160,64,124369,6,0,P|172:112|160:152,1,87.5,10|0,0:3|0:0,0:0:0:0:
204,352,124550,2,0,P|194:309|206:268,1,87.5,2|0,0:0|0:0,0:0:0:0:
320,168,124732,5,10,0:0:0:0:
389,221,124823,1,2,0:0:0:0:
344,252,124914,1,8,0:3:0:0:
292,248,125005,1,2,0:0:0:0:
240,184,125096,6,0,P|251:122|360:96,1,174.300002526627,10|0,0:3|0:0,0:0:0:0:
401,153,125460,6,0,P|363:171|320:168,1,87.5,14|0,0:0|0:0,0:0:0:0:
293,27,125641,2,0,P|329:50|347:90,1,87.5,2|0,0:0|0:0,0:0:0:0:
247,271,125823,2,0,L|240:184,1,87.5,10|0,0:3|0:0,0:0:0:0:
378,282,126005,2,0,L|371:369,1,87.5,2|0,0:0|0:0,0:0:0:0:
152,278,126187,1,10,0:0:0:0:
482,232,126369,1,2,0:0:0:0:
140,279,126550,5,10,0:3:0:0:
320,168,126732,1,2,0:0:0:0:
379,378,126914,1,10,0:0:0:0:
379,378,127005,1,2,0:0:0:0:
379,378,127096,2,0,B|396:337|396:337|380:297,1,87.5,2|0,0:0|0:0,0:0:0:0:
231,236,127278,5,10,0:3:0:0:
208,169,127369,1,2,0:0:0:0:
264,127,127460,1,2,0:0:0:0:
320,168,127551,1,2,0:0:0:0:
300,234,127642,2,0,P|271:217|251:157,1,87.5,10|0,0:0|0:0,0:0:0:0:
434,145,127824,2,0,P|462:161|482:221,1,87.5,2|0,0:0|0:0,0:0:0:0:
380,297,128005,5,10,0:3:0:0:
343,56,128187,1,2,0:0:0:0:
384,311,128369,2,0,L|209:301,1,175,10|2,0:0|0:0,0:0:0:0:
58,173,128732,1,10,0:3:0:0:
54,384,128914,2,0,L|47:297,1,87.5,2|0,0:0|0:0,0:0:0:0:
65,160,129096,1,10,0:0:0:0:
43,384,129278,2,0,L|35:296,1,87.5,2|0,0:0|0:0,0:0:0:0:
71,147,129460,6,0,L|177:153,1,105.000004005432,14|2,0:3|0:0,0:0:0:0:
273,203,129823,1,10,0:0:0:0:
269,182,129914,1,2,0:0:0:0:
265,161,130005,2,0,L|268:126,2,35.0000013351441,10|2|2,0:3|0:0|0:0,0:0:0:0:
187,237,130187,5,2,0:0:0:0:
187,237,130278,1,0,0:0:0:0:
187,237,130369,2,0,L|184:292,1,52.5000020027161,10|0,0:0|0:0,0:0:0:0:
300,352,130550,6,0,P|360:352|272:292,1,262.5,10|0,0:0|0:0,0:0:0:0:
192,320,130914,6,0,B|140:308|112:260|112:260|84:308|28:320,1,210,14|0,0:3|0:0,0:0:0:0:
28,320,131278,6,0,B|84:308|112:225|112:225|140:308|192:320,1,262.5,10|0,0:0|0:0,0:0:0:0:
192,320,131641,6,0,B|143:331|113:381|113:381|80:332|28:320,1,210,10|0,0:0|0:0,0:0:0:0:
1,223,132005,5,10,0:3:0:0:
224,226,132187,1,2,0:3:0:0:
111,130,132369,5,10,0:3:0:0:
245,267,132550,2,0,L|291:271,1,46.6666666666667,2|2,0:3|0:3,0:0:0:0:
386,280,132672,1,2,0:3:0:0:
386,280,132732,6,0,L|369:281,4,17.5,2|2|2|0|2,0:3|0:0|0:0|0:0|0:0,0:0:0:0:
449,229,132914,2,0,L|482:197,1,46.6666666666667,2|2,0:3|0:3,0:0:0:0:
473,102,133035,1,2,0:3:0:0:
473,102,133096,6,0,L|483:115,4,17.5,2|2|2|0|2,0:3|0:0|0:0|0:0|0:0,0:0:0:0:
402,53,133278,1,2,0:3:0:0:
368,280,133460,1,10,0:3:0:0:
386,168,133641,1,10,0:0:0:0:
351,384,133823,5,14,0:3:0:0:
314,334,133914,1,0,0:0:0:0:
256,313,134005,1,2,0:0:0:0:
195,323,134096,1,0,0:0:0:0:
154,368,134187,5,10,0:3:0:0:
194,334,134278,1,0,0:0:0:0:
220,288,134369,1,2,0:0:0:0:
220,235,134460,1,0,0:0:0:0:
200,186,134550,5,10,0:3:0:0:
208,228,134641,1,0,0:0:0:0:
239,257,134732,1,2,0:0:0:0:
281,265,134823,1,0,0:0:0:0:
323,256,134914,5,10,0:3:0:0:
288,252,135005,1,0,0:0:0:0:
257,268,135096,1,2,0:0:0:0:
239,298,135187,1,0,0:0:0:0:
312,329,135278,5,10,0:0:0:0:
310,339,135369,2,0,L|305:373,2,35,2|2|2,0:0|0:0|0:0,0:0:0:0:
391,285,135641,2,0,P|395:246|383:215,1,70,2|10,0:0|0:0,0:0:0:0:
371,199,135914,2,0,P|367:162|378:133,1,35,2|8,0:0|0:0,0:0:0:0:
319,258,136096,5,2,0:0:0:0:
318,268,136187,2,0,P|300:268|283:263,1,35,10|0,0:0|0:0,0:0:0:0:
187,268,136369,6,0,L|152:271,1,35,2|0,0:0|0:0,0:0:0:0:
192,256,136550,2,0,L|158:259,1,35,2|0,0:0|0:0,0:0:0:0:
196,244,136732,6,0,B|192:255|186:265|186:265|189:279|186:291|186:291|189:293|189:293|187:296|187:296|191:308|190:322|190:322|199:334|206:348,1,105,10|0,0:3|0:0,0:0:0:0:
338,360,137096,6,0,B|304:352|276:332|276:332|240:340|207:332|207:332|201:340|201:340|193:335|193:335|160:346|121:343|121:343|92:372|49:387,1,315.000012016297,14|0,0:0|0:0,0:0:0:0:
28,280,137460,6,0,P|16:228|32:180,1,105.000004005432,10|0,0:3|0:0,0:0:0:0:
184,211,137641,2,0,P|154:230|120:235,1,70,2|0,0:0|0:0,0:0:0:0:
40,82,137823,6,0,B|92:92|92:92|120:136,1,105.000004005432,10|0,0:0|0:0,0:0:0:0:
107,333,138005,2,0,B|55:323|55:323|27:279,1,105.000004005432,2|0,0:0|0:0,0:0:0:0:
208,120,138187,5,10,0:3:0:0:
188,384,138369,1,2,0:0:0:0:
61,169,138550,1,10,0:0:0:0:
322,323,138732,1,2,0:0:0:0:
60,148,138914,5,10,0:3:0:0:
91,79,139005,1,2,0:0:0:0:
166,90,139096,1,2,0:0:0:0:
178,165,139187,1,2,0:0:0:0:
112,199,139278,2,0,P|102:163|132:104,1,94.5000003604889,10|0,0:0|0:0,0:0:0:0:
282,234,139460,2,0,P|289:267|264:332,1,94.5000003604889,2|2,0:0|0:0,0:0:0:0:
40,384,139641,5,10,0:3:0:0:
201,269,139823,1,2,0:0:0:0:
20,384,140005,1,10,0:0:0:0:
178,165,140187,1,2,0:0:0:0:
389,206,140369,2,0,P|399:299|360:384,1,189.000000720978,10|2,0:3|0:0,0:0:0:0:
178,165,140732,2,0,P|253:109|346:101,1,189.000000720978,10|2,0:0|0:0,0:0:0:0:
248,360,141096,6,0,P|162:322|108:245,1,189.000000720978,10|2,0:3|0:0,0:0:0:0:
128,48,141460,1,10,0:0:0:0:
128,48,141550,1,2,0:0:0:0:
128,48,141641,2,0,L|176:44,2,46.6666666666667,2|2|2,0:0|0:0|0:0,0:0:0:0:
32,40,141823,6,0,P|40:92|72:128,1,94.5000003604889,10|0,0:3|0:0,0:0:0:0:
108,246,142005,2,0,P|156:224|182:184,1,94.5000003604889,10|10,0:3|0:3,0:0:0:0:
174,44,142187,1,10,0:0:0:0:
65,123,142369,1,2,0:0:0:0:
148,316,142550,6,0,B|228:292|256:208|256:208|292:292|364:312,1,315.000012016297,14|0,0:3|0:0,0:0:0:0:
440,384,142914,6,0,P|468:292|416:220,1,189.000000720978,10|2,0:0|0:0,0:0:0:0:
104,145,143278,2,0,P|169:215|258:206,1,189.000000720978,10|2,0:3|0:0,0:0:0:0:
452,28,143641,1,10,0:0:0:0:
200,120,143823,1,2,0:0:0:0:
364,312,144005,5,10,0:3:0:0:
442,166,144187,2,0,P|434:141|421:121,1,47.2500001802444,2|2,0:0|0:0,0:0:0:0:
405,103,144278,2,0,P|384:90|362:84,1,47.2500001802444,2|2,0:0|0:0,0:0:0:0:
338,77,144369,2,0,P|322:120|331:166,1,94.5000003604889,10|0,0:0|0:0,0:0:0:0:
400,24,144550,1,2,0:0:0:0:
324,0,144641,1,2,0:0:0:0:
264,52,144732,6,0,B|216:64|216:64|176:44,1,94.5000003604889,10|0,0:3|0:0,0:0:0:0:
0,132,144914,2,0,B|48:120|48:120|88:140,1,94.5000003604889,2|0,0:3|0:0,0:0:0:0:
200,204,145096,2,0,L|196:273,1,70,10|0,0:0|0:0,0:0:0:0:
0,340,145278,2,0,L|3:270,1,70,2|2,0:0|0:0,0:0:0:0:
287,119,145460,5,10,0:3:0:0:
272,364,145641,1,2,0:0:0:0:
272,364,145732,1,2,0:0:0:0:
272,364,145823,2,0,P|216:364|180:384,1,94.5000003604889,10|0,0:0|0:0,0:0:0:0:
300,224,146005,2,0,P|356:224|392:204,1,94.5000003604889,2|0,0:0|0:0,0:0:0:0:
172,96,146187,6,0,P|104:156|16:135,1,189.000000720978,10|2,0:3|0:0,0:0:0:0:
81,62,146550,1,10,0:0:0:0:
112,256,146732,1,2,0:0:0:0:
16,135,146914,5,10,0:3:0:0:
260,220,147096,1,2,0:0:0:0:
48,368,147278,1,10,0:0:0:0:
112,256,147460,2,0,L|144:200,2,63.0000002403259,2|2|2,0:0|0:0|0:0,0:0:0:0:
104,272,147641,6,0,P|152:284|192:268,1,94.5000003604889,10|0,0:3|0:0,0:0:0:0:
184,132,147823,2,0,P|136:120|96:136,1,94.5000003604889,2|0,0:0|0:0,0:0:0:0:
272,196,148005,5,10,0:0:0:0:
380,224,148096,1,2,0:0:0:0:
377,152,148187,1,8,0:3:0:0:
323,102,148278,1,2,0:0:0:0:
248,88,148369,6,0,P|184:132|184:256,1,210,10|0,0:3|0:0,0:0:0:0:
204,280,148732,6,0,P|240:300|316:292,1,94.5000003604889,14|2,0:0|0:0,0:0:0:0:
465,173,148914,2,0,P|429:153|353:161,1,94.5000003604889,2|2,0:0|0:0,0:0:0:0:
264,196,149096,1,10,0:0:0:0:
512,260,149278,1,2,0:0:0:0:
436,16,149460,1,10,0:0:0:0:
377,152,149641,1,2,0:0:0:0:
440,4,149823,6,0,L|256:56,1,189.000000720978,10|10,0:0|0:0,0:0:0:0:
0,128,150187,2,0,L|184:180,1,189.000000720978,10|10,0:0|0:0,0:0:0:0:
436,244,150550,1,10,0:0:0:0:
436,244,150641,1,0,0:0:0:0:
436,244,150732,2,0,P|424:296|396:332,1,94.5000003604889,10|2,0:0|0:0,0:0:0:0:
152,376,150914,1,10,0:0:0:0:
304,244,151096,1,10,0:0:0:0:
142,231,151278,6,0,L|98:203,6,52.5000020027161,14|0|10|0|10|0|10,0:0|0:0|0:0|0:0|0:0|0:0|0:0,0:0:0:0:
209,291,151641,6,0,P|225:270|232:244,1,52.5000020027161,10|0,0:0|0:0,0:0:0:0:
270,267,151732,2,0,P|259:242|241:224,1,52.5000020027161,10|0,0:0|0:0,0:0:0:0:
286,207,151823,2,0,P|260:203|234:210,1,52.5000020027161,10|0,0:0|0:0,0:0:0:0:
242,163,151914,2,0,P|226:183|219:209,1,52.5000020027161,10|0,0:0|0:0,0:0:0:0:
182,179,152005,6,0,P|192:203|210:221,1,52.5000020027161,14|0,0:0|0:0,0:0:0:0:
166,239,152096,2,0,P|191:242|217:235,1,52.5000020027161,10|0,0:0|0:0,0:0:0:0:
278,291,152187,6,0,P|293:270|300:244,1,52.5000020027161,10|0,0:0|0:0,0:0:0:0:
337,274,152278,2,0,P|326:249|308:231,1,52.5000020027161,10|0,0:0|0:0,0:0:0:0:
326,155,152369,6,0,P|300:151|274:158,1,52.5000020027161,10|0,0:0|0:0,0:0:0:0:
281,112,152460,2,0,P|265:132|258:158,1,52.5000020027161,10|0,0:0|0:0,0:0:0:0:
174,183,152550,6,0,P|184:207|202:225,1,52.5000020027161,10|0,0:0|0:0,0:0:0:0:
166,251,152641,2,0,P|191:254|217:247,1,52.5000020027161,10|0,0:0|0:0,0:0:0:0:
427,216,152732,6,0,L|434:146,1,70,14|8,0:0|0:0,0:0:0:0:
447,40,152914,2,0,L|382:68,1,70,10|8,0:0|0:0,0:0:0:0:
281,112,153096,2,0,L|337:153,1,70,10|8,0:0|0:0,0:0:0:0:
455,292,153278,2,0,P|439:296|419:296,1,35,10|10,0:0|0:0,0:0:0:0:
403,296,153369,2,0,P|385:296|368:300,1,35,10|10,0:0|0:0,0:0:0:0:
351,304,153460,6,0,B|335:356|335:356|271:268|311:176,1,245.000002336502,14|0,0:3|0:0,0:0:0:0:
483,124,153732,2,0,B|536:111|536:111|491:211|392:222,1,210.000008010865,14|0,0:3|0:0,0:0:0:0:
343,77,154005,2,0,B|324:57|324:57|378:51|408:91,1,87.5,14|0,0:3|0:0,0:0:0:0:
318,184,154187,5,14,0:3:0:0:
318,184,154278,1,2,0:0:0:0:
318,184,154369,2,0,B|264:160|208:200|208:200|152:240|100:208,1,230.99999295044,2|2,0:0|0:0,0:0:0:0:
147,132,156550,5,2,0:0:0:0:
276,264,156732,1,2,0:0:0:0:
274,269,156823,1,0,0:0:0:0:
256,301,156914,1,2,0:0:0:0:
258,306,157005,1,0,0:0:0:0:
