osu file format v14

[General]
AudioFilename: Northern Desert.mp3
AudioLeadIn: 0
PreviewTime: 43647
Countdown: 1
SampleSet: None
StackLeniency: 0.7
Mode: 0
LetterboxInBreaks: 0
WidescreenStoryboard: 1

[Editor]
DistanceSpacing: 1.2
BeatDivisor: 4
GridSize: 4
TimelineZoom: 1.9

[Metadata]
Title:Kita no Sabaku
TitleUnicode:きたのさばく
Artist:Arata Iiyoshi, Hideki Sakamoto, Keisuke Ito
ArtistUnicode:飯吉新、坂本英城、いとうけいすけ
Creator:David-
Version:gtfo's Hard
Source:ポケモン不思議のダンジョン 空の探検隊
Tags:pokémon pokemon nintendo nds mystery dungeon explorers of darkness time sky pmd 時の探検隊 闇の探検隊 nothern desert gtfo
BeatmapID:1445746
BeatmapSetID:678031

[Difficulty]
HPDrainRate:5
CircleSize:4
OverallDifficulty:6
ApproachRate:6.7
SliderMultiplier:1.2
SliderTickRate:1

[Events]
//Background and Video events
0,0,"Background.jpg",0,0
//Break Periods
//Storyboard Layer 0 (Background)
//Storyboard Layer 1 (Fail)
//Storyboard Layer 2 (Pass)
//Storyboard Layer 3 (Foreground)
//Storyboard Sound Samples

[TimingPoints]
570,375,3,3,1,30,1,0
9570,-100,3,2,1,30,0,0
12101,-100,3,2,1,5,0,0
12195,-100,3,2,1,30,0,0
13226,-100,3,2,1,5,0,0
13320,-100,3,2,1,30,0,0
19976,-100,3,2,1,5,0,0
20070,-100,3,2,1,30,0,0
22226,-100,3,2,1,5,0,0
22320,-100,3,2,1,30,0,0
23726,-100,3,2,1,5,0,0
23820,-100,3,2,1,30,0,0
24945,-100,3,3,1,30,0,0
27195,-100,3,3,1,5,0,0
27570,-125,3,3,1,30,0,0
41070,400,3,3,1,30,1,0
41070,-125,3,3,1,30,0,0
41870,428.571428571429,3,3,1,30,1,0
41870,-125,3,3,1,30,0,0
42298,444.444444444444,3,3,1,30,1,0
42298,-125,3,3,1,30,0,0
43186,461.538461538462,3,3,1,30,1,0
43647,444.444444444444,3,3,1,30,1,0
44980,387.096774193548,3,3,1,30,1,0
46141,375,3,3,1,30,1,0
48766,-100,3,2,1,20,0,0
52891,-100,3,3,1,30,0,0
57766,-100,3,2,1,30,0,0
61891,-100,3,3,1,40,0,1
66391,-100,3,2,1,30,0,1
70516,-100,3,2,1,30,0,0
70891,-100,3,3,1,50,0,1
71641,-100,3,3,1,50,0,1
72016,-111.111111111111,3,3,1,40,0,1
73141,-125,3,3,1,30,0,1
74266,-142.857142857143,3,3,1,30,0,1
75391,-100,3,3,1,30,0,0
77641,-100,3,2,1,30,0,0

[Colours]
Combo1 : 37,185,239
Combo2 : 234,140,0

[HitObjects]
232,36,570,6,0,L|242:106,1,60,6|0,0:0|0:0,0:0:0:0:
313,136,945,2,0,L|303:206,1,60,0|0,0:0|0:0,0:0:0:0:
271,272,1320,1,0,0:0:0:0:
129,182,1695,5,8,0:0:0:0:
92,346,2070,2,0,P|119:332|141:312,1,60
162,231,2445,2,0,P|148:204|129:182,1,60
45,174,2820,5,2,0:0:0:0:
141,312,3195,2,0,P|173:313|224:295,1,60,0|0,0:0|0:0,0:0:0:0:
272,264,3570,2,0,P|283:233|282:179,1,60,0|0,0:0|0:0,0:0:0:0:
266,126,3945,2,0,B|254:78|254:78|261:51|261:51|252:6,2,120,8|2|2,0:0|0:2|0:2,0:0:0:0:
383,245,5070,6,0,L|378:312,1,60,2|0,0:0|0:0,0:0:0:0:
462,294,5445,2,0,L|466:234,1,60,0|0,0:0|0:0,0:0:0:0:
419,164,5820,1,0,0:0:0:0:
294,276,6195,5,8,0:0:0:0:
136,213,6570,2,0,P|161:198|191:193,1,60
271,222,6945,2,0,P|287:246|294:276,1,60
252,349,7320,5,2,0:0:0:0:
191,193,7695,2,0,P|204:166|226:146,1,60,0|0,0:0|0:0,0:0:0:0:
306,117,8070,2,0,P|335:115|364:124,1,60
434,171,8445,6,0,B|453:216|453:216|450:244|450:244|468:289,2,120,8|2|2,0:0|0:2|0:2,0:0:0:0:
380,18,9570,5,6,0:3:0:0:
380,18,9757,1,0,0:0:0:0:
333,88,9945,2,0,P|304:101|277:103,1,60,0|0,0:0|0:0,0:0:0:0:
204,57,10320,2,0,P|191:83|188:113,1,60,0|0,0:0|0:0,0:0:0:0:
247,181,10695,5,8,0:3:0:0:
247,181,10882,1,0,0:0:0:0:
163,194,11070,2,0,P|133:191|106:179,1,60,0|0,0:0|0:0,0:0:0:0:
82,98,11445,2,0,P|98:73|123:56,1,60,0|0,0:0|0:0,0:0:0:0:
202,26,11820,6,0,L|317:34,1,90,2|0,0:3|0:0,0:0:0:0:
291,32,12195,1,0,0:0:0:0:
436,115,12570,1,0,0:0:0:0:
271,124,12945,6,0,L|181:130,1,90,8|0,0:3|0:0,0:0:0:0:
181,129,13319,1,0,0:0:0:0:
36,216,13695,1,0,0:0:0:0:
184,294,14070,5,2,0:3:0:0:
184,294,14257,1,0,0:0:0:0:
117,345,14445,2,0,P|101:315|99:288,1,60
142,215,14820,2,0,P|171:206|201:209,1,60
264,266,15195,5,8,0:3:0:0:
264,266,15382,1,0,0:0:0:0:
218,341,15570,2,0,P|193:317|183:292,1,60,0|0,0:0|0:0,0:0:0:0:
201,209,15945,2,0,P|201:175|191:150,1,60
132,92,16320,5,2,0:3:0:0:
132,92,16507,2,0,L|49:108,1,60
51,185,16883,1,0,0:0:0:0:
51,185,17070,2,0,L|133:168,1,60,2|0,0:3|0:0,0:0:0:0:
191,151,17445,6,0,B|239:139|239:139|269:117|269:117|319:104,2,120,8|2|2,0:3|0:2|0:2,0:0:0:0:
123,305,18570,6,0,B|233:350|249:266|361:308,1,240,2|0,0:3|0:0,0:0:0:0:
422,359,19507,1,0,0:0:0:0:
442,277,19695,2,0,L|429:162,1,90,8|0,0:3|0:0,0:0:0:0:
431,187,20070,1,0,0:0:0:0:
502,35,20445,6,0,P|470:26|443:28,1,60
369,66,20820,2,0,B|259:111|243:27|130:69,1,240,2|0,0:3|0:0,0:0:0:0:
76,127,21757,1,0,0:0:0:0:
157,148,21945,2,0,L|147:257,1,90,8|0,0:3|0:0,0:0:0:0:
148,237,22320,1,0,0:0:0:0:
281,339,22695,6,0,P|315:335|344:322,1,60
397,265,23070,2,0,P|437:164|405:61,1,210,2|0,0:3|0:0,0:0:0:0:
411,69,23820,1,0,0:0:0:0:
244,87,24195,6,0,L|251:150,1,60,8|0,0:3|0:0,0:0:0:0:
311,205,24570,2,0,L|301:267,1,60,0|0,0:0|0:0,0:0:0:0:
266,340,24945,1,2,0:3:0:0:
125,246,25320,6,0,P|156:352|266:340,1,240,2|2,0:3|0:3,0:3:0:0:
405,246,26445,6,0,P|374:352|264:339,1,240,2|0,0:3|0:3,0:3:0:0:
341,187,27570,6,0,P|369:136|421:117,1,96,6|0,0:0|0:0,0:0:0:0:
467,180,28132,1,0,0:0:0:0:
466,180,28320,2,0,P|446:222|405:246,1,96,0|8,0:0|0:0,0:0:0:0:
345,191,28882,1,0,0:0:0:0:
345,191,29070,2,0,P|287:179|254:135,1,96,0|0,0:0|0:0,0:0:0:0:
259,74,29632,1,0,0:0:0:0:
259,74,29820,2,0,L|238:273,1,192,2|0,0:0|0:0,0:0:0:0:
238,264,30945,6,0,P|217:238|195:230,1,48,8|0,0:0|0:0,0:0:0:0:
126,258,31320,2,0,P|113:289|118:312,1,48,0|0,0:0|0:0,0:0:0:0:
177,358,31695,2,0,P|210:352|227:337,1,48,0|0,0:0|0:0,0:0:0:0:
238,264,32070,6,0,L|227:169,1,96,2|0,0:0|0:0,0:0:0:0:
154,134,32632,1,0,0:0:0:0:
154,134,32820,2,0,L|143:229,1,96,0|8,0:0|0:0,0:0:0:0:
66,263,33382,1,0,0:0:0:0:
66,263,33570,2,0,L|55:168,1,96,0|0,0:0|0:0,0:0:0:0:
49,86,34132,1,0,0:0:0:0:
49,86,34320,2,0,P|136:13|147:139,1,288,2|8,0:0|0:0,0:0:0:0:
154,134,36195,6,0,P|166:100|188:79,1,48,0|0,0:0|0:0,0:0:0:0:
223,26,36570,2,0,P|259:26|285:41,1,48,2|0,0:0|0:0,0:0:0:0:
347,58,36945,2,0,P|357:92|351:122,1,48,0|0,0:0|0:0,0:0:0:0:
354,186,37320,2,0,P|324:206|294:210,1,48,0|0,0:0|0:0,0:0:0:0:
230,208,37695,2,0,P|225:231|229:255,1,48,8|0,0:0|0:0,0:0:0:0:
260,330,38070,2,0,P|281:341|304:344,1,48
386,339,38445,2,0,P|403:322|413:300,1,48,0|0,0:0|0:0,0:0:0:0:
440,223,38820,6,0,L|433:155,1,48,2|0,0:0|0:0,0:0:0:0:
361,138,39195,2,0,L|354:206,1,48
281,224,39570,2,0,L|276:176,1,48
201,151,39945,2,0,P|209:85|332:48,1,192,8|0,0:0|0:0,0:0:0:0:
314,41,41070,6,0,L|319:89,1,48,2|0,0:0|0:0,0:0:0:0:
393,51,41470,2,0,L|397:3,1,48,8|0,0:0|0:0,0:0:0:0:
474,32,41870,2,0,L|478:79,1,48
459,161,42298,2,0,B|431:260|484:251|460:350,1,192,2|0,0:0|0:0,0:0:0:0:
460,349,43647,5,4,0:0:0:0:
318,258,44091,2,0,L|193:277,1,120,0|0,0:0|0:0,0:0:0:0:
23,309,44980,1,8,0:0:0:0:
82,148,45367,2,0,P|85:89|45:44,1,120,0|0,0:0|0:0,0:0:0:0:
23,216,46141,6,0,P|69:238|147:212,1,120,2|0,0:0|0:0,0:0:0:0:
200,68,46891,1,0,0:0:0:0:
300,202,47266,1,8,0:0:0:0:
133,223,47641,2,0,P|152:293|188:325,1,120
211,157,48391,1,2,0:0:0:0:
67,70,48766,6,0,L|55:145,1,60
141,119,49141,2,0,L|150:59,1,60,0|0,0:0|0:0,0:0:0:0:
221,13,49516,2,0,P|282:1|352:34,1,120,8|0,0:3|0:0,0:0:0:0:
381,93,50078,1,0,0:0:0:0:
381,93,50266,2,0,P|418:83|452:92,1,60,0|0,0:0|0:0,0:0:0:0:
447,170,50641,6,0,P|418:179|389:176,1,60,2|0,0:3|0:0,0:0:0:0:
310,147,51016,2,0,P|273:175|259:255,1,120,0|0,0:0|0:0,0:0:0:0:
392,343,51766,1,8,0:3:0:0:
388,175,52141,2,0,L|377:56,1,120
377,56,52891,6,0,B|244:48|284:130|153:122,1,240,2|0,0:0|0:0,0:0:0:0:
12,35,54016,2,0,P|24:62|25:91,1,60,8|0,0:0|0:0,0:0:0:0:
0,172,54391,2,0,P|6:200|21:226,1,60
105,240,54766,2,0,P|126:219|141:192,1,60
136,108,55141,6,0,B|260:87|234:187|361:154,1,240,2|0,0:0|0:0,0:0:0:0:
511,78,56266,2,0,L|503:140,1,60,8|0,0:0|0:0,0:0:0:0:
511,221,56641,2,0,P|506:250|493:277,1,60
451,350,57016,2,0,P|421:354|391:350,1,60
322,303,57391,1,2,0:0:0:0:
357,138,57766,6,0,L|351:60,1,60
276,115,58141,2,0,L|199:96,1,60
229,184,58516,2,0,L|160:294,1,120,8|0,0:3|0:0,0:0:0:0:
123,358,59078,1,0,0:0:0:0:
123,358,59266,2,0,P|97:333|86:308,1,60
29,250,59641,6,0,P|26:205|67:126,1,120,2|0,0:3|0:0,0:0:0:0:
127,93,60203,1,0,0:0:0:0:
127,93,60391,2,0,L|187:101,1,60
257,146,60766,2,0,L|388:131,1,120,8|0,0:3|0:0,0:0:0:0:
199,207,61891,6,0,P|150:232|83:206,1,120,6|0,0:0|0:0,0:0:0:0:
143,148,62453,1,0,0:0:0:0:
143,148,62641,2,0,L|199:93,1,60
242,44,63016,2,0,P|297:25|350:50,2,120,10|0|0,0:0|0:0|0:0,0:0:0:0:
387,131,64141,6,0,P|430:92|435:33,1,120,2|0,0:0|0:0,0:0:0:0:
354,54,64703,1,0,0:0:0:0:
354,54,64891,2,0,L|295:65,1,60
210,55,65266,2,0,P|222:111|270:148,1,120,10|0,0:0|0:0,0:0:0:0:
295,64,65828,1,0,0:0:0:0:
346,129,66016,2,0,L|336:202,1,60
325,271,66391,5,2,0:3:0:0:
398,307,66578,1,0,0:0:0:0:
454,248,66766,2,0,B|456:216|456:216|445:188,2,60,2|2|2,0:0|0:0|0:0,0:0:0:0:
244,235,67516,5,10,0:3:0:0:
176,280,67703,1,0,0:0:0:0:
199,358,67891,2,0,B|225:375|225:375|255:380,2,60,2|2|2,0:0|0:0|0:0,0:0:0:0:
318,186,68641,5,2,0:3:0:0:
313,104,68828,1,0,0:0:0:0:
233,85,69016,2,0,B|215:112|215:112|184:124,1,60,2|2,0:0|0:0,0:0:0:0:
112,154,69391,2,0,B|96:125|96:125|102:92,1,60,2|0,0:0|0:0,0:0:0:0:
112,14,69766,2,0,B|144:14|144:14|170:36,1,60,8|0,0:3|0:0,0:0:0:0:
233,85,70141,1,2,0:0:0:0:
315,71,70328,1,2,0:0:0:0:
397,57,70516,1,2,0:0:0:0:
431,324,70891,6,0,L|451:145,1,180,6|0,0:0|0:0,0:0:0:0:
454,115,71641,1,0,0:0:0:0:
310,117,72016,6,0,L|293:278,1,161.999995056153,8|0,0:0|0:0,0:0:0:0:
290,308,72766,1,0,0:0:0:0:
145,292,73141,6,0,L|161:147,1,144,2|0,0:0|0:0,0:0:0:0:
164,118,73891,1,0,0:0:0:0:
20,115,74266,6,0,L|6:246,1,125.999996154785,8|0,0:0|0:0,0:0:0:0:
3,272,75016,1,0,0:0:0:0:
256,192,75391,12,0,77641,0:0:0:0:
208,268,78766,5,0,0:0:0:0:
256,104,79141,1,2,0:0:0:0:
304,268,79516,1,2,0:0:0:0:
256,192,79891,5,4,0:0:0:0:
