osu file format v14

[General]
AudioFilename: Northern Desert.mp3
AudioLeadIn: 0
PreviewTime: 43647
Countdown: 1
SampleSet: None
StackLeniency: 0.7
Mode: 0
LetterboxInBreaks: 0
WidescreenStoryboard: 1

[Editor]
DistanceSpacing: 1.3
BeatDivisor: 3
GridSize: 32
TimelineZoom: 1.4

[Metadata]
Title:Kita no Sabaku
TitleUnicode:きたのさばく
Artist:Arata Iiyoshi, Hideki Sakamoto, Keisuke Ito
ArtistUnicode:飯吉新、坂本英城、いとうけいすけ
Creator:David-
Version:gtfo's Easy
Source:ポケモン不思議のダンジョン 空の探検隊
Tags:pokémon pokemon nintendo nds mystery dungeon explorers of darkness time sky pmd 時の探検隊 闇の探検隊 nothern desert gtfo
BeatmapID:1434861
BeatmapSetID:678031

[Difficulty]
HPDrainRate:2
CircleSize:2.5
OverallDifficulty:3
ApproachRate:3
SliderMultiplier:0.7
SliderTickRate:1

[Events]
//Background and Video events
0,0,"Background.jpg",0,0
//Break Periods
//Storyboard Layer 0 (Background)
//Storyboard Layer 1 (Fail)
//Storyboard Layer 2 (Pass)
//Storyboard Layer 3 (Foreground)
//Storyboard Sound Samples

[TimingPoints]
570,375,3,3,1,30,1,0
9570,-100,3,3,1,30,0,0
27570,-100,3,3,1,30,0,0
41070,400,3,3,1,30,1,0
41870,428.571428571429,3,3,1,30,1,0
42298,444.444444444444,3,3,1,30,1,0
43186,461.538461538462,3,3,1,30,1,0
43647,444.444444444444,3,3,1,30,1,0
44980,387.096774193548,3,3,1,30,1,0
46141,375,3,3,1,30,1,0
61891,-100,3,3,1,40,0,1
70141,-100,3,3,1,40,0,0
70891,-100,3,3,1,50,0,1
72016,-100,3,3,1,40,0,1
73141,-100,3,3,1,30,0,1
75391,-100,3,3,1,30,0,0
77641,-100,3,2,1,20,0,0

[Colours]
Combo1 : 37,185,239
Combo2 : 234,140,0

[HitObjects]
480,98,570,5,6,0:0:0:0:
450,278,1320,1,0,0:0:0:0:
365,245,1695,2,0,L|198:260,1,140,8|0,0:0|0:0,0:0:0:0:
136,270,2820,5,2,0:0:0:0:
172,186,3195,2,0,P|173:151|170:116,1,70
138,31,3945,2,0,L|53:38,2,70,8|2|2,0:0|0:2|0:2,0:0:0:0:
227,49,5070,5,2,0:0:0:0:
406,26,5820,1,0,0:0:0:0:
406,116,6195,2,0,B|403:287,1,140,8|0,0:0|0:0,0:0:0:0:
399,347,7320,6,0,P|359:347|321:336,1,70,2|0,0:0|0:0,0:0:0:0:
266,275,8070,1,0,0:0:0:0:
255,185,8445,2,0,L|248:100,2,70,8|2|2,0:0|0:2|0:2,0:0:0:0:
339,220,9570,5,6,0:3:0:0:
157,245,10320,1,0,0:0:0:0:
80,295,10695,2,0,P|55:197|75:146,1,140,8|0,0:0|0:0,0:0:0:0:
117,88,11820,5,2,0:0:0:0:
201,123,12195,2,0,L|303:119,1,70
349,75,12945,2,0,P|364:41|398:10,2,70,8|2|2,0:0|0:2|0:2,0:0:0:0:
349,166,14070,5,2,0:0:0:0:
430,327,14820,1,0,0:0:0:0:
355,379,15195,2,0,L|192:361,1,140,8|0,0:0|0:0,0:0:0:0:
127,348,16320,5,2,0:0:0:0:
173,173,17070,1,0,0:0:0:0:
161,82,17445,2,0,P|200:67|244:67,2,70,8|2|2,0:0|0:2|0:2,0:0:0:0:
89,138,18570,5,2,0:0:0:0:
104,318,19320,1,0,0:0:0:0:
190,347,19695,2,0,B|260:356|260:356|339:303,1,140,8|0,0:0|0:0,0:0:0:0:
387,259,20820,6,0,P|371:223|371:181,1,70,2|0,0:0|0:0,0:0:0:0:
400,108,21570,1,0,0:0:0:0:
309,118,21945,2,0,L|142:106,1,140,8|0,0:0|0:0,0:0:0:0:
88,68,23070,5,2,0:0:0:0:
35,241,23820,1,0,0:0:0:0:
46,331,24195,2,0,P|118:330|192:272,1,140,8|2,0:0|0:0,0:0:0:0:
223,218,25320,6,0,P|289:235|338:283,1,140,2|2,0:0|0:0,0:0:0:0:
364,372,26445,1,2,0:0:0:0:
480,124,27570,6,0,B|411:106|411:141|342:124,1,140,4|0,0:0|0:0,0:0:0:0:
175,53,29070,1,0,0:0:0:0:
122,226,29820,2,0,B|228:255|223:188|326:218,1,210,2|8,0:0|0:0,0:0:0:0:
372,298,31320,2,0,P|415:302|458:280,1,70
478,211,32070,6,0,B|460:143|495:143|478:74,1,140,2|0,0:0|0:0,0:0:0:0:
301,119,33570,1,0,0:0:0:0:
130,62,34320,2,0,P|61:125|139:147,1,210,2|8,0:0|0:0,0:0:0:0:
275,34,36195,1,0,0:0:0:0:
297,123,36570,6,0,L|293:192,1,70,2|0,0:0|0:0,0:0:0:0:
287,284,37320,1,0,0:0:0:0:
199,260,37695,2,0,L|202:190,1,70,2|0,0:0|0:0,0:0:0:0:
207,99,38445,1,0,0:0:0:0:
275,34,38820,6,0,P|310:12|344:1,2,70,2|0|0,0:0|0:0|0:0,0:0:0:0:
297,123,39945,2,0,B|313:191|279:191|297:260,1,140,8|0,0:0|0:0,0:0:0:0:
343,341,41070,2,0,P|375:329|404:310,2,70,2|8|0,0:0|0:0|0:0,0:0:0:0:
249,338,42298,2,0,B|180:320|180:355|111:338,1,140,2|0,0:0|0:0,0:0:0:0:
38,279,43647,6,0,B|48:136,1,140,4|0,0:0|0:0,0:0:0:0:
75,47,44980,2,0,P|113:46|157:59,1,70,8|0,0:0|0:0,0:0:0:0:
218,106,45754,1,0,0:0:0:0:
195,196,46141,6,0,B|204:335,1,140
345,221,47641,2,0,L|356:137,1,70
341,62,48391,2,0,P|239:32|132:76,2,210,2|0|0,0:0|0:0|0:0,0:0:0:0:
388,330,51766,1,0,0:0:0:0:
339,64,52891,6,0,B|184:79,1,140
112,53,54016,2,0,P|70:61|35:85,1,70,8|0,0:0|0:0,0:0:0:0:
11,158,54766,1,0,0:0:0:0:
41,244,55141,6,0,B|151:211|140:267|248:242,1,210,0|8,0:0|0:0,0:0:0:0:
325,194,56641,2,0,P|364:194|409:204,1,70
465,257,57391,2,0,L|459:337,2,70,2|0|0,0:0|0:0|0:0,0:0:0:0:
476,167,58516,6,0,P|431:70|337:45,2,210,10|0|0,0:0|0:0|0:0,0:0:0:0:
308,382,61891,1,6,0:0:0:0:
322,200,62641,1,0,0:0:0:0:
261,132,63016,2,0,B|190:145|193:108|123:129,1,140,8|0,0:0|0:0,0:0:0:0:
48,180,64141,5,2,0:0:0:0:
104,352,64891,1,0,0:0:0:0:
194,359,65266,2,0,P|228:358|264:348,1,70,8|0,0:0|0:0,0:0:0:0:
336,296,66016,1,0,0:0:0:0:
364,210,66391,6,0,B|390:142|349:142|369:72,1,140,2|0,0:0|0:0,0:0:0:0:
461,71,67516,2,0,B|481:141|440:141|466:209,1,140,8|0,0:0|0:0,0:0:0:0:
490,295,68641,2,0,B|388:278|384:322|281:302,1,210,2|8,0:0|0:0,0:0:0:0:
207,250,70141,1,0,0:0:0:0:
35,309,70891,6,0,L|20:170,1,140,6|0,0:0|0:0,0:0:0:0:
102,127,72016,2,0,L|116:265,1,140,8|0,0:0|0:0,0:0:0:0:
206,288,73141,2,0,L|191:149,1,140,2|0,0:0|0:0,0:0:0:0:
273,106,74266,2,0,L|288:245,1,140,8|0,0:0|0:0,0:0:0:0:
256,192,75391,12,0,77641,0:0:0:0:
256,192,79891,5,4,0:0:0:0:
