osu file format v14

[General]
AudioFilename: Northern Desert.mp3
AudioLeadIn: 0
PreviewTime: 43647
Countdown: 1
SampleSet: None
StackLeniency: 0.7
Mode: 0
LetterboxInBreaks: 0
WidescreenStoryboard: 1

[Editor]
Bookmarks: 58516
DistanceSpacing: 0.6
BeatDivisor: 4
GridSize: 4
TimelineZoom: 1

[Metadata]
Title:Kita no Sabaku
TitleUnicode:きたのさばく
Artist:Arata Iiyoshi, Hideki Sakamoto, Keisuke Ito
ArtistUnicode:飯吉新、坂本英城、いとうけいすけ
Creator:David-
Version:Normal
Source:ポケモン不思議のダンジョン 空の探検隊
Tags:pokémon pokemon nintendo nds mystery dungeon explorers of darkness time sky pmd 時の探検隊 闇の探検隊 nothern desert gtfo
BeatmapID:1443991
BeatmapSetID:678031

[Difficulty]
HPDrainRate:4
CircleSize:3.5
OverallDifficulty:4
ApproachRate:4
SliderMultiplier:0.8
SliderTickRate:1

[Events]
//Background and Video events
0,0,"Background.jpg",0,0
//Break Periods
//Storyboard Layer 0 (Background)
//Storyboard Layer 1 (Fail)
//Storyboard Layer 2 (Pass)
//Storyboard Layer 3 (Foreground)
//Storyboard Sound Samples

[TimingPoints]
570,375,3,3,1,30,1,0
27570,-100,3,3,1,30,0,0
41070,400,3,3,1,30,1,0
41870,428.571428571429,3,3,1,30,1,0
42298,444.444444444444,3,3,1,30,1,0
43186,461.538461538462,3,3,1,30,1,0
43647,444.444444444444,3,3,1,30,1,0
44980,387.096774193548,3,3,1,30,1,0
46141,375,3,3,1,30,1,0
61891,-100,3,3,1,40,0,1
70516,-100,3,3,1,30,0,0
70891,-100,3,3,1,50,0,1
72016,-100,3,3,1,40,0,1
73141,-100,3,3,1,30,0,1
75391,-100,3,3,1,30,0,0
77641,-100,3,2,1,20,0,0

[Colours]
Combo1 : 37,185,239
Combo2 : 234,140,0

[HitObjects]
288,52,570,6,0,P|304:96|420:104,1,160,6|0,0:0|0:0,0:0:0:0:
481,57,1695,2,0,B|501:97|501:97|485:225,1,160,8|0,0:0|0:0,0:0:0:0:
467,305,2820,1,2,0:0:0:0:
313,185,3570,5,0,0:0:0:0:
407,201,3945,2,0,L|490:211,2,80,8|2|2,0:0|0:2|0:2,0:0:0:0:
346,275,5070,6,0,P|277:318|205:294,1,160,2|0,0:0|0:0,0:0:0:0:
195,200,6195,2,0,P|241:159|259:235,1,160,8|0,0:0|0:0,0:0:0:0:
201,298,7320,1,2,0:0:0:0:
35,200,8070,5,0,0:0:0:0:
19,106,8445,2,0,L|9:23,2,80,8|2|2,0:0|0:2|0:2,0:0:0:0:
112,132,9570,6,0,P|151:125|182:101,1,80,6|0,0:0|0:0,0:0:0:0:
207,9,10320,1,0,0:0:0:0:
288,60,10695,2,0,P|305:96|304:134,1,80,8|0,0:0|0:0,0:0:0:0:
244,210,11445,1,0,0:0:0:0:
325,261,11820,6,0,L|407:256,1,80,2|0,0:0|0:0,0:0:0:0:
490,302,12570,1,0,0:0:0:0:
421,369,12945,2,0,L|339:374,1,80,8|0,0:0|0:0,0:0:0:0:
256,328,13695,1,0,0:0:0:0:
173,376,14070,6,0,P|159:339|164:300,1,80,2|0,0:0|0:0,0:0:0:0:
231,231,14820,1,0,0:0:0:0:
157,169,15195,2,0,P|117:165|81:179,1,80,8|0,0:0|0:0,0:0:0:0:
31,261,15945,1,0,0:0:0:0:
96,332,16320,6,0,P|119:302|127:253,1,80,2|0,0:0|0:0,0:0:0:0:
80,179,17070,1,0,0:0:0:0:
140,104,17445,2,0,L|228:108,2,80,8|2|2,0:0|0:2|0:2,0:0:0:0:
46,89,18570,6,0,P|87:23|163:11,1,160,2|0,0:0|0:0,0:0:0:0:
251,53,19695,2,0,P|291:64|339:57,1,80,8|0,0:0|0:0,0:0:0:0:
417,22,20445,6,0,L|423:61,1,40
463,89,20820,2,0,L|454:172,1,80,2|0,0:0|0:0,0:0:0:0:
440,264,21570,2,0,L|400:257,1,40
373,218,21945,2,0,L|290:227,1,80,8|0,0:0|0:0,0:0:0:0:
224,294,22695,6,0,P|244:310|273:320,1,40
304,323,23070,1,2,0:0:0:0:
192,168,23820,1,0,0:0:0:0:
97,184,24195,1,8,0:0:0:0:
2,201,24570,1,0,0:0:0:0:
64,274,24945,5,2,0:3:0:0:
64,274,25320,1,2,0:3:0:0:
129,93,26070,1,2,0:3:0:0:
129,93,26445,1,2,0:3:0:0:
129,93,27570,6,0,B|205:71|209:123|289:103,1,160,4|0,0:0|0:0,0:0:0:0:
357,38,28695,1,8,0:0:0:0:
381,131,29070,2,0,P|434:188|512:180,2,160,0|2|0,0:0|0:0|0:0,0:0:0:0:
357,38,30945,2,0,P|323:55|281:55,1,80,8|0,0:0|0:0,0:0:0:0:
204,0,31695,1,0,0:0:0:0:
116,40,32070,6,0,B|102:117|154:116|139:194,1,160,2|0,0:0|0:0,0:0:0:0:
96,280,33195,1,8,0:0:0:0:
184,316,33570,2,0,P|126:372|49:364,2,160,0|2|0,0:0|0:0|0:0,0:0:0:0:
96,280,35445,1,8,0:0:0:0:
276,350,36195,5,0,0:0:0:0:
367,318,36570,1,2,0:0:0:0:
458,285,36945,1,0,0:0:0:0:
439,380,37320,1,0,0:0:0:0:
367,318,37695,1,8,0:0:0:0:
386,223,38070,1,0,0:0:0:0:
477,191,38445,1,0,0:0:0:0:
459,285,38820,6,0,P|413:263|386:222,1,80,2|0,0:0|0:0,0:0:0:0:
407,149,39570,1,0,0:0:0:0:
407,149,39945,2,0,B|368:144|332:172|332:172|296:148|248:152,1,160,8|0,0:0|0:0,0:0:0:0:
202,80,41070,6,0,P|176:110|165:148,1,80,2|8,0:0|0:0,0:0:0:0:
215,229,41870,1,0,0:0:0:0:
215,229,42298,2,0,P|136:240|72:176,1,160,2|0,0:0|0:0,0:0:0:0:
79,92,43647,6,0,P|39:104|-10:101,2,80,4|0|0,0:0|0:0|0:0,0:0:0:0:
172,32,44980,2,0,P|212:28|251:40,1,80,8|0,0:0|0:0,0:0:0:0:
324,100,45754,1,0,0:0:0:0:
420,80,46141,2,0,L|428:0,2,80
408,176,47266,1,8,0:0:0:0:
496,140,47641,5,0,0:0:0:0:
484,236,48016,1,0,0:0:0:0:
395,274,48391,2,0,P|320:220|316:140,1,160,2|0,0:0|0:0,0:0:0:0:
355,72,49516,2,0,P|275:68|220:122,1,160,8|0,0:0|0:0,0:0:0:0:
182,210,50641,2,0,P|103:224|41:179,1,160,2|0,0:0|0:0,0:0:0:0:
126,131,51766,1,8,0:0:0:0:
126,131,52141,1,0,0:0:0:0:
96,325,52891,6,0,P|58:339|18:340,2,80
172,266,54016,2,0,P|212:262|251:274,1,80,8|0,0:0|0:0,0:0:0:0:
328,329,54766,1,0,0:0:0:0:
400,269,55141,2,0,L|392:189,2,80
413,364,56266,1,8,0:0:0:0:
488,304,56641,5,0,0:0:0:0:
476,209,57016,1,0,0:0:0:0:
400,269,57391,2,0,P|308:256|267:187,1,160,2|0,0:0|0:0,0:0:0:0:
270,108,58516,2,0,B|230:106|197:137|197:137|159:116|111:124,1,160,8|0,0:0|0:0,0:0:0:0:
76,210,59641,2,0,P|26:149|43:62,1,160,2|0,0:0|0:0,0:0:0:0:
99,2,60766,1,8,0:0:0:0:
99,2,61141,1,0,0:0:0:0:
200,164,61891,6,0,P|239:166|277:178,1,80,6|0,0:0|0:0,0:0:0:0:
343,249,62641,2,0,P|357:231|365:214,1,40,0|0,0:0|0:0,0:0:0:0:
367,169,63016,2,0,P|354:99|416:28,1,160,8|0,0:0|0:0,0:0:0:0:
449,118,64141,1,2,0:0:0:0:
278,29,64891,6,0,P|254:29|226:37,1,40
194,14,65266,2,0,P|146:41|126:73,1,80,8|0,0:0|0:0,0:0:0:0:
58,122,66016,2,0,L|64:161,1,40
104,189,66391,6,0,L|95:272,1,80,2|0,0:0|0:0,0:0:0:0:
81,364,67141,1,0,0:0:0:0:
172,329,67516,2,0,L|254:333,1,80,8|0,0:0|0:0,0:0:0:0:
348,336,68266,1,0,0:0:0:0:
421,274,68641,6,0,P|425:234|415:193,1,80,2|0,0:0|0:0,0:0:0:0:
365,114,69391,1,0,0:0:0:0:
279,157,69766,2,0,P|239:161|198:151,1,80,8|0,0:0|0:0,0:0:0:0:
119,101,70516,1,0,0:0:0:0:
66,181,70891,6,0,L|76:301,1,120,6|0,0:0|0:0,0:0:0:0:
82,348,71641,1,0,0:0:0:0:
178,353,72016,2,0,L|167:232,1,120,8|0,0:0|0:0,0:0:0:0:
163,186,72766,1,0,0:0:0:0:
258,201,73141,6,0,L|271:351,1,120,2|0,0:0|0:0,0:0:0:0:
274,368,73891,1,0,0:0:0:0:
370,373,74266,2,0,L|356:229,1,120,8|0,0:0|0:0,0:0:0:0:
354,206,75016,1,0,0:0:0:0:
256,192,75391,12,0,77641,0:0:0:0:
204,220,79141,5,2,0:2:0:0:
256,139,79516,1,2,0:2:0:0:
308,220,79891,1,4,0:2:0:0:
