osu file format v14

[General]
AudioFilename: Northern Desert.mp3
AudioLeadIn: 0
PreviewTime: 43647
Countdown: 1
SampleSet: Soft
StackLeniency: 0.7
Mode: 0
LetterboxInBreaks: 0
WidescreenStoryboard: 0

[Editor]
Bookmarks: 9570,27570,36195,43647,48766,52891,57766,61891,66391,70891,75391
DistanceSpacing: 0.6
BeatDivisor: 4
GridSize: 4
TimelineZoom: 1

[Metadata]
Title:Kita no Sabaku
TitleUnicode:きたのさばく
Artist:Arata Iiyoshi, Hideki Sakamoto, Keisuke Ito
ArtistUnicode:飯吉新、坂本英城、いとうけいすけ
Creator:David-
Version:Astray
Source:ポケモン不思議のダンジョン 空の探検隊
Tags:pokémon pokemon nintendo nds mystery dungeon explorers of darkness time sky pmd 時の探検隊 闇の探検隊 nothern desert gtfo
BeatmapID:1433792
BeatmapSetID:678031

[Difficulty]
HPDrainRate:5
CircleSize:4
OverallDifficulty:7
ApproachRate:8.4
SliderMultiplier:1.4
SliderTickRate:1

[Events]
//Background and Video events
0,0,"Background.jpg",0,0
//Break Periods
//Storyboard Layer 0 (Background)
//Storyboard Layer 1 (Fail)
//Storyboard Layer 2 (Pass)
//Storyboard Layer 3 (Foreground)
//Storyboard Sound Samples

[TimingPoints]
570,375,3,3,1,30,1,0
9570,-100,3,2,1,30,0,0
24945,-200,3,3,1,30,0,0
28320,-133.333333333333,3,3,1,30,0,0
39945,-200,3,3,1,30,0,0
41070,400,3,3,1,30,1,0
41870,428.571428571429,3,3,1,30,1,0
42298,444.444444444444,3,3,1,30,1,0
42298,-200,3,3,1,30,0,0
43186,461.538461538462,3,3,1,30,1,0
43647,444.444444444444,3,3,1,25,1,0
44091,-133.333333333333,3,3,1,25,0,0
44980,387.096774193548,3,3,1,25,1,0
44980,-133.333333333333,3,3,1,25,0,0
46141,375,3,3,1,25,1,0
46141,-133.333333333333,3,3,1,25,0,0
48766,-100,3,2,1,20,0,0
52891,-133.333333333333,3,3,1,25,0,0
57766,-100,3,2,1,25,0,0
60766,-133.333333333333,3,2,1,25,0,0
61891,-80,3,3,1,35,0,1
66391,-100,3,2,1,30,0,1
70516,-100,3,2,1,30,0,0
70891,-80,3,3,1,45,0,1
72016,-100,3,3,1,35,0,1
73141,-133.333333333333,3,3,1,30,0,1
74266,-200,3,3,1,25,0,1
77641,-100,3,2,1,20,0,0

[Colours]
Combo1 : 37,185,239
Combo2 : 234,140,0

[HitObjects]
20,200,570,5,6,0:0:0:0:
20,200,945,2,0,P|55:202|86:216,1,70
83,305,1320,2,0,P|115:289|148:285,1,70
191,365,1695,2,0,P|241:314|307:299,1,140,8|0,0:0|0:0,0:0:0:0:
405,316,2445,1,0,0:0:0:0:
309,303,2820,5,2,0:0:0:0:
309,303,3195,2,0,P|320:269|341:242,1,70
402,166,3570,2,0,P|423:192|436:224,1,70
474,316,3945,2,0,P|439:322|404:316,1,70,8|0,0:0|0:0,0:0:0:0:
340,242,4320,5,2,0:2:0:0:
511,148,4695,1,2,0:2:0:0:
344,246,5070,5,2,0:0:0:0:
344,246,5445,2,0,P|309:232|276:233,1,70
281,142,5820,2,0,P|245:147|215:163,1,70
174,83,6195,2,0,P|127:133|116:201,1,140,8|0,0:0|0:0,0:0:0:0:
155,293,6945,1,0,0:0:0:0:
120,205,7320,5,2,0:0:0:0:
120,205,7695,2,0,P|82:205|49:192,1,70
13,94,8070,2,0,P|31:61|59:38,1,70
161,57,8445,2,0,P|180:89|185:124,1,70,8|0,0:0|0:0,0:0:0:0:
98,119,8820,5,2,0:2:0:0:
283,52,9195,1,2,0:2:0:0:
283,52,9570,5,6,0:3:0:0:
379,152,9757,1,0,0:0:0:0:
379,152,9945,2,0,L|308:146,1,70
437,54,10320,2,0,P|481:104|488:173,1,140,0|8,0:0|0:3,0:0:0:0:
379,152,10882,5,0,0:0:0:0:
497,193,11070,2,0,P|472:237|427:259,1,70
269,215,11445,2,0,P|253:182|252:148,1,70
348,311,11820,6,0,P|319:332|285:339,1,70,2|0,0:3|0:0,0:0:0:0:
269,215,12195,1,2,0:0:0:0:
512,352,12570,1,2,0:0:0:0:
348,311,12945,6,0,P|368:340|398:357,1,70,8|0,0:3|0:0,0:0:0:0:
452,243,13320,1,2,0:0:0:0:
177,294,13695,1,2,0:0:0:0:
177,294,14070,5,6,0:3:0:0:
40,248,14257,1,0,0:0:0:0:
40,248,14445,2,0,P|29:285|37:326,1,70
131,190,14820,2,0,P|128:113|87:63,1,140,0|8,0:0|0:3,0:0:0:0:
24,156,15382,5,0,0:0:0:0:
145,205,15570,2,0,P|179:205|212:193,1,70
183,39,15945,2,0,P|164:69|160:104,1,70
328,92,16320,6,0,L|259:101,1,70,2|0,0:0|0:0,0:0:0:0:
391,178,16695,1,0,0:0:0:0:
447,86,16882,6,0,L|473:21,1,70,2|0,0:0|0:0,0:0:0:0:
328,92,17257,1,0,0:0:0:0:
391,178,17445,6,0,P|408:211|408:252,1,70,2|0,0:0|0:0,0:0:0:0:
352,344,17820,2,0,B|249:335,1,70
410,243,18195,2,0,B|512:251,1,70
308,237,18570,5,6,0:3:0:0:
308,237,18945,2,0,P|271:233|235:243,1,70
177,326,19320,1,0,0:0:0:0:
282,338,19507,1,0,0:0:0:0:
134,229,19695,2,0,B|40:242|40:242|7:211,1,140,8|0,0:3|0:0,0:0:0:0:
156,120,20445,6,0,L|86:129,1,70
189,10,20820,2,0,P|247:48|271:112,1,140,2|0,0:3|0:0,0:0:0:0:
336,210,21570,6,0,L|405:200,1,70
272,112,21945,2,0,P|226:164|220:232,1,140,8|0,0:3|0:0,0:0:0:0:
297,321,22695,5,0,0:0:0:0:
376,308,22882,1,0,0:0:0:0:
452,292,23070,1,2,0:3:0:0:
452,292,23820,5,0,0:0:0:0:
406,162,24195,1,8,0:3:0:0:
360,32,24570,1,0,0:0:0:0:
428,90,24945,5,2,0:0:0:0:
428,90,25320,2,0,P|383:117|331:117,1,105,2|0,0:0|0:0,0:0:0:0:
258,78,26070,5,2,0:0:0:0:
258,78,26445,2,0,P|295:154|211:140,1,210,10|4,0:0|0:0,0:0:0:0:
256,124,28320,6,0,B|208:156|156:140,1,105.000004005432,0|8,0:0|0:0,0:0:0:0:
80,119,28882,1,0,0:0:0:0:
16,165,29070,2,0,P|0:228|48:304,1,157.500006008148,0|0,0:0|0:0,0:0:0:0:
147,332,29820,6,0,B|168:317|168:317|194:311,1,52.5000020027161,2|0,0:0|0:0,0:0:0:0:
252,365,30195,2,0,B|262:341|262:341|282:323,1,52.5000020027161
359,339,30570,2,0,B|357:313|357:313|365:288,1,52.5000020027161
452,228,30945,6,0,B|476:244|504:248,1,52.5000020027161,8|0,0:0|0:0,0:0:0:0:
371,156,31320,2,0,B|345:168|327:191,1,52.5000020027161
474,121,31695,2,0,B|475:92|465:65,1,52.5000020027161
348,14,32070,6,0,B|268:6|276:54|192:41,1,157.500006008148,2|0,0:0|0:0,0:0:0:0:
120,20,32820,2,0,P|72:36|44:80,1,105.000004005432,0|8,0:0|0:0,0:0:0:0:
40,159,33382,1,0,0:0:0:0:
95,216,33570,2,0,P|140:244|144:340,1,157.500006008148,0|0,0:0|0:0,0:0:0:0:
39,330,34320,6,0,B|56:308|56:308|77:294,1,52.5000020027161,2|0,0:0|0:0,0:0:0:0:
143,340,34695,2,0,B|165:325|165:325|191:319,1,52.5000020027161
237,384,35070,2,0,B|261:378|261:378|289:381,1,52.5000020027161
384,335,35445,6,0,B|364:316|364:316|352:293,1,52.5000020027161,8|0,0:0|0:0,0:0:0:0:
493,221,35820,2,0,B|483:246|483:246|465:266,1,52.5000020027161
368,177,36195,6,0,P|378:153|394:133,1,52.5000020027161
207,99,36570,2,0,P|197:74|181:54,1,52.5000020027161,2|0,0:0|0:0,0:0:0:0:
330,53,36945,6,0,P|314:74|305:99,1,52.5000020027161
117,131,37320,2,0,P|133:152|144:177,1,52.5000020027161
256,192,37695,5,10,0:3:0:0:
256,212,38070,1,0,0:0:0:0:
256,232,38445,1,0,0:0:0:0:
256,336,38820,5,2,0:0:0:0:
151,280,39195,1,0,0:0:0:0:
361,280,39570,1,0,0:0:0:0:
256,336,39945,6,0,B|240:264|268:272|256:192,1,140,6|0,0:0|0:0,0:0:0:0:
256,48,41070,5,2,0:0:0:0:
132,104,41470,1,8,0:0:0:0:
380,104,41870,1,0,0:0:0:0:
256,48,42298,6,0,B|272:120|240:112|256:192,1,140,6|0,0:0|0:0,0:0:0:0:
261,193,43647,5,4,0:0:0:0:
261,193,44091,2,0,P|303:219|327:223,1,52.5000020027161
322,240,44535,2,0,P|371:241|394:232,1,52.5000020027161
473,216,44980,6,0,L|485:276,1,52.5000020027161,8|0,0:0|0:0,0:0:0:0:
378,243,45367,2,0,L|370:191,1,52.5000020027161
439,112,45754,1,0,0:0:0:0:
439,112,46141,6,0,P|394:90|335:92,1,105.000004005432,2|0,0:0|0:0,0:0:0:0:
266,119,46891,1,0,0:0:0:0:
157,55,47266,1,8,0:0:0:0:
157,55,47641,6,0,P|131:82|119:108,1,52.5000020027161
40,140,48016,2,0,P|31:176|34:204,1,52.5000020027161
54,288,48391,1,2,0:0:0:0:
54,288,48766,5,2,0:0:0:0:
111,349,48953,1,0,0:0:0:0:
191,374,49141,1,2,0:0:0:0:
273,361,49328,1,0,0:0:0:0:
342,313,49516,2,0,P|427:327|398:244,1,210,2|0,0:0|0:0,0:0:0:0:
313,233,50266,5,2,0:0:0:0:
389,294,50453,1,0,0:0:0:0:
404,198,50641,1,2,0:0:0:0:
480,259,50828,1,0,0:0:0:0:
500,168,51016,1,2,0:0:0:0:
256,192,51109,12,0,52516,0:0:0:0:
259,195,52891,5,6,0:0:0:0:
259,195,53266,2,0,P|217:221|193:225,1,52.5000020027161
198,242,53641,2,0,P|149:243|126:234,1,52.5000020027161
32,176,54016,6,0,L|36:228,1,52.5000020027161,8|0,0:0|0:0,0:0:0:0:
114,92,54391,2,0,L|118:144,1,52.5000020027161
195,9,54766,1,0,0:0:0:0:
195,9,55141,6,0,P|240:34|296:38,1,105.000004005432,2|0,0:0|0:0,0:0:0:0:
368,16,55891,1,0,0:0:0:0:
452,124,56266,1,8,0:0:0:0:
452,124,56641,6,0,P|457:157|453:192,1,52.5000020027161
355,261,57016,2,0,P|350:228|354:193,1,52.5000020027161
468,295,57391,1,2,0:0:0:0:
468,295,57766,5,2,0:0:0:0:
407,357,57953,1,0,0:0:0:0:
323,383,58141,1,2,0:0:0:0:
237,369,58328,1,0,0:0:0:0:
165,319,58516,2,0,P|160:232|88:132,1,210,2|0,0:0|0:0,0:0:0:0:
24,85,59266,5,2,0:0:0:0:
24,85,59453,1,0,0:0:0:0:
1,170,59641,2,0,P|93:141|94:32,1,210,2|0,0:0|0:0,0:0:0:0:
24,85,60391,5,2,0:0:0:0:
24,85,60578,1,0,0:0:0:0:
99,40,60766,2,0,B|198:1|206:81|306:37,1,210.000008010865,2|0,0:0|0:0,0:0:0:0:
392,132,61891,6,0,P|414:194|516:212,1,175,6|0,0:0|0:0,0:0:0:0:
478,135,62453,1,0,0:0:0:0:
424,284,62641,2,0,P|475:268|504:239,1,87.5
376,120,63016,6,0,P|284:124|200:152,1,175,10|0,0:0|0:0,0:0:0:0:
205,149,63766,1,0,0:0:0:0:
308,238,64141,2,0,P|225:264|138:268,1,175,2|0,0:0|0:0,0:0:0:0:
34,249,64703,5,0,0:0:0:0:
12,137,64891,2,0,P|45:110|88:100,1,87.5
119,252,65266,2,0,P|82:177|0:170,1,175,10|0,0:0|0:0,0:0:0:0:
72,328,65828,5,0,0:0:0:0:
145,229,66016,2,0,P|184:210|227:211,1,87.5
420,296,66391,5,10,0:3:0:0:
361,162,66578,1,0,0:0:0:0:
314,245,66766,5,2,0:2:0:0:
409,275,66953,1,2,0:2:0:0:
455,185,67141,1,2,0:2:0:0:
92,296,67516,5,10,0:3:0:0:
151,162,67703,1,0,0:0:0:0:
198,245,67891,5,2,0:2:0:0:
103,275,68078,1,2,0:2:0:0:
57,185,68266,1,2,0:2:0:0:
256,104,68641,5,10,0:3:0:0:
256,206,68828,1,0,0:0:0:0:
167,156,69016,1,2,0:2:0:0:
256,104,69203,1,2,0:2:0:0:
344,156,69391,1,2,0:2:0:0:
256,206,69578,1,0,0:0:0:0:
167,156,69766,5,10,0:3:0:0:
167,53,69953,1,0,0:0:0:0:
256,1,70141,1,2,0:2:0:0:
344,53,70328,1,2,0:2:0:0:
344,156,70516,1,2,0:2:0:0:
71,47,70891,6,0,L|57:309,1,262.5,6|0,0:0|0:0,0:0:0:0:
108,380,71641,1,0,0:0:0:0:
197,291,72016,6,0,L|186:81,1,210,8|0,0:0|0:0,0:0:0:0:
249,20,72766,1,0,0:0:0:0:
324,115,73141,6,0,L|315:273,1,157.500006008148,2|0,0:0|0:0,0:0:0:0:
366,343,73891,1,0,0:0:0:0:
450,229,74266,6,0,L|444:125,1,105,8|0,0:0|0:0,0:0:0:0:
495,53,75016,1,0,0:0:0:0:
256,192,75391,5,4,0:0:0:0:
256,192,75484,12,0,77641,0:0:0:0:
256,100,78203,6,0,L|256:24,2,70
256,192,78766,1,0,0:0:0:0:
168,252,79141,5,2,0:0:0:0:
344,252,79516,1,2,0:0:0:0:
256,100,79891,1,4,0:0:0:0:
