osu file format v14

[General]
AudioFilename: audio.mp3
AudioLeadIn: 0
PreviewTime: 86
Countdown: 0
SampleSet: None
StackLeniency: 0.4
Mode: 0
LetterboxInBreaks: 0
WidescreenStoryboard: 0

[Editor]
Bookmarks: 13584,20377,30566,45282
DistanceSpacing: 1.4
BeatDivisor: 4
GridSize: 8
TimelineZoom: 1

[Metadata]
Title:Boss Battle!
TitleUnicode:ボスバトル!
Artist:Arata Iiyoshi, Hideki Sakamoto, Keisuke Ito
ArtistUnicode:飯吉新、坂本英城、いとうけいすけ
Creator:CookieBite
Version:Challenge!
Source:ポケモン不思議のダンジョン 空の探検隊
Tags:pokémon pokemon nintendo nds mystery dungeon explorers of the darkness time sky pmd 時の探検隊 闇の探検隊 David- fieryrage Hobbes2 pkhg
BeatmapID:1512368
BeatmapSetID:715709

[Difficulty]
HPDrainRate:6
CircleSize:3.8
OverallDifficulty:8.5
ApproachRate:9.5
SliderMultiplier:1.2
SliderTickRate:1

[Events]
//Background and Video events
0,0,"bg.jpg",0,0
//Break Periods
//Storyboard Layer 0 (Background)
//Storyboard Layer 1 (Fail)
//Storyboard Layer 2 (Pass)
//Storyboard Layer 3 (Foreground)
//Storyboard Sound Samples

[TimingPoints]
86,283.018867924528,6,3,0,60,1,0
13670,-200,3,3,0,60,0,0
13812,-200,3,2,0,40,0,0
15227,-200,3,3,0,60,0,0
15510,-200,3,2,0,40,0,0
16784,-200,3,3,0,60,0,0
17208,-200,3,2,0,40,0,0
18623,-200,3,3,0,60,0,0
18906,-200,3,2,0,40,0,0
19614,-200,3,3,0,45,0,0
19897,-200,3,3,0,50,0,0
20180,-200,3,3,0,55,0,0
20463,-100,3,3,0,60,0,0
23859,-58.8235294117647,3,3,0,60,0,1
27255,-100,3,3,0,60,0,0
30652,283.018867924528,7,3,0,70,1,1
30652,-66.6666666666667,4,3,0,70,0,1
32491,-66.6666666666667,4,3,0,70,0,0
32633,-66.6666666666667,4,3,0,70,0,1
34472,-66.6666666666667,4,3,0,70,0,0
34614,-66.6666666666667,4,3,0,70,0,1
36453,-66.6666666666667,4,3,0,70,0,0
36595,-66.6666666666667,4,3,0,70,0,1
38435,-66.6666666666667,4,3,0,70,0,0
38576,283.018867924528,6,3,0,70,1,1
38576,-100,3,3,0,70,0,1
38646,-100,3,3,0,50,0,0
44236,-100,3,3,0,30,0,0
44377,-100,3,3,0,40,0,0
44519,-100,3,3,0,45,0,0
44660,-100,3,3,0,50,0,0
44802,-100,3,3,0,55,0,0
45368,-100,3,3,0,60,0,1
45439,-100,3,3,0,60,0,0

[Colours]
Combo1 : 201,98,95
Combo2 : 91,205,225
Combo3 : 193,111,225
Combo4 : 226,231,65

[HitObjects]
144,121,86,6,0,P|139:156|144:192,1,59.9999999999999,6|0,0:0|0:0,0:0:0:0:
227,251,369,1,8,0:0:0:0:
71,351,510,2,0,B|131:377|131:322|191:351,1,120,2|0,0:0|0:0,0:0:0:0:
296,340,935,1,8,0:0:0:0:
237,139,1076,2,0,P|213:195|230:255,1,120,2|0,0:0|0:0,0:0:0:0:
389,275,1501,1,8,0:0:0:0:
305,201,1642,1,0,0:0:0:0:
410,163,1784,6,0,L|473:168,1,59.9999999999999,6|0,0:0|0:0,0:0:0:0:
328,97,2067,1,8,0:0:0:0:
389,275,2208,2,0,B|448:297|446:244|503:262,1,120,2|0,0:0|0:0,0:0:0:0:
422,372,2633,1,8,0:0:0:0:
304,155,2774,2,0,P|373:167|411:214,1,120,2|0,0:0|0:0,0:0:0:0:
291,364,3199,1,8,0:0:0:0:
323,249,3340,1,0,0:0:0:0:
218,264,3482,6,0,P|207:292|201:323,1,59.9999999999999,6|0,0:0|0:0,0:0:0:0:
304,155,3765,1,8,0:0:0:0:
175,127,3906,2,0,B|112:104|118:159|57:135,1,120,2|0,0:0|0:0,0:0:0:0:
253,35,4331,1,8,0:0:0:0:
253,232,4472,2,0,P|194:238|147:192,1,120,2|0,0:0|0:0,0:0:0:0:
324,99,4897,1,8,0:0:0:0:
175,127,5038,1,0,0:0:0:0:
355,88,5180,6,0,P|349:119|345:153,1,59.9999999999999,6|0,0:0|0:0,0:0:0:0:
436,228,5463,1,8,0:0:0:0:
285,328,5604,2,0,B|347:352|339:298|399:321,1,120,2|0,0:0|0:0,0:0:0:0:
255,231,6029,1,8,0:0:0:0:
434,145,6170,1,0,0:0:0:0:
280,26,6312,5,0,0:0:0:0:
250,28,6383,1,0,0:0:0:0:
226,45,6453,1,0,0:0:0:0:
216,73,6524,1,0,0:0:0:0:
222,102,6595,1,0,0:0:0:0:
242,123,6666,1,0,0:0:0:0:
271,129,6736,1,0,0:0:0:0:
299,119,6807,1,0,0:0:0:0:
317,96,6878,6,0,P|310:132|308:163,1,59.9999999999999,6|0,0:0|0:0,0:0:0:0:
384,260,7161,1,8,0:0:0:0:
201,331,7302,2,0,B|260:356|259:303|316:325,1,120,2|0,0:0|0:0,0:0:0:0:
239,198,7727,1,8,0:0:0:0:
384,260,7869,2,0,P|410:316|394:376,1,120,2|0,0:0|0:0,0:0:0:0:
188,384,8293,1,8,0:0:0:0:
316,325,8435,1,0,0:0:0:0:
149,384,8576,6,0,L|143:323,1,59.9999999999999,6|0,0:0|0:0,0:0:0:0:
210,180,8859,1,8,0:0:0:0:
316,325,9001,2,0,L|327:205,1,120,2|0,0:0|0:0,0:0:0:0:
367,106,9425,1,8,0:0:0:0:
431,327,9567,2,0,B|367:353|375:301|316:325,1,120,2|0,0:0|0:0,0:0:0:0:
158,172,9991,1,8,0:0:0:0:
179,327,10133,1,0,0:0:0:0:
156,138,10274,6,0,L|218:130,1,59.9999999999999,6|0,0:0|0:0,0:0:0:0:
313,215,10557,1,8,0:0:0:0:
338,88,10699,1,2,0:0:0:0:
435,173,10840,6,0,L|427:235,1,59.9999999999999,6|0,0:0|0:0,0:0:0:0:
385,355,11123,1,8,0:0:0:0:
512,330,11265,1,2,0:0:0:0:
300,258,11406,6,0,L|238:266,1,59.9999999999999,6|0,0:0|0:0,0:0:0:0:
143,181,11689,1,8,0:0:0:0:
118,308,11831,1,2,0:0:0:0:
248,187,11972,5,8,0:0:0:0:
10,134,12114,1,8,0:0:0:0:
222,152,12255,5,4,0:0:0:0:
27,190,12397,1,0,0:0:0:0:
207,115,12538,6,0,L|213:55,1,60,8|2,0:0|0:0,0:0:0:0:
164,291,12821,6,0,P|143:327|136:359,1,59.9999999999999,8|0,0:0|0:0,0:0:0:0:
137,191,13104,2,0,P|96:199|67:214,1,59.9999999999999,8|0,0:0|0:0,0:0:0:0:
207,115,13387,2,0,P|174:88|144:76,1,59.9999999999999,8|0,0:0|0:0,0:0:0:0:
232,215,13670,6,0,L|268:212,3,30,8|0|0|0,0:0|0:0|0:0|0:0,0:0:0:0:
232,215,14378,2,0,L|203:218,2,30
261,212,14802,2,0,L|290:209,2,30
341,154,15227,1,4,0:0:0:0:
358,277,15369,6,0,L|355:306,3,30,4|0|0|0,0:0|0:0|0:0|0:0,0:0:0:0:
358,277,16076,2,0,L|361:248,1,30,0|0,0:0|0:0,0:0:0:0:
319,185,16359,1,0,0:0:0:0:
429,305,16501,2,0,L|431:275,2,30,0|0|4,0:0|0:0|0:0,0:0:0:0:
431,275,17067,6,0,L|433:245,3,30,4|0|0|0,0:0|0:0|0:0|0:0,0:0:0:0:
433,245,17774,2,0,L|435:215,2,30
431,275,18199,2,0,L|429:308,2,30
366,343,18623,1,4,0:0:0:0:
322,227,18765,6,0,L|291:229,1,30,4|0,0:0|0:0,0:0:0:0:
237,176,19048,1,0,0:0:0:0:
358,297,19189,2,0,L|294:301,1,59.9999999999999,0|0,0:0|0:0,0:0:0:0:
199,364,19614,5,10,0:0:0:0:
355,339,19755,5,2,0:0:0:0:
203,285,19897,5,10,0:0:0:0:
378,335,20038,5,2,0:0:0:0:
254,207,20180,5,10,0:0:0:0:
397,331,20321,5,2,0:0:0:0:
328,132,20463,6,0,P|357:126|391:126,1,59.9999999999999,6|0,0:0|0:0,0:0:0:0:
509,218,20746,1,8,0:0:0:0:
281,332,20887,2,0,B|347:356|334:304|397:331,1,120,2|0,0:0|0:0,0:0:0:0:
257,183,21312,1,8,0:0:0:0:
396,330,21453,2,0,P|424:277|419:219,1,120,2|0,0:0|0:0,0:0:0:0:
282,100,21878,1,8,0:0:0:0:
447,147,22019,1,0,0:0:0:0:
252,84,22161,6,0,L|188:93,1,59.9999999999999,6|0,0:0|0:0,0:0:0:0:
34,18,22444,1,8,0:0:0:0:
201,193,22586,2,0,B|134:209|147:162|86:176,1,120,2|0,0:0|0:0,0:0:0:0:
34,18,23010,1,8,0:0:0:0:
87,177,23152,2,0,L|77:300,1,120,2|0,0:0|0:0,0:0:0:0:
244,323,23576,1,8,0:0:0:0:
116,366,23718,1,0,0:0:0:0:
275,308,23859,6,0,L|481:321,1,204.000003890991,6|0,0:0|0:0,0:0:0:0:
351,35,24284,6,0,B|311:147|407:115|351:235,1,204.000003890991,6|0,0:0|0:0,0:0:0:0:
180,222,24708,6,0,P|224:188|282:182,1,102.000001945496,8|0,0:0|0:0,0:0:0:0:
91,257,24991,2,0,P|74:204|88:147,1,102.000001945496,8|0,0:0|0:0,0:0:0:0:
106,352,25274,1,0,0:0:0:0:
80,354,25345,1,0,0:0:0:0:
55,350,25416,1,0,0:0:0:0:
31,341,25486,1,0,0:0:0:0:
11,326,25557,6,0,B|115:270|91:382|203:326,1,204.000003890991,6|0,0:0|0:0,0:0:0:0:
330,106,25982,6,0,P|300:214|317:310,1,204.000003890991,6|0,0:0|0:0,0:0:0:0:
492,209,26406,6,0,P|449:189|396:184,1,102.000001945496,8|0,0:0|0:0,0:0:0:0:
243,373,26689,2,0,P|284:344|314:302,1,102.000001945496,8|0,0:0|0:0,0:0:0:0:
153,144,26972,1,0,0:0:0:0:
175,156,27043,1,0,0:0:0:0:
199,165,27114,1,0,0:0:0:0:
224,169,27185,1,0,0:0:0:0:
249,169,27255,6,0,P|285:158|310:132,1,59.9999999999999,6|0,0:0|0:0,0:0:0:0:
366,6,27538,1,8,0:0:0:0:
122,81,27680,2,0,B|190:55|174:108|237:83,1,120,2|0,0:0|0:0,0:0:0:0:
366,6,28104,1,8,0:0:0:0:
400,231,28246,2,0,L|407:109,1,120,2|0,0:0|0:0,0:0:0:0:
254,58,28670,1,8,0:0:0:0:
464,23,28812,1,0,0:0:0:0:
226,40,28953,6,0,L|230:99,1,59.9999999999999,6|0,0:0|0:0,0:0:0:0:
265,264,29236,1,8,0:0:0:0:
55,179,29378,2,0,P|113:167|172:195,1,120,2|0,0:0|0:0,0:0:0:0:
101,322,29802,1,8,0:0:0:0:
55,179,29944,2,0,L|66:51,1,120,2|0,0:0|0:0,0:0:0:0:
299,4,30369,1,8,0:0:0:0:
150,111,30510,1,0,0:0:0:0:
331,178,30652,5,12,0:0:0:0:
247,126,30793,1,0,0:0:0:0:
209,33,30935,1,2,0:0:0:0:
245,226,31076,5,8,0:0:0:0:
247,126,31218,1,0,0:0:0:0:
309,47,31360,1,2,0:0:0:0:
158,275,31501,5,8,0:0:0:0:
245,226,31642,1,0,0:0:0:0:
345,240,31784,1,2,0:0:0:0:
160,176,31925,5,8,0:0:0:0:
245,226,32066,1,0,0:0:0:0:
283,320,32208,1,2,0:0:0:0:
247,126,32350,5,8,0:0:0:0:
207,345,32491,1,2,0:0:0:0:
130,137,32633,5,12,0:0:0:0:
247,126,32774,1,0,0:0:0:0:
321,34,32916,1,2,0:0:0:0:
198,234,33058,5,8,0:0:0:0:
247,126,33199,1,0,0:0:0:0:
204,16,33341,1,2,0:0:0:0:
267,331,33482,5,8,0:0:0:0:
198,234,33623,1,0,0:0:0:0:
80,215,33765,1,2,0:0:0:0:
316,223,33906,5,8,0:0:0:0:
198,234,34047,1,0,0:0:0:0:
122,325,34189,1,2,0:0:0:0:
80,88,34331,5,8,0:0:0:0:
122,325,34472,1,2,0:0:0:0:
290,86,34614,5,12,0:0:0:0:
316,223,34755,1,0,0:0:0:0:
442,285,34897,1,2,0:0:0:0:
184,178,35039,5,8,0:0:0:0:
316,223,35180,1,0,0:0:0:0:
433,144,35322,1,2,0:0:0:0:
79,270,35463,5,8,0:0:0:0:
184,178,35604,1,0,0:0:0:0:
174,36,35746,1,2,0:0:0:0:
211,315,35887,5,8,0:0:0:0:
184,178,36028,1,0,0:0:0:0:
69,115,36170,1,2,0:0:0:0:
318,49,36312,5,8,0:0:0:0:
69,115,36453,1,2,0:0:0:0:
224,27,36595,5,12,0:0:0:0:
315,143,36736,1,0,0:0:0:0:
463,118,36878,1,2,0:0:0:0:
170,166,37019,5,8,0:0:0:0:
315,143,37160,1,0,0:0:0:0:
368,3,37302,1,2,0:0:0:0:
117,305,37444,5,8,0:0:0:0:
170,166,37585,1,0,0:0:0:0:
74,50,37727,1,2,0:0:0:0:
263,282,37868,5,8,0:0:0:0:
170,166,38009,1,0,0:0:0:0:
21,191,38151,1,2,0:0:0:0:
226,375,38293,5,8,0:0:0:0:
21,191,38434,1,2,0:0:0:0:
256,8,38576,5,2,0:0:0:0:
256,192,38646,12,4,40627,0:0:0:0:
256,352,41689,5,4,0:0:0:0:
60,122,41972,6,0,P|120:94|178:106,1,120,12|0,0:0|0:0,0:0:0:0:
200,240,42396,2,0,P|147:267|88:260,1,120,8|0,0:0|0:0,0:0:0:0:
60,122,42821,1,2,0:0:0:0:
60,122,43104,2,0,L|128:128,1,59.9999999999999,0|0,0:0|0:0,0:0:0:0:
203,25,43387,5,2,0:0:0:0:
203,25,43670,1,0,0:0:0:0:
203,25,43953,2,0,L|197:84,1,59.9999999999999,0|0,0:0|0:0,0:0:0:0:
170,289,44236,5,8,0:0:0:0:
327,264,44377,1,0,0:0:0:0:
156,250,44519,5,8,0:0:0:0:
340,302,44660,1,0,0:0:0:0:
162,201,44802,5,8,0:0:0:0:
182,197,44873,1,0,0:0:0:0:
203,196,44943,1,0,0:0:0:0:
224,198,45014,1,0,0:0:0:0:
243,206,45085,1,0,0:0:0:0:
261,218,45156,1,0,0:0:0:0:
275,232,45226,2,0,P|280:249|281:270,1,30,0|0,0:0|0:0,0:0:0:0:
334,99,45368,5,4,0:0:0:0:
