osu file format v14

[General]
AudioFilename: audio.mp3
AudioLeadIn: 0
PreviewTime: 38645
Countdown: 0
SampleSet: Normal
StackLeniency: 0.7
Mode: 1
LetterboxInBreaks: 0
WidescreenStoryboard: 1

[Editor]
Bookmarks: 788,7573,7633,7692,7752,7811,7871,7930,7990,8049,8109,8168,8228,8407,16026,23645,31264,38645,46502,54121,61740,69359,76978,84597,92216,99835,107454,115073,124597,132216,136026,143645,151264,158883,166502,170311,174121
DistanceSpacing: 0.3
BeatDivisor: 4
GridSize: 32
TimelineZoom: 1.099998

[Metadata]
Title:Temptation (feat. Rebecca) (Nightcore Mix)
TitleUnicode:Temptation (feat. Rebecca) (Nightcore Mix)
Artist:Arash
ArtistUnicode:Arash
Creator:nevqr
Version:Kantan
Source:
Tags:english persian farsi electronic dance pop female male vocals vocalist rebecca zadig arash labbaf восточные сказки vostochniye skazki sped speed up ver. version 2x double bpm
BeatmapID:4431568
BeatmapSetID:2109078

[Difficulty]
HPDrainRate:8
CircleSize:2
OverallDifficulty:3
ApproachRate:9
SliderMultiplier:1.4
SliderTickRate:1

[Events]
//Background and Video events
0,0,"BG.jpg",0,50
//Break Periods
2,124797,126854
2,128607,129711
//Storyboard Layer 0 (Background)
//Storyboard Layer 1 (Fail)
//Storyboard Layer 2 (Pass)
//Storyboard Layer 3 (Foreground)
//Storyboard Layer 4 (Overlay)
//Storyboard Sound Samples

[TimingPoints]
788,476.190476190475,4,1,0,70,1,0
8407,-100,4,1,0,80,0,0
32216,-100,4,1,0,70,0,0
38883,-100,4,1,0,90,0,1
54121,-100,4,1,0,90,0,0
55073,-100,4,1,0,80,0,0
61740,-100,4,1,0,70,0,0
69359,-100,4,1,0,80,0,0
77930,-100,4,1,0,70,0,0
84597,-100,4,1,0,90,0,1
99835,-100,4,1,0,90,0,0
100787,-100,4,1,0,80,0,0
115549,-100,4,1,0,50,0,0
116978,-100,4,1,0,70,0,0
124835,-200,4,1,0,5,0,0
127216,-100,4,1,0,70,0,0
127454,-100,4,1,0,80,0,1
128407,-100,4,1,0,80,0,0
128526,-100,4,1,0,5,0,0
130073,-100,4,1,0,70,0,0
130311,-100,4,1,0,70,0,0
132216,-100,4,1,0,80,0,1
133645,-100,4,1,0,80,0,0
134121,-100,4,1,0,80,0,1
135549,-100,4,1,0,80,0,0
136026,-100,4,1,0,90,0,1
166502,-100,4,1,0,90,0,0
167454,-100,4,1,0,80,0,0
171264,-100,4,1,0,70,0,0
174121,-100,4,1,0,90,0,0

[HitObjects]
256,192,788,5,8,1:0:0:0:
256,192,1740,1,8,1:0:0:0:
256,192,2692,1,0,1:0:0:0:
256,192,3645,1,8,1:0:0:0:
256,192,4121,1,0,1:0:0:0:
256,192,4597,1,8,1:0:0:0:
256,192,5549,1,0,1:0:0:0:
256,192,6502,1,8,1:0:0:0:
256,192,6978,1,8,1:0:0:0:
256,192,7454,1,0,1:0:0:0:
256,192,8407,1,12,1:0:0:0:
256,192,9359,1,8,1:0:0:0:
256,192,9835,1,0,1:0:0:0:
256,192,10311,1,8,1:0:0:0:
256,192,11264,1,0,1:0:0:0:
256,192,11740,1,8,1:0:0:0:
256,192,12216,1,8,1:0:0:0:
256,192,13168,1,0,1:0:0:0:
256,192,13645,1,0,1:0:0:0:
256,192,14121,1,12,1:0:0:0:
256,192,15073,1,12,1:0:0:0:
256,192,16026,1,12,1:0:0:0:
256,192,16978,1,8,1:0:0:0:
256,192,17335,1,0,1:0:0:0:
256,192,17930,1,8,1:0:0:0:
256,192,18883,1,0,1:0:0:0:
256,192,19240,1,8,1:0:0:0:
256,192,19835,1,0,1:0:0:0:
256,192,20311,1,0,1:0:0:0:
256,192,20787,1,8,1:0:0:0:
256,192,21145,1,0,1:0:0:0:
256,192,21740,1,8,1:0:0:0:
256,192,22216,1,0,1:0:0:0:
256,192,22692,1,8,1:0:0:0:
256,192,23049,1,0,1:0:0:0:
256,192,23645,1,8,1:0:0:0:
256,192,24597,1,0,1:0:0:0:
256,192,24954,1,8,1:0:0:0:
256,192,25549,1,0,1:0:0:0:
256,192,26502,1,8,1:0:0:0:
256,192,26859,1,0,1:0:0:0:
256,192,27454,1,8,1:0:0:0:
256,192,27930,1,8,1:0:0:0:
256,192,28407,1,0,1:0:0:0:
256,192,28764,1,8,1:0:0:0:
256,192,29359,1,0,1:0:0:0:
256,192,29835,1,0,1:0:0:0:
256,192,30311,1,8,1:0:0:0:
256,192,30668,1,0,1:0:0:0:
256,192,31264,1,12,1:0:0:0:
256,192,32216,1,0,1:0:0:0:
256,192,33168,1,8,1:0:0:0:
256,192,33645,1,0,1:0:0:0:
256,192,34121,1,8,1:0:0:0:
256,192,35073,1,8,1:0:0:0:
256,192,36026,1,0,1:0:0:0:
256,192,36502,1,8,1:0:0:0:
256,192,36978,1,0,1:0:0:0:
256,192,37930,1,0,1:0:0:0:
256,192,38883,1,12,1:0:0:0:
256,192,39359,1,0,1:0:0:0:
256,192,39835,1,8,1:0:0:0:
256,192,40787,1,0,1:0:0:0:
256,192,41264,1,8,1:0:0:0:
256,192,41740,1,0,1:0:0:0:
256,192,42216,1,0,1:0:0:0:
256,192,42692,1,8,1:0:0:0:
256,192,43645,1,0,1:0:0:0:
256,192,44597,1,8,1:0:0:0:
256,192,45073,1,8,1:0:0:0:
256,192,45549,1,0,1:0:0:0:
256,192,46502,1,12,1:0:0:0:
256,192,46978,1,0,1:0:0:0:
256,192,47454,1,0,1:0:0:0:
256,192,48407,1,8,1:0:0:0:
256,192,48883,1,8,1:0:0:0:
256,192,49359,1,0,1:0:0:0:
256,192,49835,1,0,1:0:0:0:
256,192,50311,1,8,1:0:0:0:
256,192,51264,1,8,1:0:0:0:
256,192,52216,1,0,1:0:0:0:
256,192,52692,1,0,1:0:0:0:
256,192,53168,1,8,1:0:0:0:
256,192,54121,1,12,1:0:0:0:
256,192,55073,1,0,1:0:0:0:
256,192,55549,1,0,1:0:0:0:
256,192,56026,1,8,1:0:0:0:
256,192,56978,1,0,1:0:0:0:
256,192,57454,1,8,1:0:0:0:
256,192,57930,1,0,1:0:0:0:
256,192,58883,1,8,1:0:0:0:
256,192,59359,1,0,1:0:0:0:
256,192,59835,1,12,1:0:0:0:
256,192,60787,1,12,1:0:0:0:
256,192,61740,1,0,1:0:0:0:
256,192,62692,1,8,1:0:0:0:
256,192,63049,1,0,1:0:0:0:
256,192,63645,1,8,1:0:0:0:
256,192,64597,1,0,1:0:0:0:
256,192,64954,1,8,1:0:0:0:
256,192,65549,1,0,1:0:0:0:
256,192,66502,1,8,1:0:0:0:
256,192,66859,1,8,1:0:0:0:
256,192,67454,1,0,1:0:0:0:
256,192,68407,1,8,1:0:0:0:
256,192,68764,1,0,1:0:0:0:
256,192,69359,1,12,1:0:0:0:
256,192,70311,1,0,1:0:0:0:
256,192,70668,1,8,1:0:0:0:
256,192,71264,1,8,1:0:0:0:
256,192,72216,1,8,1:0:0:0:
256,192,72573,1,0,1:0:0:0:
256,192,73168,1,8,1:0:0:0:
256,192,73645,1,0,1:0:0:0:
256,192,74121,1,8,1:0:0:0:
256,192,74478,1,0,1:0:0:0:
256,192,75073,1,8,1:0:0:0:
256,192,75549,1,8,1:0:0:0:
256,192,76026,1,0,1:0:0:0:
256,192,76383,1,8,1:0:0:0:
256,192,76978,1,12,1:0:0:0:
256,192,77930,1,0,1:0:0:0:
256,192,78883,1,8,1:0:0:0:
256,192,79359,1,8,1:0:0:0:
256,192,79835,1,0,1:0:0:0:
256,192,80787,1,8,1:0:0:0:
256,192,81740,1,0,1:0:0:0:
256,192,82216,1,8,1:0:0:0:
256,192,82692,1,0,1:0:0:0:
256,192,83645,1,0,1:0:0:0:
256,192,84597,1,12,1:0:0:0:
256,192,85073,1,0,1:0:0:0:
256,192,85549,1,0,1:0:0:0:
256,192,86502,1,8,1:0:0:0:
256,192,86978,1,8,1:0:0:0:
256,192,87454,1,0,1:0:0:0:
256,192,87930,1,8,1:0:0:0:
256,192,88407,1,0,1:0:0:0:
256,192,89359,1,8,1:0:0:0:
256,192,90311,1,0,1:0:0:0:
256,192,90787,1,0,1:0:0:0:
256,192,91264,1,8,1:0:0:0:
256,192,92216,1,12,1:0:0:0:
256,192,92692,1,0,1:0:0:0:
256,192,93168,1,8,1:0:0:0:
256,192,94121,1,0,1:0:0:0:
256,192,94597,1,0,1:0:0:0:
256,192,95073,1,8,1:0:0:0:
256,192,95549,1,8,1:0:0:0:
256,192,96026,1,0,1:0:0:0:
256,192,96978,1,8,1:0:0:0:
256,192,97930,1,0,1:0:0:0:
256,192,98407,1,0,1:0:0:0:
256,192,98883,1,8,1:0:0:0:
256,192,99359,1,0,1:0:0:0:
256,192,99835,1,12,1:0:0:0:
256,192,100787,1,8,1:0:0:0:
256,192,101145,1,0,1:0:0:0:
256,192,101740,1,8,1:0:0:0:
256,192,102216,1,8,1:0:0:0:
256,192,102692,1,0,1:0:0:0:
256,192,103645,1,8,1:0:0:0:
256,192,104597,1,0,1:0:0:0:
256,192,104954,1,8,1:0:0:0:
256,192,105549,1,0,1:0:0:0:
256,192,106026,1,8,1:0:0:0:
256,192,106502,1,0,1:0:0:0:
256,192,107454,1,12,1:0:0:0:
256,192,108407,1,8,1:0:0:0:
256,192,109359,1,0,1:0:0:0:
256,192,109835,1,8,1:0:0:0:
256,192,110311,1,0,1:0:0:0:
256,192,111264,1,8,1:0:0:0:
256,192,112216,1,0,1:0:0:0:
256,192,113168,1,8,1:0:0:0:
256,192,113645,1,8,1:0:0:0:
256,192,114121,1,0,1:0:0:0:
256,192,115073,1,12,1:0:0:0:
256,192,115549,8,0,116502,1:0:0:0:
256,192,116978,5,8,1:0:0:0:
256,192,117930,1,0,1:0:0:0:
256,192,118407,1,0,1:0:0:0:
256,192,118883,1,8,1:0:0:0:
256,192,119359,1,0,1:0:0:0:
256,192,120311,1,8,1:0:0:0:
256,192,120787,1,8,1:0:0:0:
256,192,121740,1,0,1:0:0:0:
256,192,122216,1,8,1:0:0:0:
256,192,122692,1,8,1:0:0:0:
256,192,123168,1,0,0:0:0:0:
256,192,124121,1,0,1:0:0:0:
256,192,124597,1,12,1:0:0:0:
256,193,127454,5,8,1:0:0:0:
256,193,127930,1,0,1:0:0:0:
256,193,128407,1,8,1:0:0:0:
256,192,130311,5,12,1:0:0:0:
256,192,131264,1,0,1:0:0:0:
256,192,131740,1,0,1:0:0:0:
256,192,132216,1,12,1:0:0:0:
256,192,132930,1,12,1:0:0:0:
256,192,133645,1,4,1:0:0:0:
256,192,134121,1,12,1:0:0:0:
256,192,135073,1,12,1:0:0:0:
256,192,135549,1,4,1:0:0:0:
256,192,136026,1,12,1:0:0:0:
256,192,136502,1,0,1:0:0:0:
256,192,136978,1,8,1:0:0:0:
256,192,137930,1,0,1:0:0:0:
256,192,138407,1,8,1:0:0:0:
256,192,138883,1,0,1:0:0:0:
256,192,139359,1,0,1:0:0:0:
256,192,139835,1,8,1:0:0:0:
256,192,140787,1,0,1:0:0:0:
256,192,141740,1,8,1:0:0:0:
256,192,142216,1,8,1:0:0:0:
256,192,142692,1,0,1:0:0:0:
256,192,143645,1,12,1:0:0:0:
256,192,144121,1,0,1:0:0:0:
256,192,144597,1,0,1:0:0:0:
256,192,145549,1,8,1:0:0:0:
256,192,146026,1,8,1:0:0:0:
256,192,146502,1,0,1:0:0:0:
256,192,146978,1,0,1:0:0:0:
256,192,147454,1,8,1:0:0:0:
256,192,148407,1,8,1:0:0:0:
256,192,149359,1,0,1:0:0:0:
256,192,149835,1,0,1:0:0:0:
256,192,150311,1,8,1:0:0:0:
256,192,151264,1,12,1:0:0:0:
256,192,151740,1,0,1:0:0:0:
256,192,152216,1,0,1:0:0:0:
256,192,153168,1,8,1:0:0:0:
256,192,153645,1,8,1:0:0:0:
256,192,154121,1,0,1:0:0:0:
256,192,154597,1,8,1:0:0:0:
256,192,155073,1,0,1:0:0:0:
256,192,156026,1,8,1:0:0:0:
256,192,156978,1,0,1:0:0:0:
256,192,157454,1,0,1:0:0:0:
256,192,157930,1,8,1:0:0:0:
256,192,158883,1,12,1:0:0:0:
256,192,159359,1,0,1:0:0:0:
256,192,159835,1,8,1:0:0:0:
256,192,160787,1,0,1:0:0:0:
256,192,161264,1,0,1:0:0:0:
256,192,161740,1,8,1:0:0:0:
256,192,162216,1,8,1:0:0:0:
256,192,162692,1,0,1:0:0:0:
256,192,163645,1,8,1:0:0:0:
256,192,164597,1,0,1:0:0:0:
256,192,165073,1,0,1:0:0:0:
256,192,165549,1,8,1:0:0:0:
256,192,166026,1,0,1:0:0:0:
256,192,166502,1,12,1:0:0:0:
256,192,167454,1,8,1:0:0:0:
256,192,167811,1,0,1:0:0:0:
256,192,168407,1,8,1:0:0:0:
256,192,168883,1,8,1:0:0:0:
256,192,169359,1,0,1:0:0:0:
256,192,170311,1,12,1:0:0:0:
256,192,171264,1,0,1:0:0:0:
256,192,172216,1,8,1:0:0:0:
256,192,173168,1,0,1:0:0:0:
256,192,173645,1,0,1:0:0:0:
256,192,174121,1,12,1:0:0:0:
