osu file format v14

[General]
AudioFilename: audio.mp3
AudioLeadIn: 0
PreviewTime: 38645
Countdown: 0
SampleSet: Normal
StackLeniency: 0.7
Mode: 1
LetterboxInBreaks: 0
WidescreenStoryboard: 1

[Editor]
Bookmarks: 788,7573,7633,7692,7752,7811,7871,7930,7990,8049,8109,8168,8228,8407,16026,23645,31264,38645,46502,54121,61740,69359,76978,84597,92216,99835,107454,115073,124597,132216,136026,143645,151264,158883,166502,170311,174121
DistanceSpacing: 0.2
BeatDivisor: 8
GridSize: 32
TimelineZoom: 1.899999

[Metadata]
Title:Temptation (feat. Rebecca) (Nightcore Mix)
TitleUnicode:Temptation (feat. Rebecca) (Nightcore Mix)
Artist:Arash
ArtistUnicode:Arash
Creator:nevqr
Version:Hell Oni
Source:
Tags:english persian farsi electronic dance pop female male vocals vocalist rebecca zadig arash labbaf восточные сказки vostochniye skazki sped speed up ver. version 2x double bpm
BeatmapID:4429913
BeatmapSetID:2109078

[Difficulty]
HPDrainRate:6
CircleSize:2
OverallDifficulty:7
ApproachRate:9
SliderMultiplier:2.6
SliderTickRate:1

[Events]
//Background and Video events
0,0,"BG.jpg",0,50
//Break Periods
2,124797,126854
2,128607,129711
//Storyboard Layer 0 (Background)
//Storyboard Layer 1 (Fail)
//Storyboard Layer 2 (Pass)
//Storyboard Layer 3 (Foreground)
//Storyboard Layer 4 (Overlay)
//Storyboard Sound Samples

[TimingPoints]
788,476.190476190475,4,1,0,70,1,0
788,-133.333333333333,4,1,0,70,0,0
7573,-100,4,1,0,70,0,0
8407,-83.3333333333333,4,1,0,80,0,1
8526,-100,4,1,0,80,0,0
14121,-90.9090909090909,4,1,0,80,0,1
14240,-100,4,1,0,80,0,0
14478,-83.3333333333333,4,1,0,80,0,1
14597,-100,4,1,0,80,0,0
14835,-76.9230769230769,4,1,0,80,0,1
14954,-100,4,1,0,80,0,0
15073,-71.4285714285714,4,1,0,80,0,1
15192,-100,4,1,0,80,0,0
15311,-105.263157894737,4,1,0,80,0,0
15371,-103.209019947962,4,1,0,80,0,0
15430,-101.26582278481,4,1,0,80,0,0
15490,-99.3633232439203,4,1,0,80,0,0
15549,-97.5609756097561,4,1,0,80,0,0
15609,-95.7939223183739,4,1,0,80,0,0
15668,-94.1176470588235,4,1,0,80,0,0
15728,-92.4720738222438,4,1,0,80,0,0
15787,-90.9090909090909,4,1,0,80,0,0
16145,-100,4,1,0,80,0,0
30668,-98.0424411909854,4,1,0,80,0,0
30728,-97.0842156703046,4,1,0,80,0,0
30787,-96.1600516295579,4,1,0,80,0,0
30847,-95.2380952380952,4,1,0,80,0,0
30907,-94.3485831882222,4,1,0,80,0,0
30966,-93.4608750196017,4,1,0,80,0,0
31026,-92.5897157060743,4,1,0,80,0,0
31145,-90.9090909090909,4,1,0,80,0,0
31264,-83.3333333333333,4,1,0,80,0,0
31383,-117.647058823529,4,1,0,80,0,0
31621,-117.647058823529,4,1,0,70,0,0
36978,-90.9090909090909,4,1,0,70,0,0
37216,-111.111111111111,4,1,0,70,0,0
37335,-110.092449922958,4,1,0,70,0,0
37454,-109.092297121918,4,1,0,70,0,0
37573,-108.11015282191,4,1,0,70,0,0
37692,-107.145534977881,4,1,0,70,0,0
37811,-106.197978596908,4,1,0,70,0,0
37930,-105.267034990792,4,1,0,70,0,0
38049,-104.352271067621,4,1,0,70,0,0
38168,-103.453268659958,4,1,0,70,0,0
38287,-102.569623887453,4,1,0,70,0,0
38407,-101.693709080558,4,1,0,70,0,0
38526,-100.839743137393,4,1,0,70,0,0
38645,-100,4,1,0,70,0,0
38883,-76.9230769230769,4,1,0,90,0,1
39002,-90.9090909090909,4,1,0,90,0,1
54121,-76.9230769230769,4,1,0,90,0,0
54240,-100,4,1,0,90,0,0
54359,-100,4,1,0,80,0,0
59478,-98.5932143279347,4,1,0,80,0,0
59537,-97.9103075839399,4,1,0,80,0,0
59597,-97.2254604802984,4,1,0,80,0,0
59657,-96.5501273442926,4,1,0,80,0,0
59716,-95.8951362538806,4,1,0,80,0,0
59776,-95.2380952380952,4,1,0,80,0,0
59835,-86.9565217391304,4,1,0,80,0,1
59954,-100,4,1,0,80,0,0
60192,-80,4,1,0,80,0,1
60311,-100,4,1,0,80,0,0
60549,-74.0740740740741,4,1,0,80,0,1
60668,-100,4,1,0,80,0,0
60787,-68.9655172413793,4,1,0,80,0,1
60907,-50,4,1,0,50,0,0
61740,-117.647058823529,4,1,0,70,0,0
69359,-90.9090909090909,4,1,0,80,0,0
69478,-100,4,1,0,80,0,0
76383,-98.0424411909854,4,1,0,80,0,0
76442,-97.0842156703046,4,1,0,80,0,0
76502,-96.1600516295579,4,1,0,80,0,0
76561,-95.2380952380952,4,1,0,80,0,0
76621,-94.3485831882222,4,1,0,80,0,0
76680,-93.4608750196017,4,1,0,80,0,0
76740,-92.5897157060743,4,1,0,80,0,0
76859,-90.9090909090909,4,1,0,80,0,0
76978,-83.3333333333333,4,1,0,80,0,0
77097,-117.647058823529,4,1,0,80,0,0
77335,-117.647058823529,4,1,0,70,0,0
82692,-90.9090909090909,4,1,0,70,0,0
82930,-111.111111111111,4,1,0,70,0,0
83049,-110.092449922958,4,1,0,70,0,0
83168,-109.092297121918,4,1,0,70,0,0
83287,-108.11015282191,4,1,0,70,0,0
83407,-107.145534977881,4,1,0,70,0,0
83526,-106.197978596908,4,1,0,70,0,0
83645,-105.267034990792,4,1,0,70,0,0
83764,-104.352271067621,4,1,0,70,0,0
83883,-103.453268659958,4,1,0,70,0,0
84002,-102.569623887453,4,1,0,70,0,0
84121,-101.693709080558,4,1,0,70,0,0
84240,-100.839743137393,4,1,0,70,0,0
84359,-100,4,1,0,70,0,0
84597,-76.9230769230769,4,1,0,90,0,1
84716,-90.9090909090909,4,1,0,90,0,1
99835,-76.9230769230769,4,1,0,90,0,0
99954,-100,4,1,0,90,0,0
100073,-100,4,1,0,80,0,0
106859,-98.0392156862745,4,1,0,80,0,0
106918,-97.0953002610966,4,1,0,80,0,0
106978,-96.1538461538461,4,1,0,80,0,0
107037,-95.2457179446134,4,1,0,80,0,0
107097,-94.3396226415094,4,1,0,80,0,0
107157,-93.4506046803832,4,1,0,80,0,0
107216,-92.5925925925926,4,1,0,80,0,0
107276,-91.7360468701819,4,1,0,80,0,0
107335,-90.9090909090909,4,1,0,80,0,0
107454,-83.3333333333333,4,1,0,80,0,1
107573,-95.2380952380952,4,1,0,80,0,0
114359,-93.8636914867815,4,1,0,80,0,0
114418,-93.1968693558098,4,1,0,80,0,0
114478,-92.5283921099821,4,1,0,80,0,0
114597,-91.2305516265912,4,1,0,80,0,0
114716,-89.9686155992096,4,1,0,80,0,0
114835,-88.7411144232974,4,1,0,80,0,0
114895,-88.1348212252334,4,1,0,80,0,0
114954,-87.5466576179165,4,1,0,80,0,0
115014,-86.9565217391304,4,1,0,80,0,0
115073,-80,4,1,0,80,0,1
115192,-54.054054054054,4,1,0,50,0,0
116740,-117.647058823529,4,1,0,70,0,0
116799,-114.313160422671,4,1,0,70,0,0
116859,-111.111111111111,4,1,0,70,0,0
116918,-108.132666969559,4,1,0,70,0,0
116978,-105.263157894737,4,1,0,70,0,0
123407,-103.279722485021,4,1,0,70,0,0
123526,-102.319768804187,4,1,0,70,0,0
123645,-101.377495743693,4,1,0,70,0,0
123764,-100.452419292999,4,1,0,70,0,0
123883,-99.5440729483283,4,1,0,70,0,0
124002,-98.6520069282326,4,1,0,70,0,0
124121,-97.7757874309599,4,1,0,70,0,0
124240,-96.9149959310498,4,1,0,70,0,0
124359,-96.0692285127603,4,1,0,70,0,0
124478,-95.2380952380952,4,1,0,70,0,0
124597,-86.9565217391304,4,1,0,70,0,0
124716,-200,4,1,0,5,0,0
127216,-100,4,1,0,70,0,0
127454,-100,4,1,0,80,0,1
127811,-108.108108108108,4,1,0,80,0,1
127930,-111.111111111111,4,1,0,80,0,1
128407,-100,4,1,0,80,0,0
128526,-100,4,1,0,5,0,0
130073,-100,4,1,0,70,0,0
130311,-90.9090909090909,4,1,0,70,0,0
130668,-111.111111111111,4,1,0,70,0,0
130787,-110.092449922958,4,1,0,70,0,0
131145,-107.137501874344,4,1,0,70,0,0
131383,-105.259281084266,4,1,0,70,0,0
131502,-104.344651332603,4,1,0,70,0,0
131621,-103.44577964384,4,1,0,70,0,0
131740,-102.562262255078,4,1,0,70,0,0
131859,-101.693709080558,4,1,0,70,0,0
131978,-100.839743137393,4,1,0,70,0,0
132097,-100,4,1,0,70,0,0
132216,-90.9090909090909,4,1,0,80,0,1
132454,-90.9090909090909,4,1,0,80,0,0
132573,-90.9090909090909,4,1,0,80,0,1
132811,-90.9090909090909,4,1,0,80,0,0
132930,-90.9090909090909,4,1,0,80,0,1
133168,-90.9090909090909,4,1,0,80,0,0
133287,-90.9090909090909,4,1,0,80,0,1
133883,-100,4,1,0,80,0,0
134121,-83.3333333333333,4,1,0,80,0,1
134716,-83.3333333333333,4,1,0,80,0,0
134954,-83.3333333333333,4,1,0,80,0,1
135787,-100,4,1,0,80,0,0
136026,-76.9230769230769,4,1,0,90,0,1
136145,-90.9090909090909,4,1,0,90,0,1
166502,-76.9230769230769,4,1,0,90,0,0
166621,-100,4,1,0,90,0,0
166740,-100,4,1,0,80,0,0
170311,-83.3333333333333,4,1,0,80,0,0
170430,-117.647058823529,4,1,0,80,0,0
170668,-117.647058823529,4,1,0,70,0,0
173287,-113.479399857109,4,1,0,70,0,0
173407,-109.565417337319,4,1,0,70,0,0
173526,-105.941859818798,4,1,0,70,0,0
173645,-102.550306682449,4,1,0,70,0,0
173764,-99.3691674052448,4,1,0,70,0,0
173823,-97.8640377901006,4,1,0,70,0,0
173883,-96.3794498381877,4,1,0,70,0,0
173942,-94.9628817697175,4,1,0,70,0,0
174002,-93.5643807373227,4,1,0,70,0,0
174061,-92.2287815735991,4,1,0,70,0,0
174121,-83.3333333333333,4,1,0,90,0,1
174240,-83.3333333333333,4,1,0,90,0,0

[HitObjects]
256,192,788,5,8,1:0:0:0:
256,192,1145,1,0,1:0:0:0:
256,192,1502,1,8,1:0:0:0:
256,192,1740,1,8,1:0:0:0:
256,192,2097,1,0,1:0:0:0:
256,192,2454,1,8,1:0:0:0:
256,192,2692,1,0,1:0:0:0:
256,192,3049,1,8,1:0:0:0:
256,192,3407,1,0,1:0:0:0:
256,192,3645,1,8,1:0:0:0:
256,192,3883,1,8,1:0:0:0:
256,192,4121,1,0,1:0:0:0:
256,192,4359,1,0,1:0:0:0:
256,192,4597,1,8,1:0:0:0:
256,192,4954,1,0,1:0:0:0:
256,192,5311,1,0,1:0:0:0:
256,192,5549,1,8,1:0:0:0:
256,192,5907,1,8,1:0:0:0:
256,192,6264,1,0,1:0:0:0:
256,192,6502,1,8,1:0:0:0:
256,192,6740,1,0,1:0:0:0:
256,192,6978,1,8,1:0:0:0:
256,192,7216,1,8,1:0:0:0:
256,192,7454,1,0,1:0:0:0:
256,192,7573,8,0,8287,1:0:0:0:
256,192,8407,5,12,1:0:0:0:
256,192,8645,1,0,1:0:0:0:
256,192,8764,1,8,1:0:0:0:
256,192,8823,1,8,1:0:0:0:
256,192,8883,1,0,1:0:0:0:
256,192,9002,1,0,1:0:0:0:
256,192,9121,1,8,1:0:0:0:
256,192,9180,1,0,1:0:0:0:
256,192,9240,1,0,1:0:0:0:
256,192,9299,1,0,1:0:0:0:
256,192,9359,1,8,1:0:0:0:
256,192,9478,1,0,1:0:0:0:
256,192,9597,1,8,1:0:0:0:
256,192,9716,1,0,1:0:0:0:
256,192,9776,1,0,1:0:0:0:
256,192,9835,1,8,1:0:0:0:
256,192,9954,1,0,1:0:0:0:
256,192,10073,1,8,1:0:0:0:
256,192,10133,1,8,1:0:0:0:
256,192,10192,1,0,1:0:0:0:
256,192,10311,1,8,1:0:0:0:
256,192,10371,1,8,1:0:0:0:
256,192,10430,1,8,1:0:0:0:
256,192,10549,1,0,1:0:0:0:
256,192,10668,1,8,1:0:0:0:
256,192,10728,1,0,1:0:0:0:
256,192,10787,1,0,1:0:0:0:
256,192,10907,1,0,1:0:0:0:
256,192,11026,1,8,1:0:0:0:
256,192,11085,1,8,1:0:0:0:
256,192,11145,1,0,1:0:0:0:
256,192,11204,1,0,1:0:0:0:
256,192,11264,1,8,1:0:0:0:
256,192,11383,1,0,1:0:0:0:
256,192,11502,1,8,1:0:0:0:
256,192,11621,1,0,1:0:0:0:
256,192,11680,1,8,1:0:0:0:
256,192,11740,1,0,1:0:0:0:
256,192,11799,1,0,1:0:0:0:
256,192,11859,1,8,1:0:0:0:
256,192,11978,1,0,1:0:0:0:
256,192,12097,1,8,1:0:0:0:
256,192,12157,1,0,1:0:0:0:
256,192,12216,1,8,1:0:0:0:
256,192,12454,1,0,1:0:0:0:
256,192,12573,1,8,1:0:0:0:
256,192,12633,1,8,1:0:0:0:
256,192,12692,1,8,1:0:0:0:
256,192,12811,1,0,1:0:0:0:
256,192,12930,1,8,1:0:0:0:
256,192,12990,1,0,1:0:0:0:
256,192,13049,1,0,1:0:0:0:
256,192,13109,1,0,1:0:0:0:
256,192,13168,1,8,1:0:0:0:
256,192,13287,1,0,1:0:0:0:
256,192,13407,1,8,1:0:0:0:
256,192,13526,1,0,1:0:0:0:
256,192,13585,1,0,1:0:0:0:
256,192,13645,1,8,1:0:0:0:
256,192,13764,1,0,1:0:0:0:
256,192,13883,1,8,1:0:0:0:
256,192,14002,1,0,1:0:0:0:
256,192,14121,1,12,1:0:0:0:
256,192,14359,1,0,1:0:0:0:
256,192,14478,1,12,1:0:0:0:
256,192,14716,1,0,1:0:0:0:
256,192,14835,1,12,1:0:0:0:
256,192,15073,1,12,1:0:0:0:
256,192,15311,1,0,1:0:0:0:
256,192,15371,1,0,1:0:0:0:
256,192,15430,1,0,1:0:0:0:
256,192,15490,1,0,1:0:0:0:
256,192,15549,1,8,1:0:0:0:
256,192,15609,1,8,1:0:0:0:
256,192,15668,1,8,1:0:0:0:
256,192,15728,1,8,1:0:0:0:
256,192,15787,1,0,1:0:0:0:
256,192,16026,1,12,1:0:0:0:
256,192,16145,1,0,1:0:0:0:
256,192,16264,1,0,1:0:0:0:
256,192,16383,1,8,1:0:0:0:
256,192,16442,1,8,1:0:0:0:
256,192,16502,1,8,1:0:0:0:
256,192,16561,1,8,1:0:0:0:
256,192,16621,1,0,1:0:0:0:
256,192,16740,1,8,1:0:0:0:
256,192,16859,1,0,1:0:0:0:
256,192,16918,1,0,1:0:0:0:
256,192,16978,1,8,1:0:0:0:
256,192,17097,1,8,1:0:0:0:
256,192,17216,1,0,1:0:0:0:
256,192,17335,1,8,1:0:0:0:
256,192,17395,1,8,1:0:0:0:
256,192,17454,1,0,1:0:0:0:
256,192,17514,1,8,1:0:0:0:
256,192,17573,1,0,1:0:0:0:
256,192,17692,1,8,1:0:0:0:
256,192,17930,1,8,1:0:0:0:
256,192,17990,1,0,1:0:0:0:
256,192,18049,1,8,1:0:0:0:
256,192,18168,1,0,1:0:0:0:
256,192,18287,1,8,1:0:0:0:
256,192,18407,1,0,1:0:0:0:
256,192,18466,1,8,1:0:0:0:
256,192,18526,1,0,1:0:0:0:
256,192,18645,1,8,1:0:0:0:
256,192,18764,1,0,1:0:0:0:
256,192,18823,1,0,1:0:0:0:
256,192,18883,1,8,1:0:0:0:
256,192,18942,1,8,1:0:0:0:
256,192,19002,1,0,1:0:0:0:
256,192,19121,1,0,1:0:0:0:
256,192,19240,1,8,1:0:0:0:
256,192,19299,1,8,1:0:0:0:
256,192,19359,1,0,1:0:0:0:
256,192,19478,1,8,1:0:0:0:
256,192,19537,1,0,1:0:0:0:
256,192,19597,1,8,1:0:0:0:
256,192,19835,1,8,1:0:0:0:
256,192,19895,1,0,1:0:0:0:
256,192,20014,1,0,1:0:0:0:
256,192,20073,1,8,1:0:0:0:
256,192,20192,1,0,1:0:0:0:
256,192,20252,1,0,1:0:0:0:
256,192,20311,1,8,1:0:0:0:
256,192,20430,1,0,1:0:0:0:
256,192,20549,1,8,1:0:0:0:
256,192,20668,1,0,1:0:0:0:
256,192,20728,1,8,1:0:0:0:
256,192,20787,1,0,1:0:0:0:
256,192,20847,1,0,1:0:0:0:
256,192,20907,1,8,1:0:0:0:
256,192,21026,1,0,1:0:0:0:
256,192,21145,1,8,1:0:0:0:
256,192,21204,1,0,1:0:0:0:
256,192,21264,1,0,1:0:0:0:
256,192,21383,1,8,1:0:0:0:
256,192,21502,1,0,1:0:0:0:
256,192,21740,1,8,1:0:0:0:
256,192,21799,1,8,1:0:0:0:
256,192,21859,1,0,1:0:0:0:
256,192,21978,1,8,1:0:0:0:
256,192,22097,1,0,1:0:0:0:
256,192,22216,1,8,1:0:0:0:
256,192,22276,1,0,1:0:0:0:
256,192,22335,1,0,1:0:0:0:
256,192,22395,1,0,1:0:0:0:
256,192,22454,1,8,1:0:0:0:
256,192,22573,1,0,1:0:0:0:
256,192,22692,1,8,1:0:0:0:
256,192,22752,1,0,1:0:0:0:
256,192,22811,1,8,1:0:0:0:
256,192,22930,1,0,1:0:0:0:
256,192,23049,1,8,1:0:0:0:
256,192,23109,1,0,1:0:0:0:
256,192,23168,1,0,1:0:0:0:
256,192,23287,1,8,1:0:0:0:
256,192,23407,1,8,1:0:0:0:
256,192,23526,1,0,1:0:0:0:
256,192,23585,1,0,1:0:0:0:
256,192,23645,1,8,1:0:0:0:
256,192,23883,1,8,1:0:0:0:
256,192,24002,1,0,1:0:0:0:
256,192,24061,1,0,1:0:0:0:
256,192,24121,1,8,1:0:0:0:
256,192,24180,1,8,1:0:0:0:
256,192,24240,1,0,1:0:0:0:
256,192,24359,1,8,1:0:0:0:
256,192,24478,1,0,1:0:0:0:
256,192,24537,1,8,1:0:0:0:
256,192,24597,1,0,1:0:0:0:
256,192,24716,1,8,1:0:0:0:
256,192,24835,1,0,1:0:0:0:
256,192,24954,1,8,1:0:0:0:
256,192,25014,1,8,1:0:0:0:
256,192,25073,1,8,1:0:0:0:
256,192,25133,1,8,1:0:0:0:
256,192,25192,1,0,1:0:0:0:
256,192,25311,1,8,1:0:0:0:
256,192,25549,1,8,1:0:0:0:
256,192,25609,1,0,1:0:0:0:
256,192,25728,1,0,1:0:0:0:
256,192,25787,1,8,1:0:0:0:
256,192,25907,1,0,1:0:0:0:
256,192,26026,1,8,1:0:0:0:
256,192,26085,1,8,1:0:0:0:
256,192,26145,1,0,1:0:0:0:
256,192,26264,1,8,1:0:0:0:
256,192,26383,1,0,1:0:0:0:
256,192,26442,1,0,1:0:0:0:
256,192,26502,1,8,1:0:0:0:
256,192,26561,1,8,1:0:0:0:
256,192,26621,1,8,1:0:0:0:
256,192,26740,1,0,1:0:0:0:
256,192,26859,1,8,1:0:0:0:
256,192,26918,1,8,1:0:0:0:
256,192,26978,1,0,1:0:0:0:
256,192,27097,1,8,1:0:0:0:
256,192,27157,1,0,1:0:0:0:
256,192,27216,1,8,1:0:0:0:
256,192,27454,1,8,1:0:0:0:
256,192,27514,1,0,1:0:0:0:
256,192,27573,1,8,1:0:0:0:
256,192,27633,1,8,1:0:0:0:
256,192,27692,1,0,1:0:0:0:
256,192,27811,1,8,1:0:0:0:
256,192,27930,1,0,1:0:0:0:
256,192,27990,1,0,1:0:0:0:
256,192,28049,1,8,1:0:0:0:
256,192,28168,1,0,1:0:0:0:
256,192,28287,1,8,1:0:0:0:
256,192,28407,1,0,1:0:0:0:
256,192,28466,1,0,1:0:0:0:
256,192,28526,1,8,1:0:0:0:
256,192,28645,1,0,1:0:0:0:
256,192,28764,1,8,1:0:0:0:
256,192,28823,1,8,1:0:0:0:
256,192,28883,1,8,1:0:0:0:
256,192,29002,1,0,1:0:0:0:
256,192,29121,1,8,1:0:0:0:
256,192,29359,1,8,1:0:0:0:
256,192,29418,1,8,1:0:0:0:
256,192,29478,1,0,1:0:0:0:
256,192,29537,1,0,1:0:0:0:
256,192,29597,1,8,1:0:0:0:
256,192,29716,1,0,1:0:0:0:
256,192,29835,1,8,1:0:0:0:
256,192,29895,1,8,1:0:0:0:
256,192,29954,1,0,1:0:0:0:
256,192,30073,1,8,1:0:0:0:
256,192,30192,1,0,1:0:0:0:
256,192,30311,1,8,1:0:0:0:
256,192,30371,1,0,1:0:0:0:
256,192,30430,1,8,1:0:0:0:
256,192,30549,1,8,1:0:0:0:
256,192,30668,1,0,1:0:0:0:
256,192,30787,1,8,1:0:0:0:
256,192,30847,1,8,1:0:0:0:
256,192,30907,1,8,1:0:0:0:
256,192,30966,1,8,1:0:0:0:
256,192,31026,1,0,1:0:0:0:
256,192,31145,1,0,1:0:0:0:
256,192,31264,1,12,1:0:0:0:
256,192,31621,1,0,1:0:0:0:
256,192,31740,1,8,1:0:0:0:
256,192,31978,1,0,1:0:0:0:
256,192,32216,1,8,1:0:0:0:
256,192,32454,1,0,1:0:0:0:
256,192,32573,1,8,1:0:0:0:
256,192,32692,1,0,1:0:0:0:
256,192,32930,1,8,1:0:0:0:
256,192,33168,1,0,1:0:0:0:
256,192,33526,1,8,1:0:0:0:
256,192,33645,1,0,1:0:0:0:
256,192,33883,1,0,1:0:0:0:
256,192,34121,1,8,1:0:0:0:
256,192,34478,1,0,1:0:0:0:
256,192,34597,1,8,1:0:0:0:
256,192,34835,1,0,1:0:0:0:
256,192,35073,1,8,1:0:0:0:
256,192,35430,1,8,1:0:0:0:
256,192,35549,1,0,1:0:0:0:
256,192,35787,1,8,1:0:0:0:
256,192,36026,1,0,1:0:0:0:
256,192,36264,1,8,1:0:0:0:
256,192,36383,1,0,1:0:0:0:
256,192,36502,1,8,1:0:0:0:
256,192,36621,1,0,1:0:0:0:
256,192,36740,1,8,1:0:0:0:
256,193,36978,1,0,1:0:0:0:
256,192,37216,1,8,1:0:0:0:
256,193,37335,1,8,1:0:0:0:
256,193,37454,1,0,1:0:0:0:
256,193,37573,1,8,1:0:0:0:
256,193,37692,1,0,1:0:0:0:
256,193,37811,1,0,1:0:0:0:
256,193,37930,1,8,1:0:0:0:
256,193,38049,1,0,1:0:0:0:
256,193,38168,1,8,1:0:0:0:
256,193,38287,1,8,1:0:0:0:
256,193,38407,1,0,1:0:0:0:
256,193,38526,1,0,1:0:0:0:
256,193,38645,1,8,1:0:0:0:
256,192,38883,1,12,1:0:0:0:
256,192,39121,1,0,1:0:0:0:
256,192,39240,1,8,1:0:0:0:
256,192,39299,1,8,1:0:0:0:
256,192,39359,1,8,1:0:0:0:
256,192,39418,1,8,1:0:0:0:
256,192,39478,1,0,1:0:0:0:
256,192,39597,1,8,1:0:0:0:
256,192,39716,1,0,1:0:0:0:
256,192,39835,1,8,1:0:0:0:
256,192,39895,1,8,1:0:0:0:
256,192,39954,1,0,1:0:0:0:
256,192,40014,1,0,1:0:0:0:
256,192,40073,1,8,1:0:0:0:
256,192,40192,1,0,1:0:0:0:
256,192,40252,1,0,1:0:0:0:
256,192,40311,1,8,1:0:0:0:
256,192,40430,1,0,1:0:0:0:
256,192,40549,1,8,1:0:0:0:
256,192,40609,1,0,1:0:0:0:
256,192,40668,1,0,1:0:0:0:
256,192,40787,1,8,1:0:0:0:
256,192,40847,1,8,1:0:0:0:
256,192,40907,1,8,1:0:0:0:
256,192,40966,1,8,1:0:0:0:
256,192,41026,1,0,1:0:0:0:
256,192,41145,1,0,1:0:0:0:
256,192,41204,1,0,1:0:0:0:
256,192,41264,1,8,1:0:0:0:
256,192,41323,1,8,1:0:0:0:
256,192,41383,1,0,1:0:0:0:
256,192,41502,1,8,1:0:0:0:
256,192,41621,1,0,1:0:0:0:
256,192,41740,1,8,1:0:0:0:
256,192,41799,1,8,1:0:0:0:
256,192,41859,1,0,1:0:0:0:
256,192,41978,1,8,1:0:0:0:
256,192,42037,1,0,1:0:0:0:
256,192,42157,1,0,1:0:0:0:
256,192,42216,1,8,1:0:0:0:
256,192,42335,1,0,1:0:0:0:
256,192,42395,1,0,1:0:0:0:
256,192,42454,1,8,1:0:0:0:
256,192,42692,1,8,1:0:0:0:
256,192,42752,1,0,1:0:0:0:
256,192,42811,1,8,1:0:0:0:
256,192,42871,1,8,1:0:0:0:
256,192,42930,1,0,1:0:0:0:
256,192,43049,1,8,1:0:0:0:
256,192,43109,1,8,1:0:0:0:
256,192,43168,1,8,1:0:0:0:
256,192,43228,1,8,1:0:0:0:
256,192,43287,1,0,1:0:0:0:
256,192,43407,1,8,1:0:0:0:
256,192,43526,1,0,1:0:0:0:
256,192,43645,1,8,1:0:0:0:
256,192,43704,1,8,1:0:0:0:
256,192,43764,1,0,1:0:0:0:
256,192,43823,1,0,1:0:0:0:
256,192,43883,1,8,1:0:0:0:
256,192,44002,1,0,1:0:0:0:
256,192,44061,1,0,1:0:0:0:
256,192,44121,1,8,1:0:0:0:
256,192,44180,1,8,1:0:0:0:
256,192,44240,1,0,1:0:0:0:
256,192,44359,1,8,1:0:0:0:
256,192,44478,1,0,1:0:0:0:
256,192,44537,1,0,1:0:0:0:
256,192,44597,1,8,1:0:0:0:
256,192,44657,1,0,1:0:0:0:
256,192,44716,1,0,1:0:0:0:
256,192,44835,1,8,1:0:0:0:
256,192,44895,1,8,1:0:0:0:
256,192,44954,1,0,1:0:0:0:
256,192,45073,1,8,1:0:0:0:
256,192,45192,1,0,1:0:0:0:
256,192,45252,1,0,1:0:0:0:
256,192,45311,1,0,1:0:0:0:
256,192,45371,1,0,1:0:0:0:
256,192,45430,1,8,1:0:0:0:
256,192,45549,1,0,1:0:0:0:
256,192,45668,1,8,1:0:0:0:
256,192,45728,1,8,1:0:0:0:
256,192,45787,1,0,1:0:0:0:
256,192,45847,1,0,1:0:0:0:
256,192,45907,1,8,1:0:0:0:
256,192,45966,1,8,1:0:0:0:
256,192,46026,1,0,1:0:0:0:
256,192,46145,1,0,1:0:0:0:
256,192,46264,1,8,1:0:0:0:
256,192,46323,1,8,1:0:0:0:
256,192,46383,1,0,1:0:0:0:
256,192,46502,1,12,1:0:0:0:
256,192,46740,1,0,1:0:0:0:
256,192,46859,1,8,1:0:0:0:
256,192,46918,1,0,1:0:0:0:
256,192,46978,1,8,1:0:0:0:
256,192,47037,1,8,1:0:0:0:
256,192,47097,1,0,1:0:0:0:
256,192,47216,1,8,1:0:0:0:
256,192,47335,1,0,1:0:0:0:
256,192,47454,1,8,1:0:0:0:
256,192,47514,1,8,1:0:0:0:
256,192,47573,1,8,1:0:0:0:
256,192,47633,1,8,1:0:0:0:
256,192,47692,1,0,1:0:0:0:
256,192,47811,1,8,1:0:0:0:
256,192,47871,1,8,1:0:0:0:
256,192,47930,1,0,1:0:0:0:
256,192,48049,1,8,1:0:0:0:
256,192,48168,1,0,1:0:0:0:
256,192,48228,1,0,1:0:0:0:
256,192,48287,1,8,1:0:0:0:
256,192,48407,1,0,1:0:0:0:
256,192,48466,1,0,1:0:0:0:
256,192,48526,1,8,1:0:0:0:
256,192,48585,1,8,1:0:0:0:
256,192,48645,1,0,1:0:0:0:
256,192,48764,1,8,1:0:0:0:
256,192,48823,1,0,1:0:0:0:
256,192,48883,1,8,1:0:0:0:
256,192,48942,1,8,1:0:0:0:
256,192,49002,1,0,1:0:0:0:
256,192,49121,1,8,1:0:0:0:
256,192,49240,1,0,1:0:0:0:
256,192,49359,1,8,1:0:0:0:
256,192,49418,1,0,1:0:0:0:
256,192,49478,1,0,1:0:0:0:
256,192,49597,1,8,1:0:0:0:
256,192,49657,1,8,1:0:0:0:
256,192,49776,1,0,1:0:0:0:
256,192,49835,1,8,1:0:0:0:
256,192,49954,1,0,1:0:0:0:
256,192,50014,1,0,1:0:0:0:
256,192,50073,1,8,1:0:0:0:
256,192,50311,1,0,1:0:0:0:
256,192,50371,1,8,1:0:0:0:
256,192,50430,1,0,1:0:0:0:
256,192,50490,1,0,1:0:0:0:
256,192,50549,1,8,1:0:0:0:
256,192,50668,1,0,1:0:0:0:
256,192,50728,1,0,1:0:0:0:
256,192,50787,1,8,1:0:0:0:
256,192,50847,1,8,1:0:0:0:
256,192,50907,1,0,1:0:0:0:
256,192,51026,1,8,1:0:0:0:
256,192,51145,1,0,1:0:0:0:
256,192,51264,1,8,1:0:0:0:
256,192,51323,1,8,1:0:0:0:
256,192,51383,1,0,1:0:0:0:
256,192,51442,1,0,1:0:0:0:
256,192,51502,1,0,1:0:0:0:
256,192,51621,1,8,1:0:0:0:
256,192,51680,1,8,1:0:0:0:
256,192,51740,1,8,1:0:0:0:
256,192,51799,1,8,1:0:0:0:
256,192,51859,1,0,1:0:0:0:
256,192,51978,1,8,1:0:0:0:
256,192,52097,1,0,1:0:0:0:
256,192,52157,1,0,1:0:0:0:
256,192,52216,1,8,1:0:0:0:
256,192,52276,1,8,1:0:0:0:
256,192,52335,1,0,1:0:0:0:
256,192,52454,1,8,1:0:0:0:
256,192,52514,1,0,1:0:0:0:
256,192,52573,1,0,1:0:0:0:
256,192,52692,1,8,1:0:0:0:
256,192,52811,1,0,1:0:0:0:
256,192,52871,1,0,1:0:0:0:
256,192,52930,1,8,1:0:0:0:
256,192,52990,1,0,1:0:0:0:
256,192,53049,1,0,1:0:0:0:
256,192,53168,1,8,1:0:0:0:
256,192,53287,1,0,1:0:0:0:
256,192,53347,1,0,1:0:0:0:
256,192,53407,1,8,1:0:0:0:
256,192,53466,1,8,1:0:0:0:
256,192,53526,1,0,1:0:0:0:
256,192,53585,1,0,1:0:0:0:
256,192,53645,1,8,1:0:0:0:
256,192,53764,1,0,1:0:0:0:
256,192,53883,1,8,1:0:0:0:
256,192,53942,1,8,1:0:0:0:
256,192,54002,1,0,1:0:0:0:
256,192,54121,1,12,1:0:0:0:
256,192,54359,1,0,1:0:0:0:
256,192,54478,1,8,1:0:0:0:
256,192,54537,1,0,1:0:0:0:
256,192,54597,1,0,1:0:0:0:
256,192,54716,1,0,1:0:0:0:
256,192,54835,1,8,1:0:0:0:
256,192,54895,1,8,1:0:0:0:
256,192,54954,1,0,1:0:0:0:
256,192,55014,1,0,1:0:0:0:
256,192,55073,1,8,1:0:0:0:
256,192,55192,1,0,1:0:0:0:
256,192,55311,1,8,1:0:0:0:
256,192,55430,1,0,1:0:0:0:
256,192,55490,1,0,1:0:0:0:
256,192,55549,1,8,1:0:0:0:
256,192,55668,1,0,1:0:0:0:
256,192,55787,1,8,1:0:0:0:
256,192,55847,1,0,1:0:0:0:
256,192,55907,1,0,1:0:0:0:
256,192,56026,1,8,1:0:0:0:
256,192,56085,1,8,1:0:0:0:
256,192,56145,1,8,1:0:0:0:
256,192,56264,1,0,1:0:0:0:
256,192,56383,1,8,1:0:0:0:
256,192,56442,1,8,1:0:0:0:
256,192,56502,1,0,1:0:0:0:
256,192,56621,1,0,1:0:0:0:
256,192,56740,1,8,1:0:0:0:
256,192,56799,1,0,1:0:0:0:
256,192,56859,1,0,1:0:0:0:
256,192,56918,1,0,1:0:0:0:
256,192,56978,1,8,1:0:0:0:
256,192,57097,1,0,1:0:0:0:
256,192,57216,1,8,1:0:0:0:
256,192,57335,1,0,1:0:0:0:
256,192,57395,1,0,1:0:0:0:
256,192,57454,1,8,1:0:0:0:
256,192,57514,1,8,1:0:0:0:
256,192,57573,1,0,1:0:0:0:
256,192,57692,1,8,1:0:0:0:
256,192,57811,1,0,1:0:0:0:
256,192,57871,1,0,1:0:0:0:
256,192,57930,1,8,1:0:0:0:
256,192,58168,1,0,1:0:0:0:
256,192,58287,1,8,1:0:0:0:
256,192,58347,1,8,1:0:0:0:
256,192,58407,1,8,1:0:0:0:
256,192,58526,1,0,1:0:0:0:
256,192,58645,1,8,1:0:0:0:
256,192,58704,1,8,1:0:0:0:
256,192,58764,1,0,1:0:0:0:
256,192,58823,1,0,1:0:0:0:
256,192,58883,1,8,1:0:0:0:
256,192,59002,1,0,1:0:0:0:
256,192,59121,1,8,1:0:0:0:
256,192,59240,1,0,1:0:0:0:
256,192,59299,1,0,1:0:0:0:
256,192,59359,1,0,1:0:0:0:
256,192,59478,1,8,1:0:0:0:
256,192,59537,1,0,1:0:0:0:
256,192,59597,1,8,1:0:0:0:
256,192,59657,1,8,1:0:0:0:
256,192,59716,1,0,1:0:0:0:
256,192,59835,1,12,1:0:0:0:
256,192,60073,1,0,1:0:0:0:
256,192,60192,1,12,1:0:0:0:
256,192,60430,1,0,1:0:0:0:
256,192,60549,1,12,1:0:0:0:
256,192,60787,1,12,1:0:0:0:
256,192,60907,8,0,61621,1:0:0:0:
256,192,61740,5,8,1:0:0:0:
256,192,61978,1,0,1:0:0:0:
256,192,62097,1,0,1:0:0:0:
256,192,62216,1,8,1:0:0:0:
256,192,62454,1,0,1:0:0:0:
256,192,62692,1,8,1:0:0:0:
256,192,62811,1,8,1:0:0:0:
256,192,62930,1,0,1:0:0:0:
256,192,63049,1,0,1:0:0:0:
256,192,63168,1,8,1:0:0:0:
256,192,63407,1,0,1:0:0:0:
256,192,63645,1,8,1:0:0:0:
256,192,63764,1,0,1:0:0:0:
256,192,64002,1,0,1:0:0:0:
256,192,64121,1,8,1:0:0:0:
256,192,64359,1,0,1:0:0:0:
256,192,64597,1,8,1:0:0:0:
256,192,64716,1,8,1:0:0:0:
256,192,64835,1,0,1:0:0:0:
256,192,64954,1,0,1:0:0:0:
256,192,65073,1,8,1:0:0:0:
256,192,65192,1,8,1:0:0:0:
256,192,65311,1,8,1:0:0:0:
256,192,65549,1,0,1:0:0:0:
256,192,65787,1,8,1:0:0:0:
256,192,65907,1,0,1:0:0:0:
256,192,66026,1,8,1:0:0:0:
256,192,66264,1,0,1:0:0:0:
256,192,66502,1,8,1:0:0:0:
256,192,66621,1,8,1:0:0:0:
256,192,66740,1,0,1:0:0:0:
256,192,66859,1,8,1:0:0:0:
256,192,66978,1,8,1:0:0:0:
256,192,67216,1,0,1:0:0:0:
256,192,67454,1,8,1:0:0:0:
256,192,67573,1,0,1:0:0:0:
256,192,67811,1,0,1:0:0:0:
256,192,67930,1,8,1:0:0:0:
256,192,68168,1,0,1:0:0:0:
256,192,68407,1,8,1:0:0:0:
256,192,68526,1,0,1:0:0:0:
256,192,68645,1,8,1:0:0:0:
256,192,68764,1,8,1:0:0:0:
256,192,68883,1,8,1:0:0:0:
256,192,69121,1,0,1:0:0:0:
256,192,69359,1,12,1:0:0:0:
256,192,69478,1,0,1:0:0:0:
256,192,69597,1,8,1:0:0:0:
256,192,69716,1,0,1:0:0:0:
256,192,69776,1,0,1:0:0:0:
256,192,69835,1,8,1:0:0:0:
256,192,69895,1,8,1:0:0:0:
256,192,69954,1,0,1:0:0:0:
256,192,70073,1,8,1:0:0:0:
256,192,70192,1,0,1:0:0:0:
256,192,70252,1,0,1:0:0:0:
256,192,70311,1,0,1:0:0:0:
256,192,70430,1,8,1:0:0:0:
256,192,70549,1,0,1:0:0:0:
256,192,70668,1,8,1:0:0:0:
256,192,70728,1,8,1:0:0:0:
256,192,70787,1,8,1:0:0:0:
256,192,70847,1,8,1:0:0:0:
256,192,70907,1,0,1:0:0:0:
256,192,71026,1,8,1:0:0:0:
256,192,71264,1,8,1:0:0:0:
256,192,71323,1,0,1:0:0:0:
256,192,71383,1,8,1:0:0:0:
256,192,71442,1,8,1:0:0:0:
256,192,71502,1,0,1:0:0:0:
256,192,71621,1,8,1:0:0:0:
256,192,71740,1,0,1:0:0:0:
256,192,71799,1,8,1:0:0:0:
256,192,71859,1,0,1:0:0:0:
256,192,71978,1,8,1:0:0:0:
256,192,72097,1,0,1:0:0:0:
256,192,72157,1,0,1:0:0:0:
256,192,72216,1,8,1:0:0:0:
256,192,72276,1,8,1:0:0:0:
256,192,72335,1,0,1:0:0:0:
256,192,72454,1,8,1:0:0:0:
256,192,72573,1,0,1:0:0:0:
256,192,72633,1,0,1:0:0:0:
256,192,72692,1,0,1:0:0:0:
256,192,72811,1,8,1:0:0:0:
256,192,72871,1,0,1:0:0:0:
256,192,72930,1,8,1:0:0:0:
256,192,73168,1,8,1:0:0:0:
256,192,73228,1,0,1:0:0:0:
256,192,73287,1,0,1:0:0:0:
256,192,73347,1,0,1:0:0:0:
256,192,73407,1,8,1:0:0:0:
256,192,73526,1,0,1:0:0:0:
256,192,73645,1,8,1:0:0:0:
256,192,73704,1,8,1:0:0:0:
256,192,73764,1,8,1:0:0:0:
256,192,73883,1,0,1:0:0:0:
256,192,74002,1,8,1:0:0:0:
256,192,74121,1,0,1:0:0:0:
256,192,74180,1,8,1:0:0:0:
256,192,74240,1,0,1:0:0:0:
256,192,74359,1,8,1:0:0:0:
256,192,74478,1,0,1:0:0:0:
256,192,74537,1,0,1:0:0:0:
256,192,74597,1,8,1:0:0:0:
256,192,74716,1,0,1:0:0:0:
256,192,74835,1,8,1:0:0:0:
256,192,75073,1,8,1:0:0:0:
256,192,75133,1,0,1:0:0:0:
256,192,75192,1,8,1:0:0:0:
256,192,75252,1,8,1:0:0:0:
256,192,75311,1,0,1:0:0:0:
256,192,75430,1,8,1:0:0:0:
256,192,75549,1,0,1:0:0:0:
256,192,75609,1,0,1:0:0:0:
256,192,75668,1,0,1:0:0:0:
256,192,75787,1,8,1:0:0:0:
256,192,75907,1,0,1:0:0:0:
256,192,76026,1,8,1:0:0:0:
256,192,76085,1,0,1:0:0:0:
256,192,76145,1,8,1:0:0:0:
256,192,76264,1,8,1:0:0:0:
256,192,76383,1,0,1:0:0:0:
256,192,76502,1,8,1:0:0:0:
256,192,76561,1,8,1:0:0:0:
256,192,76621,1,8,1:0:0:0:
256,192,76680,1,8,1:0:0:0:
256,192,76740,1,0,1:0:0:0:
256,192,76859,1,0,1:0:0:0:
256,192,76978,1,12,1:0:0:0:
256,192,77335,1,0,1:0:0:0:
256,192,77454,1,8,1:0:0:0:
256,192,77692,1,0,1:0:0:0:
256,192,77930,1,8,1:0:0:0:
256,192,78168,1,0,1:0:0:0:
256,192,78287,1,8,1:0:0:0:
256,192,78407,1,0,1:0:0:0:
256,192,78645,1,8,1:0:0:0:
256,192,78883,1,0,1:0:0:0:
256,192,79240,1,8,1:0:0:0:
256,192,79359,1,0,1:0:0:0:
256,192,79597,1,0,1:0:0:0:
256,192,79835,1,8,1:0:0:0:
256,192,80192,1,0,1:0:0:0:
256,192,80311,1,8,1:0:0:0:
256,192,80549,1,0,1:0:0:0:
256,192,80787,1,8,1:0:0:0:
256,192,81145,1,8,1:0:0:0:
256,192,81264,1,0,1:0:0:0:
256,192,81502,1,8,1:0:0:0:
256,192,81740,1,0,1:0:0:0:
256,192,81978,1,8,1:0:0:0:
256,192,82097,1,0,1:0:0:0:
256,192,82216,1,8,1:0:0:0:
256,192,82335,1,0,1:0:0:0:
256,192,82454,1,8,1:0:0:0:
256,193,82692,1,0,1:0:0:0:
256,192,82930,1,8,1:0:0:0:
256,193,83049,1,8,1:0:0:0:
256,193,83168,1,0,1:0:0:0:
256,193,83287,1,8,1:0:0:0:
256,193,83407,1,0,1:0:0:0:
256,193,83526,1,0,1:0:0:0:
256,193,83645,1,8,1:0:0:0:
256,193,83764,1,8,1:0:0:0:
256,193,83883,1,8,1:0:0:0:
256,193,84002,1,0,1:0:0:0:
256,193,84121,1,0,1:0:0:0:
256,193,84240,1,0,1:0:0:0:
256,193,84359,1,8,1:0:0:0:
256,192,84597,1,12,1:0:0:0:
256,192,84835,1,8,1:0:0:0:
256,192,84954,1,0,1:0:0:0:
256,192,85014,1,0,1:0:0:0:
256,192,85073,1,8,1:0:0:0:
256,192,85133,1,8,1:0:0:0:
256,192,85192,1,8,1:0:0:0:
256,192,85311,1,0,1:0:0:0:
256,192,85430,1,8,1:0:0:0:
256,192,85549,1,0,1:0:0:0:
256,192,85609,1,0,1:0:0:0:
256,192,85668,1,8,1:0:0:0:
256,192,85728,1,8,1:0:0:0:
256,192,85787,1,0,1:0:0:0:
256,192,85907,1,8,1:0:0:0:
256,192,85966,1,8,1:0:0:0:
256,192,86026,1,0,1:0:0:0:
256,192,86145,1,8,1:0:0:0:
256,192,86264,1,0,1:0:0:0:
256,192,86323,1,8,1:0:0:0:
256,192,86383,1,0,1:0:0:0:
256,192,86502,1,8,1:0:0:0:
256,192,86561,1,8,1:0:0:0:
256,192,86621,1,8,1:0:0:0:
256,192,86680,1,8,1:0:0:0:
256,192,86740,1,0,1:0:0:0:
256,192,86859,1,8,1:0:0:0:
256,192,86918,1,0,1:0:0:0:
256,192,86978,1,8,1:0:0:0:
256,192,87037,1,8,1:0:0:0:
256,192,87097,1,0,1:0:0:0:
256,192,87216,1,8,1:0:0:0:
256,192,87335,1,0,1:0:0:0:
256,192,87454,1,8,1:0:0:0:
256,192,87514,1,8,1:0:0:0:
256,192,87573,1,8,1:0:0:0:
256,192,87692,1,0,1:0:0:0:
256,192,87752,1,0,1:0:0:0:
256,192,87871,1,0,1:0:0:0:
256,192,87930,1,8,1:0:0:0:
256,192,88049,1,0,1:0:0:0:
256,192,88109,1,0,1:0:0:0:
256,192,88168,1,8,1:0:0:0:
256,192,88407,1,8,1:0:0:0:
256,192,88466,1,8,1:0:0:0:
256,192,88526,1,8,1:0:0:0:
256,192,88585,1,8,1:0:0:0:
256,192,88645,1,0,1:0:0:0:
256,192,88764,1,8,1:0:0:0:
256,192,88823,1,0,1:0:0:0:
256,192,88883,1,8,1:0:0:0:
256,192,88942,1,8,1:0:0:0:
256,192,89002,1,0,1:0:0:0:
256,192,89121,1,0,1:0:0:0:
256,192,89240,1,8,1:0:0:0:
256,192,89359,1,0,1:0:0:0:
256,192,89418,1,0,1:0:0:0:
256,192,89478,1,8,1:0:0:0:
256,192,89537,1,8,1:0:0:0:
256,192,89597,1,0,1:0:0:0:
256,192,89716,1,8,1:0:0:0:
256,192,89776,1,8,1:0:0:0:
256,192,89835,1,0,1:0:0:0:
256,192,89895,1,0,1:0:0:0:
256,192,89954,1,8,1:0:0:0:
256,192,90073,1,0,1:0:0:0:
256,192,90192,1,8,1:0:0:0:
256,192,90252,1,8,1:0:0:0:
256,192,90311,1,8,1:0:0:0:
256,192,90371,1,8,1:0:0:0:
256,192,90430,1,0,1:0:0:0:
256,192,90549,1,8,1:0:0:0:
256,192,90609,1,0,1:0:0:0:
256,192,90668,1,0,1:0:0:0:
256,192,90787,1,8,1:0:0:0:
256,192,90907,1,0,1:0:0:0:
256,192,90966,1,0,1:0:0:0:
256,192,91026,1,8,1:0:0:0:
256,192,91085,1,8,1:0:0:0:
256,192,91145,1,0,1:0:0:0:
256,192,91264,1,8,1:0:0:0:
256,192,91383,1,0,1:0:0:0:
256,192,91442,1,0,1:0:0:0:
256,192,91502,1,8,1:0:0:0:
256,192,91561,1,8,1:0:0:0:
256,192,91621,1,8,1:0:0:0:
256,192,91680,1,8,1:0:0:0:
256,192,91740,1,0,1:0:0:0:
256,192,91859,1,8,1:0:0:0:
256,192,91978,1,0,1:0:0:0:
256,192,92037,1,0,1:0:0:0:
256,192,92097,1,0,1:0:0:0:
256,192,92216,1,12,1:0:0:0:
256,192,92454,1,0,1:0:0:0:
256,192,92573,1,8,1:0:0:0:
256,192,92633,1,8,1:0:0:0:
256,192,92692,1,0,1:0:0:0:
256,192,92752,1,0,1:0:0:0:
256,192,92811,1,8,1:0:0:0:
256,192,92930,1,0,1:0:0:0:
256,192,93049,1,8,1:0:0:0:
256,192,93168,1,0,1:0:0:0:
256,192,93228,1,0,1:0:0:0:
256,192,93287,1,0,1:0:0:0:
256,192,93347,1,0,1:0:0:0:
256,192,93407,1,8,1:0:0:0:
256,192,93526,1,0,1:0:0:0:
256,192,93585,1,0,1:0:0:0:
256,192,93645,1,8,1:0:0:0:
256,192,93764,1,0,1:0:0:0:
256,192,93883,1,8,1:0:0:0:
256,192,93942,1,0,1:0:0:0:
256,192,94002,1,0,1:0:0:0:
256,192,94121,1,8,1:0:0:0:
256,192,94180,1,8,1:0:0:0:
256,192,94240,1,8,1:0:0:0:
256,192,94299,1,8,1:0:0:0:
256,192,94359,1,0,1:0:0:0:
256,192,94478,1,8,1:0:0:0:
256,192,94537,1,8,1:0:0:0:
256,192,94597,1,0,1:0:0:0:
256,192,94657,1,8,1:0:0:0:
256,192,94716,1,0,1:0:0:0:
256,192,94835,1,8,1:0:0:0:
256,192,94954,1,0,1:0:0:0:
256,192,95073,1,8,1:0:0:0:
256,192,95133,1,8,1:0:0:0:
256,192,95192,1,0,1:0:0:0:
256,192,95311,1,8,1:0:0:0:
256,192,95371,1,8,1:0:0:0:
256,192,95490,1,0,1:0:0:0:
256,192,95549,1,8,1:0:0:0:
256,192,95668,1,0,1:0:0:0:
256,192,95728,1,0,1:0:0:0:
256,192,95787,1,8,1:0:0:0:
256,192,96026,1,0,1:0:0:0:
256,192,96085,1,0,1:0:0:0:
256,192,96145,1,0,1:0:0:0:
256,192,96204,1,0,1:0:0:0:
256,192,96264,1,8,1:0:0:0:
256,192,96383,1,0,1:0:0:0:
256,192,96442,1,0,1:0:0:0:
256,192,96502,1,8,1:0:0:0:
256,192,96561,1,8,1:0:0:0:
256,192,96621,1,0,1:0:0:0:
256,192,96740,1,8,1:0:0:0:
256,192,96859,1,0,1:0:0:0:
256,192,96978,1,8,1:0:0:0:
256,192,97037,1,8,1:0:0:0:
256,192,97097,1,0,1:0:0:0:
256,192,97157,1,8,1:0:0:0:
256,192,97216,1,0,1:0:0:0:
256,192,97335,1,8,1:0:0:0:
256,192,97395,1,8,1:0:0:0:
256,192,97454,1,8,1:0:0:0:
256,192,97514,1,8,1:0:0:0:
256,192,97573,1,0,1:0:0:0:
256,192,97692,1,8,1:0:0:0:
256,192,97811,1,0,1:0:0:0:
256,192,97871,1,0,1:0:0:0:
256,192,97930,1,8,1:0:0:0:
256,192,97990,1,8,1:0:0:0:
256,192,98049,1,8,1:0:0:0:
256,192,98168,1,0,1:0:0:0:
256,192,98228,1,0,1:0:0:0:
256,192,98287,1,0,1:0:0:0:
256,192,98407,1,8,1:0:0:0:
256,192,98526,1,0,1:0:0:0:
256,192,98585,1,0,1:0:0:0:
256,192,98645,1,8,1:0:0:0:
256,192,98704,1,0,1:0:0:0:
256,192,98764,1,0,1:0:0:0:
256,192,98883,1,8,1:0:0:0:
256,192,99002,1,0,1:0:0:0:
256,192,99061,1,0,1:0:0:0:
256,192,99121,1,8,1:0:0:0:
256,192,99180,1,8,1:0:0:0:
256,192,99240,1,0,1:0:0:0:
256,192,99359,1,8,1:0:0:0:
256,192,99418,1,8,1:0:0:0:
256,192,99478,1,8,1:0:0:0:
256,192,99597,1,0,1:0:0:0:
256,192,99657,1,0,1:0:0:0:
256,192,99716,1,0,1:0:0:0:
256,192,99835,1,12,1:0:0:0:
256,192,100073,1,0,1:0:0:0:
256,192,100192,1,8,1:0:0:0:
256,192,100252,1,0,1:0:0:0:
256,192,100311,1,8,1:0:0:0:
256,192,100430,1,0,1:0:0:0:
256,192,100549,1,8,1:0:0:0:
256,192,100609,1,0,1:0:0:0:
256,192,100668,1,0,1:0:0:0:
256,192,100728,1,0,1:0:0:0:
256,192,100787,1,8,1:0:0:0:
256,192,100907,1,0,1:0:0:0:
256,192,101026,1,8,1:0:0:0:
256,192,101145,1,0,1:0:0:0:
256,192,101204,1,0,1:0:0:0:
256,192,101264,1,8,1:0:0:0:
256,192,101323,1,8,0:0:0:0:
256,192,101383,1,0,1:0:0:0:
256,192,101502,1,8,1:0:0:0:
256,192,101740,1,8,1:0:0:0:
256,192,101799,1,8,1:0:0:0:
256,192,101859,1,8,1:0:0:0:
256,192,101918,1,8,1:0:0:0:
256,192,101978,1,0,1:0:0:0:
256,192,102097,1,8,1:0:0:0:
256,192,102157,1,8,1:0:0:0:
256,192,102216,1,8,1:0:0:0:
256,192,102335,1,0,1:0:0:0:
256,192,102454,1,8,1:0:0:0:
256,192,102514,1,8,1:0:0:0:
256,192,102573,1,0,1:0:0:0:
256,192,102633,1,0,1:0:0:0:
256,192,102692,1,8,1:0:0:0:
256,192,102811,1,0,1:0:0:0:
256,192,102930,1,8,1:0:0:0:
256,192,103049,1,0,1:0:0:0:
256,192,103109,1,0,1:0:0:0:
256,192,103168,1,8,1:0:0:0:
256,192,103228,1,8,1:0:0:0:
256,192,103287,1,0,1:0:0:0:
256,192,103407,1,8,1:0:0:0:
256,192,103526,1,0,1:0:0:0:
256,192,103585,1,0,1:0:0:0:
256,192,103645,1,8,1:0:0:0:
256,192,103883,1,8,1:0:0:0:
256,192,104002,1,0,1:0:0:0:
256,192,104061,1,0,1:0:0:0:
256,192,104121,1,8,1:0:0:0:
256,192,104240,1,0,1:0:0:0:
256,192,104359,1,8,1:0:0:0:
256,192,104418,1,0,1:0:0:0:
256,192,104478,1,8,1:0:0:0:
256,192,104537,1,8,1:0:0:0:
256,192,104597,1,0,1:0:0:0:
256,192,104716,1,8,1:0:0:0:
256,192,104835,1,0,1:0:0:0:
256,192,104954,1,8,1:0:0:0:
256,192,105014,1,8,1:0:0:0:
256,192,105073,1,0,1:0:0:0:
256,192,105133,1,0,0:0:0:0:
256,192,105192,1,8,1:0:0:0:
256,192,105311,1,0,1:0:0:0:
256,192,105549,1,8,1:0:0:0:
256,192,105609,1,8,1:0:0:0:
256,192,105668,1,8,1:0:0:0:
256,192,105728,1,8,1:0:0:0:
256,192,105787,1,0,1:0:0:0:
256,192,105907,1,8,1:0:0:0:
256,192,105966,1,0,1:0:0:0:
256,192,106026,1,8,1:0:0:0:
256,192,106145,1,0,1:0:0:0:
256,192,106264,1,8,1:0:0:0:
256,192,106323,1,0,1:0:0:0:
256,192,106383,1,0,1:0:0:0:
256,192,106442,1,0,1:0:0:0:
256,192,106502,1,8,1:0:0:0:
256,192,106621,1,0,1:0:0:0:
256,192,106740,1,8,1:0:0:0:
256,192,106859,1,0,1:0:0:0:
256,192,106918,1,0,1:0:0:0:
256,192,106978,1,8,1:0:0:0:
256,192,107037,1,8,1:0:0:0:
256,192,107097,1,0,1:0:0:0:
256,192,107216,1,8,1:0:0:0:
256,192,107276,1,0,1:0:0:0:
256,192,107335,1,0,1:0:0:0:
256,192,107454,1,12,1:0:0:0:
256,192,107692,1,0,1:0:0:0:
256,192,107811,1,8,1:0:0:0:
256,192,107871,1,0,1:0:0:0:
256,192,107930,1,8,1:0:0:0:
256,192,108049,1,0,1:0:0:0:
256,192,108168,1,8,1:0:0:0:
256,192,108228,1,0,1:0:0:0:
256,192,108287,1,0,1:0:0:0:
256,192,108347,1,0,1:0:0:0:
256,192,108407,1,8,1:0:0:0:
256,192,108526,1,0,1:0:0:0:
256,192,108645,1,8,1:0:0:0:
256,192,108764,1,0,1:0:0:0:
256,192,108823,1,8,1:0:0:0:
256,192,108883,1,0,1:0:0:0:
256,192,109002,1,8,1:0:0:0:
256,192,109061,1,8,1:0:0:0:
256,192,109121,1,8,1:0:0:0:
256,192,109180,1,8,1:0:0:0:
256,192,109240,1,0,1:0:0:0:
256,192,109359,1,8,1:0:0:0:
256,192,109478,1,0,1:0:0:0:
256,192,109537,1,0,1:0:0:0:
256,192,109597,1,8,1:0:0:0:
256,192,109716,1,0,1:0:0:0:
256,192,109835,1,8,1:0:0:0:
256,192,109895,1,0,1:0:0:0:
256,192,109954,1,0,1:0:0:0:
256,192,110073,1,8,1:0:0:0:
256,192,110133,1,8,1:0:0:0:
256,192,110192,1,0,1:0:0:0:
256,192,110252,1,0,1:0:0:0:
256,192,110311,1,8,1:0:0:0:
256,192,110430,1,0,1:0:0:0:
256,192,110549,1,8,1:0:0:0:
256,192,110609,1,0,1:0:0:0:
256,192,110668,1,8,1:0:0:0:
256,192,110787,1,8,1:0:0:0:
256,192,110907,1,0,1:0:0:0:
256,192,110966,1,0,1:0:0:0:
256,192,111026,1,8,1:0:0:0:
256,192,111264,1,8,1:0:0:0:
256,192,111323,1,8,1:0:0:0:
256,192,111383,1,0,1:0:0:0:
256,192,111502,1,0,1:0:0:0:
256,192,111621,1,8,1:0:0:0:
256,192,111680,1,8,1:0:0:0:
256,192,111740,1,8,1:0:0:0:
256,192,111799,1,8,1:0:0:0:
256,192,111859,1,0,1:0:0:0:
256,192,111978,1,8,1:0:0:0:
256,192,112097,1,0,1:0:0:0:
256,192,112216,1,8,1:0:0:0:
256,192,112276,1,8,1:0:0:0:
256,192,112335,1,8,1:0:0:0:
256,192,112454,1,0,1:0:0:0:
256,192,112573,1,8,1:0:0:0:
256,192,112633,1,0,1:0:0:0:
256,192,112692,1,8,1:0:0:0:
256,192,112811,1,0,1:0:0:0:
256,192,112871,1,0,1:0:0:0:
256,192,112930,1,0,1:0:0:0:
256,192,112990,1,0,1:0:0:0:
256,192,113049,1,8,1:0:0:0:
256,192,113168,1,0,1:0:0:0:
256,192,113287,1,8,1:0:0:0:
256,192,113347,1,0,1:0:0:0:
256,192,113407,1,0,1:0:0:0:
256,192,113526,1,8,1:0:0:0:
256,192,113585,1,0,1:0:0:0:
256,192,113645,1,8,1:0:0:0:
256,192,113704,1,8,1:0:0:0:
256,192,113764,1,0,1:0:0:0:
256,192,113883,1,8,1:0:0:0:
256,192,114002,1,0,1:0:0:0:
256,192,114121,1,8,1:0:0:0:
256,192,114180,1,8,1:0:0:0:
256,192,114240,1,8,1:0:0:0:
256,192,114359,1,0,1:0:0:0:
256,192,114418,1,0,1:0:0:0:
256,192,114478,1,8,1:0:0:0:
256,192,114597,1,0,1:0:0:0:
256,192,114716,1,8,1:0:0:0:
256,192,114835,1,0,1:0:0:0:
256,192,114895,1,0,1:0:0:0:
256,192,114954,1,0,1:0:0:0:
256,192,115014,1,0,1:0:0:0:
256,192,115073,1,12,1:0:0:0:
256,192,115192,8,0,116621,1:0:0:0:
256,192,116740,5,0,1:0:0:0:
256,192,116799,1,0,1:0:0:0:
256,192,116859,1,0,1:0:0:0:
256,192,116918,1,0,1:0:0:0:
256,192,116978,1,8,1:0:0:0:
256,192,117216,1,0,1:0:0:0:
256,192,117335,1,8,1:0:0:0:
256,192,117454,1,0,1:0:0:0:
256,192,117692,1,8,1:0:0:0:
256,192,117811,1,0,1:0:0:0:
256,192,117930,1,8,1:0:0:0:
256,192,118049,1,0,1:0:0:0:
256,192,118168,1,8,1:0:0:0:
256,192,118287,1,8,1:0:0:0:
256,192,118407,1,0,1:0:0:0:
256,192,118526,1,8,1:0:0:0:
256,192,118645,1,8,1:0:0:0:
256,192,118764,1,0,1:0:0:0:
256,192,118883,1,8,1:0:0:0:
256,192,119121,1,0,1:0:0:0:
256,192,119240,1,8,1:0:0:0:
256,192,119359,1,0,1:0:0:0:
256,192,119597,1,8,1:0:0:0:
256,192,119716,1,8,1:0:0:0:
256,192,119835,1,0,1:0:0:0:
256,192,119954,1,0,1:0:0:0:
256,192,120073,1,8,1:0:0:0:
256,192,120192,1,0,1:0:0:0:
256,192,120311,1,8,1:0:0:0:
256,192,120430,1,8,1:0:0:0:
256,192,120668,1,0,1:0:0:0:
256,192,120787,1,8,1:0:0:0:
256,192,121026,1,0,1:0:0:0:
256,192,121145,1,0,1:0:0:0:
256,192,121264,1,8,1:0:0:0:
256,192,121502,1,0,1:0:0:0:
256,192,121621,1,0,1:0:0:0:
256,192,121740,1,8,1:0:0:0:
256,192,121859,1,0,1:0:0:0:
256,192,121978,1,8,1:0:0:0:
256,192,122097,1,8,1:0:0:0:
256,192,122216,1,0,1:0:0:0:
256,192,122335,1,8,1:0:0:0:
256,192,122454,1,8,1:0:0:0:
256,192,122573,1,8,1:0:0:0:
256,192,122692,1,0,1:0:0:0:
256,192,122930,1,0,1:0:0:0:
256,192,123049,1,8,1:0:0:0:
256,192,123168,1,0,1:0:0:0:
256,192,123407,1,8,1:0:0:0:
256,192,123526,1,8,1:0:0:0:
256,192,123645,1,0,1:0:0:0:
256,192,123764,1,8,1:0:0:0:
256,192,123883,1,0,1:0:0:0:
256,192,124002,1,0,1:0:0:0:
256,192,124121,1,8,1:0:0:0:
256,192,124240,1,8,1:0:0:0:
256,192,124359,1,0,1:0:0:0:
256,192,124478,1,0,1:0:0:0:
256,192,124597,1,12,1:0:0:0:
256,192,127454,5,8,1:0:0:0:
256,192,127811,1,8,1:0:0:0:
256,192,127930,1,0,1:0:0:0:
256,192,128407,1,8,1:0:0:0:
256,192,130311,5,12,1:0:0:0:
256,192,130668,1,0,1:0:0:0:
256,192,130787,1,8,1:0:0:0:
256,192,131145,1,8,1:0:0:0:
256,192,131383,1,8,1:0:0:0:
256,192,131502,1,8,1:0:0:0:
256,192,131621,1,0,1:0:0:0:
256,192,131740,1,0,1:0:0:0:
256,192,131859,1,8,1:0:0:0:
256,192,131978,1,0,1:0:0:0:
256,192,132097,1,0,1:0:0:0:
256,192,132216,1,12,1:0:0:0:
256,192,132573,1,12,1:0:0:0:
256,192,132930,1,12,1:0:0:0:
256,192,133287,1,12,1:0:0:0:
256,192,133407,1,4,1:0:0:0:
256,192,133526,1,4,1:0:0:0:
256,192,133645,1,12,1:0:0:0:
256,192,133883,1,0,1:0:0:0:
256,192,134002,1,0,1:0:0:0:
256,192,134121,1,12,1:0:0:0:
256,192,134240,1,12,1:0:0:0:
256,192,134478,1,4,1:0:0:0:
256,192,134716,1,4,1:0:0:0:
256,192,134954,1,12,1:0:0:0:
256,192,135073,1,4,1:0:0:0:
256,192,135192,1,12,1:0:0:0:
256,192,135311,1,12,1:0:0:0:
256,192,135430,1,4,1:0:0:0:
256,192,135549,1,12,1:0:0:0:
256,192,135787,1,0,1:0:0:0:
256,192,136026,1,12,1:0:0:0:
256,192,136264,1,0,1:0:0:0:
256,192,136383,1,8,1:0:0:0:
256,192,136442,1,8,1:0:0:0:
256,192,136502,1,8,1:0:0:0:
256,192,136561,1,8,1:0:0:0:
256,192,136621,1,0,1:0:0:0:
256,192,136740,1,8,1:0:0:0:
256,192,136859,1,0,1:0:0:0:
256,192,136978,1,8,1:0:0:0:
256,192,137037,1,8,1:0:0:0:
256,192,137097,1,0,1:0:0:0:
256,192,137157,1,0,1:0:0:0:
256,192,137216,1,8,1:0:0:0:
256,192,137335,1,0,1:0:0:0:
256,192,137395,1,0,1:0:0:0:
256,192,137454,1,8,1:0:0:0:
256,192,137573,1,0,1:0:0:0:
256,192,137692,1,8,1:0:0:0:
256,192,137752,1,0,1:0:0:0:
256,192,137811,1,0,1:0:0:0:
256,192,137930,1,8,1:0:0:0:
256,192,137990,1,8,1:0:0:0:
256,192,138049,1,8,1:0:0:0:
256,192,138109,1,8,1:0:0:0:
256,192,138168,1,0,1:0:0:0:
256,192,138287,1,0,1:0:0:0:
256,192,138347,1,0,1:0:0:0:
256,192,138407,1,8,1:0:0:0:
256,192,138466,1,8,1:0:0:0:
256,192,138526,1,0,1:0:0:0:
256,192,138645,1,8,1:0:0:0:
256,192,138764,1,0,1:0:0:0:
256,192,138883,1,8,1:0:0:0:
256,192,138942,1,8,1:0:0:0:
256,192,139002,1,0,1:0:0:0:
256,192,139061,1,0,1:0:0:0:
256,192,139121,1,8,1:0:0:0:
256,192,139180,1,8,1:0:0:0:
256,192,139240,1,0,1:0:0:0:
256,192,139359,1,8,1:0:0:0:
256,192,139478,1,0,1:0:0:0:
256,192,139537,1,0,1:0:0:0:
256,192,139597,1,8,1:0:0:0:
256,192,139835,1,8,1:0:0:0:
256,192,139895,1,0,1:0:0:0:
256,192,139954,1,8,1:0:0:0:
256,192,140014,1,8,1:0:0:0:
256,192,140073,1,0,1:0:0:0:
256,192,140192,1,8,1:0:0:0:
256,192,140252,1,8,1:0:0:0:
256,192,140311,1,8,1:0:0:0:
256,192,140371,1,8,1:0:0:0:
256,192,140430,1,0,1:0:0:0:
256,192,140549,1,8,1:0:0:0:
256,192,140668,1,0,1:0:0:0:
256,192,140728,1,0,1:0:0:0:
256,192,140787,1,8,1:0:0:0:
256,192,140847,1,8,1:0:0:0:
256,192,140907,1,0,1:0:0:0:
256,192,140966,1,0,1:0:0:0:
256,192,141026,1,8,1:0:0:0:
256,192,141145,1,0,1:0:0:0:
256,192,141204,1,0,1:0:0:0:
256,192,141264,1,8,1:0:0:0:
256,192,141323,1,8,1:0:0:0:
256,192,141383,1,0,1:0:0:0:
256,192,141502,1,8,1:0:0:0:
256,192,141621,1,0,1:0:0:0:
256,192,141680,1,0,1:0:0:0:
256,192,141740,1,8,1:0:0:0:
256,192,141799,1,0,1:0:0:0:
256,192,141859,1,0,1:0:0:0:
256,192,141978,1,8,1:0:0:0:
256,192,142037,1,8,1:0:0:0:
256,192,142097,1,0,1:0:0:0:
256,192,142216,1,8,1:0:0:0:
256,192,142335,1,0,1:0:0:0:
256,192,142395,1,0,1:0:0:0:
256,192,142454,1,0,1:0:0:0:
256,192,142514,1,0,1:0:0:0:
256,192,142573,1,8,1:0:0:0:
256,192,142692,1,0,1:0:0:0:
256,192,142811,1,8,1:0:0:0:
256,192,142871,1,8,1:0:0:0:
256,192,142930,1,0,1:0:0:0:
256,192,142990,1,0,1:0:0:0:
256,192,143049,1,8,1:0:0:0:
256,192,143109,1,8,1:0:0:0:
256,192,143168,1,0,1:0:0:0:
256,192,143287,1,0,1:0:0:0:
256,192,143407,1,8,1:0:0:0:
256,192,143466,1,8,1:0:0:0:
256,192,143526,1,0,1:0:0:0:
256,192,143645,1,12,1:0:0:0:
256,192,143883,1,0,1:0:0:0:
256,192,144002,1,8,1:0:0:0:
256,192,144061,1,0,1:0:0:0:
256,192,144121,1,8,1:0:0:0:
256,192,144180,1,8,1:0:0:0:
256,192,144240,1,0,1:0:0:0:
256,192,144359,1,8,1:0:0:0:
256,192,144478,1,0,1:0:0:0:
256,192,144597,1,8,1:0:0:0:
256,192,144657,1,8,1:0:0:0:
256,192,144716,1,8,1:0:0:0:
256,192,144776,1,8,1:0:0:0:
256,192,144835,1,0,1:0:0:0:
256,192,144954,1,8,1:0:0:0:
256,192,145014,1,8,1:0:0:0:
256,192,145073,1,0,1:0:0:0:
256,192,145192,1,8,1:0:0:0:
256,192,145311,1,0,1:0:0:0:
256,192,145371,1,0,1:0:0:0:
256,192,145430,1,8,1:0:0:0:
256,192,145549,1,0,1:0:0:0:
256,192,145609,1,0,1:0:0:0:
256,192,145668,1,8,1:0:0:0:
256,192,145728,1,8,1:0:0:0:
256,192,145787,1,0,1:0:0:0:
256,192,145907,1,8,1:0:0:0:
256,192,145966,1,0,1:0:0:0:
256,192,146026,1,8,1:0:0:0:
256,192,146085,1,8,1:0:0:0:
256,192,146145,1,0,1:0:0:0:
256,192,146264,1,8,1:0:0:0:
256,192,146383,1,0,1:0:0:0:
256,192,146502,1,8,1:0:0:0:
256,192,146561,1,8,1:0:0:0:
256,192,146621,1,8,1:0:0:0:
256,192,146680,1,8,1:0:0:0:
256,192,146740,1,0,1:0:0:0:
256,192,146799,1,0,1:0:0:0:
256,192,146859,1,8,1:0:0:0:
256,192,146978,1,0,1:0:0:0:
256,192,147097,1,8,1:0:0:0:
256,192,147157,1,0,1:0:0:0:
256,192,147216,1,8,1:0:0:0:
256,192,147454,1,0,1:0:0:0:
256,192,147514,1,8,1:0:0:0:
256,192,147573,1,0,1:0:0:0:
256,192,147633,1,0,1:0:0:0:
256,192,147692,1,8,1:0:0:0:
256,192,147811,1,0,1:0:0:0:
256,192,147871,1,0,1:0:0:0:
256,192,147930,1,8,1:0:0:0:
256,192,147990,1,8,1:0:0:0:
256,192,148049,1,0,1:0:0:0:
256,192,148168,1,8,1:0:0:0:
256,192,148287,1,0,1:0:0:0:
256,192,148347,1,0,1:0:0:0:
256,192,148407,1,0,1:0:0:0:
256,192,148466,1,0,1:0:0:0:
256,192,148526,1,8,1:0:0:0:
256,192,148585,1,8,1:0:0:0:
256,192,148645,1,0,1:0:0:0:
256,192,148764,1,8,1:0:0:0:
256,192,148823,1,8,1:0:0:0:
256,192,148883,1,8,1:0:0:0:
256,192,148942,1,8,1:0:0:0:
256,192,149002,1,0,1:0:0:0:
256,192,149121,1,8,1:0:0:0:
256,192,149240,1,0,1:0:0:0:
256,192,149299,1,0,1:0:0:0:
256,192,149359,1,8,1:0:0:0:
256,192,149418,1,8,1:0:0:0:
256,192,149478,1,0,1:0:0:0:
256,192,149597,1,8,1:0:0:0:
256,192,149657,1,0,1:0:0:0:
256,192,149716,1,0,1:0:0:0:
256,192,149835,1,8,1:0:0:0:
256,192,149954,1,0,1:0:0:0:
256,192,150014,1,0,1:0:0:0:
256,192,150073,1,8,1:0:0:0:
256,192,150133,1,0,1:0:0:0:
256,192,150192,1,0,1:0:0:0:
256,192,150311,1,8,1:0:0:0:
256,192,150430,1,0,1:0:0:0:
256,192,150490,1,0,1:0:0:0:
256,192,150549,1,8,1:0:0:0:
256,192,150609,1,8,1:0:0:0:
256,192,150668,1,0,1:0:0:0:
256,192,150728,1,0,1:0:0:0:
256,192,150787,1,8,1:0:0:0:
256,192,150907,1,0,1:0:0:0:
256,192,151026,1,8,1:0:0:0:
256,192,151085,1,8,1:0:0:0:
256,192,151145,1,0,1:0:0:0:
256,192,151264,1,12,1:0:0:0:
256,192,151502,1,8,1:0:0:0:
256,192,151621,1,0,1:0:0:0:
256,192,151680,1,0,1:0:0:0:
256,192,151740,1,8,1:0:0:0:
256,192,151799,1,8,1:0:0:0:
256,192,151859,1,8,1:0:0:0:
256,192,151978,1,0,1:0:0:0:
256,192,152097,1,8,1:0:0:0:
256,192,152216,1,0,1:0:0:0:
256,192,152276,1,0,1:0:0:0:
256,192,152335,1,8,1:0:0:0:
256,192,152395,1,8,1:0:0:0:
256,192,152454,1,0,1:0:0:0:
256,192,152573,1,8,1:0:0:0:
256,192,152633,1,8,1:0:0:0:
256,192,152692,1,0,1:0:0:0:
256,192,152811,1,8,1:0:0:0:
256,192,152930,1,0,1:0:0:0:
256,192,152990,1,8,1:0:0:0:
256,192,153049,1,0,1:0:0:0:
256,192,153168,1,8,1:0:0:0:
256,192,153228,1,8,1:0:0:0:
256,192,153287,1,8,1:0:0:0:
256,192,153347,1,8,1:0:0:0:
256,192,153407,1,0,1:0:0:0:
256,192,153526,1,8,1:0:0:0:
256,192,153585,1,0,1:0:0:0:
256,192,153645,1,8,1:0:0:0:
256,192,153704,1,8,1:0:0:0:
256,192,153764,1,0,1:0:0:0:
256,192,153883,1,8,1:0:0:0:
256,192,154002,1,0,1:0:0:0:
256,192,154121,1,8,1:0:0:0:
256,192,154180,1,8,1:0:0:0:
256,192,154240,1,0,1:0:0:0:
256,192,154299,1,0,1:0:0:0:
256,192,154359,1,0,1:0:0:0:
256,192,154418,1,0,1:0:0:0:
256,192,154478,1,8,1:0:0:0:
256,192,154597,1,0,1:0:0:0:
256,192,154716,1,8,1:0:0:0:
256,192,154776,1,8,1:0:0:0:
256,192,154835,1,0,1:0:0:0:
256,192,155073,1,8,1:0:0:0:
256,192,155133,1,8,1:0:0:0:
256,192,155192,1,8,1:0:0:0:
256,192,155252,1,8,1:0:0:0:
256,192,155311,1,0,1:0:0:0:
256,192,155430,1,8,1:0:0:0:
256,192,155490,1,0,1:0:0:0:
256,192,155549,1,8,1:0:0:0:
256,192,155609,1,8,1:0:0:0:
256,192,155668,1,0,1:0:0:0:
256,192,155787,1,8,1:0:0:0:
256,192,155907,1,0,1:0:0:0:
256,192,155966,1,0,1:0:0:0:
256,192,156026,1,8,1:0:0:0:
256,192,156085,1,0,1:0:0:0:
256,192,156145,1,8,1:0:0:0:
256,192,156204,1,8,1:0:0:0:
256,192,156264,1,0,1:0:0:0:
256,192,156383,1,8,1:0:0:0:
256,192,156442,1,8,1:0:0:0:
256,192,156502,1,0,1:0:0:0:
256,192,156561,1,0,1:0:0:0:
256,192,156621,1,8,1:0:0:0:
256,192,156740,1,0,1:0:0:0:
256,192,156859,1,8,1:0:0:0:
256,192,156918,1,8,1:0:0:0:
256,192,156978,1,8,1:0:0:0:
256,192,157037,1,8,1:0:0:0:
256,192,157097,1,0,1:0:0:0:
256,192,157216,1,8,1:0:0:0:
256,192,157276,1,0,1:0:0:0:
256,192,157335,1,0,1:0:0:0:
256,192,157454,1,8,1:0:0:0:
256,192,157573,1,0,1:0:0:0:
256,192,157633,1,0,1:0:0:0:
256,192,157692,1,8,1:0:0:0:
256,192,157752,1,8,1:0:0:0:
256,192,157811,1,0,1:0:0:0:
256,192,157930,1,8,1:0:0:0:
256,192,158049,1,0,1:0:0:0:
256,192,158109,1,0,1:0:0:0:
256,192,158168,1,8,1:0:0:0:
256,192,158228,1,8,1:0:0:0:
256,192,158287,1,8,1:0:0:0:
256,192,158347,1,8,1:0:0:0:
256,192,158407,1,0,1:0:0:0:
256,192,158526,1,8,1:0:0:0:
256,192,158645,1,0,1:0:0:0:
256,192,158704,1,0,1:0:0:0:
256,192,158764,1,0,1:0:0:0:
256,192,158883,1,12,1:0:0:0:
256,192,159121,1,0,1:0:0:0:
256,192,159240,1,8,1:0:0:0:
256,192,159299,1,8,1:0:0:0:
256,192,159359,1,0,1:0:0:0:
256,192,159418,1,0,1:0:0:0:
256,192,159478,1,8,1:0:0:0:
256,192,159597,1,0,1:0:0:0:
256,192,159716,1,8,1:0:0:0:
256,192,159835,1,0,1:0:0:0:
256,192,159895,1,0,1:0:0:0:
256,192,159954,1,0,1:0:0:0:
256,192,160014,1,0,1:0:0:0:
256,192,160073,1,8,1:0:0:0:
256,192,160192,1,0,1:0:0:0:
256,192,160252,1,0,1:0:0:0:
256,192,160311,1,8,1:0:0:0:
256,192,160430,1,0,1:0:0:0:
256,192,160549,1,8,1:0:0:0:
256,192,160609,1,0,1:0:0:0:
256,192,160668,1,0,1:0:0:0:
256,192,160787,1,8,1:0:0:0:
256,192,160847,1,8,1:0:0:0:
256,192,160907,1,8,1:0:0:0:
256,192,160966,1,8,1:0:0:0:
256,192,161026,1,0,1:0:0:0:
256,192,161145,1,8,1:0:0:0:
256,192,161204,1,8,1:0:0:0:
256,192,161264,1,0,1:0:0:0:
256,192,161323,1,8,1:0:0:0:
256,192,161383,1,0,1:0:0:0:
256,192,161502,1,8,1:0:0:0:
256,192,161621,1,0,1:0:0:0:
256,192,161740,1,8,1:0:0:0:
256,192,161799,1,8,1:0:0:0:
256,192,161859,1,0,1:0:0:0:
256,192,161918,1,0,1:0:0:0:
256,192,161978,1,8,1:0:0:0:
256,192,162037,1,8,1:0:0:0:
256,192,162097,1,0,1:0:0:0:
256,192,162216,1,8,1:0:0:0:
256,192,162335,1,0,1:0:0:0:
256,192,162395,1,0,1:0:0:0:
256,192,162454,1,8,1:0:0:0:
256,192,162692,1,0,1:0:0:0:
256,192,162752,1,0,1:0:0:0:
256,192,162811,1,0,1:0:0:0:
256,192,162871,1,0,1:0:0:0:
256,192,162930,1,8,1:0:0:0:
256,192,163049,1,0,1:0:0:0:
256,192,163109,1,0,1:0:0:0:
256,192,163168,1,8,1:0:0:0:
256,192,163228,1,8,1:0:0:0:
256,192,163287,1,0,1:0:0:0:
256,192,163407,1,8,1:0:0:0:
256,192,163526,1,0,1:0:0:0:
256,192,163585,1,0,1:0:0:0:
256,192,163645,1,0,1:0:0:0:
256,192,163704,1,0,1:0:0:0:
256,192,163764,1,8,1:0:0:0:
256,192,163823,1,8,1:0:0:0:
256,192,163883,1,0,1:0:0:0:
256,192,164002,1,8,1:0:0:0:
256,192,164061,1,8,1:0:0:0:
256,192,164121,1,8,1:0:0:0:
256,192,164180,1,8,1:0:0:0:
256,192,164240,1,0,1:0:0:0:
256,192,164359,1,8,1:0:0:0:
256,192,164478,1,0,1:0:0:0:
256,192,164537,1,0,1:0:0:0:
256,192,164597,1,8,1:0:0:0:
256,192,164657,1,8,1:0:0:0:
256,192,164716,1,8,1:0:0:0:
256,192,164835,1,0,1:0:0:0:
256,192,164895,1,0,1:0:0:0:
256,192,164954,1,0,1:0:0:0:
256,192,165073,1,8,1:0:0:0:
256,192,165192,1,0,1:0:0:0:
256,192,165252,1,0,1:0:0:0:
256,192,165311,1,8,1:0:0:0:
256,192,165371,1,0,1:0:0:0:
256,192,165430,1,0,1:0:0:0:
256,192,165549,1,8,1:0:0:0:
256,192,165668,1,0,1:0:0:0:
256,192,165728,1,0,1:0:0:0:
256,192,165787,1,8,1:0:0:0:
256,192,165847,1,8,1:0:0:0:
256,192,165907,1,0,1:0:0:0:
256,192,165966,1,0,1:0:0:0:
256,192,166026,1,8,1:0:0:0:
256,192,166145,1,0,1:0:0:0:
256,192,166264,1,8,1:0:0:0:
256,192,166323,1,8,1:0:0:0:
256,192,166383,1,0,1:0:0:0:
256,192,166502,1,12,1:0:0:0:
256,192,166740,1,0,1:0:0:0:
256,192,166859,1,8,1:0:0:0:
256,192,166918,1,0,1:0:0:0:
256,192,166978,1,8,1:0:0:0:
256,192,167097,1,0,1:0:0:0:
256,192,167216,1,8,1:0:0:0:
256,192,167276,1,0,1:0:0:0:
256,192,167335,1,0,1:0:0:0:
256,192,167395,1,0,1:0:0:0:
256,192,167454,1,8,1:0:0:0:
256,192,167573,1,0,1:0:0:0:
256,192,167692,1,8,1:0:0:0:
256,192,167811,1,0,1:0:0:0:
256,192,167871,1,0,1:0:0:0:
256,192,167930,1,8,1:0:0:0:
256,192,168049,1,0,1:0:0:0:
256,192,168168,1,8,1:0:0:0:
256,192,168407,1,8,1:0:0:0:
256,192,168466,1,8,1:0:0:0:
256,192,168526,1,8,1:0:0:0:
256,192,168585,1,8,1:0:0:0:
256,192,168645,1,0,1:0:0:0:
256,192,168764,1,8,1:0:0:0:
256,192,168823,1,8,1:0:0:0:
256,192,168883,1,8,1:0:0:0:
256,192,169002,1,0,1:0:0:0:
256,192,169121,1,8,1:0:0:0:
256,192,169180,1,8,1:0:0:0:
256,192,169240,1,0,1:0:0:0:
256,192,169299,1,0,1:0:0:0:
256,192,169359,1,8,1:0:0:0:
256,192,169478,1,0,1:0:0:0:
256,192,169597,1,8,1:0:0:0:
256,192,169716,1,0,1:0:0:0:
256,192,169776,1,0,1:0:0:0:
256,192,169835,1,8,1:0:0:0:
256,192,169895,1,8,1:0:0:0:
256,192,169954,1,0,1:0:0:0:
256,192,170014,1,0,1:0:0:0:
256,192,170073,1,8,1:0:0:0:
256,192,170192,1,0,1:0:0:0:
256,192,170311,1,12,1:0:0:0:
256,192,170668,1,0,1:0:0:0:
256,192,170787,1,8,1:0:0:0:
256,192,171026,1,0,1:0:0:0:
256,192,171264,1,8,1:0:0:0:
256,192,171383,1,8,1:0:0:0:
256,192,171502,1,0,1:0:0:0:
256,192,171621,1,8,1:0:0:0:
256,192,171740,1,0,1:0:0:0:
256,192,171978,1,0,1:0:0:0:
256,192,172216,1,8,1:0:0:0:
256,192,172335,1,8,1:0:0:0:
256,192,172454,1,0,1:0:0:0:
256,192,172573,1,0,1:0:0:0:
256,192,172692,1,8,1:0:0:0:
256,192,172930,1,8,1:0:0:0:
256,192,173168,1,0,1:0:0:0:
256,192,173287,1,8,1:0:0:0:
256,192,173407,1,0,1:0:0:0:
256,192,173526,1,0,1:0:0:0:
256,192,173645,1,8,1:0:0:0:
256,192,173764,1,0,1:0:0:0:
256,192,173823,1,0,1:0:0:0:
256,192,173883,1,8,1:0:0:0:
256,192,173942,1,8,1:0:0:0:
256,192,174002,1,0,1:0:0:0:
256,192,174121,1,12,1:0:0:0:
