osu file format v14

[General]
AudioFilename: audio.mp3
AudioLeadIn: 0
PreviewTime: 38645
Countdown: 0
SampleSet: Normal
StackLeniency: 0.7
Mode: 1
LetterboxInBreaks: 0
WidescreenStoryboard: 1

[Editor]
Bookmarks: 788,7573,7633,7692,7752,7811,7871,7930,7990,8049,8109,8168,8228,8407,16026,23645,31264,38645,46502,54121,61740,69359,76978,84597,92216,99835,107454,115073,124597,132216,136026,143645,151264,158883,166502,170311,174121
DistanceSpacing: 0.2
BeatDivisor: 2
GridSize: 32
TimelineZoom: 0.7999978

[Metadata]
Title:Temptation (feat. Rebecca) (Nightcore Mix)
TitleUnicode:Temptation (feat. Rebecca) (Nightcore Mix)
Artist:Arash
ArtistUnicode:Arash
Creator:nevqr
Version:Futsuu
Source:
Tags:english persian farsi electronic dance pop female male vocals vocalist rebecca zadig arash labbaf восточные сказки vostochniye skazki sped speed up ver. version 2x double bpm
BeatmapID:4431546
BeatmapSetID:2109078

[Difficulty]
HPDrainRate:7
CircleSize:2
OverallDifficulty:4
ApproachRate:9
SliderMultiplier:1.4
SliderTickRate:1

[Events]
//Background and Video events
0,0,"BG.jpg",0,50
//Break Periods
2,124797,126854
2,128607,129711
//Storyboard Layer 0 (Background)
//Storyboard Layer 1 (Fail)
//Storyboard Layer 2 (Pass)
//Storyboard Layer 3 (Foreground)
//Storyboard Layer 4 (Overlay)
//Storyboard Sound Samples

[TimingPoints]
788,476.190476190475,4,1,0,70,1,0
8407,-100,4,1,0,80,0,0
31740,-100,4,1,0,70,0,0
38883,-100,4,1,0,90,0,1
54121,-100,4,1,0,90,0,0
54478,-100,4,1,0,80,0,0
61740,-100,4,1,0,70,0,0
69359,-100,4,1,0,80,0,0
77454,-100,4,1,0,70,0,0
84597,-100,4,1,0,90,0,1
99835,-100,4,1,0,90,0,0
100311,-100,4,1,0,80,0,0
115311,-100,4,1,0,50,0,0
116978,-100,4,1,0,70,0,0
124716,-200,4,1,0,5,0,0
127216,-100,4,1,0,70,0,0
127454,-100,4,1,0,80,0,1
128407,-100,4,1,0,80,0,0
128526,-100,4,1,0,5,0,0
130073,-100,4,1,0,70,0,0
130311,-100,4,1,0,70,0,0
132216,-100,4,1,0,80,0,1
133883,-100,4,1,0,80,0,0
134121,-100,4,1,0,80,0,1
135787,-100,4,1,0,80,0,0
136026,-100,4,1,0,90,0,1
166502,-100,4,1,0,90,0,0
166978,-100,4,1,0,80,0,0
170787,-100,4,1,0,70,0,0
174121,-100,4,1,0,90,0,0

[HitObjects]
256,192,788,5,8,1:0:0:0:
256,192,1145,1,0,1:0:0:0:
256,192,1740,1,8,1:0:0:0:
256,192,2097,1,8,1:0:0:0:
256,192,2692,1,0,1:0:0:0:
256,192,3049,1,8,1:0:0:0:
256,192,3645,1,0,1:0:0:0:
256,192,4121,1,0,1:0:0:0:
256,192,4597,1,8,1:0:0:0:
256,192,4954,1,0,1:0:0:0:
256,192,5549,1,0,1:0:0:0:
256,192,5907,1,8,1:0:0:0:
256,192,6502,1,8,1:0:0:0:
256,192,6978,1,0,1:0:0:0:
256,192,7216,1,8,1:0:0:0:
256,192,7454,1,0,1:0:0:0:
256,192,8407,1,12,1:0:0:0:
256,192,8764,1,0,1:0:0:0:
256,192,9121,1,8,1:0:0:0:
256,192,9359,1,8,1:0:0:0:
256,192,9835,1,0,1:0:0:0:
256,192,10073,1,0,1:0:0:0:
256,192,10311,1,8,1:0:0:0:
256,192,10668,1,0,1:0:0:0:
256,192,11026,1,0,1:0:0:0:
256,192,11264,1,8,1:0:0:0:
256,192,11740,1,8,1:0:0:0:
256,192,11978,1,0,1:0:0:0:
256,192,12216,1,8,1:0:0:0:
256,192,12573,1,0,1:0:0:0:
256,192,12930,1,8,1:0:0:0:
256,192,13168,1,8,1:0:0:0:
256,192,13645,1,0,1:0:0:0:
256,192,13883,1,0,1:0:0:0:
256,192,14121,1,12,1:0:0:0:
256,192,14478,1,12,1:0:0:0:
256,192,14835,1,12,1:0:0:0:
256,192,15073,1,12,1:0:0:0:
256,192,15549,1,0,1:0:0:0:
256,192,15787,1,0,1:0:0:0:
256,192,16026,1,12,1:0:0:0:
256,192,16383,1,8,1:0:0:0:
256,192,16740,1,0,1:0:0:0:
256,192,16978,1,8,1:0:0:0:
256,192,17335,1,0,1:0:0:0:
256,192,17930,1,8,1:0:0:0:
256,192,18168,1,0,1:0:0:0:
256,192,18407,1,8,1:0:0:0:
256,192,18883,1,8,1:0:0:0:
256,192,19240,1,0,1:0:0:0:
256,192,19835,1,8,1:0:0:0:
256,192,20073,1,8,1:0:0:0:
256,192,20311,1,0,1:0:0:0:
256,192,20787,1,8,1:0:0:0:
256,192,21145,1,0,1:0:0:0:
256,192,21740,1,8,1:0:0:0:
256,192,21978,1,0,1:0:0:0:
256,192,22216,1,8,1:0:0:0:
256,192,22692,1,8,1:0:0:0:
256,192,23049,1,0,1:0:0:0:
256,192,23407,1,0,1:0:0:0:
256,192,23645,1,8,1:0:0:0:
256,192,24121,1,0,1:0:0:0:
256,192,24359,1,0,1:0:0:0:
256,192,24597,1,8,1:0:0:0:
256,192,24954,1,0,1:0:0:0:
256,192,25549,1,8,1:0:0:0:
256,192,25787,1,8,1:0:0:0:
256,192,26026,1,0,1:0:0:0:
256,192,26502,1,8,1:0:0:0:
256,192,26859,1,0,1:0:0:0:
256,192,27454,1,0,1:0:0:0:
256,192,27692,1,8,1:0:0:0:
256,192,27930,1,0,1:0:0:0:
256,192,28407,1,8,1:0:0:0:
256,192,28764,1,0,1:0:0:0:
256,192,29359,1,8,1:0:0:0:
256,192,29597,1,0,1:0:0:0:
256,192,29835,1,8,1:0:0:0:
256,192,30311,1,0,1:0:0:0:
256,192,30668,1,8,1:0:0:0:
256,192,31264,1,12,1:0:0:0:
256,192,31740,1,0,1:0:0:0:
256,192,31978,1,8,1:0:0:0:
256,192,32216,1,0,1:0:0:0:
256,192,32692,1,8,1:0:0:0:
256,192,32930,1,8,1:0:0:0:
256,192,33168,1,0,1:0:0:0:
256,192,33645,1,0,1:0:0:0:
256,192,34121,1,8,1:0:0:0:
256,192,34597,1,0,1:0:0:0:
256,192,35073,1,8,1:0:0:0:
256,192,35549,1,0,1:0:0:0:
256,192,35787,1,8,1:0:0:0:
256,192,36026,1,0,1:0:0:0:
256,192,36502,1,8,1:0:0:0:
256,192,36740,1,0,1:0:0:0:
256,193,36978,1,8,1:0:0:0:
256,192,37216,1,0,1:0:0:0:
256,193,37573,1,0,1:0:0:0:
256,193,37930,1,8,1:0:0:0:
256,193,38287,1,8,1:0:0:0:
256,193,38645,1,0,1:0:0:0:
256,192,38883,1,12,1:0:0:0:
256,193,39240,1,0,1:0:0:0:
256,192,39597,1,8,1:0:0:0:
256,192,39835,1,8,1:0:0:0:
256,192,40192,1,0,1:0:0:0:
256,192,40549,1,0,1:0:0:0:
256,192,40787,1,8,1:0:0:0:
256,192,41145,1,8,1:0:0:0:
256,192,41502,1,0,1:0:0:0:
256,192,41740,1,8,1:0:0:0:
256,192,41978,1,8,1:0:0:0:
256,192,42216,1,0,1:0:0:0:
256,192,42454,1,0,1:0:0:0:
256,192,42692,1,8,1:0:0:0:
256,192,43049,1,0,1:0:0:0:
256,192,43407,1,0,1:0:0:0:
256,192,43645,1,8,1:0:0:0:
256,192,44002,1,8,1:0:0:0:
256,192,44359,1,0,1:0:0:0:
256,192,44597,1,8,1:0:0:0:
256,192,44835,1,0,1:0:0:0:
256,192,45073,1,8,1:0:0:0:
256,192,45311,1,8,1:0:0:0:
256,192,45549,1,0,1:0:0:0:
256,192,46264,1,0,1:0:0:0:
256,192,46502,1,12,1:0:0:0:
256,192,46859,1,0,1:0:0:0:
256,192,47216,1,8,1:0:0:0:
256,192,47454,1,0,1:0:0:0:
256,192,47811,1,8,1:0:0:0:
256,192,48168,1,8,1:0:0:0:
256,192,48407,1,0,1:0:0:0:
256,192,48764,1,8,1:0:0:0:
256,192,49121,1,0,1:0:0:0:
256,192,49359,1,8,1:0:0:0:
256,192,49597,1,8,1:0:0:0:
256,192,49835,1,0,1:0:0:0:
256,192,50073,1,8,1:0:0:0:
256,192,50311,1,0,1:0:0:0:
256,192,50668,1,0,1:0:0:0:
256,192,51026,1,8,1:0:0:0:
256,192,51264,1,0,1:0:0:0:
256,192,51621,1,8,1:0:0:0:
256,192,51978,1,0,1:0:0:0:
256,192,52216,1,8,1:0:0:0:
256,192,52454,1,8,1:0:0:0:
256,192,52692,1,0,1:0:0:0:
256,192,52930,1,0,1:0:0:0:
256,192,53168,1,8,1:0:0:0:
256,192,54121,1,12,1:0:0:0:
256,192,54478,1,0,1:0:0:0:
256,192,54835,1,0,1:0:0:0:
256,192,55073,1,8,1:0:0:0:
256,192,55549,1,0,1:0:0:0:
256,192,55787,1,8,1:0:0:0:
256,192,56026,1,8,1:0:0:0:
256,192,56383,1,0,1:0:0:0:
256,192,56740,1,0,1:0:0:0:
256,192,56978,1,8,1:0:0:0:
256,192,57454,1,8,1:0:0:0:
256,192,57692,1,0,1:0:0:0:
256,192,57930,1,8,1:0:0:0:
256,192,58287,1,0,1:0:0:0:
256,192,58645,1,8,1:0:0:0:
256,192,58883,1,8,1:0:0:0:
256,192,59359,1,0,1:0:0:0:
256,192,59597,1,0,1:0:0:0:
256,192,59835,1,12,1:0:0:0:
256,192,60192,1,12,1:0:0:0:
256,192,60549,1,12,1:0:0:0:
256,192,60787,1,12,1:0:0:0:
256,192,61740,1,8,1:0:0:0:
256,192,61978,1,0,1:0:0:0:
256,192,62216,1,8,1:0:0:0:
256,192,62692,1,8,1:0:0:0:
256,192,63049,1,0,1:0:0:0:
256,192,63645,1,8,1:0:0:0:
256,192,63883,1,8,1:0:0:0:
256,192,64121,1,0,1:0:0:0:
256,192,64597,1,8,1:0:0:0:
256,192,64954,1,8,1:0:0:0:
256,192,65549,1,0,1:0:0:0:
256,192,66026,1,8,1:0:0:0:
256,192,66264,1,0,1:0:0:0:
256,192,66502,1,0,1:0:0:0:
256,192,66859,1,8,1:0:0:0:
256,192,67454,1,0,1:0:0:0:
256,192,67930,1,8,1:0:0:0:
256,192,68168,1,0,1:0:0:0:
256,192,68407,1,8,1:0:0:0:
256,192,68764,1,0,1:0:0:0:
256,192,69121,1,0,1:0:0:0:
256,192,69359,1,12,1:0:0:0:
256,192,69835,1,0,1:0:0:0:
256,192,70073,1,8,1:0:0:0:
256,192,70311,1,0,1:0:0:0:
256,192,70668,1,8,1:0:0:0:
256,192,71264,1,8,1:0:0:0:
256,192,71502,1,8,1:0:0:0:
256,192,71740,1,0,1:0:0:0:
256,192,72216,1,8,1:0:0:0:
256,192,72573,1,0,1:0:0:0:
256,192,73168,1,8,1:0:0:0:
256,192,73407,1,0,1:0:0:0:
256,192,73645,1,8,1:0:0:0:
256,192,74121,1,0,1:0:0:0:
256,192,74478,1,8,1:0:0:0:
256,192,75073,1,0,1:0:0:0:
256,192,75311,1,0,1:0:0:0:
256,192,75549,1,8,1:0:0:0:
256,192,76026,1,8,1:0:0:0:
256,192,76383,1,0,1:0:0:0:
256,192,76978,1,12,1:0:0:0:
256,192,77454,1,0,1:0:0:0:
256,192,77692,1,8,1:0:0:0:
256,192,77930,1,0,1:0:0:0:
256,192,78407,1,8,1:0:0:0:
256,192,78645,1,8,1:0:0:0:
256,192,78883,1,0,1:0:0:0:
256,192,79359,1,0,1:0:0:0:
256,192,79835,1,8,1:0:0:0:
256,192,80311,1,0,1:0:0:0:
256,192,80787,1,8,1:0:0:0:
256,192,81264,1,0,1:0:0:0:
256,192,81502,1,8,1:0:0:0:
256,192,81740,1,0,1:0:0:0:
256,192,82216,1,8,1:0:0:0:
256,192,82454,1,0,1:0:0:0:
256,193,82692,1,8,1:0:0:0:
256,192,82930,1,0,1:0:0:0:
256,193,83287,1,0,1:0:0:0:
256,193,83645,1,8,1:0:0:0:
256,193,84002,1,8,1:0:0:0:
256,193,84359,1,0,1:0:0:0:
256,192,84597,1,12,1:0:0:0:
256,192,84954,1,0,1:0:0:0:
256,192,85311,1,0,1:0:0:0:
256,192,85549,1,8,1:0:0:0:
256,192,85907,1,8,1:0:0:0:
256,192,86264,1,0,1:0:0:0:
256,192,86502,1,8,1:0:0:0:
256,192,86859,1,0,1:0:0:0:
256,192,87216,1,8,1:0:0:0:
256,192,87454,1,0,1:0:0:0:
256,192,87692,1,0,1:0:0:0:
256,192,87930,1,8,1:0:0:0:
256,192,88168,1,8,1:0:0:0:
256,192,88407,1,0,1:0:0:0:
256,192,88764,1,0,1:0:0:0:
256,192,89121,1,8,1:0:0:0:
256,192,89359,1,8,1:0:0:0:
256,192,89716,1,0,1:0:0:0:
256,192,90073,1,8,1:0:0:0:
256,192,90311,1,0,1:0:0:0:
256,192,90549,1,8,1:0:0:0:
256,192,90787,1,0,1:0:0:0:
256,192,91026,1,0,1:0:0:0:
256,192,91264,1,8,1:0:0:0:
256,192,91978,1,0,1:0:0:0:
256,192,92216,1,12,1:0:0:0:
256,192,92573,1,0,1:0:0:0:
256,192,92930,1,8,1:0:0:0:
256,192,93168,1,8,1:0:0:0:
256,192,93526,1,0,1:0:0:0:
256,192,93883,1,8,1:0:0:0:
256,192,94121,1,0,1:0:0:0:
256,192,94478,1,8,1:0:0:0:
256,192,94835,1,0,1:0:0:0:
256,192,95073,1,8,1:0:0:0:
256,192,95311,1,0,1:0:0:0:
256,192,95549,1,8,1:0:0:0:
256,192,95787,1,8,1:0:0:0:
256,192,96026,1,0,1:0:0:0:
256,192,96383,1,8,1:0:0:0:
256,192,96740,1,0,1:0:0:0:
256,192,96978,1,8,1:0:0:0:
256,192,97335,1,8,1:0:0:0:
256,192,97692,1,0,1:0:0:0:
256,192,97930,1,8,1:0:0:0:
256,192,98168,1,8,1:0:0:0:
256,192,98407,1,0,1:0:0:0:
256,192,98645,1,8,1:0:0:0:
256,192,98883,1,0,1:0:0:0:
256,192,99835,1,12,1:0:0:0:
256,192,100311,1,0,1:0:0:0:
256,192,100549,1,0,1:0:0:0:
256,192,100787,1,8,1:0:0:0:
256,192,101145,1,0,1:0:0:0:
256,192,101502,1,8,1:0:0:0:
256,192,101740,1,0,1:0:0:0:
256,192,102216,1,8,1:0:0:0:
256,192,102454,1,0,1:0:0:0:
256,192,102692,1,8,1:0:0:0:
256,192,103168,1,0,1:0:0:0:
256,192,103407,1,0,1:0:0:0:
256,192,103645,1,8,1:0:0:0:
256,192,104121,1,0,1:0:0:0:
256,192,104359,1,8,1:0:0:0:
256,192,104597,1,0,1:0:0:0:
256,192,104954,1,8,1:0:0:0:
256,192,105311,1,0,1:0:0:0:
256,192,105549,1,8,1:0:0:0:
256,192,106026,1,0,1:0:0:0:
256,192,106264,1,8,1:0:0:0:
256,192,106502,1,0,1:0:0:0:
256,192,106978,1,8,1:0:0:0:
256,192,107216,1,0,1:0:0:0:
256,192,107454,1,12,1:0:0:0:
256,192,107930,1,0,1:0:0:0:
256,192,108168,1,0,1:0:0:0:
256,192,108407,1,8,1:0:0:0:
256,192,109121,1,8,1:0:0:0:
256,192,109359,1,8,1:0:0:0:
256,192,109835,1,0,1:0:0:0:
256,192,110073,1,8,1:0:0:0:
256,192,110311,1,0,1:0:0:0:
256,192,111026,1,0,1:0:0:0:
256,192,111264,1,8,1:0:0:0:
256,192,111740,1,0,1:0:0:0:
256,192,111978,1,0,1:0:0:0:
256,192,112216,1,8,1:0:0:0:
256,192,112930,1,8,1:0:0:0:
256,192,113168,1,8,1:0:0:0:
256,192,113645,1,0,1:0:0:0:
256,192,113883,1,8,1:0:0:0:
256,192,114121,1,0,1:0:0:0:
256,192,114597,1,8,1:0:0:0:
256,192,114835,1,0,1:0:0:0:
256,192,115073,1,12,1:0:0:0:
256,192,115311,8,0,116740,1:0:0:0:
256,192,116978,5,8,1:0:0:0:
256,192,117454,1,0,1:0:0:0:
256,192,117930,1,8,1:0:0:0:
256,192,118168,1,0,1:0:0:0:
256,192,118526,1,0,1:0:0:0:
256,192,118883,1,8,1:0:0:0:
256,192,119359,1,8,1:0:0:0:
256,192,119835,1,0,1:0:0:0:
256,192,120073,1,0,1:0:0:0:
256,192,120311,1,8,1:0:0:0:
256,192,120787,1,8,1:0:0:0:
256,192,121264,1,0,1:0:0:0:
256,192,121740,1,8,1:0:0:0:
256,192,121978,1,0,1:0:0:0:
256,192,122335,1,8,1:0:0:0:
256,192,122692,1,0,1:0:0:0:
256,192,123168,1,8,1:0:0:0:
256,192,123645,1,0,1:0:0:0:
256,192,123883,1,8,1:0:0:0:
256,192,124121,1,0,1:0:0:0:
256,192,124597,1,12,1:0:0:0:
256,192,127454,5,8,1:0:0:0:
256,192,127930,1,0,1:0:0:0:
256,192,128407,1,8,1:0:0:0:
256,192,130311,5,12,1:0:0:0:
256,192,130787,1,8,1:0:0:0:
256,192,131145,1,0,1:0:0:0:
256,192,131502,1,8,1:0:0:0:
256,192,131740,1,8,1:0:0:0:
256,192,131978,1,0,1:0:0:0:
256,192,132216,1,12,1:0:0:0:
256,192,132573,1,12,1:0:0:0:
256,192,132930,1,12,1:0:0:0:
256,192,133287,1,12,1:0:0:0:
256,192,133645,1,12,1:0:0:0:
256,192,133883,1,0,1:0:0:0:
256,192,134121,1,12,1:0:0:0:
256,192,134478,1,4,1:0:0:0:
256,192,134716,1,4,1:0:0:0:
256,192,135073,1,12,1:0:0:0:
256,192,135311,1,12,1:0:0:0:
256,192,135549,1,12,1:0:0:0:
256,192,135787,1,0,1:0:0:0:
256,192,136026,1,12,1:0:0:0:
256,193,136383,1,0,1:0:0:0:
256,192,136740,1,8,1:0:0:0:
256,192,136978,1,8,1:0:0:0:
256,192,137335,1,0,1:0:0:0:
256,192,137692,1,0,1:0:0:0:
256,192,137930,1,8,1:0:0:0:
256,192,138287,1,8,1:0:0:0:
256,192,138645,1,0,1:0:0:0:
256,192,138883,1,8,1:0:0:0:
256,192,139121,1,8,1:0:0:0:
256,192,139359,1,0,1:0:0:0:
256,192,139597,1,0,1:0:0:0:
256,192,139835,1,8,1:0:0:0:
256,192,140192,1,0,1:0:0:0:
256,192,140549,1,0,1:0:0:0:
256,192,140787,1,8,1:0:0:0:
256,192,141145,1,8,1:0:0:0:
256,192,141502,1,0,1:0:0:0:
256,192,141740,1,8,1:0:0:0:
256,192,141978,1,0,1:0:0:0:
256,192,142216,1,8,1:0:0:0:
256,192,142454,1,8,1:0:0:0:
256,192,142692,1,0,1:0:0:0:
256,192,143407,1,0,1:0:0:0:
256,192,143645,1,12,1:0:0:0:
256,192,144002,1,0,1:0:0:0:
256,192,144359,1,8,1:0:0:0:
256,192,144597,1,0,1:0:0:0:
256,192,144954,1,8,1:0:0:0:
256,192,145311,1,8,1:0:0:0:
256,192,145549,1,0,1:0:0:0:
256,192,145907,1,8,1:0:0:0:
256,192,146264,1,0,1:0:0:0:
256,192,146502,1,8,1:0:0:0:
256,192,146740,1,8,1:0:0:0:
256,192,146978,1,0,1:0:0:0:
256,192,147216,1,8,1:0:0:0:
256,192,147454,1,0,1:0:0:0:
256,192,147811,1,0,1:0:0:0:
256,192,148168,1,8,1:0:0:0:
256,192,148407,1,0,1:0:0:0:
256,192,148764,1,8,1:0:0:0:
256,192,149121,1,0,1:0:0:0:
256,192,149359,1,8,1:0:0:0:
256,192,149597,1,8,1:0:0:0:
256,192,149835,1,0,1:0:0:0:
256,192,150073,1,0,1:0:0:0:
256,192,150311,1,8,1:0:0:0:
256,192,151264,1,12,1:0:0:0:
256,192,151621,1,0,1:0:0:0:
256,192,151978,1,0,1:0:0:0:
256,192,152216,1,8,1:0:0:0:
256,192,152573,1,8,1:0:0:0:
256,192,152930,1,0,1:0:0:0:
256,192,153168,1,8,1:0:0:0:
256,192,153526,1,0,1:0:0:0:
256,192,153883,1,8,1:0:0:0:
256,192,154121,1,0,1:0:0:0:
256,192,154359,1,0,1:0:0:0:
256,192,154597,1,8,1:0:0:0:
256,192,154835,1,8,1:0:0:0:
256,192,155073,1,0,1:0:0:0:
256,192,155430,1,0,1:0:0:0:
256,192,155787,1,8,1:0:0:0:
256,192,156026,1,8,1:0:0:0:
256,192,156383,1,0,1:0:0:0:
256,192,156740,1,8,1:0:0:0:
256,192,156978,1,0,1:0:0:0:
256,192,157216,1,8,1:0:0:0:
256,192,157454,1,0,1:0:0:0:
256,192,157692,1,0,1:0:0:0:
256,192,157930,1,8,1:0:0:0:
256,192,158645,1,0,1:0:0:0:
256,192,158883,1,12,1:0:0:0:
256,192,159240,1,0,1:0:0:0:
256,192,159597,1,8,1:0:0:0:
256,192,159835,1,8,1:0:0:0:
256,192,160192,1,0,1:0:0:0:
256,192,160549,1,8,1:0:0:0:
256,192,160787,1,0,1:0:0:0:
256,192,161145,1,8,1:0:0:0:
256,192,161502,1,0,1:0:0:0:
256,192,161740,1,8,1:0:0:0:
256,192,161978,1,0,1:0:0:0:
256,192,162216,1,8,1:0:0:0:
256,192,162454,1,8,1:0:0:0:
256,192,162692,1,0,1:0:0:0:
256,192,163049,1,8,1:0:0:0:
256,192,163407,1,0,1:0:0:0:
256,192,163645,1,8,1:0:0:0:
256,192,164002,1,8,1:0:0:0:
256,192,164359,1,0,1:0:0:0:
256,192,164597,1,8,1:0:0:0:
256,192,164835,1,8,1:0:0:0:
256,192,165073,1,0,1:0:0:0:
256,192,165311,1,8,1:0:0:0:
256,192,165549,1,0,1:0:0:0:
256,192,166502,1,12,1:0:0:0:
256,192,166978,1,0,1:0:0:0:
256,192,167216,1,0,1:0:0:0:
256,192,167454,1,8,1:0:0:0:
256,192,167811,1,0,1:0:0:0:
256,192,168168,1,8,1:0:0:0:
256,192,168407,1,0,1:0:0:0:
256,192,168883,1,8,1:0:0:0:
256,192,169121,1,0,1:0:0:0:
256,192,169359,1,8,1:0:0:0:
256,192,169835,1,0,1:0:0:0:
256,192,170073,1,0,1:0:0:0:
256,192,170311,1,12,1:0:0:0:
256,192,170787,1,0,1:0:0:0:
256,192,171264,1,8,1:0:0:0:
256,192,171621,1,0,1:0:0:0:
256,192,171978,1,0,1:0:0:0:
256,192,172216,1,8,1:0:0:0:
256,192,172692,1,0,1:0:0:0:
256,192,172930,1,8,1:0:0:0:
256,192,173168,1,0,1:0:0:0:
256,192,173645,1,8,1:0:0:0:
256,192,173883,1,0,1:0:0:0:
256,192,174121,1,12,1:0:0:0:
