osu file format v14

[General]
AudioFilename: audio.mp3
AudioLeadIn: 0
PreviewTime: 38645
Countdown: 0
SampleSet: Soft
StackLeniency: 0.5
Mode: 0
LetterboxInBreaks: 0
WidescreenStoryboard: 1

[Editor]
DistanceSpacing: 0.1
BeatDivisor: 4
GridSize: 32
TimelineZoom: 2.950001

[Metadata]
Title:Temptation (feat. Rebecca) (Nightcore Mix)
TitleUnicode:Temptation (feat. Rebecca) (Nightcore Mix)
Artist:Arash
ArtistUnicode:Arash
Creator:Azrealy
Version:CS3.3
Source:
Tags:english persian farsi electronic dance pop female male vocal rebecca zadig aim alternate jumps sped speed up discoboi fujinn actiol восточные сказки
BeatmapID:4085748
BeatmapSetID:1828594

[Difficulty]
HPDrainRate:4
CircleSize:3.3
OverallDifficulty:10
ApproachRate:10
SliderMultiplier:2.02
SliderTickRate:1

[Events]
//Background and Video events
0,0,"BG.jpg",0,0
//Break Periods
//Storyboard Layer 0 (Background)
//Storyboard Layer 1 (Fail)
//Storyboard Layer 2 (Pass)
//Storyboard Layer 3 (Foreground)
//Storyboard Layer 4 (Overlay)
//Storyboard Sound Samples

[TimingPoints]
70,476.190476190476,4,2,1,50,1,0
70,-100,4,2,1,50,0,0
788,238.095238095238,4,2,1,50,1,0
788,-125,4,2,1,50,0,0
8407,-100,4,2,2,65,0,0
8526,-100,4,2,9,65,0,0
8764,-100,4,2,2,65,0,0
8883,-100,4,2,3,65,0,0
9121,-100,4,2,2,65,0,0
9240,-100,4,2,3,65,0,0
9359,-100,4,2,2,65,0,0
9478,-100,4,2,9,65,0,0
9835,-100,4,2,3,65,0,0
10073,-100,4,2,2,65,0,0
10192,-100,4,2,3,65,0,0
10311,-100,4,2,2,65,0,0
10430,-100,4,2,9,65,0,0
10668,-100,4,2,2,65,0,0
10787,-100,4,2,3,65,0,0
11026,-100,4,2,2,65,0,0
11145,-100,4,2,3,65,0,0
11264,-100,4,2,2,65,0,0
11383,-100,4,2,9,65,0,0
11621,-100,4,2,2,65,0,0
12335,-100,4,2,9,65,0,0
12573,-100,4,2,2,65,0,0
12692,-100,4,2,3,65,0,0
12930,-100,4,2,2,65,0,0
13049,-100,4,2,3,65,0,0
13168,-100,4,2,2,65,0,0
13287,-100,4,2,9,65,0,0
13645,-100,4,2,3,65,0,0
13883,-100,4,2,2,65,0,0
14002,-100,4,2,3,65,0,0
14121,-83.3333333333333,4,2,2,65,0,0
14478,-125,4,2,4,65,0,0
14835,-83.3333333333333,4,2,5,65,0,0
15073,-83.3333333333333,4,2,4,65,0,0
15311,-125,4,2,3,65,0,0
15549,-125,4,2,3,65,0,0
15787,-250,4,2,3,65,0,0
15966,-250,4,2,3,5,0,0
16026,-100,4,2,6,65,0,0
16145,-100,4,2,3,65,0,0
16264,-100,4,2,4,65,0,0
16383,-100,4,2,1,65,0,0
16740,-100,4,2,5,65,0,0
17097,-100,4,2,3,65,0,0
17216,-100,4,2,4,65,0,0
17335,-100,4,2,1,65,0,0
17692,-100,4,2,4,65,0,0
17930,-100,4,2,3,65,0,0
18168,-100,4,2,6,65,0,0
18287,-100,4,2,4,65,0,0
18347,-100,4,2,3,65,0,0
18645,-100,4,2,5,65,0,0
19002,-100,4,2,3,65,0,0
19121,-100,4,2,4,65,0,0
19240,-100,4,2,1,65,0,0
19597,-100,4,2,4,65,0,0
19954,-100,4,2,14,65,0,0
20192,-100,4,2,1,65,0,0
20549,-100,4,2,5,65,0,0
20907,-100,4,2,3,65,0,0
21026,-100,4,2,4,65,0,0
21145,-100,4,2,1,65,0,0
21502,-100,4,2,4,65,0,0
21859,-100,4,2,14,65,0,0
22097,-100,4,2,1,65,0,0
22454,-100,4,2,5,65,0,0
22811,-100,4,2,3,65,0,0
22930,-100,4,2,4,65,0,0
23049,-100,4,2,1,65,0,0
23407,-100,4,2,5,65,0,0
23645,-100,4,2,1,65,0,0
23764,-100,4,2,3,65,0,0
23883,-100,4,2,4,65,0,0
24002,-100,4,2,1,65,0,0
24359,-100,4,2,5,65,0,0
24716,-100,4,2,3,65,0,0
24835,-100,4,2,4,65,0,0
24954,-100,4,2,1,65,0,0
25311,-100,4,2,4,65,0,0
25668,-100,4,2,14,65,0,0
25907,-100,4,2,1,65,0,0
26264,-100,4,2,5,65,0,0
26621,-100,4,2,3,65,0,0
26740,-100,4,2,4,65,0,0
26859,-100,4,2,1,65,0,0
27216,-100,4,2,4,65,0,0
27573,-100,4,2,3,65,0,0
27692,-100,4,2,5,65,0,0
27811,-100,4,2,1,65,0,0
28168,-100,4,2,5,65,0,0
28526,-100,4,2,3,65,0,0
28645,-100,4,2,4,65,0,0
28764,-100,4,2,1,65,0,0
29121,-100,4,2,4,65,0,0
29478,-100,4,2,3,65,0,0
29597,-100,4,2,5,65,0,0
29716,-100,4,2,1,65,0,0
30073,-100,4,2,5,65,0,0
30430,-100,4,2,3,65,0,0
30549,-100,4,2,4,65,0,0
30668,-100,4,2,1,65,0,0
31026,-100,4,2,4,65,0,0
31264,-125,4,2,7,55,0,0
31383,-125,4,2,9,55,0,0
31621,-125,4,2,8,55,0,0
31978,-125,4,2,7,55,0,0
32097,-125,4,2,3,55,0,0
32454,-125,4,2,2,55,0,0
32573,-125,4,2,8,55,0,0
32692,-125,4,2,2,55,0,0
32811,-125,4,2,3,55,0,0
32930,-125,4,2,2,55,0,0
33049,-125,4,2,3,55,0,0
33168,-125,4,2,2,55,0,0
33287,-125,4,2,9,55,0,0
33526,-125,4,2,7,55,0,0
33764,-125,4,2,3,55,0,0
33883,-125,4,2,7,55,0,0
34002,-125,4,2,3,55,0,0
34121,-125,4,2,2,55,0,0
34240,-125,4,2,9,55,0,0
34478,-125,4,2,7,55,0,0
34716,-125,4,2,3,55,0,0
34835,-125,4,2,7,55,0,0
34954,-125,4,2,3,55,0,0
35073,-125,4,2,2,55,0,0
35192,-125,4,2,9,55,0,0
35430,-125,4,2,7,55,0,0
35668,-125,4,2,3,55,0,0
35787,-125,4,2,7,55,0,0
35907,-125,4,2,3,55,0,0
36264,-125,4,2,2,55,0,0
36383,-125,4,2,8,55,0,0
36502,-125,4,2,2,55,0,0
36621,-125,4,2,3,55,0,0
36740,-125,4,2,2,55,0,0
36859,-125,4,2,8,55,0,0
36978,-166.666666666667,4,2,8,60,0,0
37097,-166.666666666667,4,2,8,5,0,0
37216,-100,4,2,1,70,0,0
37335,-100,4,2,3,70,0,0
37573,-100,4,2,1,70,0,0
38645,-250,4,2,1,70,0,0
38823,-250,4,2,1,5,0,0
38883,-83.3333333333333,4,2,1,80,0,1
39359,-83.3333333333333,4,2,3,80,0,1
39597,-83.3333333333333,4,2,5,80,0,1
40073,-83.3333333333333,4,2,1,80,0,1
40311,-83.3333333333333,4,2,3,80,0,1
40549,-83.3333333333333,4,2,5,80,0,1
41026,-83.3333333333333,4,2,1,80,0,1
41264,-83.3333333333333,4,2,3,80,0,1
41502,-83.3333333333333,4,2,5,80,0,1
41978,-83.3333333333333,4,2,2,80,0,1
42454,-83.3333333333333,4,2,5,80,0,1
42930,-83.3333333333333,4,2,1,80,0,1
43168,-83.3333333333333,4,2,3,80,0,1
43407,-83.3333333333333,4,2,5,80,0,1
43883,-83.3333333333333,4,2,1,80,0,1
44121,-83.3333333333333,4,2,3,80,0,1
44359,-83.3333333333333,4,2,5,80,0,1
44835,-83.3333333333333,4,2,2,80,0,1
45311,-83.3333333333333,4,2,5,80,0,1
45668,-83.3333333333333,4,2,1,80,0,1
45787,-83.3333333333333,4,2,9,80,0,1
45907,-83.3333333333333,4,2,1,80,0,1
46026,-83.3333333333333,4,2,9,80,0,1
46264,-83.3333333333333,4,2,5,80,0,1
46502,-83.3333333333333,4,2,1,80,0,1
46978,-83.3333333333333,4,2,3,80,0,1
47216,-83.3333333333333,4,2,5,80,0,1
47692,-83.3333333333333,4,2,1,80,0,1
47930,-83.3333333333333,4,2,3,80,0,1
48168,-83.3333333333333,4,2,5,80,0,1
48645,-83.3333333333333,4,2,1,80,0,1
48883,-83.3333333333333,4,2,3,80,0,1
49121,-83.3333333333333,4,2,5,80,0,1
49597,-83.3333333333333,4,2,2,80,0,1
50073,-83.3333333333333,4,2,5,80,0,1
50549,-83.3333333333333,4,2,1,80,0,1
50787,-83.3333333333333,4,2,3,80,0,1
51026,-83.3333333333333,4,2,5,80,0,1
51502,-83.3333333333333,4,2,1,80,0,1
51740,-83.3333333333333,4,2,3,80,0,1
51978,-83.3333333333333,4,2,5,80,0,1
52454,-83.3333333333333,4,2,2,80,0,1
52930,-83.3333333333333,4,2,5,80,0,1
53168,-83.3333333333333,4,2,3,80,0,1
54121,-83.3333333333333,4,2,7,70,0,0
54240,-83.3333333333333,4,2,9,70,0,0
54478,-83.3333333333333,4,2,2,70,0,0
54597,-83.3333333333333,4,2,3,70,0,0
54835,-83.3333333333333,4,2,2,70,0,0
54954,-83.3333333333333,4,2,3,70,0,0
55073,-83.3333333333333,4,2,2,70,0,0
55192,-83.3333333333333,4,2,9,70,0,0
55549,-83.3333333333333,4,2,3,70,0,0
55787,-83.3333333333333,4,2,2,70,0,0
55907,-83.3333333333333,4,2,3,70,0,0
56026,-83.3333333333333,4,2,2,70,0,0
56145,-83.3333333333333,4,2,9,70,0,0
56383,-83.3333333333333,4,2,2,70,0,0
56502,-83.3333333333333,4,2,3,70,0,0
56740,-83.3333333333333,4,2,2,70,0,0
56859,-83.3333333333333,4,2,3,70,0,0
56978,-83.3333333333333,4,2,2,70,0,0
57097,-83.3333333333333,4,2,9,70,0,0
57335,-83.3333333333333,4,2,2,70,0,0
58049,-83.3333333333333,4,2,9,70,0,0
58287,-83.3333333333333,4,2,2,70,0,0
58407,-83.3333333333333,4,2,3,70,0,0
58645,-83.3333333333333,4,2,2,70,0,0
58764,-83.3333333333333,4,2,3,70,0,0
58883,-83.3333333333333,4,2,2,70,0,0
59002,-83.3333333333333,4,2,9,70,0,0
59359,-83.3333333333333,4,2,3,70,0,0
59478,-83.3333333333333,4,2,10,70,0,0
59597,-83.3333333333333,4,2,2,70,0,0
59716,-83.3333333333333,4,2,10,70,0,0
59835,-83.3333333333333,4,2,2,70,0,0
60192,-83.3333333333333,4,2,4,70,0,0
60549,-83.3333333333333,4,2,5,70,0,0
60787,-83.3333333333333,4,2,4,70,0,0
61621,-83.3333333333333,4,2,4,70,0,0
61740,-125,4,2,4,50,0,0
62216,-125,4,2,6,50,0,0
68883,-142.857142857143,4,2,6,50,0,0
69359,-100,4,2,10,65,0,0
69597,-100,4,2,5,65,0,0
69716,-100,4,2,1,65,0,0
70073,-100,4,2,5,65,0,0
70430,-100,4,2,14,65,0,0
70668,-100,4,2,1,65,0,0
71026,-100,4,2,4,65,0,0
71383,-100,4,2,3,65,0,0
71502,-100,4,2,4,65,0,0
71621,-100,4,2,1,65,0,0
71978,-100,4,2,5,65,0,0
72335,-100,4,2,3,65,0,0
72454,-100,4,2,4,65,0,0
72573,-100,4,2,1,65,0,0
72930,-100,4,2,5,65,0,0
73287,-100,4,2,3,65,0,0
73407,-100,4,2,5,65,0,0
73526,-100,4,2,1,65,0,0
73883,-100,4,2,5,65,0,0
74240,-100,4,2,3,65,0,0
74359,-100,4,2,4,65,0,0
74478,-100,4,2,1,65,0,0
74835,-100,4,2,4,65,0,0
75192,-100,4,2,3,65,0,0
75311,-100,4,2,5,65,0,0
75430,-100,4,2,1,65,0,0
75787,-100,4,2,5,65,0,0
76145,-100,4,2,3,65,0,0
76264,-100,4,2,4,65,0,0
76383,-100,4,2,1,65,0,0
76740,-100,4,2,4,65,0,0
76978,-125,4,2,7,55,0,0
77097,-125,4,2,9,55,0,0
77335,-125,4,2,8,55,0,0
77692,-125,4,2,7,55,0,0
77811,-125,4,2,3,55,0,0
78168,-125,4,2,2,55,0,0
78287,-125,4,2,8,55,0,0
78407,-125,4,2,2,55,0,0
78526,-125,4,2,3,55,0,0
78645,-125,4,2,2,55,0,0
78764,-125,4,2,3,55,0,0
78883,-125,4,2,2,55,0,0
79002,-125,4,2,9,55,0,0
79240,-125,4,2,7,55,0,0
79478,-125,4,2,3,55,0,0
79597,-125,4,2,7,55,0,0
79716,-125,4,2,3,55,0,0
79835,-125,4,2,2,55,0,0
79954,-125,4,2,9,55,0,0
80192,-125,4,2,7,55,0,0
80430,-125,4,2,3,55,0,0
80549,-125,4,2,7,55,0,0
80668,-125,4,2,3,55,0,0
80787,-125,4,2,2,55,0,0
80907,-125,4,2,9,55,0,0
81145,-125,4,2,7,55,0,0
81383,-125,4,2,3,55,0,0
81502,-125,4,2,7,55,0,0
81621,-125,4,2,3,55,0,0
81978,-125,4,2,2,55,0,0
82097,-125,4,2,8,55,0,0
82216,-125,4,2,2,55,0,0
82335,-125,4,2,3,55,0,0
82454,-125,4,2,2,55,0,0
82573,-125,4,2,8,55,0,0
82692,-166.666666666667,4,2,8,55,0,0
82811,-166.666666666667,4,2,8,5,0,0
82930,-100,4,2,1,70,0,0
83049,-100,4,2,3,70,0,0
83287,-100,4,2,1,70,0,0
84359,-250,4,2,1,70,0,0
84537,-100,4,2,1,5,0,0
84597,-83.3333333333333,4,2,1,80,0,1
85073,-83.3333333333333,4,2,3,80,0,1
85311,-83.3333333333333,4,2,5,80,0,1
85787,-83.3333333333333,4,2,1,80,0,1
86026,-83.3333333333333,4,2,3,80,0,1
86264,-83.3333333333333,4,2,5,80,0,1
86740,-83.3333333333333,4,2,1,80,0,1
86978,-83.3333333333333,4,2,3,80,0,1
87216,-83.3333333333333,4,2,5,80,0,1
87692,-83.3333333333333,4,2,2,80,0,1
88168,-83.3333333333333,4,2,5,80,0,1
88645,-83.3333333333333,4,2,1,80,0,1
88883,-83.3333333333333,4,2,3,80,0,1
89121,-83.3333333333333,4,2,5,80,0,1
89597,-83.3333333333333,4,2,1,80,0,1
89835,-83.3333333333333,4,2,3,80,0,1
90073,-83.3333333333333,4,2,5,80,0,1
90549,-83.3333333333333,4,2,2,80,0,1
91026,-83.3333333333333,4,2,5,80,0,1
91383,-83.3333333333333,4,2,1,80,0,1
91502,-83.3333333333333,4,2,9,80,0,1
91621,-83.3333333333333,4,2,1,80,0,1
91740,-83.3333333333333,4,2,9,80,0,1
91978,-83.3333333333333,4,2,5,80,0,1
92216,-83.3333333333333,4,2,1,80,0,1
92692,-83.3333333333333,4,2,3,80,0,1
92930,-83.3333333333333,4,2,5,80,0,1
93407,-83.3333333333333,4,2,1,80,0,1
93645,-83.3333333333333,4,2,3,80,0,1
93883,-83.3333333333333,4,2,5,80,0,1
94359,-83.3333333333333,4,2,1,80,0,1
94597,-83.3333333333333,4,2,3,80,0,1
94835,-83.3333333333333,4,2,5,80,0,1
95311,-83.3333333333333,4,2,2,80,0,1
95787,-83.3333333333333,4,2,5,80,0,1
96264,-83.3333333333333,4,2,1,80,0,1
96502,-83.3333333333333,4,2,3,80,0,1
96740,-83.3333333333333,4,2,5,80,0,1
97216,-83.3333333333333,4,2,1,80,0,1
97454,-83.3333333333333,4,2,3,80,0,1
97692,-83.3333333333333,4,2,5,80,0,1
98168,-83.3333333333333,4,2,2,80,0,1
98645,-83.3333333333333,4,2,5,80,0,1
99121,-83.3333333333333,4,2,4,80,0,1
99359,-83.3333333333333,4,2,1,80,0,1
99597,-83.3333333333333,4,2,11,80,0,1
99716,-83.3333333333333,4,2,1,80,0,1
99835,-100,4,2,10,70,0,0
100073,-100,4,2,11,70,0,0
100549,-100,4,2,5,70,0,0
101026,-100,4,2,11,70,0,0
101502,-100,4,2,5,70,0,0
101978,-100,4,2,11,70,0,0
102454,-100,4,2,5,70,0,0
102930,-100,4,2,11,70,0,0
103645,-100,4,2,1,70,0,0
103883,-100,4,2,11,70,0,0
104359,-100,4,2,5,70,0,0
104835,-100,4,2,11,70,0,0
105311,-100,4,2,5,70,0,0
105787,-100,4,2,11,70,0,0
106264,-100,4,2,5,70,0,0
106621,-100,4,2,1,70,0,0
106740,-100,4,2,11,70,0,0
107097,-100,4,2,1,70,0,0
107216,-100,4,2,4,70,0,0
107335,-100,4,2,1,70,0,0
107454,-90.9090909090909,4,2,6,75,0,0
107930,-90.9090909090909,4,2,11,75,0,0
108168,-90.9090909090909,4,2,5,75,0,0
108645,-90.9090909090909,4,2,11,75,0,0
109121,-90.9090909090909,4,2,5,75,0,0
109597,-90.9090909090909,4,2,11,75,0,0
110073,-90.9090909090909,4,2,5,75,0,0
110549,-90.9090909090909,4,2,11,75,0,0
111026,-90.9090909090909,4,2,5,75,0,0
111264,-90.9090909090909,4,2,1,75,0,0
111502,-90.9090909090909,4,2,11,75,0,0
111978,-90.9090909090909,4,2,5,75,0,0
112454,-90.9090909090909,4,2,11,75,0,0
112930,-90.9090909090909,4,2,5,75,0,0
113407,-90.9090909090909,4,2,11,75,0,0
113883,-90.9090909090909,4,2,5,75,0,0
114359,-90.9090909090909,4,2,11,75,0,0
114835,-90.9090909090909,4,2,5,75,0,0
115073,-90.9090909090909,4,2,1,75,0,0
116621,-100,4,2,1,5,0,0
116740,-142.857142857143,4,2,1,55,0,0
116978,-142.857142857143,4,2,8,55,0,0
117216,-142.857142857143,4,2,6,55,0,0
117335,-142.857142857143,4,2,1,55,0,0
117692,-142.857142857143,4,2,12,55,0,0
117811,-142.857142857143,4,2,1,55,0,0
118168,-142.857142857143,4,2,4,55,0,0
118526,-142.857142857143,4,2,8,55,0,0
118645,-142.857142857143,4,2,12,55,0,0
118764,-142.857142857143,4,2,8,55,0,0
119121,-142.857142857143,4,2,6,55,0,0
119240,-142.857142857143,4,2,2,55,0,0
119359,-111.111111111111,4,2,2,55,0,0
119478,-111.111111111111,4,2,3,55,0,0
119537,-142.857142857143,4,2,3,5,0,0
119597,-111.111111111111,4,2,3,55,0,0
119776,-142.857142857143,4,2,3,5,0,0
119835,-142.857142857143,4,2,3,55,0,0
120073,-142.857142857143,4,2,4,55,0,0
120192,-142.857142857143,4,2,1,55,0,0
120311,-142.857142857143,4,2,4,55,0,0
120430,-142.857142857143,4,2,8,55,0,0
120549,-142.857142857143,4,2,6,55,0,0
120668,-142.857142857143,4,2,8,55,0,0
121026,-142.857142857143,4,2,6,55,0,0
121145,-142.857142857143,4,2,1,55,0,0
121264,-142.857142857143,4,2,5,55,0,0
121383,-142.857142857143,4,2,1,55,0,0
121502,-142.857142857143,4,2,12,55,0,0
121621,-142.857142857143,4,2,4,55,0,0
122335,-142.857142857143,4,2,8,55,0,0
122454,-142.857142857143,4,2,12,55,0,0
122573,-142.857142857143,4,2,8,55,0,0
122930,-142.857142857143,4,2,6,55,0,0
123049,-142.857142857143,4,2,2,55,0,0
123168,-111.111111111111,4,2,2,55,0,0
123347,-142.857142857143,4,2,2,5,0,0
123407,-111.111111111111,4,2,3,55,0,0
123585,-142.857142857143,4,2,3,5,0,0
123645,-142.857142857143,4,2,3,55,0,0
123883,-142.857142857143,4,2,6,55,0,0
124121,-153.846153846154,4,2,1,55,0,0
124359,-222.222222222223,4,2,6,55,0,0
124597,-153.846153846154,4,2,10,40,0,0
125073,-153.846153846154,4,2,6,40,0,0
130311,-111.111111111111,4,2,13,55,0,0
130549,-111.111111111111,4,2,1,55,0,0
130668,-111.111111111111,4,2,3,55,0,0
131026,-111.111111111111,4,2,4,55,0,0
131264,-111.111111111111,4,2,1,55,0,0
131621,-111.111111111111,4,2,2,55,0,0
131740,-111.111111111111,4,2,4,55,0,0
131978,-111.111111111111,4,2,2,55,0,0
132216,-83.3333333333333,4,2,13,60,0,0
132454,-83.3333333333333,4,2,4,60,0,0
132573,-100,4,2,3,60,0,0
132930,-100,4,2,4,60,0,0
133287,-100,4,2,3,60,0,0
133407,-100,4,2,4,60,0,0
133526,-100,4,2,3,60,0,0
133883,-100,4,2,4,60,0,0
134002,-100,4,2,1,60,0,0
134121,-100,4,2,13,70,0,0
134240,-100,4,2,3,70,0,0
134537,-100,4,2,3,5,0,0
134716,-100,4,2,3,70,0,0
134776,-100,4,2,3,5,0,0
134954,-100,4,2,3,70,0,0
135073,-100,4,2,4,70,0,0
136026,-83.3333333333333,4,2,1,80,0,1
136502,-83.3333333333333,4,2,3,80,0,1
136740,-83.3333333333333,4,2,5,80,0,1
137216,-83.3333333333333,4,2,1,80,0,1
137454,-83.3333333333333,4,2,3,80,0,1
137692,-83.3333333333333,4,2,5,80,0,1
138168,-83.3333333333333,4,2,1,80,0,1
138407,-83.3333333333333,4,2,3,80,0,1
138645,-83.3333333333333,4,2,5,80,0,1
139121,-83.3333333333333,4,2,2,80,0,1
139597,-83.3333333333333,4,2,5,80,0,1
140073,-83.3333333333333,4,2,1,80,0,1
140311,-83.3333333333333,4,2,3,80,0,1
140549,-83.3333333333333,4,2,5,80,0,1
141026,-83.3333333333333,4,2,1,80,0,1
141264,-83.3333333333333,4,2,3,80,0,1
141502,-83.3333333333333,4,2,5,80,0,1
141978,-83.3333333333333,4,2,2,80,0,1
142454,-83.3333333333333,4,2,5,80,0,1
142811,-83.3333333333333,4,2,1,80,0,1
142930,-83.3333333333333,4,2,9,80,0,1
143049,-83.3333333333333,4,2,1,80,0,1
143168,-83.3333333333333,4,2,9,80,0,1
143407,-83.3333333333333,4,2,5,80,0,1
143645,-80,4,2,1,80,0,1
144121,-80,4,2,3,80,0,1
144359,-80,4,2,5,80,0,1
144835,-80,4,2,1,80,0,1
145073,-80,4,2,3,80,0,1
145311,-80,4,2,5,80,0,1
145787,-80,4,2,1,80,0,1
146026,-80,4,2,3,80,0,1
146264,-80,4,2,5,80,0,1
146740,-80,4,2,2,80,0,1
147216,-80,4,2,5,80,0,1
147692,-80,4,2,1,80,0,1
147930,-80,4,2,3,80,0,1
148168,-133.333333333333,4,2,5,80,0,1
148407,-80,4,2,5,80,0,1
148645,-80,4,2,1,80,0,1
148883,-80,4,2,3,80,0,1
149121,-80,4,2,5,80,0,1
149359,-80,4,2,3,80,0,1
149597,-80,4,2,14,80,0,1
149716,-80,4,2,1,80,0,1
149835,-80,4,2,15,80,0,1
149954,-80,4,2,14,80,0,1
150192,-80,4,2,3,80,0,1
151085,-80,4,2,1,80,0,1
151145,-80,4,2,3,80,0,1
151204,-80,4,2,1,80,0,1
151264,-76.9230769230769,4,2,1,85,0,1
151740,-76.9230769230769,4,2,3,85,0,1
151978,-76.9230769230769,4,2,5,85,0,1
152454,-76.9230769230769,4,2,1,85,0,1
152692,-76.9230769230769,4,2,3,85,0,1
152930,-76.9230769230769,4,2,5,85,0,1
153407,-76.9230769230769,4,2,1,85,0,1
153645,-76.9230769230769,4,2,3,85,0,1
153883,-76.9230769230769,4,2,5,85,0,1
154359,-76.9230769230769,4,2,2,85,0,1
154835,-76.9230769230769,4,2,5,85,0,1
155073,-76.9230769230769,4,2,1,85,0,1
155549,-76.9230769230769,4,2,3,85,0,1
155787,-133.333333333333,4,2,5,85,0,1
156026,-76.9230769230769,4,2,5,85,0,1
156264,-76.9230769230769,4,2,1,85,0,1
156502,-76.9230769230769,4,2,3,85,0,1
156740,-76.9230769230769,4,2,5,85,0,1
157216,-76.9230769230769,4,2,2,85,0,1
157692,-76.9230769230769,4,2,5,85,0,1
158049,-76.9230769230769,4,2,1,85,0,1
158168,-76.9230769230769,4,2,9,85,0,1
158287,-76.9230769230769,4,2,1,85,0,1
158407,-76.9230769230769,4,2,9,85,0,1
158645,-76.9230769230769,4,2,5,85,0,1
158883,-74.0740740740741,4,2,1,85,0,1
159359,-74.0740740740741,4,2,3,85,0,1
159597,-74.0740740740741,4,2,5,85,0,1
160073,-74.0740740740741,4,2,1,85,0,1
160311,-74.0740740740741,4,2,3,85,0,1
160549,-74.0740740740741,4,2,5,85,0,1
161026,-74.0740740740741,4,2,1,85,0,1
161264,-74.0740740740741,4,2,3,85,0,1
161502,-74.0740740740741,4,2,5,85,0,1
161978,-74.0740740740741,4,2,2,85,0,1
162454,-74.0740740740741,4,2,5,85,0,1
162692,-74.0740740740741,4,2,1,85,0,1
163168,-74.0740740740741,4,2,3,85,0,1
163407,-74.0740740740741,4,2,5,85,0,1
163883,-74.0740740740741,4,2,1,85,0,1
164121,-74.0740740740741,4,2,3,85,0,1
164359,-74.0740740740741,4,2,5,85,0,1
164835,-74.0740740740741,4,2,2,85,0,1
165311,-74.0740740740741,4,2,5,85,0,1
165549,-74.0740740740741,4,2,5,80,0,1
165668,-74.0740740740741,4,2,1,80,0,1
165787,-74.0740740740741,4,2,9,80,0,1
165907,-74.0740740740741,4,2,3,80,0,1
166264,-74.0740740740741,4,2,6,80,0,1
166502,-100,4,2,16,65,0,0
166621,-100,4,2,10,65,0,0
166740,-100,4,2,7,65,0,0
167097,-100,4,2,3,65,0,0
167216,-100,4,2,2,65,0,0
167335,-100,4,2,3,65,0,0
167454,-100,4,2,2,65,0,0
167573,-100,4,2,8,65,0,0
167692,-100,4,2,7,65,0,0
167930,-100,4,2,3,65,0,0
168168,-100,4,2,2,65,0,0
168287,-100,4,2,3,65,0,0
168407,-100,4,2,2,65,0,0
168526,-100,4,2,10,65,0,0
168645,-100,4,2,1,65,0,0
168764,-100,4,2,8,65,0,0
168883,-100,4,2,2,65,0,0
169002,-100,4,2,3,65,0,0
169121,-100,4,2,2,65,0,0
169240,-100,4,2,3,65,0,0
169359,-100,4,2,2,65,0,0
169478,-100,4,2,10,65,0,0
169597,-100,4,2,1,65,0,0
169716,-100,4,2,8,65,0,0
170073,-100,4,2,7,65,0,0
170192,-100,4,2,3,65,0,0
170311,-153.846153846154,4,2,3,55,0,0
170668,-153.846153846154,4,2,7,55,0,0
170907,-153.846153846154,4,2,3,55,0,0
171026,-153.846153846154,4,2,7,55,0,0
171145,-153.846153846154,4,2,3,55,0,0
171264,-153.846153846154,4,2,2,55,0,0
171502,-153.846153846154,4,2,3,55,0,0
171621,-153.846153846154,4,2,7,55,0,0
171740,-153.846153846154,4,2,3,55,0,0
171978,-153.846153846154,4,2,7,55,0,0
172097,-153.846153846154,4,2,3,55,0,0
172216,-153.846153846154,4,2,2,55,0,0
172335,-153.846153846154,4,2,3,55,0,0
172573,-153.846153846154,4,2,7,55,0,0
172692,-153.846153846154,4,2,3,55,0,0
172930,-153.846153846154,4,2,7,55,0,0
173049,-153.846153846154,4,2,3,55,0,0
173168,-153.846153846154,4,2,7,55,0,0
173645,-153.846153846154,4,2,3,55,0,0
173764,-153.846153846154,4,2,10,55,0,0
173883,-153.846153846154,4,2,12,55,0,0
173942,-153.846153846154,4,2,10,55,0,0
174121,-153.846153846154,4,2,4,55,0,0

[Colours]
Combo1 : 255,255,176
Combo2 : 233,63,143
Combo3 : 119,119,215
Combo4 : 253,168,225

[HitObjects]
48,330,788,6,0,P|76:301|65:253,1,80.8,6|0,2:2|0:0,0:0:0:0:
49,180,1026,1,0,0:0:0:0:
49,180,1145,2,0,B|89:159|127:197|127:197|169:240|224:206,1,161.6,2|0,2:2|0:0,0:0:0:0:
270,106,1502,2,0,L|183:132,1,80.8,2|0,2:2|0:0,0:0:0:0:
269,281,1740,6,0,P|294:245|277:195,1,80.8,2|0,2:2|0:0,0:0:0:0:
192,129,1978,1,0,0:0:0:0:
110,305,2097,2,0,B|188:291|188:291|194:294|194:294|268:280,1,161.6,2|0,2:2|0:0,0:0:0:0:
393,131,2454,2,0,P|366:166|376:212,1,80.8,2|0,2:2|0:0,0:0:0:0:
474,343,2692,6,0,P|434:281|350:314,1,161.6,2|0,2:2|0:0,0:0:0:0:
246,174,3049,2,0,L|275:332,1,161.6,2|0,2:2|0:0,0:0:0:0:
166,85,3407,2,0,L|150:170,1,80.8,2|0,2:2|0:0,0:0:0:0:
70,227,3645,5,2,2:2:0:0:
271,258,3764,1,0,0:0:0:0:
53,223,3883,1,2,2:2:0:0:
246,174,4002,2,0,B|288:147|335:181|325:198|361:230|416:192,1,161.6
492,111,4359,1,2,2:2:0:0:
292,45,4478,1,2,2:2:0:0:
468,266,4597,6,0,B|487:198|487:198|476:170|476:170|498:91,1,161.6,2|0,2:2|0:0,0:0:0:0:
292,45,4954,2,0,P|342:103|432:67,1,161.6,2|0,2:2|0:0,0:0:0:0:
373,14,5311,1,2,2:2:0:0:
373,14,5430,1,0,0:0:0:0:
325,202,5549,6,0,B|313:131|313:131|307:126|307:126|287:21,1,161.6,2|0,2:2|0:0,0:0:0:0:
405,262,5907,2,0,B|362:267|343:313|343:313|309:269|239:279,1,161.6,2|0,2:2|0:0,0:0:0:0:
435,349,6264,1,2,2:2:0:0:
435,349,6383,1,0,0:0:0:0:
188,310,6502,6,0,P|178:273|206:221,1,80.8,2|0,2:2|0:0,0:0:0:0:
337,122,6740,2,0,P|348:161|319:211,1,80.8,2|0,2:2|0:0,0:0:0:0:
29,85,6978,6,0,L|127:67,1,80.8,2|0,2:2|0:0,0:0:0:0:
257,152,7216,2,0,L|159:134,1,80.8,2|0,2:2|0:0,0:0:0:0:
396,51,7454,5,2,2:2:0:0:
259,277,7573,1,2,2:2:0:0:
191,29,7692,1,2,2:2:0:0:
356,221,7811,2,0,B|399:233|399:233|453:203,1,80.8,2|0,2:2|0:0,0:0:0:0:
275,74,8049,5,2,2:2:0:0:
367,324,8168,1,2,2:2:0:0:
270,60,8287,1,2,2:2:0:0:
187,326,8407,6,0,B|137:362|83:320|83:320|39:286|-10:319,1,202,6|2,1:2|2:3,0:0:0:0:
146,77,8764,2,0,B|200:129|200:129|147:250,1,202,2|2,2:2|2:2,0:0:0:0:
1,188,9121,2,0,P|32:151|86:153,1,101,2|2,2:3|2:2,0:0:0:0:
260,269,9359,6,0,B|350:256|350:256|378:272|378:272|485:256,1,202,2|2,1:2|2:3,0:0:0:0:
189,331,9716,5,2,2:2:0:0:
189,331,9835,2,0,P|159:290|171:237,1,101,10|2,1:2|2:2,0:0:0:0:
420,93,10073,2,0,P|432:140|402:183,1,101,2|2,2:3|2:2,0:0:0:0:
145,85,10311,6,0,B|215:99|215:99|235:119|235:119|261:108|261:108|340:123,1,202,2|2,1:2|2:3,0:0:0:0:
40,352,10668,2,0,B|25:275|25:275|20:267|20:267|1:178|1:178|19:206,1,202,2|2,2:2|2:2,0:0:0:0:
202,212,11026,2,0,P|168:245|114:234,1,101,2|2,2:3|2:2,0:0:0:0:
35,65,11264,6,0,P|107:27|121:135,1,202,2|2,1:2|2:3,0:0:0:0:
15,290,11621,1,2,2:2:0:0:
221,198,11740,1,10,1:2:0:0:
0,146,11859,1,2,2:2:0:0:
167,374,11978,1,2,2:3:0:0:
262,114,12097,1,2,2:2:0:0:
15,290,12216,6,0,B|101:278|101:278|126:294|126:294|239:278,1,202,2|2,1:2|2:3,0:0:0:0:
454,110,12573,2,0,B|420:105|400:70|400:70|388:123|442:143|401:205,1,202,2|2,2:2|2:2,0:0:0:0:
339,274,12930,2,0,P|303:233|316:179,1,101,2|2,2:3|2:2,0:0:0:0:
502,344,13168,6,0,P|410:326|269:319,1,202,2|2,1:2|2:3,0:0:0:0:
63,378,13526,1,2,2:2:0:0:
63,378,13645,2,0,B|52:327|52:327|48:323|48:323|36:270,1,101,10|2,1:2|2:2,0:0:0:0:
259,143,13883,2,0,B|248:194|248:194|244:198|244:198|232:251,1,101,2|2,2:3|2:2,0:0:0:0:
1,47,14121,6,0,B|59:-1|122:34|101:69|179:100|234:41,1,242.399992602539,6|0,1:2|0:0,0:0:0:0:
80,235,14478,2,0,B|58:124|58:124|85:164,1,161.6,6|0,1:2|0:0,0:0:0:0:
160,291,14835,2,0,P|121:332|58:326,1,121.19999630127,6|0,1:2|0:0,0:0:0:0:
80,235,15073,5,6,1:2:0:0:
247,345,15311,5,8,2:3:0:0:
267,326,15371,1,8,2:3:0:0:
292,322,15430,1,8,2:3:0:0:
321,329,15490,1,8,2:3:0:0:
343,353,15549,1,4,2:3:0:0:
373,376,15609,1,4,2:3:0:0:
419,377,15668,1,4,2:3:0:0:
461,348,15728,1,4,2:3:0:0:
472,287,15787,6,0,B|439:282|439:282|437:284|437:284|401:278,1,60.6,6|0,2:3|0:0,0:0:0:0:
384,259,16026,6,0,B|365:168|365:168|356:157|356:157|330:48,1,202,6|2,1:2|2:3,0:0:0:0:
465,9,16383,1,10,2:2:0:0:
465,9,16502,2,0,L|440:119,1,101,0|0,1:1|0:0,0:0:0:0:
267,240,16740,2,0,L|243:141,1,101,10|0,2:3|0:0,0:0:0:0:
344,11,16978,5,2,1:2:0:0:
390,276,17097,1,10,2:3:0:0:
195,70,17216,1,2,2:3:0:0:
462,154,17335,1,10,2:2:0:0:
166,294,17454,2,0,B|146:202|146:202|142:198|142:198|116:88,1,202,0|10,1:1|2:3,0:0:0:0:
321,161,17811,1,0,0:0:0:0:
321,161,17871,1,0,0:0:0:0:
321,161,17930,6,0,B|267:181|267:181|205:147,1,101,10|10,1:3|2:3,0:0:0:0:
57,13,18168,1,10,2:3:0:0:
274,89,18287,1,10,2:2:0:0:
42,218,18407,2,0,P|9:178|27:125,1,101,10|0,1:3|0:0,0:0:0:0:
115,105,18645,2,0,P|151:144|137:203,1,101,10|0,2:3|0:0,0:0:0:0:
114,289,18883,5,2,1:2:0:0:
114,289,19002,2,0,B|165:278|165:278|169:280|169:280|223:268,1,101,10|2,2:3|2:3,0:0:0:0:
335,130,19240,2,0,P|295:155|292:211,1,101,10|0,2:2|1:1,0:0:0:0:
372,383,19478,5,0,0:0:0:0:
428,159,19597,2,0,L|455:43,1,101,10|0,2:3|0:0,0:0:0:0:
512,268,19835,6,0,B|464:225|405:265|424:292|369:335|308:277,1,202,2|2,1:2|2:3,0:0:0:0:
102,222,20192,1,8,2:2:0:0:
278,119,20311,2,0,B|308:161|308:161|276:232,1,101,2|0,1:2|0:0,0:0:0:0:
206,382,20549,2,0,L|181:266,1,101,10|0,2:3|0:0,0:0:0:0:
135,145,20787,5,2,1:2:0:0:
135,145,20907,2,0,B|84:133|84:133|42:163,1,101,10|2,2:3|2:3,0:0:0:0:
116,354,21145,5,10,2:2:0:0:
44,161,21264,1,0,1:1:0:0:
110,340,21383,1,0,0:0:0:0:
212,205,21502,2,0,B|257:181|257:181|306:200,1,101,10|0,2:3|0:0,0:0:0:0:
485,274,21740,6,0,P|432:291|383:226,1,101,2|8,1:2|2:3,0:0:0:0:
222,89,21978,2,0,P|266:57|315:68,1,101,2|8,2:3|2:2,0:0:0:0:
485,274,22216,6,0,L|466:174,1,101,2|0,1:2|0:0,0:0:0:0:
309,64,22454,2,0,L|290:164,1,101,10|0,2:3|0:0,0:0:0:0:
137,239,22692,5,2,1:2:0:0:
137,239,22811,2,0,B|185:208|230:243|230:243|280:281|328:250,1,202,10|10,2:3|2:2,0:0:0:0:
466,174,23168,5,0,1:1:0:0:
179,309,23287,1,0,0:0:0:0:
487,163,23407,5,10,2:3:0:0:
222,89,23526,1,0,0:0:0:0:
391,313,23645,6,0,B|407:234|407:234|381:197|381:197|402:89,1,202,6|2,1:2|2:3,0:0:0:0:
512,255,24002,1,10,2:2:0:0:
455,58,24121,6,0,B|411:28|411:28|361:44,1,101,2|0,1:2|0:0,0:0:0:0:
174,168,24359,2,0,B|220:195|220:195|277:174,1,101,10|0,2:3|0:0,0:0:0:0:
393,124,24597,5,2,1:2:0:0:
204,0,24716,2,0,L|227:107,1,101,10|2,2:3|2:3,0:0:0:0:
343,234,24954,5,10,2:2:0:0:
98,125,25073,1,0,1:1:0:0:
281,293,25192,5,0,0:0:0:0:
47,192,25311,1,10,2:3:0:0:
307,78,25430,5,0,0:0:0:0:
210,358,25549,6,0,B|185:286|185:286|202:241|202:241|163:140,1,202,2|2,1:2|2:3,0:0:0:0:
125,43,25907,1,10,2:2:0:0:
125,43,26026,2,0,P|64:41|28:79,1,101,2|0,1:2|0:0,0:0:0:0:
275,162,26264,2,0,P|325:172|376:132,1,101,10|0,2:3|0:0,0:0:0:0:
307,78,26502,5,2,1:2:0:0:
463,225,26621,2,0,B|417:22,1,202,10|10,2:3|2:2,0:0:0:0:
250,16,26978,5,0,1:1:0:0:
512,95,27097,1,0,0:0:0:0:
266,249,27216,2,0,B|245:203|245:203|275:161,1,101,10|0,2:3|0:0,0:0:0:0:
418,27,27454,5,2,1:2:0:0:
344,213,27573,1,10,2:3:0:0:
422,31,27692,5,2,2:3:0:0:
348,217,27811,1,10,2:2:0:0:
496,140,27930,2,0,P|449:126|400:164,1,101,2|2,1:2|2:2,0:0:0:0:
337,305,28168,2,0,P|386:303|421:268,1,101,10|0,2:3|0:0,0:0:0:0:
314,131,28407,6,0,B|263:94|216:134|230:153|175:202|103:141,1,202,2|2,1:2|2:3,0:0:0:0:
39,66,28764,5,10,2:2:0:0:
105,261,28883,1,0,1:1:0:0:
33,51,29002,1,0,0:0:0:0:
112,280,29121,2,0,P|158:293|200:260,1,101,10|0,2:3|0:0,0:0:0:0:
314,131,29359,5,2,1:2:0:0:
19,215,29478,1,10,2:3:0:0:
333,303,29597,1,2,2:3:0:0:
0,210,29716,1,10,2:2:0:0:
201,42,29835,6,0,L|227:147,1,101,2|0,1:2|0:0,0:0:0:0:
398,246,30073,2,0,P|356:213|305:222,1,101,10|0,2:3|0:0,0:0:0:0:
48,323,30311,5,2,1:2:0:0:
311,218,30430,1,10,2:3:0:0:
61,128,30549,1,2,2:3:0:0:
176,384,30668,1,10,2:2:0:0:
268,143,30787,5,4,1:3:0:0:
289,129,30847,1,4,2:3:0:0:
315,127,30907,1,4,2:3:0:0:
345,135,30966,1,4,2:3:0:0:
366,157,31026,2,0,P|411:167|458:126,1,101,14|4,2:3|2:3,0:0:0:0:
224,0,31264,6,0,B|214:66|214:66|188:89|188:89|176:153,1,161.6,6|2,1:2|2:3,0:0:0:0:
153,243,31621,1,10,2:2:0:0:
153,243,31740,2,0,L|66:228,1,80.8,2|2,1:2|2:2,0:0:0:0:
312,272,31978,2,0,L|226:257,1,80.8,10|2,2:3|2:2,0:0:0:0:
390,285,32216,5,2,1:2:0:0:
153,243,32454,1,2,2:3:0:0:
312,272,32573,1,10,2:2:0:0:
90,187,32692,6,0,P|70:211|82:276,1,80.8,2|2,1:2|2:2,0:0:0:0:
370,356,32930,2,0,P|390:332|378:267,1,80.8,10|2,2:3|2:2,0:0:0:0:
251,184,33168,6,0,B|293:153|331:183|321:200|367:226|406:198,1,161.6,2|2,1:2|2:3,0:0:0:0:
431,120,33526,1,10,2:2:0:0:
271,262,33645,2,0,L|248:175,1,80.8,2|2,1:2|2:2,0:0:0:0:
452,41,33883,2,0,L|431:119,1,80.8,10|2,2:3|2:2,0:0:0:0:
381,349,34121,6,0,L|338:187,1,161.6,2|2,1:2|2:3,0:0:0:0:
250,183,34478,5,10,2:2:0:0:
501,233,34597,1,2,1:2:0:0:
229,177,34716,1,2,2:2:0:0:
452,41,34835,2,0,L|431:119,1,80.8,10|2,2:3|2:2,0:0:0:0:
287,348,35073,6,0,B|243:366|208:320|208:320|176:300|123:322,1,161.6,2|2,1:2|2:3,0:0:0:0:
9,371,35430,1,10,2:2:0:0:
9,371,35549,2,0,P|44:339|27:279,1,80.8,2|2,1:2|2:2,0:0:0:0:
38,153,35787,2,0,P|3:185|20:245,1,80.8,10|2,2:3|2:2,0:0:0:0:
253,257,36026,6,0,B|173:243|173:243|169:245|169:245|88:232,1,161.6,2|2,1:2|2:3,0:0:0:0:
191,118,36383,1,10,2:2:0:0:
80,311,36502,1,2,1:2:0:0:
199,103,36621,1,2,2:2:0:0:
268,343,36740,2,0,P|308:335|336:292,1,80.8,10|2,2:3|2:2,0:0:0:0:
391,221,36978,6,0,L|308:205,1,60.5999981506348,6|0,1:3|0:0,0:0:0:0:
117,139,37216,5,10,2:2:0:0:
253,257,37335,1,6,2:3:0:0:
199,103,37454,5,6,2:3:0:0:
169,285,37573,1,10,2:2:0:0:
272,166,37692,5,8,2:2:0:0:
99,225,37811,1,4,2:3:0:0:
335,228,37930,5,10,1:2:0:0:
35,165,38049,1,4,2:3:0:0:
355,143,38168,5,4,2:3:0:0:
18,248,38287,1,10,2:2:0:0:
416,201,38407,5,8,2:2:0:0:
52,81,38526,1,4,2:3:0:0:
246,318,38645,6,0,P|248:285|258:256,1,60.6,10|0,2:2|0:0,0:0:0:0:
370,314,38883,6,0,B|307:271|249:320|266:349|202:394|133:327,1,242.399992602539,6|2,1:1|2:3,0:0:0:0:
163,60,39240,1,2,2:2:0:0:
163,60,39359,2,0,L|184:184,1,121.19999630127,10|0,1:2|0:0,0:0:0:0:
44,328,39597,2,0,P|1:293|29:206,1,121.19999630127,2|0,2:3|0:0,0:0:0:0:
321,297,39835,6,0,B|230:278|230:278|196:290|196:290|170:267|170:267|76:247,1,242.399992602539,2|2,1:2|2:3,0:0:0:0:
246,19,40192,1,2,2:2:0:0:
375,222,40311,2,0,B|253:197,1,121.19999630127,10|0,1:2|0:0,0:0:0:0:
163,60,40549,1,2,2:3:0:0:
408,15,40668,1,0,0:0:0:0:
146,238,40787,6,0,B|128:150|128:150|87:117|87:117|63:15,1,242.399992602539,2|2,1:2|2:3,0:0:0:0:
43,209,41145,1,2,2:2:0:0:
163,60,41264,2,0,B|221:37|221:37|281:64,1,121.19999630127,10|0,1:2|0:0,0:0:0:0:
68,327,41502,2,0,L|38:187,1,121.19999630127,2|0,2:3|0:0,0:0:0:0:
64,19,41740,5,2,1:2:0:0:
149,273,41859,1,0,0:0:0:0:
171,44,41978,5,2,2:3:0:0:
68,327,42097,1,0,0:0:0:0:
179,29,42216,5,10,1:2:0:0:
289,323,42335,1,0,0:0:0:0:
285,12,42454,5,2,2:3:0:0:
196,351,42573,1,2,2:2:0:0:
454,144,42692,6,0,B|394:101|324:146|348:180|289:220|218:171,1,242.399992602539,2|2,1:2|2:3,0:0:0:0:
20,61,43049,2,0,P|104:7|186:103,1,242.399992602539,2|0,2:2|0:0,0:0:0:0:
12,349,43407,1,2,2:3:0:0:
98,100,43526,1,0,0:0:0:0:
244,341,43645,6,0,B|299:369|346:326|346:326|368:342|368:342|420:299|479:335,1,242.399992602539,2|2,1:2|2:3,0:0:0:0:
279,250,44002,2,0,B|249:222|249:222|276:187|267:143|267:143|284:183|331:201|331:201|323:230,1,242.399992602539,2|0,2:2|0:0,0:0:0:0:
152,186,44359,1,2,2:3:0:0:
368,108,44478,1,0,0:0:0:0:
177,275,44597,6,0,P|123:281|76:234,1,121.19999630127,2|0,1:2|0:0,0:0:0:0:
347,23,44835,2,0,P|401:17|448:64,1,121.19999630127,2|0,2:3|0:0,0:0:0:0:
287,380,45073,2,0,B|277:320|277:320|274:318|274:318|259:237,1,121.19999630127,10|0,1:2|0:0,0:0:0:0:
512,117,45311,2,0,B|502:177|502:177|499:179|499:179|484:260,1,121.19999630127,2|0,2:3|0:0,0:0:0:0:
177,275,45549,5,10,1:2:0:0:
491,327,45668,1,8,2:1:0:0:
180,280,45787,5,10,2:3:0:0:
494,332,45907,1,8,2:1:0:0:
104,335,46026,5,10,1:2:0:0:
348,257,46145,1,0,0:0:0:0:
56,191,46264,5,2,2:3:0:0:
426,277,46383,1,0,0:0:0:0:
24,383,46502,6,0,B|2:295|2:295|34:258|34:258|0:131,1,242.399992602539,6|2,1:1|2:3,0:0:0:0:
243,169,46859,1,2,2:2:0:0:
243,169,46978,2,0,B|183:192|183:192|123:157,1,121.19999630127,10|0,1:2|0:0,0:0:0:0:
0,63,47216,2,0,B|130:38,1,121.19999630127,2|0,2:3|0:0,0:0:0:0:
351,251,47454,6,0,B|330:138|330:138|326:136|326:136|301:0,1,242.399992602539,2|2,1:2|2:3,0:0:0:0:
243,169,47811,1,2,2:2:0:0:
397,51,47930,2,0,B|457:34|457:34|527:83,1,121.19999630127,10|0,1:2|0:0,0:0:0:0:
351,251,48168,1,2,2:3:0:0:
303,15,48287,1,0,0:0:0:0:
512,238,48407,6,0,B|456:195|384:246|410:281|343:323|259:250,1,242.399992602539,2|2,1:2|2:3,0:0:0:0:
120,175,48764,1,2,2:2:0:0:
224,365,48883,2,0,B|212:314|212:314|208:309|208:309|194:248,1,121.19999630127,10|0,1:2|0:0,0:0:0:0:
97,73,49121,2,0,P|155:71|197:113,1,121.19999630127,2|0,2:3|0:0,0:0:0:0:
132,346,49359,5,2,1:2:0:0:
25,142,49478,1,0,0:0:0:0:
276,178,49597,5,2,2:3:0:0:
2,282,49716,1,0,0:0:0:0:
182,18,49835,1,10,1:2:0:0:
295,308,49954,1,0,0:0:0:0:
0,58,50073,1,2,2:3:0:0:
363,115,50192,1,2,2:2:0:0:
132,346,50311,6,0,B|81:282|81:282|109:203|109:203|113:199|113:199|140:124,1,242.399992602539,2|2,1:2|2:3,0:0:0:0:
478,244,50668,2,0,B|424:290|358:251|375:221|314:182|248:226,1,242.399992602539,2|0,2:2|0:0,0:0:0:0:
433,165,51026,1,2,2:3:0:0:
295,308,51145,1,0,0:0:0:0:
90,104,51264,6,0,B|173:87|173:87|206:102|206:102|232:76|232:76|319:61,1,242.399992602539,2|2,1:2|2:3,0:0:0:0:
42,298,51621,2,0,B|27:229|27:229|22:222|22:222|-3:135|-3:135|19:185|69:195,1,242.399992602539,2|0,2:2|0:0,0:0:0:0:
195,9,51978,1,2,2:3:0:0:
117,241,52097,1,2,2:2:0:0:
106,38,52216,5,2,1:2:0:0:
201,277,52335,1,0,0:0:0:0:
261,70,52454,5,2,2:3:0:0:
126,336,52573,1,0,0:0:0:0:
332,132,52692,5,10,1:2:0:0:
41,297,52811,1,0,0:0:0:0:
403,197,52930,5,2,2:3:0:0:
65,121,53049,1,0,0:0:0:0:
420,103,53168,5,6,1:3:0:0:
117,241,53287,1,4,2:3:0:0:
485,163,53407,5,4,2:3:0:0:
27,202,53526,1,4,2:3:0:0:
489,167,53645,5,4,2:3:0:0:
30,206,53764,1,4,2:3:0:0:
447,17,53883,5,4,2:3:0:0:
251,381,54002,1,4,2:3:0:0:
47,27,54121,2,0,B|103:-8|172:30|143:73|211:116|279:62,1,242.399992602539,6|2,1:2|2:3,0:0:0:0:
510,233,54478,6,0,P|449:133|346:181,1,242.399992602539,2|2,2:2|2:2,0:0:0:0:
381,368,54835,2,0,L|416:239,1,121.19999630127,2|2,2:3|2:2,0:0:0:0:
96,296,55073,6,0,B|176:282|176:282|214:298|214:298|242:270|242:270|339:251,2,242.399992602539,2|2|10,1:2|2:3|1:2,0:0:0:0:
174,72,55668,1,2,2:2:0:0:
174,72,55787,2,0,L|148:237,1,121.19999630127,2|2,2:3|2:2,0:0:0:0:
0,326,56026,6,0,B|15:235|15:235|58:204|58:204|78:83,1,242.399992602539,2|2,1:2|2:3,0:0:0:0:
332,46,56383,2,0,P|265:133|172:66,1,242.399992602539,2|2,2:2|2:2,0:0:0:0:
14,23,56740,2,0,L|145:-1,1,121.19999630127,2|2,2:3|2:2,0:0:0:0:
492,100,56978,6,0,B|376:81|376:81|372:75|372:75|250:54,1,242.399992602539,2|2,1:2|2:3,0:0:0:0:
10,178,57335,1,2,2:2:0:0:
10,178,57454,5,10,1:2:0:0:
313,288,57573,1,2,2:2:0:0:
196,1,57692,1,2,2:3:0:0:
30,264,57811,1,2,2:2:0:0:
356,137,57930,6,0,B|299:108|245:165|245:165|192:216|132:180,1,242.399992602539,2|2,1:2|2:3,0:0:0:0:
422,2,58287,2,0,L|467:253,1,242.399992602539,2|2,2:2|2:2,0:0:0:0:
266,368,58645,2,0,P|217:328|235:255,1,121.19999630127,2|2,2:3|2:2,0:0:0:0:
127,116,58883,6,0,B|231:134|231:134|248:153|248:153|360:171,2,242.399992602539,2|2|10,1:2|2:3|1:2,0:0:0:0:
1,47,59478,5,10,2:3:0:0:
9,78,59537,1,8,2:3:0:0:
18,118,59597,1,6,2:3:0:0:
27,158,59657,1,4,2:3:0:0:
38,201,59716,1,6,2:3:0:0:
47,242,59776,1,4,2:3:0:0:
60,281,59835,6,0,B|126:234|192:267|170:302|242:337|311:265,1,242.399992602539,6|0,1:2|0:0,0:0:0:0:
381,126,60192,2,0,P|330:91|237:216,1,242.399992602539,6|0,1:2|0:0,0:0:0:0:
361,374,60549,2,0,B|372:317|372:317|375:314|375:314|391:233,1,121.19999630127,6|0,1:2|0:0,0:0:0:0:
315,182,60787,5,6,1:2:0:0:
256,192,60847,12,2,61621,2:2:0:0:
79,371,61740,6,0,B|38:328|38:328|87:205,1,161.6,2|2,1:2|2:2,0:0:0:0:
119,146,62097,1,2,1:2:0:0:
119,146,62216,1,10,2:2:0:0:
142,312,62811,5,2,1:2:0:0:
142,312,62930,1,0,0:0:0:0:
275,200,63049,5,2,1:2:0:0:
93,238,63168,2,0,B|156:199|223:241|201:275|265:321|327:266,1,242.4,8|0,2:2|1:1,0:0:0:0:
421,144,63645,6,0,P|462:165|467:213,1,80.8,2|0,1:2|0:0,0:0:0:0:
389,371,63883,2,0,P|379:329|406:292,1,80.8,2|0,2:2|1:1,0:0:0:0:
480,279,64121,1,10,2:2:0:0:
480,279,64716,6,0,B|440:294|440:294|388:265,1,80.8,2|0,1:2|0:0,0:0:0:0:
320,263,64954,5,2,1:2:0:0:
448,201,65073,1,8,2:2:0:0:
265,194,65192,5,2,2:2:0:0:
392,354,65311,2,0,L|407:272,1,80.8,2|2,2:2|1:2,0:0:0:0:
482,117,65549,6,0,B|440:90|392:112|407:133|359:157|310:113,1,161.6,2|2,1:2|2:2,0:0:0:0:
266,73,65907,1,0,1:1:0:0:
266,73,66026,1,10,2:2:0:0:
266,73,66621,6,0,L|350:55,1,80.8,2|0,1:2|0:0,0:0:0:0:
428,32,66859,1,2,1:2:0:0:
209,4,66978,1,8,2:2:0:0:
209,4,67335,5,0,1:1:0:0:
276,168,67454,6,0,B|214:157|214:157|194:131|194:131|130:118,1,161.6,2|2,1:2|2:2,0:0:0:0:
339,246,67811,1,0,1:1:0:0:
339,246,67930,2,0,B|384:192|384:192|350:87,2,161.6,10|2|2,2:2|2:2|2:2,0:0:0:0:
291,353,68526,5,2,1:2:0:0:
238,213,68645,5,0,0:0:0:0:
438,285,68764,1,2,1:2:0:0:
126,362,68883,6,0,B|138:298|138:298|167:271|167:271|150:235|150:235|167:151,1,212.099993527222,8|0,2:2|0:0,0:0:0:0:
0,129,69359,6,0,B|42:156|42:156|98:142,1,101,6|8,1:2|2:3,0:0:0:0:
331,206,69597,2,0,B|279:191|279:191|231:216,1,101,2|10,2:3|2:2,0:0:0:0:
126,362,69835,6,0,L|164:161,1,202,2|10,1:2|2:3,0:0:0:0:
180,72,70192,1,0,0:0:0:0:
309,283,70311,6,0,P|356:289|405:242,1,101,2|8,1:2|2:3,0:0:0:0:
480,130,70549,1,2,2:3:0:0:
357,370,70668,1,10,2:2:0:0:
262,130,70787,1,0,1:1:0:0:
512,266,70907,5,0,0:0:0:0:
242,342,71026,2,0,P|214:302|239:238,1,101,10|0,2:3|0:0,0:0:0:0:
382,2,71264,6,0,B|406:71|406:71|381:115|381:115|403:189,1,202,2|2,1:2|2:3,0:0:0:0:
312,58,71621,1,10,2:2:0:0:
480,130,71740,2,0,L|514:236,1,101,2|0,1:2|0:0,0:0:0:0:
357,372,71978,2,0,L|385:267,1,101,10|0,2:3|0:0,0:0:0:0:
403,190,72216,5,2,1:2:0:0:
259,328,72335,2,0,B|210:363|158:322|168:307|115:267|61:314,1,202,10|10,2:3|2:2,0:0:0:0:
168,106,72692,5,0,1:1:0:0:
73,305,72811,1,2,2:2:0:0:
179,85,72930,2,0,P|227:77|267:105,1,101,10|0,2:3|0:0,0:0:0:0:
352,262,73168,5,2,1:2:0:0:
63,213,73287,1,10,2:3:0:0:
356,266,73407,5,2,2:3:0:0:
67,217,73526,1,10,2:2:0:0:
378,96,73645,6,0,B|408:139|408:139|386:184,1,101,2|2,1:2|2:2,0:0:0:0:
137,344,73883,2,0,B|115:298|115:298|146:256,1,101,10|0,2:3|0:0,0:0:0:0:
475,198,74121,5,2,1:2:0:0:
475,198,74240,2,0,P|415:206|378:165,1,101,10|2,2:3|2:3,0:0:0:0:
296,23,74478,5,10,2:2:0:0:
210,306,74597,1,0,1:1:0:0:
301,6,74716,1,0,0:0:0:0:
475,198,74835,5,10,2:3:0:0:
475,198,75073,6,0,B|392:187|392:187|362:208|362:208|277:196,1,202,2|2,1:2|2:3,0:0:0:0:
94,88,75430,1,10,2:2:0:0:
324,7,75549,2,0,L|302:117,1,101,2|0,1:2|0:0,0:0:0:0:
88,265,75787,2,0,L|62:166,1,101,10|0,2:3|0:0,0:0:0:0:
386,112,76026,5,2,1:2:0:0:
94,88,76145,1,10,2:3:0:0:
445,52,76264,5,2,2:3:0:0:
144,152,76383,1,10,2:2:0:0:
428,214,76502,1,4,1:3:0:0:
436,216,76561,1,4,2:3:0:0:
445,218,76621,1,4,2:3:0:0:
454,221,76680,1,4,2:3:0:0:
462,222,76740,6,0,B|488:177|488:177|465:127,1,101,14|4,2:3|2:3,0:0:0:0:
180,38,76978,6,0,B|245:28|245:28|277:54|277:54|330:45,1,161.6,6|2,1:2|2:3,0:0:0:0:
238,203,77335,1,10,2:2:0:0:
238,203,77454,2,0,L|216:114,1,80.8,2|2,1:2|2:2,0:0:0:0:
85,39,77692,2,0,P|86:79|130:115,1,80.8,10|2,2:3|2:2,0:0:0:0:
314,152,77930,5,2,1:2:0:0:
137,190,78168,1,2,2:3:0:0:
332,149,78287,1,10,2:2:0:0:
77,249,78406,6,0,P|52:215|57:168,1,80.8,2|2,1:2|2:2,0:0:0:0:
398,95,78645,2,0,P|419:131|410:175,1,80.8,10|2,2:3|2:2,0:0:0:0:
213,314,78883,6,0,B|170:286|133:314|142:332|104:359|59:333,1,161.6,2|2,1:2|2:3,0:0:0:0:
0,113,79240,1,10,2:2:0:0:
77,249,79359,2,0,L|54:162,1,80.8,2|2,1:2|2:2,0:0:0:0:
263,23,79597,2,0,L|242:101,1,80.8,10|2,2:3|2:2,0:0:0:0:
124,340,79835,6,0,L|82:175,1,161.6,2|2,1:2|2:3,0:0:0:0:
241,101,80192,1,10,2:2:0:0:
77,249,80311,2,0,L|54:162,1,80.8,2|2,1:2|2:2,0:0:0:0:
263,23,80549,2,0,L|242:101,1,80.8,10|2,2:3|2:2,0:0:0:0:
374,265,80787,6,0,B|304:249|304:249|285:220|285:220|223:206,1,161.6,2|2,1:2|2:3,0:0:0:0:
40,166,81144,1,10,2:2:0:0:
151,352,81263,2,0,L|172:261,1,80.8,2|2,1:2|2:2,0:0:0:0:
19,89,81502,2,0,L|40:166,1,80.8,10|2,2:3|2:2,0:0:0:0:
166,375,81740,6,0,L|204:218,1,161.6,2|2,1:2|2:3,0:0:0:0:
319,105,82097,1,10,2:2:0:0:
117,148,82216,1,2,1:2:0:0:
339,102,82335,1,2,2:2:0:0:
178,13,82454,2,0,B|157:53|157:53|180:97,1,80.8,10|2,2:3|2:2,0:0:0:0:
252,182,82692,6,0,L|192:168,1,60.5999981506348,6|0,1:3|0:0,0:0:0:0:
34,129,82930,5,10,2:2:0:0:
345,204,83049,1,6,2:3:0:0:
18,125,83168,1,6,2:3:0:0:
409,144,83287,5,10,2:2:0:0:
55,208,83407,1,8,2:2:0:0:
426,141,83526,1,4,2:3:0:0:
75,43,83645,5,10,1:2:0:0:
202,357,83764,1,4,2:3:0:0:
384,61,83882,1,4,2:3:0:0:
29,226,84002,5,10,2:2:0:0:
404,311,84121,1,8,2:2:0:0:
263,0,84239,1,4,2:3:0:0:
108,277,84359,6,0,L|90:335,1,60.6,10|0,2:2|0:0,0:0:0:0:
6,242,84597,6,0,B|59:197|130:233|105:282|172:328|261:248,1,242.399992602539,6|2,1:1|2:3,0:0:0:0:
202,78,84954,1,2,2:2:0:0:
202,78,85073,2,0,L|180:205,1,121.19999630127,10|0,1:2|0:0,0:0:0:0:
296,378,85311,2,0,P|340:339|325:283,1,121.19999630127,2|0,2:3|0:0,0:0:0:0:
502,146,85549,6,0,B|398:176|398:176|394:180|394:180|269:215,1,242.399992602539,2|2,1:2|2:3,0:0:0:0:
80,129,85906,1,2,2:2:0:0:
138,343,86025,2,0,B|171:198,1,121.19999630127,10|0,1:2|0:0,0:0:0:0:
232,3,86263,1,2,2:3:0:0:
346,247,86382,1,0,0:0:0:0:
53,32,86501,6,0,B|148:54|148:54|172:89|172:89|272:106,1,242.399992602539,2|2,1:2|2:3,0:0:0:0:
80,129,86859,1,2,2:2:0:0:
338,28,86978,2,0,P|383:70|359:144,1,121.19999630127,10|0,1:2|0:0,0:0:0:0:
64,299,87216,2,0,P|24:257|43:183,1,121.19999630127,2|0,2:3|0:0,0:0:0:0:
298,100,87454,5,2,1:2:0:0:
109,222,87573,1,0,0:0:0:0:
240,29,87692,5,2,2:3:0:0:
154,309,87811,1,0,0:0:0:0:
144,22,87930,5,10,1:2:0:0:
246,334,88049,1,0,0:0:0:0:
246,13,88168,5,2,2:3:0:0:
148,328,88287,1,2,2:2:0:0:
351,15,88406,6,0,B|407:67|407:67|360:231,1,242.399992602539,2|2,1:2|2:3,0:0:0:0:
49,130,88764,2,0,B|110:94|172:142|141:187|213:231|285:171,1,242.399992602539,2|0,2:2|0:0,0:0:0:0:
0,262,89121,1,2,2:3:0:0:
232,101,89240,1,0,0:0:0:0:
121,353,89359,6,0,B|102:255|102:255|74:234|74:234|41:101,1,242.399992602539,2|2,1:2|2:3,0:0:0:0:
315,75,89716,2,0,P|282:190|174:166,1,242.399992602539,2|0,2:2|0:0,0:0:0:0:
19,28,90073,1,2,2:3:0:0:
232,101,90192,1,0,0:0:0:0:
55,235,90311,6,0,B|22:183|22:183|52:120,1,121.19999630127,2|0,1:2|0:0,0:0:0:0:
381,18,90549,2,0,B|414:70|414:70|384:133,1,121.19999630127,2|0,2:3|0:0,0:0:0:0:
39,238,90787,6,0,B|6:186|6:186|36:123,1,121.19999630127,10|0,1:2|0:0,0:0:0:0:
397,17,91026,2,0,B|430:69|430:69|400:132,1,121.19999630127,2|0,2:3|0:0,0:0:0:0:
226,359,91263,5,10,1:2:0:0:
326,75,91382,1,8,2:1:0:0:
409,368,91501,5,10,2:3:0:0:
241,31,91621,1,8,2:1:0:0:
318,342,91740,5,10,1:2:0:0:
397,17,91859,1,0,0:0:0:0:
101,270,91978,5,2,2:3:0:0:
510,198,92097,1,2,2:2:0:0:
151,48,92216,6,0,B|170:131|170:131|155:167|155:167|186:189|186:189|206:267,1,242.399992602539,6|2,1:1|2:3,0:0:0:0:
152,349,92573,1,2,2:2:0:0:
152,349,92692,2,0,B|90:371|90:371|36:329,1,121.19999630127,10|0,1:2|0:0,0:0:0:0:
315,200,92930,2,0,B|375:178|375:178|435:216,1,121.19999630127,2|0,2:3|0:0,0:0:0:0:
264,383,93168,6,0,B|210:131,1,242.399992602539,2|2,1:2|2:3,0:0:0:0:
176,4,93525,1,2,2:2:0:0:
31,189,93645,2,0,P|85:226|135:207,1,121.19999630127,10|0,1:2|0:0,0:0:0:0:
368,95,93882,1,2,2:3:0:0:
83,20,94001,1,0,0:0:0:0:
377,279,94121,6,0,B|405:186|405:186|441:163|441:163|479:16,1,242.399992602539,2|2,1:2|2:3,0:0:0:0:
485,265,94478,1,2,2:2:0:0:
368,95,94597,6,0,B|305:76|305:76|232:130,1,121.19999630127,10|0,1:2|0:0,0:0:0:0:
28,213,94835,2,0,B|76:250|76:250|139:231,1,121.19999630127,2|0,2:3|0:0,0:0:0:0:
442,146,95073,5,2,1:2:0:0:
61,81,95192,1,0,0:0:0:0:
445,151,95311,5,2,2:3:0:0:
65,85,95430,1,0,0:0:0:0:
449,65,95549,5,10,1:2:0:0:
92,158,95668,1,0,0:0:0:0:
452,70,95787,5,2,2:3:0:0:
96,162,95906,1,2,2:2:0:0:
331,0,96025,6,0,B|347:73|347:73|353:80|353:80|368:156|368:156|357:209|299:223,1,242.399992602539,2|2,1:2|2:3,0:0:0:0:
10,285,96383,2,0,P|115:251|193:361,1,242.399992602539,2|0,2:2|0:0,0:0:0:0:
12,152,96740,1,2,2:3:0:0:
88,362,96859,1,0,0:0:0:0:
209,163,96978,6,0,B|267:111|324:163|305:188|368:231|428:183,1,242.399992602539,2|2,1:2|2:3,0:0:0:0:
201,349,97335,2,0,B|177:263|177:263|130:244|130:244|102:146,1,242.399992602539,2|0,2:2|0:0,0:0:0:0:
312,27,97692,5,2,2:3:0:0:
251,240,97811,1,2,2:2:0:0:
231,61,97930,5,2,1:2:0:0:
325,292,98049,1,0,0:0:0:0:
152,96,98168,5,2,2:3:0:0:
331,206,98287,1,0,0:0:0:0:
99,167,98406,5,10,1:2:0:0:
382,135,98525,1,0,0:0:0:0:
60,82,98644,5,2,2:3:0:0:
416,210,98763,1,0,0:0:0:0:
10,155,98882,5,2,1:2:0:0:
465,140,99001,1,0,0:0:0:0:
42,237,99121,5,2,2:3:0:0:
482,134,99240,1,0,0:0:0:0:
136,8,99359,1,8,2:1:0:0:
127,4,99418,1,8,2:1:0:0:
118,0,99478,6,0,L|143:74,1,60.5999981506348,8|0,2:1|0:0,0:0:0:0:
256,377,99597,1,10,2:3:0:0:
374,7,99716,1,8,2:1:0:0:
10,155,99835,6,0,B|52:119|106:158|94:182|145:218|194:182,1,202,14|2,1:2|2:3,0:0:0:0:
304,126,100192,1,2,2:2:0:0:
304,126,100311,2,0,L|279:236,1,101,10|0,1:2|0:0,0:0:0:0:
71,335,100549,2,0,L|48:233,1,101,2|0,2:3|0:0,0:0:0:0:
339,66,100787,6,0,L|292:274,1,202,2|2,1:2|2:3,0:0:0:0:
0,168,101145,1,2,2:2:0:0:
0,168,101264,2,0,B|49:145|49:145|106:168,1,101,8|0,1:2|0:0,0:0:0:0:
361,168,101502,2,0,B|311:180|311:180|271:147,1,101,2|0,2:3|0:0,0:0:0:0:
148,13,101740,6,0,B|202:236,1,202,2|2,1:2|2:3,0:0:0:0:
243,379,102097,1,0,0:0:0:0:
361,168,102216,1,10,1:2:0:0:
92,249,102335,1,0,0:0:0:0:
440,137,102454,5,2,2:3:0:0:
72,55,102573,1,0,0:0:0:0:
361,343,102692,6,0,B|409:278|409:278|356:158,1,202,2|2,1:2|2:3,0:0:0:0:
316,70,103049,1,0,0:0:0:0:
111,341,103168,5,8,1:2:0:0:
185,10,103287,1,0,0:0:0:0:
427,226,103407,5,2,2:3:0:0:
41,171,103526,1,0,0:0:0:0:
415,59,103645,6,0,B|396:134|396:134|353:162|353:162|327:258,1,202,4|2,1:2|2:3,0:0:0:0:
227,99,104002,1,2,2:2:0:0:
227,99,104121,2,0,P|268:65|330:82,1,101,10|0,1:2|0:0,0:0:0:0:
493,285,104359,2,0,P|448:319|405:311,1,101,2|0,2:3|0:0,0:0:0:0:
236,227,104597,5,2,1:2:0:0:
451,128,104716,2,0,L|426:231,1,101,2|2,2:2|2:3,0:0:0:0:
262,325,104954,1,2,2:2:0:0:
262,325,105073,2,0,P|208:328|165:277,1,101,8|0,1:2|0:0,0:0:0:0:
290,90,105311,2,0,L|322:198,1,101,2|0,2:3|0:0,0:0:0:0:
71,370,105549,6,0,B|92:280|92:280|88:271|88:271|113:167,1,202,2|2,1:2|2:3,0:0:0:0:
167,15,105907,1,0,0:0:0:0:
11,222,106026,5,10,1:2:0:0:
360,142,106145,1,0,0:0:0:0:
25,52,106264,1,2,2:3:0:0:
217,319,106383,1,0,0:0:0:0:
298,16,106502,1,2,1:2:0:0:
0,233,106621,2,0,L|62:246,1,50.5,8|0,2:1|0:0,0:0:0:0:
389,358,106740,6,0,B|413:234,1,101,10|0,2:3|0:0,0:0:0:0:
456,3,106978,1,8,1:2:0:0:
123,273,107097,1,8,2:1:0:0:
512,194,107216,1,2,2:3:0:0:
136,26,107335,5,8,2:1:0:0:
299,375,107454,6,0,L|344:140,1,222.200006781006,6|2,1:2|2:3,0:0:0:0:
344,17,107811,5,2,2:2:0:0:
242,233,107930,1,10,1:2:0:0:
127,13,108049,1,2,2:2:0:0:
405,106,108168,1,2,2:3:0:0:
132,181,108287,1,2,2:2:0:0:
425,257,108407,6,0,B|334:272|334:272|305:312|305:312|216:327,2,222.200006781006,2|2|8,1:2|2:3|1:2,0:0:0:0:
397,360,109002,5,2,2:2:0:0:
242,233,109121,1,2,2:3:0:0:
496,156,109240,1,2,2:2:0:0:
104,349,109359,6,0,B|117:278|117:278|146:253|146:253|127:214|127:214|143:124,1,222.200006781006,2|2,1:2|2:3,0:0:0:0:
207,326,109716,5,2,2:2:0:0:
34,227,109835,2,0,L|9:101,1,111.100003390503,10|0,1:2|0:0,0:0:0:0:
220,341,110073,2,0,L|245:215,1,111.100003390503,2|0,2:3|0:0,0:0:0:0:
22,46,110311,6,0,L|68:284,2,222.200006781006,2|2|8,1:2|2:3|1:2,0:0:0:0:
220,341,110907,1,0,0:0:0:0:
220,341,111026,2,0,L|245:215,1,111.100003390503,2|0,2:3|0:0,0:0:0:0:
512,71,111264,6,0,B|430:88|430:88|403:114|403:114|367:99|367:99|284:113,1,222.200006781006,6|2,1:2|2:3,0:0:0:0:
161,37,111621,1,2,2:2:0:0:
314,288,111740,1,10,1:2:0:0:
386,21,111859,1,2,2:2:0:0:
109,186,111978,1,2,2:3:0:0:
444,193,112097,1,2,2:2:0:0:
172,26,112216,6,0,B|194:139|194:139|200:141|200:141|222:279,2,222.200006781006,2|2|8,1:2|2:3|1:2,0:0:0:0:
358,204,112811,5,2,2:2:0:0:
45,105,112930,1,2,2:3:0:0:
297,10,113049,1,2,2:2:0:0:
86,316,113168,6,0,P|104:228|224:255,1,222.200006781006,2|2,1:2|2:3,0:0:0:0:
185,376,113526,1,2,2:2:0:0:
4,184,113645,1,10,1:2:0:0:
294,251,113764,1,2,2:2:0:0:
6,337,113883,1,2,2:3:0:0:
166,97,114002,1,2,2:2:0:0:
198,380,114121,6,0,B|186:324|186:324|181:319|181:319|165:250,1,111.100003390503,2|0,1:2|0:0,0:0:0:0:
102,44,114359,5,2,2:3:0:0:
359,204,114478,1,0,0:0:0:0:
106,160,114597,1,8,1:2:0:0:
439,65,114716,5,0,0:0:0:0:
268,325,114835,1,2,2:3:0:0:
183,13,114954,1,2,2:2:0:0:
466,166,115073,5,6,1:1:0:0:
256,192,115133,12,0,116621,0:0:0:0:
383,71,116740,5,8,2:2:0:0:
391,79,116799,1,8,2:2:0:0:
399,87,116859,1,8,2:2:0:0:
407,95,116918,1,8,2:2:0:0:
414,103,116978,6,0,P|388:134|389:189,2,70.6999978424073,12|0|10,1:2|0:0|2:3,0:0:0:0:
475,173,117335,1,4,2:3:0:0:
475,173,117454,2,0,P|498:204|495:250,1,70.6999978424073,4|8,1:3|2:3,0:0:0:0:
393,258,117692,5,10,2:3:0:0:
500,353,117811,2,0,B|464:343|464:343|460:344|460:344|417:332,1,70.6999978424073,4|8,2:3|1:2,0:0:0:0:
268,245,118049,1,4,2:3:0:0:
268,245,118168,1,14,2:3:0:0:
311,381,118287,2,0,B|318:352|318:352|317:348|317:348|327:312,1,70.6999978424073,8|4,2:2|1:3,0:0:0:0:
372,124,118526,5,12,2:2:0:0:
206,320,118645,1,10,2:3:0:0:
148,49,118764,1,4,2:3:0:0:
350,210,118883,6,0,B|388:234|428:213|416:193|454:175|487:197,1,141.399995684815,12|10,1:2|2:3,0:0:0:0:
301,12,119240,1,6,2:1:0:0:
301,12,119359,2,0,B|286:82|286:82|282:83|282:83|266:152,1,136.349995838928,6|0,1:1|0:0,0:0:0:0:
246,154,119597,2,0,B|259:94|259:94|263:93|263:93|278:23,1,136.349995838928,10|0,2:1|0:0,0:0:0:0:
182,27,119835,6,0,P|146:29|117:4,1,70.6999978424073,8|4,1:3|2:3,0:0:0:0:
21,91,120073,1,14,2:3:0:0:
21,91,120192,1,8,2:3:0:0:
246,154,120311,1,8,1:2:0:0:
53,243,120430,2,0,B|35:210|35:210|52:171,1,70.6999978424073,12|10,2:2|2:3,0:0:0:0:
119,8,120668,1,12,2:2:0:0:
332,203,120787,6,0,P|274:253|201:222,1,141.399995684815,12|10,1:2|2:3,0:0:0:0:
343,115,121145,1,4,2:3:0:0:
343,115,121264,2,0,P|360:82|404:73,2,70.6999978424073,4|8|10,1:3|2:3|2:3,0:0:0:0:
297,290,121621,5,4,2:3:0:0:
427,262,121740,2,0,B|467:270|467:270|470:270|470:270|523:282,1,70.6999978424073,8|4,1:2|2:3,0:0:0:0:
245,222,121978,5,14,2:3:0:0:
443,179,122097,2,0,B|483:187|483:187|486:187|486:187|539:199,1,70.6999978424073,8|4,2:2|1:3,0:0:0:0:
195,155,122335,5,12,2:2:0:0:
378,361,122454,1,10,2:3:0:0:
467,101,122573,1,12,2:2:0:0:
217,356,122692,6,0,B|175:379|139:357|147:344|112:316|67:347,1,141.399995684815,12|10,1:2|2:3,0:0:0:0:
188,277,123049,1,10,2:1:0:0:
0,381,123168,2,0,L|29:247,1,136.349995838928,6|0,1:1|0:0,0:0:0:0:
15,170,123407,2,0,P|30:231|96:249,1,136.349995838928,10|0,2:1|0:0,0:0:0:0:
304,212,123645,5,4,1:3:0:0:
93,165,123764,1,4,2:3:0:0:
322,217,123883,1,10,2:3:0:0:
136,93,124002,5,8,2:3:0:0:
188,277,124121,1,4,1:3:0:0:
131,77,124240,5,8,2:3:0:0:
194,298,124359,2,0,L|210:356,1,45.4499986129761,10|8,2:3|2:3,0:0:0:0:
475,261,124597,6,0,B|394:275|394:275|375:302|375:302|294:317,1,196.949990984345,6|0,1:2|1:1,0:0:0:0:
97,271,125073,2,0,B|75:242|42:237|42:237|75:176|145:173|145:173|163:214|209:223,1,262.599987979127,8|0,2:2|0:0,0:0:0:0:
276,203,125668,5,0,1:1:0:0:
177,98,125787,2,0,P|206:111|223:139,1,65.6499969947816,2|0,2:2|1:1,0:0:0:0:
267,343,126026,2,0,L|307:141,1,196.949990984345,10|0,2:2|1:1,0:0:0:0:
435,80,126502,6,0,B|371:97|371:97|342:64|292:69,1,131.299993989563,2|0,1:2|0:0,0:0:0:0:
244,20,126859,1,2,1:2:0:0:
194,193,126978,2,0,B|155:226|155:226|180:67,1,196.949990984345,10|0,2:2|0:0,0:0:0:0:
102,18,127454,6,0,L|78:165,1,131.299993989563,2|0,2:2|0:0,0:0:0:0:
47,312,127811,1,2,1:2:0:0:
10,237,127930,2,0,B|64:203|110:238|98:266|149:294|207:239,1,196.949990984345,10|0,2:2|1:1,0:0:0:0:
337,133,128407,6,0,P|270:135|239:199,1,131.299993989563,2|0,1:2|0:0,0:0:0:0:
342,338,128764,1,2,1:2:0:0:
512,215,128883,2,0,B|425:231|425:231|393:260|393:260|355:243|355:243|248:260,1,262.599987979127,10|0,2:2|1:1,0:0:0:0:
149,142,129478,5,0,1:1:0:0:
149,142,129597,2,0,P|186:146|236:167,1,65.6499969947816,2|0,2:2|1:1,0:0:0:0:
69,76,129835,2,0,P|32:74|-15:99,1,65.6499969947816,10|0,2:2|0:0,0:0:0:0:
156,156,130073,2,0,P|193:161|252:180,1,65.6499969947816,2|0,2:2|1:1,0:0:0:0:
44,162,130311,6,0,B|-3:212|-3:212|46:356,1,181.799994451904,6|8,1:3|2:2,0:0:0:0:
141,374,130668,1,6,2:3:0:0:
99,237,130787,2,0,B|175:248|175:248|196:270|196:270|277:279,1,181.799994451904,6|8,2:3|2:2,0:0:0:0:
357,368,131145,1,4,2:3:0:0:
489,270,131264,2,0,P|442:272|393:223,1,90.8999972259522,8|4,2:3|2:3,0:0:0:0:
314,78,131502,5,4,2:3:0:0:
372,147,131621,2,0,B|418:140|418:140|426:142|426:142|494:129,1,90.8999972259522,10|8,2:1|2:2,0:0:0:0:
195,20,131859,5,4,2:3:0:0:
130,101,131978,2,0,B|84:94|84:94|76:96|76:96|8:83,1,90.8999972259522,10|4,2:1|2:3,0:0:0:0:
151,356,132216,6,0,B|171:259|171:259|201:240|201:240|226:114,1,242.399992602539,6|8,1:3|2:2,0:0:0:0:
406,126,132573,2,0,B|354:85|294:116|311:151|255:170|212:126,1,202,10|4,2:3|2:3,0:0:0:0:
496,132,132930,6,0,P|450:222|358:199,1,202,10|4,2:2|1:3,0:0:0:0:
107,30,133287,5,6,2:3:0:0:
406,126,133407,1,10,2:2:0:0:
79,228,133526,1,10,2:3:0:0:
288,13,133645,6,0,B|300:54|300:54|297:62|297:62|315:120|315:120|299:162|299:162|336:185|336:185|353:254|353:254|357:259|357:259|370:311,1,303,6|8,1:3|2:3,0:0:0:0:
237,359,134121,5,6,1:3:0:0:
459,306,134240,2,0,B|485:260|485:260|441:191,1,101,10|8,2:3|2:3,0:0:0:0:
210,68,134478,6,0,L|231:147,1,50.5,6|0,2:3|0:0,0:0:0:0:
353,240,134716,2,0,L|340:288,1,50.5,10|0,2:3|0:0,0:0:0:0:
55,361,134954,5,6,2:3:0:0:
455,205,135073,1,10,1:2:0:0:
52,59,135192,1,10,1:2:0:0:
306,383,135311,1,10,1:2:0:0:
429,15,135430,1,10,1:2:0:0:
34,186,135549,5,10,1:2:0:0:
25,198,136026,6,0,B|120:187|120:187|156:221|156:221|262:206,1,242.399992602539,6|2,1:1|2:3,0:0:0:0:
104,384,136383,1,2,2:2:0:0:
104,384,136502,2,0,B|65:334|65:334|85:278,1,121.19999630127,10|0,1:2|0:0,0:0:0:0:
314,74,136740,2,0,L|346:212,1,121.19999630127,2|0,2:3|0:0,0:0:0:0:
175,312,136978,6,0,B|228:266|292:304|276:335|347:376|422:294,1,242.399992602539,2|2,1:2|2:3,0:0:0:0:
439,126,137335,1,2,2:2:0:0:
439,126,137454,2,0,P|480:174|433:255,1,121.19999630127,10|0,1:2|0:0,0:0:0:0:
224,384,137692,1,2,2:3:0:0:
138,81,137811,1,0,0:0:0:0:
385,194,137930,6,0,B|302:208|302:208|274:235|274:235|236:219|236:219|132:234,1,242.399992602539,2|2,1:2|2:3,0:0:0:0:
46,86,138287,1,2,2:2:0:0:
88,371,138407,2,0,B|29:323|29:323|97:149,1,242.399992602539,10|2,1:2|2:3,0:0:0:0:
163,0,138764,1,0,0:0:0:0:
385,194,138883,5,2,1:2:0:0:
46,86,139002,1,0,0:0:0:0:
369,113,139121,5,2,2:3:0:0:
12,159,139240,1,0,0:0:0:0:
406,39,139359,6,0,P|447:68|438:154,1,121.19999630127,10|0,1:2|0:0,0:0:0:0:
430,367,139597,1,2,2:3:0:0:
369,113,139716,1,2,2:2:0:0:
510,292,139835,6,0,B|409:272|409:272|371:297|371:297|251:274,1,242.399992602539,2|2,1:2|2:3,0:0:0:0:
181,56,140192,2,0,B|210:94|245:111|245:111|175:287,1,242.399992602539,2|0,2:2|0:0,0:0:0:0:
140,372,140549,1,2,2:3:0:0:
140,372,140668,1,0,0:0:0:0:
0,216,140787,6,0,P|56:105|131:167,1,242.399992602539,2|2,1:2|2:3,0:0:0:0:
314,192,141145,2,0,B|215:208|215:208|183:245|183:245|64:265,1,242.399992602539,2|0,2:2|0:0,0:0:0:0:
375,66,141502,1,2,2:3:0:0:
226,329,141621,1,0,0:0:0:0:
19,131,141740,6,0,P|83:121|128:154,1,121.19999630127,2|0,1:2|0:0,0:0:0:0:
490,223,141978,2,0,P|440:255|382:243,1,121.19999630127,2|0,2:3|0:0,0:0:0:0:
19,131,142216,6,0,B|-3:74|-3:74|44:13,1,121.19999630127,10|0,1:2|0:0,0:0:0:0:
490,223,142454,2,0,B|512:281|512:281|468:342,1,121.19999630127,2|0,2:3|0:0,0:0:0:0:
51,213,142692,5,10,1:2:0:0:
418,149,142811,1,8,2:1:0:0:
55,217,142930,5,10,2:3:0:0:
422,153,143049,1,8,2:1:0:0:
59,221,143168,5,10,1:2:0:0:
426,157,143287,1,0,0:0:0:0:
63,225,143406,5,2,2:3:0:0:
430,161,143525,1,2,2:2:0:0:
219,383,143645,6,0,L|163:133,1,252.5,6|2,1:1|2:3,0:0:0:0:
288,185,144002,1,2,2:2:0:0:
111,321,144121,2,0,B|47:340|47:340|-7:299,1,126.25,10|0,1:2|0:0,0:0:0:0:
245,102,144359,2,0,B|308:82|308:82|371:130,1,126.25,2|0,2:3|0:0,0:0:0:0:
456,281,144597,6,0,B|483:184|483:184|454:138|454:138|487:7,1,252.5,2|2,1:2|2:3,0:0:0:0:
110,117,144954,1,2,2:2:0:0:
385,204,145073,1,10,1:2:0:0:
57,42,145192,5,0,0:0:0:0:
224,354,145311,1,2,2:3:0:0:
392,46,145430,1,0,0:0:0:0:
41,177,145549,6,0,P|85:212|153:200,1,126.25,2|0,1:2|0:0,0:0:0:0:
392,46,145787,1,2,2:3:0:0:
310,322,145907,6,0,B|289:213|289:213|278:199|278:199|251:75,1,252.5,2|0,2:2|0:0,0:0:0:0:
468,84,146264,2,0,P|425:131|364:126,1,126.25,2|0,2:3|0:0,0:0:0:0:
92,75,146502,5,2,1:2:0:0:
392,46,146621,1,0,0:0:0:0:
76,78,146740,5,2,2:3:0:0:
366,127,146859,1,0,0:0:0:0:
53,157,146978,5,10,1:2:0:0:
450,114,147097,1,0,0:0:0:0:
36,159,147216,5,2,2:3:0:0:
466,112,147335,1,2,2:2:0:0:
201,2,147454,6,0,B|167:24|167:24|187:103|187:103|192:106|192:106|214:205|214:205|194:223,1,252.5,2|2,1:2|2:3,0:0:0:0:
24,383,147811,2,0,B|-32:348|14:291|14:291|81:305|81:305|87:314|87:314|170:335,1,252.5,2|0,2:2|0:0,0:0:0:0:
106,142,148168,2,0,B|78:177|78:177|87:215,1,75.7500028896333,2|0,2:3|0:0,0:0:0:0:
415,283,148407,6,0,B|310:261|310:261|284:271|284:271|168:247,1,252.5,2|2,1:2|2:3,0:0:0:0:
44,79,148764,2,0,P|147:49|192:170,1,252.5,2|0,2:2|0:0,0:0:0:0:
24,383,149121,1,2,2:3:0:0:
106,142,149240,1,2,2:2:0:0:
221,376,149359,5,6,1:3:0:0:
23,161,149478,1,8,2:3:0:0:
315,75,149597,5,10,2:3:0:0:
125,346,149716,1,4,2:3:0:0:
225,8,149835,5,14,1:3:0:0:
318,351,149954,1,8,2:3:0:0:
49,82,150073,5,10,2:3:0:0:
437,16,150192,1,6,2:3:0:0:
221,370,150311,5,10,1:3:0:0:
122,10,150430,1,6,2:3:0:0:
502,282,150549,5,6,2:3:0:0:
20,314,150668,1,6,2:3:0:0:
499,202,150787,5,6,2:3:0:0:
17,233,150906,1,6,2:3:0:0:
498,125,151026,5,6,2:3:0:0:
15,156,151145,1,6,2:3:0:0:
499,42,151264,6,0,B|405:58|405:58|374:91|374:91|331:69|331:69|232:85,1,262.599987979127,6|2,1:1|2:3,0:0:0:0:
165,30,151621,1,2,2:2:0:0:
328,176,151740,2,0,B|372:230|372:230|330:315,1,131.299993989563,10|0,1:2|0:0,0:0:0:0:
43,342,151978,2,0,B|-4:292|-4:292|29:198,1,131.299993989563,2|0,2:3|0:0,0:0:0:0:
394,112,152216,6,0,B|478:217|478:217|411:372,1,262.599987979127,2|2,1:2|2:3,0:0:0:0:
509,104,152573,1,2,2:2:0:0:
349,287,152692,2,0,P|287:296|236:239,1,131.299993989563,10|0,1:2|0:0,0:0:0:0:
141,18,152930,1,2,2:3:0:0:
314,194,153049,1,0,0:0:0:0:
86,134,153168,6,0,B|151:123|151:123|158:127|158:127|232:114,1,131.299993989563,2|0,1:2|0:0,0:0:0:0:
332,100,153407,1,2,2:3:0:0:
3,293,153526,2,0,B|26:202|26:202|-7:162|-7:162|27:15,1,262.599987979127,2|0,2:2|0:0,0:0:0:0:
105,292,153883,2,0,P|167:305|217:265,1,131.299993989563,2|0,2:3|0:0,0:0:0:0:
381,31,154121,5,2,1:2:0:0:
148,222,154240,1,0,0:0:0:0:
475,151,154359,1,2,2:3:0:0:
117,30,154478,1,0,0:0:0:0:
277,355,154597,1,10,1:2:0:0:
395,13,154716,1,0,0:0:0:0:
65,220,154835,1,2,2:3:0:0:
466,281,154954,1,2,2:2:0:0:
231,32,155073,6,0,B|189:76|189:76|227:178|227:178|244:189|244:189|280:307,1,262.599987979127,6|2,1:2|2:3,0:0:0:0:
502,355,155430,2,0,P|501:286|341:318,1,262.599987979127,2|0,2:2|0:0,0:0:0:0:
293,382,155787,5,2,2:3:0:0:
216,120,155907,1,0,0:0:0:0:
17,301,156026,6,0,B|74:259|74:259|138:273|138:273|146:271|146:271|269:297,1,262.599987979127,2|2,1:2|2:3,0:0:0:0:
495,221,156383,2,0,B|381:202|381:202|343:221|343:221|211:196,1,262.599987979127,2|0,2:2|0:0,0:0:0:0:
66,80,156740,1,2,2:3:0:0:
139,271,156859,1,0,0:0:0:0:
255,10,156978,5,2,1:2:0:0:
147,286,157097,1,0,0:0:0:0:
160,46,157216,5,2,2:3:0:0:
263,343,157335,1,0,0:0:0:0:
348,40,157454,5,10,1:2:0:0:
174,368,157573,1,0,0:0:0:0:
438,81,157692,5,2,2:3:0:0:
63,320,157811,1,0,0:0:0:0:
466,231,157930,5,10,1:2:0:0:
54,156,158049,1,8,2:1:0:0:
480,233,158168,5,10,2:3:0:0:
40,153,158287,1,8,2:1:0:0:
489,152,158407,5,10,1:2:0:0:
26,232,158526,1,0,0:0:0:0:
503,149,158645,5,2,2:3:0:0:
11,234,158764,1,0,0:0:0:0:
374,52,158883,6,0,B|405:156|405:156|375:206|375:206|414:337,1,272.700001040268,6|2,1:1|2:3,0:0:0:0:
480,233,159240,1,2,2:2:0:0:
308,131,159359,2,0,P|239:117|186:166,1,136.350000520134,10|0,1:2|0:0,0:0:0:0:
57,323,159597,1,2,2:3:0:0:
264,210,159716,1,0,0:0:0:0:
68,113,159835,6,0,B|100:222|100:222|153:255|153:255|175:360,1,272.700001040268,2|2,1:2|2:3,0:0:0:0:
358,212,160192,1,2,2:2:0:0:
57,323,160311,5,10,1:2:0:0:
379,203,160430,1,0,0:0:0:0:
68,113,160549,1,2,2:3:0:0:
189,375,160668,1,0,0:0:0:0:
339,122,160787,6,0,P|415:112|456:174,1,136.350000520134,2|0,1:2|0:0,0:0:0:0:
379,350,161026,1,2,2:3:0:0:
243,173,161145,2,0,B|179:123|115:178|134:206|73:273|-2:209,1,272.700001040268,2|0,2:2|0:0,0:0:0:0:
224,360,161502,2,0,P|179:323|211:240,1,136.350000520134,2|0,2:3|0:0,0:0:0:0:
416,110,161740,5,2,1:2:0:0:
473,295,161859,1,0,0:0:0:0:
359,45,161978,5,2,2:3:0:0:
282,302,162097,1,0,0:0:0:0:
143,74,162216,5,10,1:2:0:0:
224,360,162335,1,0,0:0:0:0:
92,6,162454,5,2,2:3:0:0:
0,384,162573,1,2,2:2:0:0:
337,128,162692,6,0,B|315:101|278:96|278:96|281:103|281:103|249:98|205:123|219:147|204:169|161:175|161:175|162:180|162:180|121:177|89:138,1,272.700001040268,6|2,1:2|2:3,0:0:0:0:
0,14,163049,2,0,B|-3:53|16:85|16:85|12:96|12:96|32:135|31:178|31:178|40:188|40:188|39:233|65:277,1,272.700001040268,2|0,2:2|0:0,0:0:0:0:
177,363,163407,2,0,B|206:374|206:374|212:373|212:373|244:385|244:385|303:344,1,136.350000520134,2|0,2:3|0:0,0:0:0:0:
488,215,163645,6,0,B|478:258|424:260|424:260|382:246|382:246|371:252|321:228|321:228|276:216|253:253,1,272.700001040268,2|2,1:2|2:3,0:0:0:0:
43,54,164002,2,0,B|32:65|25:80|29:100|29:100|24:103|24:103|30:119|35:140|55:153|55:153|52:156|52:156|87:177|119:174|119:174|117:178|117:178|151:168|177:146|183:115,1,272.700001040268,2|0,2:2|0:0,0:0:0:0:
169,18,164359,1,2,2:3:0:0:
52,246,164478,1,2,2:2:0:0:
376,160,164597,5,2,1:2:0:0:
111,88,164716,1,0,0:0:0:0:
466,86,164835,1,2,2:3:0:0:
126,302,164954,1,0,0:0:0:0:
327,14,165073,1,10,1:2:0:0:
407,347,165192,1,0,0:0:0:0:
34,151,165311,1,2,2:3:0:0:
464,0,165430,1,0,0:0:0:0:
252,384,165549,1,10,1:2:0:0:
51,7,165668,1,8,2:1:0:0:
495,252,165787,5,10,2:3:0:0:
16,230,165907,1,8,2:3:0:0:
498,257,166026,5,10,2:2:0:0:
20,235,166145,1,0,0:0:0:0:
430,114,166264,5,10,2:3:0:0:
444,130,166323,1,8,2:3:0:0:
450,157,166383,1,8,2:3:0:0:
444,183,166442,1,8,2:3:0:0:
428,200,166502,6,0,B|379:181|341:209|341:209|313:195|313:195|266:222|223:186,1,202,14|2,1:3|2:3,0:0:0:0:
103,41,166859,1,10,2:2:0:0:
103,41,166978,2,0,B|120:93|120:93|118:97|118:97|136:151,1,101,2|2,1:2|2:2,0:0:0:0:
121,348,167216,2,0,B|138:295|138:295|136:291|136:291|155:232,1,101,10|2,2:3|2:2,0:0:0:0:
272,82,167454,6,0,B|285:54|326:42|360:56|360:56|361:51|361:51|360:56|360:56|396:71|413:109|398:154,1,202,2|2,1:2|2:3,0:0:0:0:
243,263,167811,1,10,2:2:0:0:
243,263,167930,2,0,P|230:204|192:150,1,101,2|2,1:2|2:2,0:0:0:0:
411,342,168168,2,0,P|425:283|455:223,1,101,10|2,2:3|2:2,0:0:0:0:
210,34,168407,5,2,1:2:0:0:
139,276,168526,1,10,2:3:0:0:
412,142,168645,5,2,2:3:0:0:
117,80,168764,1,10,2:2:0:0:
291,355,168883,5,2,1:2:0:0:
376,56,169002,1,2,2:2:0:0:
49,225,169121,5,10,2:3:0:0:
400,303,169240,1,2,2:2:0:0:
217,11,169359,5,2,1:2:0:0:
108,372,169478,1,10,2:3:0:0:
9,25,169597,5,2,2:3:0:0:
439,182,169716,1,10,2:2:0:0:
5,298,169835,1,2,1:2:0:0:
319,0,169954,1,2,2:2:0:0:
369,384,170073,1,10,2:3:0:0:
7,153,170192,1,2,2:2:0:0:
474,36,170311,5,6,1:2:0:0:
277,184,170668,5,10,2:2:0:0:
277,184,170787,2,0,B|244:172|207:191|219:213|188:235|130:202,1,131.299993989563,2|10,2:2|2:2,0:0:0:0:
69,95,171264,5,2,2:2:0:0:
69,95,171383,2,0,P|93:124|91:165,1,65.6499969947816,2|2,2:2|2:2,0:0:0:0:
40,232,171621,1,10,2:2:0:0:
40,232,171740,2,0,P|46:263|70:285,1,65.6499969947816,2|2,2:2|2:2,0:0:0:0:
304,249,171978,2,0,P|271:248|244:266,1,65.6499969947816,10|2,2:2|2:2,0:0:0:0:
188,384,172216,6,0,L|155:256,1,131.299993989563,2|2,2:2|2:2,0:0:0:0:
62,151,172573,2,0,B|116:185|116:185|197:161,1,131.299993989563,10|2,2:2|2:2,0:0:0:0:
272,45,172930,2,0,L|256:140,1,65.6499969947816,10|2,2:2|2:2,0:0:0:0:
336,306,173168,5,2,2:2:0:0:
403,358,173287,1,2,2:2:0:0:
477,314,173407,1,2,2:2:0:0:
463,229,173526,2,0,L|378:207,1,65.6499969947816,10|2,2:2|2:2,0:0:0:0:
283,188,173764,5,10,2:3:0:0:
265,196,173823,1,8,2:3:0:0:
252,212,173883,1,10,2:2:0:0:
244,229,173942,1,8,2:3:0:0:
241,248,174002,1,10,2:3:0:0:
243,267,174061,1,8,2:3:0:0:
252,284,174121,5,6,1:1:0:0:
